#TITLE:Heartless;
#SUBTITLE:For Those Who Have Heart Re-Issue;
#ARTIST:A Day To Remember;
#TITLETRANSLIT:;
#SUBTITLETRANSLIT:;
#ARTISTTRANSLIT:;
#GENRE:;
#CREDIT:;
#BANNER:heartless-banner.png;
#BACKGROUND:heartless-bg.png;
#LYRICSPATH:;
#CDTITLE:;
#MUSIC:Heartless.mp3;
#OFFSET:0.648;
#SAMPLESTART:25.770;
#SAMPLELENGTH:12.000;
#SELECTABLE:YES;
#BPMS:0.000=113.543,4.000=220.840,68.000=134.810,72.979=125.367,73.000=134.810,75.938=134.807,83.979=110.476,84.000=220.952,212.000=110.476,227.000=113.484;
#STOPS:229.000=0.040
;
#BGCHANGES:;
#KEYSOUNDS:;

//---------------dance-single - Blank----------------
#NOTES:
     dance-single:
     Blank:
     Beginner:
     1:
     0.103,0.173,0.076,0.000,0.000:
0000
0000
0000
0000
,
1000
0000
0000
0000
,
0000
0000
0000
0000
,
0010
0000
0000
0000
,
0000
0000
0000
0000
,
0100
0000
0000
0000
,
0000
0000
0000
0000
,
1000
0000
0000
0000
,
0000
0000
0000
0000
,
0001
0000
0000
0000
,
0000
0000
0000
0000
,
0100
0000
0000
0000
,
0000
0000
0000
0000
,
0010
0000
0000
0000
,
0010
0000
0000
0000
,
0010
0000
0000
0000
,
0000
0000
0000
0000
,
1001
0000
0000
0000
,
1001
0000
0000
0000
,
0110
0000
0000
0000
,
0110
0000
0000
0000
,
1000
0000
0000
0000
,
1000
0000
0000
0000
,
0001
0000
0000
0000
,
0000
0000
0000
0000
,
0100
0000
0000
0000
,
0010
0000
0000
0000
,
0100
0000
0000
0000
,
0010
0000
0000
0000
,
0001
0000
0000
0000
,
0001
0000
0000
0000
,
1000
0000
0000
0000
,
0000
0000
0000
0000
,
0100
0000
0000
0000
,
0000
0000
0000
0000
,
0010
0000
0000
0000
,
0100
0000
0000
0000
,
0110
0000
0000
0000
,
0000
0000
0000
0000
,
1000
0000
0000
0000
,
0000
0000
0000
0000
,
0001
0000
0000
0000
,
0000
0000
0000
0000
,
0100
0000
0000
0000
,
0000
0000
0000
0000
,
0010
0000
0000
0000
,
0000
0000
0000
0000
,
0001
0000
0000
0000
,
0000
0000
0000
0000
,
1000
0000
0000
0000
,
0000
0000
0000
0000
,
0010
0000
0000
0000
,
0000
0000
0000
0000
,
0110
0000
0000
0000
,
0000
0000
0000
0000
,
0000
0000
0000
0000
,
0000
0000
0000
1000
,
0000
0010
0000
0010
,
0000
0010
0000
0010
,
0000
0010
0000
0010
,
0000
0010
0000
0100
,
0000
0100
0000
0100
,
0000
0100
0000
0100
,
0000
0100
0000
0100
,
0000
0100
0000
1001
,
0000
0001
0000
0001
,
0000
0001
0000
0001
,
0000
0001
0000
0001
,
0000
0001
0000
1000
,
0000
1000
0000
1000
,
0000
1000
0000
1000
,
0000
1000
0000
1000
,
0000
0001
0000
1001
;

//---------------dance-single - Blank----------------
#NOTES:
     dance-single:
     Blank:
     Challenge:
     12:
     0.878,0.913,0.522,0.598,0.370:
0000
0000
0000
0000
,
0001
0010
1000
0001
0100
1000
0001
0010
,
1000
0000
0001
0000
0100
0000
1000
0000
0010
1000
0001
0010
0001
0100
0010
1000
,
0001
0100
0010
1000
0100
0010
0001
0100
,
0010
1000
0100
0010
0001
0100
2000
0000
,
3MM1
1000
0100
0001
1000
0010
0001
1000
,
0100
0000
0001
0000
1000
0000
0010
0000
0001
1000
0010
0100
0001
0010
0001
1000
,
0010
0100
0001
0010
0100
1000
0010
0100
,
0001
0010
0100
1000
0010
0100
2000
0000
,
3M1M
0100
0001
0010
1000
0001
0100
1000
,
0001
0000
0010
0000
1000
0000
0001
0000
0100
0001
1000
0001
1000
0010
0100
0001
,
1000
0010
0100
0001
0010
0100
1000
0010
,
0100
0001
0010
0100
1000
0010
0002
0000
,
MM13
1000
0001
0100
1000
0001
0010
1000
,
0001
0000
0100
0000
1000
0000
0010
0000
0100
0001
1000
0010
0100
0001
0010
0001
,
0100
0010
1000
0001
0010
0001
1000
0010
,
0110
0MM1
1100
MM10
,
0101
0000
2001
0000
0010
0000
0000
0000
3100
0000
0010
1000
0000
1000
0100
0010
,
0011
1010
0110
0000
1100
0000
0101
0000
,
0110
0000
0012
0000
1000
0000
0000
0000
0103
0000
1000
0100
0000
0100
1000
0001
,
0011
0110
1010
0000
1100
0000
0110
0000
,
1000
1000
0010
0100
0001
0010
0100
1000
,
0001
0001
0100
0010
1000
0001
0010
0100
,
0020
0000
1030
0000
0100
0001
1000
0020
,
0000
0130
0100
0001
1000
0001
0010
0100
,
2000
0000
0100
0020
3000
0100
0230
0000
,
0000
0010
0302
0000
0023
0000
0230
0000
,
2300
0000
0010
0002
3000
0000
0013
0000
,
1000
0001
1000
0001
0100
0000
0010
0000
1000
0000
0001
0000
0010
0000
0100
0000
,
1100
1000
0010
0100
0001
0010
0100
1000
,
0001
0001
0100
0010
1000
0001
0010
0100
,
2000
0000
3001
0000
0010
0100
1000
0002
,
0000
0013
0010
0001
1000
0010
0100
0001
,
0020
0000
1000
2000
0030
0100
3002
0000
,
0000
0100
0023
0000
0230
0000
2300
0000
,
3001
0010
0001
0000
1000
0000
0010
0000
1000
0000
1000
0000
0001
0000
0010
0000
,
0010
0000
0100
1000
0100
0010
0001
1000
0010
0000
0100
0000
0010
0000
1000
0000
,
0100
1000
0001
0100
1000
0001
0010
1000
,
0001
0000
0100
0000
1000
0000
0010
0000
1000
0100
0010
0001
1000
0001
0100
0010
,
1000
0010
0100
0001
0010
0100
1000
0010
,
0100
0001
0010
0100
1000
0010
0200
0000
,
13MM
0010
0001
1000
0100
0001
1000
0010
,
0001
0000
0100
0000
0010
0000
1000
0000
0001
0010
0100
0010
0001
1000
0010
0100
,
0001
0100
0010
1000
0100
0010
0001
0100
,
0010
0000
1000
0000
0010
0000
0100
0000
0001
0000
0100
0001
2000
0000
0000
0000
,
3M1M
0100
0001
1000
0001
0010
0001
0100
,
0010
0000
1000
0000
0100
0000
0010
0000
0100
1000
0001
0100
0010
1000
0001
0010
,
0001
0100
0010
1000
0001
0010
0100
0010
,
0001
0000
1000
0000
0010
0000
0100
0001
1000
0000
0010
0000
0200
0000
0000
0000
,
M31M
0001
1000
0100
1000
0001
0010
0100
,
0010
0000
0001
0000
1000
0000
0010
0000
0100
0001
1000
0100
1000
0001
0010
0100
,
0010
1000
0001
0010
0100
1000
0100
0010
,
1010
0000
M1M0
0000
0022
0000
0000
0033
,
1010
044M
M000
000M
M000
000M
M000
000M
,
M000
000M
M000
000M
M000
000M
M000
030M
,
1M00
0000
000M
4000
0M00
0000
000M
0000
0M00
0000
000M
0000
0M00
0000
000M
0000
,
3M00
000M
0M32
0000
0003
0000
0101
0110
,
0000
0000
0000
0000
1000
0000
0010
0100
0001
1000
0001
0010
0011
0000
2020
0000
,
0000
0000
0100
0M00
0000
3030
1100
0220
,
0000
0000
0030
0000
0301
0000
1000
0010
0100
0001
1000
0100
0110
0000
0022
0000
,
0000
0000
0100
0M00
0000
0033
0011
2200
,
0000
0000
0300
0000
3010
0000
0100
0001
1000
0001
0010
0100
0101
0000
0022
0000
,
0000
0000
1000
M000
0000
0033
1010
0022
,
0000
0000
0030
0000
0103
0000
1000
0010
0001
0010
1000
0001
0011
0000
2002
0000
,
3000
0000
0000
0103
0010
0100
0020
0000
0000
2000
0000
0000
0030
0000
0000
3000
0000
0000
1010
0000
0000
2002
0000
0000
,
0000
0000
0003
0000
3100
0000
0001
0010
1000
0010
0001
1000
1010
0000
0220
0000
,
0000
0000
0001
000M
0000
0330
0110
2002
,
0000
0000
3000
0000
0103
0000
0001
0100
1000
0100
0001
1000
0011
0000
2020
0000
,
0000
0030
3100
0010
0001
0000
1100
0022
,
0000
0000
0030
0000
1003
0000
0010
0100
1000
0100
0001
1000
1010
0000
0202
0000
,
0000
0000
1000
M000
0000
0303
1100
0202
,
0000
0000
0003
0000
0310
0000
0001
0010
1000
0001
1000
0010
0110
0000
2200
0000
,
0000
0000
0000
0000
0300
0000
0000
0000
3001
0000
0000
0000
1000
0001
1000
0001
1000
0000
0010
0000
0010
0000
0100
0000
1001
0000
0000
0000
2002
0000
0000
0000
,
0000
0000
0000
0000
,
3003
0000
0000
0000
;

//---------------dance-single - Blank----------------
#NOTES:
     dance-single:
     Blank:
     Hard:
     10:
     0.716,0.667,0.142,0.417,0.171:
0000
0000
0000
0000
,
1000
0010
1000
0001
0010
0001
1000
0010
,
1000
0001
0100
0001
1000
0100
0010
0001
,
1000
0010
1000
0001
0010
0001
1000
0100
,
1000
0001
0100
0010
1000
0001
0020
0000
,
1030
0010
1000
0001
0100
0001
1000
0100
,
1000
0001
0010
0001
1000
0010
0100
0001
,
1000
0100
1000
0010
0100
0001
1000
0001
,
0010
0000
0100
0000
1000
0000
0010
0100
0010
0000
1000
0000
0002
0000
0000
0000
,
1003
0010
1000
0001
0010
0001
1000
0100
,
1000
0010
0100
0010
1000
0100
0010
0001
,
1000
0100
1000
0001
0010
0001
0100
0010
,
0100
0001
0010
0100
1000
0001
0200
0000
,
0310
1000
0010
0100
0001
0100
0001
1000
,
0001
0010
0100
1000
0001
1000
0010
0100
,
0001
0100
0001
1000
0010
1000
0001
0010
,
0011
0100
1001
0000
,
0110
0000
0110
0000
1000
0000
0000
0000
1000
0000
1000
0010
0000
1000
0010
1000
,
0010
0100
0101
0000
1000
0000
0100
0000
,
0011
0000
0011
0000
0001
0000
0000
0000
1000
0000
0001
0010
0000
0001
0010
0001
,
0010
0001
1100
0000
0010
0000
0100
0000
,
2000
0000
3010
0100
0001
0010
0100
2000
,
0000
3100
1000
0100
1000
0001
0100
0010
,
1000
0000
0001
0000
0100
0010
0100
0010
,
0000
0010
1000
0001
1000
0001
0010
0001
,
0200
0000
0000
0320
0000
0000
2030
0000
,
0000
3002
0203
0320
,
2030
0000
0000
3002
0000
0000
0023
0000
,
0031
0010
0001
1000
0010
0100
0010
0000
,
1000
0000
0010
0100
0001
0010
0100
2000
,
0000
3100
1000
0001
0100
0010
1000
0001
,
0010
0000
0100
0000
0001
1000
0001
0010
,
0000
0010
0100
1000
0001
1000
0010
0100
,
0002
0000
0000
0023
0000
0000
2030
0000
,
0000
3002
0203
0320
,
1030
0010
1000
0010
0100
0000
0010
0000
,
1000
0000
0001
1000
0001
1000
0010
0000
,
0100
0010
1000
0010
0100
0010
1000
0010
,
0100
0001
0100
0001
0010
0001
0010
0100
,
1000
0001
1000
0010
1000
0001
0100
0010
,
1000
0001
0010
0001
0100
0010
2000
0000
,
3010
0100
0001
0100
0010
0100
0010
1000
,
0001
0010
0001
1000
0010
0100
0001
1000
,
0100
1000
0001
1000
0010
0100
0001
1000
,
0001
0010
0001
0100
0010
1000
0002
0000
,
0103
0010
1000
0010
0100
0001
0100
0010
,
1000
0001
0010
0001
1000
0100
0010
0001
,
1000
0100
1000
0001
0010
0001
1000
0100
,
1000
0010
0100
0001
1000
0010
0200
0000
,
0301
0100
0001
1000
0010
1000
0001
0010
,
0100
1000
0100
0010
0001
0010
0100
1000
,
0001
0100
0001
1000
0100
1000
0001
0010
,
0100
1010
0001
0110
,
1001
2002
0000
0000
0000
0000
0000
0000
,
0000
0000
0000
0000
,
0010
0000
0000
0010
0000
0000
0000
0000
0000
0000
0000
0000
0000
0000
0000
0000
,
0000
0000
0010
0000
3003
0000
0100
0020
,
0000
0000
0000
0000
1030
0000
0001
1000
0001
1000
0001
1000
0010
0000
0020
0000
,
0000
0000
0100
0000
0000
0030
0001
2000
,
0000
0000
0000
0000
3010
0000
0100
0001
0100
0001
1000
0001
0100
0000
2000
0000
,
0000
0000
0001
0000
0000
3000
1000
0020
,
0000
0000
0000
0000
0130
0000
0001
0010
0001
0010
0001
1000
0010
0000
0200
0000
,
0000
0000
0001
0000
0000
0300
0100
2000
,
0000
0000
0000
0000
3010
0000
1000
0001
1000
0001
0010
0001
0100
0000
0010
0000
,
0000
0000
0010
0100
0220
0000
0000
0000
0330
0000
0000
0000
0001
0000
0200
0000
,
0000
0000
0000
0000
0310
0000
1000
0100
1000
0100
0010
0100
1000
0000
0002
0000
,
0000
0000
0100
0000
0000
0003
0010
2000
,
0000
0000
0000
0000
3100
0000
1000
0100
1000
0001
0100
0001
0100
0000
0020
0000
,
0000
0000
1000
0000
0000
0030
0001
0200
,
0000
0000
0000
0000
0310
0000
1000
0001
1000
0001
1000
0001
0100
0000
0200
0000
,
0000
0000
0010
0000
0000
0000
0301
2000
,
0000
0000
0000
0000
3100
0000
0001
0010
0001
1000
0010
1000
0010
0000
0100
0000
,
0000
0000
0000
0000
0001
0000
1000
0010
1000
0010
0100
0001
1001
0000
2002
0000
,
0000
0000
0000
0000
,
3003
0000
0000
0000
;

//---------------dance-single - Blank----------------
#NOTES:
     dance-single:
     Blank:
     Medium:
     9:
     0.581,0.597,0.370,0.161,0.147:
0000
0000
0000
0000
,
1000
0001
0100
0001
,
1000
0010
1000
0010
1000
0010
1000
0000
,
0010
0100
0001
1000
,
0001
0010
0001
0010
0001
1000
0001
0000
,
0100
0010
0100
0001
,
0010
1000
0010
0001
,
0100
0010
1000
0001
,
0100
0010
0100
0010
1000
0010
0100
0000
,
0001
0010
0100
1000
,
0001
0100
0001
1000
0010
1000
0001
0010
,
0001
0100
0010
1000
,
0010
0100
0010
1000
0001
1000
0100
0000
,
0010
0100
1000
0100
,
0001
0010
1000
0010
,
0100
0001
0100
0010
,
1100
0000
0010
0000
0100
0001
1000
0000
,
0110
0000
0110
0000
0001
0000
0000
0000
1000
0000
0001
0000
1000
0001
1000
0001
,
1000
0010
0100
0000
0001
0000
1000
0000
,
0011
0000
0011
0000
0001
0000
0000
0000
1000
0000
0010
0000
0100
0010
0100
0010
,
0100
0001
1010
0000
0100
0010
0011
0000
,
1000
0000
0010
0100
0010
0100
0010
0200
,
0000
0000
0301
1000
0001
1000
0001
1000
,
0010
0000
0100
0000
0010
0000
0001
1000
,
0000
1000
0001
0000
0100
0000
0001
0000
,
1100
0000
0000
1001
0000
0000
0110
0000
,
0000
0001
0010
1000
,
0101
0000
0000
1100
0000
0000
0110
0000
,
0001
0100
0010
0100
0001
1000
0001
1000
,
0010
0000
0100
0010
0100
0010
0100
0020
,
0000
0000
1030
0001
1000
0001
0010
0001
,
0100
0000
1000
0000
0100
0000
0001
1000
,
0000
1000
0001
0000
0100
0000
0010
0000
,
1100
0000
0000
0101
0000
0000
1001
0000
,
0000
0010
0001
1000
,
0100
0010
0100
0010
0100
0001
0100
0010
,
0100
0000
1000
0100
1000
0100
1000
0000
,
0001
0010
1000
0100
,
1000
0001
1000
0001
1000
0001
0010
0000
,
0100
0001
1000
0010
,
0100
0001
1000
0001
0100
0010
1000
0000
,
0010
0100
0001
1000
,
0001
0010
0001
1000
0001
0100
0010
0100
,
0001
1000
0001
0010
,
0100
0000
1000
0000
0100
0010
0002
0000
,
1003
0010
1000
0010
1000
0010
1000
0010
,
0100
0001
0100
0001
0100
0001
0010
0000
,
1000
0001
1000
0001
1000
0001
1000
0001
,
0100
0010
0100
0010
0100
0001
1000
0000
,
0010
1001
0100
1001
,
0010
0000
0001
0000
0100
0001
0100
0000
,
0010
1000
0001
0100
,
0011
0100
1001
0010
,
0100
0200
0000
0000
0000
0000
0000
0000
,
0000
0000
0000
0000
,
0010
0000
0000
0020
0000
0000
0000
0000
0000
0000
0000
0000
0000
0000
0000
0000
,
0000
0000
0000
0000
0330
0000
1010
2010
,
0000
0000
0000
0000
0000
0000
3010
1000
0010
1000
0010
1000
0010
0000
0010
0000
,
0000
0000
0000
0000
0000
0000
0101
0102
,
0000
0000
0000
0000
0000
0000
0103
0001
0100
0001
0100
0001
0100
0000
0100
0000
,
0000
0000
0000
0000
0000
0000
0110
0120
,
0000
0000
0000
0000
0000
0000
0130
0010
0100
0010
0100
0010
0100
0000
0100
0000
,
0000
0000
0000
0000
0000
0000
1001
1002
,
0000
0000
0000
0000
0000
0000
1003
0001
1000
0001
1000
0001
1000
0000
1000
0000
,
0000
0000
0220
0000
0330
0000
1100
1002
,
0000
0000
0000
0000
0000
0000
0103
0010
1000
0010
0100
0010
0100
0000
0001
0000
,
0000
0000
0000
0000
0000
0000
0110
0201
,
0000
0000
0000
0000
0000
0000
0301
0100
0010
0100
0001
0100
0001
0000
1000
0000
,
0000
0000
0000
0000
0000
0000
0101
0012
,
0000
0000
0000
0000
0000
0000
0013
0001
1000
0010
1000
0010
0100
0000
0100
0000
,
0000
0000
0000
0000
0000
0000
1010
2100
,
0000
0000
0000
0000
0000
0000
3100
1000
0001
1000
0001
0100
0010
0000
0010
0000
,
0000
0000
0000
0000
0000
0000
1000
0001
1000
0001
1000
0000
0110
0000
2002
0000
,
0000
0000
0000
0000
,
3003
0000
0000
0000
;

//---------------dance-single - Blank----------------
#NOTES:
     dance-single:
     Blank:
     Easy:
     7:
     0.401,0.386,0.180,0.123,0.100:
0000
0000
0000
0000
,
1000
0001
0100
0010
,
1010
0000
0100
0001
,
1000
0001
0010
0100
,
1100
0000
0000
0000
0010
0001
0010
0000
,
1000
0010
0010
0001
,
1000
0010
0100
0001
,
1001
0000
0100
0010
,
1000
0000
0010
0000
0100
0010
0100
0000
,
0001
1000
0001
0010
,
0110
0000
1000
0010
,
0100
0001
1000
0001
,
0110
0000
0000
0000
0001
1000
0001
0000
,
0100
0010
0100
0010
,
1000
0000
0010
0100
,
0001
1000
0001
0010
,
0110
0000
1010
0000
,
0100
0000
0100
0000
0000
0000
0000
0000
0000
0000
0001
0000
1000
0001
1000
0001
,
1000
1000
0000
0000
0000
0000
0000
0000
,
0010
0000
0010
0000
0000
0000
0000
0000
0000
0000
0100
0000
0010
0100
0010
0100
,
0010
0010
0000
0000
0000
0000
1001
0000
,
0100
0100
0010
1000
,
0010
0010
0100
0001
,
2000
0000
0000
0000
3200
0000
0000
0320
,
0000
0031
1000
0001
,
0100
0000
0000
0010
0000
0000
1000
0000
,
0000
0001
0010
0100
,
1000
0000
0000
0001
0000
0000
0100
0000
,
0010
0000
1000
0000
0001
1000
0001
0000
,
0100
0100
0001
1000
,
0010
0010
1000
0100
,
0020
0000
0000
0000
0032
0000
0000
2003
,
0000
3010
0100
0001
,
1000
0000
0000
0001
0000
0000
0010
0000
,
0000
0001
0100
0010
,
0100
0000
0000
0001
0000
0000
1000
0000
,
0010
0000
0110
0000
,
1000
0100
1000
0001
,
0110
0000
0001
1000
,
0001
0010
0100
1000
,
1100
0000
0000
0000
1000
0001
1000
0000
,
0010
0100
0001
0100
,
0010
0010
1000
0001
,
0010
0100
1100
0000
,
1000
0000
0001
0000
0100
0010
0100
0000
,
0001
0010
0100
1000
,
1001
0000
1000
0010
,
0100
0001
1000
0001
,
0011
0000
0000
0000
0001
1000
0001
0000
,
1000
1000
0010
0010
,
0100
0100
0001
1000
,
0220
0000
0000
0330
,
0100
1000
2002
3000
,
0100
0200
0000
0000
0000
0000
0000
0000
,
0000
0000
0000
0000
0000
0000
0000
0010
,
0000
0000
0000
0010
0000
0000
0000
0010
,
0000
0000
0000
0000
0000
0010
0000
0000
0303
0000
0000
0000
0100
0000
0010
0000
,
0000
0000
0000
0000
0000
0000
0000
0000
1000
0001
1000
0001
1000
0000
0001
0000
,
0000
0000
0000
0000
0000
0000
0100
0100
,
0000
0000
0000
0000
0000
0000
0000
0000
0001
0010
0001
0010
0001
0000
0001
0000
,
0000
0000
0000
0000
0000
0000
1000
0010
,
0000
0000
0000
0000
0000
0000
0000
0000
1000
0100
1000
0100
1000
0000
1000
0000
,
0000
0000
0000
0000
0000
0000
0010
0100
,
0000
0000
0000
0000
0000
0000
0000
0000
0001
0010
0001
0010
0001
0000
0001
0000
,
0000
0000
0000
0000
0000
0000
1001
1001
,
0000
0000
0000
0000
0000
0000
0000
0000
0010
0100
0010
0100
0010
0000
0010
0000
,
0000
0000
0000
0000
0000
0000
0010
0100
,
0000
0000
0000
0000
0000
0000
0000
0000
0001
0010
0001
0010
0001
0000
0001
0000
,
0000
0000
0000
0000
0000
0000
0100
1000
,
0000
0000
0000
0000
0000
0000
0000
0000
0010
1000
0010
1000
0010
0000
0010
0000
,
0000
0000
0000
0000
0000
0000
0010
0001
,
0000
0000
0000
0000
0000
0000
0000
0000
1000
0010
1000
0010
1000
0000
1000
0000
,
0000
0000
0000
0010
0100
0010
0100
2002
,
0000
0000
0000
0000
,
3003
0000
0000
0000
;

//---------------dance-double - Blank----------------
#NOTES:
     dance-double:
     Blank:
     Easy:
     6:
     0.407,0.456,0.171,0.247,0.057:
00000000
00000000
00000000
00000000
,
01000000
00010000
10000000
00010000
,
00100000
00001000
00020000
00000000
,
00030010
00000100
00000001
00001000
,
00000001
00000010
00000002
00000000
,
00001003
00000010
00010000
00001000
,
01000000
00100000
20000000
00000000
,
30010000
00100000
00001000
00100000
,
00000010
00001000
00000200
00000000
,
00000301
00001000
00000010
00000100
,
00000010
00010000
00002000
00000000
,
00103000
00010000
10000000
00100000
,
01000000
00010000
20000000
00000000
,
30010000
00100000
00001000
00010000
,
00000010
00000100
00000002
00000000
,
00000013
00001000
00000010
00010000
,
00001000
01000000
01100000
00000000
,
10000000
00000000
00010000
00000000
00000000
00000000
00000000
00000000
00000000
00000000
01000000
00100000
00000000
01000000
00100000
00000000
,
01000000
00100000
00000000
00000000
00000000
00000000
00000000
00000000
,
00000100
00000000
00001000
00000000
00000000
00000000
00000000
00000000
00000000
00000000
00000001
00000100
00000000
00000001
00000100
00000000
,
00000001
00000100
00000000
00000000
00000000
00000000
00011000
00000000
,
01000000
01000000
00010000
10000000
,
00010000
00010000
00100000
00001000
,
00020000
00000000
00000000
00000000
00030020
00000000
00000000
00000230
,
00000000
00000301
00001000
00000001
,
00000100
00000000
00000000
00000010
00000000
00000000
00010000
00000000
,
00000000
00001000
01000000
00010000
,
10000000
00000000
00000000
00100000
00000000
00000000
01000000
00000000
,
00100000
01000000
00010000
01000000
,
00001000
00001000
00010000
00000010
,
00000100
00000100
00000001
00001000
,
00000020
00000000
00000000
00000000
00020030
00000000
00000000
00032000
,
00000000
01003000
00100000
01000000
,
00010000
00000000
00000000
10000000
00000000
00000000
00100000
00000000
,
00000000
00010000
00100000
00000010
,
00000100
00000000
00000000
00000001
00000000
00000000
00001000
00000000
,
00000000
00000010
00000100
00000010
,
00001000
00000001
00001000
00000010
,
00010000
00001000
00200000
00000000
,
00310000
01000000
10000000
00010000
,
00100000
00010000
02000000
00000000
,
03010000
00100000
00000010
00010000
,
00000010
00000100
00000020
00000000
,
00001030
00000001
00001000
00000010
,
00010000
00001000
00011000
00001000
,
01000000
00100000
10000000
00010000
,
00100000
00010000
00200000
00000000
,
00301000
00010000
00000010
00000100
,
00000001
00001000
00000002
00000000
,
00000013
00000010
00010000
00010000
,
00001000
01000000
00001000
00000000
,
01000000
00100000
10000000
00010000
,
10010000
01000000
20020000
30030000
,
00011000
00022000
00000000
00000000
00000000
00000000
00000000
00000000
,
00000000
00000000
00000000
00000000
,
00000000
00000000
00000000
00000000
,
00033000
00000000
00020020
00000000
00030030
00000000
00000010
00000100
,
00000000
00000000
00000000
00000000
00000000
00000000
00000100
00000000
00000010
00000000
00000100
00000010
00000100
00000000
00000001
00000000
,
00000000
00000000
00000000
00000000
00000000
00000000
00100000
01000000
,
00000000
00000000
00000000
00000000
00000000
00000000
10000000
00000000
00010000
00000000
10000000
00010000
10000000
00000000
00100000
00000000
,
00000000
00000000
00000000
00000000
00000000
00000000
00001000
00010000
,
00000000
00000000
00000000
00000000
00000000
00000000
00001000
00000000
00010000
00000000
00001000
00010000
00001000
00000000
00010000
00000000
,
00000000
00000000
00000000
00000000
00000000
00000000
00000010
00000100
,
00000000
00000000
00000000
00000000
00000000
00000000
00000100
00000000
00000001
00000000
00000100
00000001
00000100
00000000
00000001
00000000
,
00000000
00000000
00000000
00000000
00000000
00000000
00011000
00011000
,
00000000
00000000
00000000
00000000
00000000
00000000
00001000
00000000
00100000
00000000
00001000
00100000
00001000
00000000
00100000
00000000
,
00000000
00000000
00000000
00000000
00000000
00000000
01100000
01100000
,
00000000
00000000
00000000
00000000
00000000
00000000
01000000
00000000
00010000
00000000
01000000
00010000
01000000
00000000
00010000
00000000
,
00000000
00000000
00000000
00000000
00000000
00000000
00010010
00010010
,
00000000
00000000
00000000
00000000
00000000
00000000
00000010
00000000
00000100
00000000
00000010
00000100
00000010
00000000
00000100
00000000
,
00000000
00000000
00000000
00000000
00000000
00000000
00101000
00101000
,
00000000
00000000
00000000
00000000
00000000
00000000
00010000
00000000
01000000
00000000
00010000
01000000
00010000
00000000
01000000
00000000
,
00000000
00000000
01000000
00010000
00100000
00001000
00011000
00022000
,
00000000
00000000
00000000
00000000
,
00033000
00000000
00000000
00000000
;

//---------------dance-double - Blank----------------
#NOTES:
     dance-double:
     Blank:
     Medium:
     9:
     0.526,0.632,0.342,0.142,0.142:
00000000
00000000
00000000
00000000
,
01000000
00010000
10000000
00010000
,
00100000
00000000
00000010
00000000
00000100
00000001
00000100
00000001
,
00000100
00001000
00000010
00010000
,
00001000
00000000
01000000
00000000
00100000
01000000
20000000
00000000
,
30100000
01000000
00010000
00100000
,
00000010
00000000
00000100
00000000
00000001
00001000
00000001
00001000
,
00000001
00000010
00000100
00000001
,
00001000
00000000
00000100
00000000
00010000
00001000
02000000
00000000
,
03100000
10000000
00010000
10000000
,
00100000
00000000
01000000
00000000
00010000
00100000
00010000
00100000
,
00010000
00100000
00000010
00000100
,
00000001
00000000
00001000
00000000
00000001
00000010
00000200
00000000
,
00001300
00000010
00010000
00001000
,
00100000
00000000
00010000
00000000
01000000
00010000
01000000
00010000
,
01000000
00100000
10000000
00010000
,
00110000
10000000
10100000
00010000
,
01100000
00000000
01100000
00000000
01000000
00000000
00000000
00000000
00010000
00000000
10000000
00010000
00000000
00010000
01000000
00010000
,
01000000
00100000
10100000
00000000
01000000
00000000
00110000
00000000
,
00011000
00000000
00011000
00000000
00010000
00000000
00000000
00000000
00000010
00000000
00000100
00000001
00000000
00000001
00001000
00000001
,
00001000
00000010
00000110
00000000
00001000
00000000
00000011
00000000
,
00000100
00000000
00000100
00000000
00000001
00001000
00000001
00000000
,
00000010
00000000
00000010
00000000
00010000
00000100
00010000
00000000
,
00001000
00000000
01000000
00000000
00010000
00000000
01000000
00100000
,
00000000
00100000
01000000
00000000
00010000
00000000
10000000
00000000
,
00110000
00000000
00000000
00101000
00000000
00000000
00011000
00000000
,
00000000
00010000
00001000
00010000
,
00010010
00000000
00000000
00000110
00000000
00000000
00000101
00000000
,
00000001
00001000
00000010
00010000
,
00001000
00000000
00001000
00000000
01000000
00010000
01000000
00000000
,
00100000
00000000
00100000
00000000
10000000
00010000
10000000
00000000
,
00100000
00000000
01000000
00000000
00010000
00000000
00100000
00001000
,
00000000
00001000
00100000
00000000
00001000
00000000
00010000
00000000
,
00000110
00000000
00000000
00000101
00000000
00000000
00010010
00000000
,
00000000
00001000
01000000
00100000
,
10100000
00000000
00000000
10010000
00000000
00000000
00110000
00000000
,
01000000
10000000
01000000
10000000
00010000
01000000
00010000
01000000
,
00100000
01000000
00010000
00100000
,
00001000
00000000
00010000
00000000
00000010
00001000
00000010
00001000
,
00000010
00000100
00000001
00010000
,
00001000
00000000
00100000
00000000
00010000
01000000
00200000
00000000
,
10300000
00010000
01000000
00010000
,
00100000
00000000
00001000
00000000
00010000
00000100
00010000
00000100
,
00010000
00000100
00001000
00000010
,
00000100
00000000
00000001
00000000
00000010
00000001
00001000
00000010
,
00000100
00000001
00001000
00000100
,
00010000
00000000
00001000
00000000
01000000
00001000
01000000
00001000
,
01000000
00100000
10000000
00010000
,
00100000
00000000
01000000
00000000
10000000
01000000
00200000
00000000
,
00310000
01000000
00001000
00010000
,
00000010
00000000
00000100
00000000
00000001
00000100
00000001
00000100
,
00000001
00001000
00000100
00010000
,
00011000
00100000
00110000
00000010
,
00011000
00022000
00000000
00000000
00000000
00000000
00000000
00000000
,
00000000
00000000
00000000
00000000
,
00000000
00000000
00000000
00000000
,
00000000
00000000
00000000
00000000
00000000
00033000
01000000
00010000
,
00000000
00000000
00000000
00000000
00000000
00000000
01000000
00010000
10000000
00100000
01000000
00010000
10000000
00000000
02000000
00000000
,
00000000
00000000
00000000
00000000
00000000
03000000
00001000
00010000
,
00000000
00000000
00000000
00000000
00000000
00000000
00000010
00001000
00000001
00001000
00000010
00000100
00000001
00000000
00002000
00000000
,
00000000
00000000
00000000
00000000
00000000
00003000
00000010
00000100
,
00000000
00000000
00000000
00000000
00000000
00000000
00001000
00000100
00010000
00001000
00010000
00001000
00010000
00000000
00000200
00000000
,
00000000
00000000
00000000
00000000
00000000
00000300
00100000
10000000
,
00000000
00000000
00000000
00000000
00000000
00000000
01000000
00010000
10000000
00010000
00100000
00001000
00100000
00000000
00001000
00000000
,
00000000
00010000
00001000
00010000
00000000
00000000
00010100
00010100
,
00000000
00000000
00000000
00000000
00000000
00000000
00000010
00001000
00000001
00001000
00000001
00000010
00000001
00000000
00000200
00000000
,
00000000
00000000
00000000
00000000
00000000
00000300
01001000
01001000
,
00000000
00000000
00000000
00000000
00000000
00000000
00100000
00010000
10000000
00010000
10000000
00100000
01000000
00000000
00020000
00000000
,
00000000
00000000
00000000
00000000
00000000
00030000
00000110
00000110
,
00000000
00000000
00000000
00000000
00000000
00000000
00000010
00001000
00000001
00001000
00000001
00000010
00000001
00000000
00002000
00000000
,
00000000
00000000
00000000
00000000
00000000
00003000
00011000
00011000
,
00000000
00000000
00000000
00000000
00000000
00000000
00010000
01000000
00100000
01000000
00100000
01000000
00010000
00000000
10000000
00000000
,
00000000
00000000
10000000
00000000
00100000
00001000
00011000
00022000
,
00000000
00000000
00000000
00000000
,
00033000
00000000
00000000
00000000
;

//---------------dance-double - Blank----------------
#NOTES:
     dance-double:
     Blank:
     Hard:
     10:
     0.728,0.702,0.436,0.693,0.161:
00000000
00000000
00000000
00000000
,
01000000
00010000
10000000
00010000
01000000
00010000
10000000
00010000
,
00100000
00001000
00100000
00010000
00200000
00000000
00000000
00000000
,
00301000
00010000
00000010
00010000
00000010
00001000
00000010
00010000
,
00000010
00001000
00000010
00000100
00000001
00000100
00000020
00000000
,
00001030
00000100
00010000
00000100
00010000
00001000
01000000
00001000
,
01000000
00010000
01000000
00100000
20000000
00000000
00000000
00000000
,
30010000
00100000
00001000
00100000
00001000
00010000
00000010
00001000
,
00000010
00000100
00000001
00001000
00000001
00000100
00000020
00000000
,
00001030
00000010
00001000
00000001
00001000
00000010
00010000
00001000
,
00010000
00001000
01000000
00100000
20000000
00000000
00000000
00000000
,
30010000
01000000
00010000
00100000
00001000
00100000
00001000
00010000
,
00000010
00010000
00000010
00000100
00000001
00000100
00000020
00000000
,
00001030
00000001
00001000
00000010
00010000
00000010
00010000
00001000
,
00010000
00001000
01000000
00100000
20000000
00000000
00000000
00000000
,
30010000
00100000
00010000
00100000
00001000
00100000
00001000
01000000
,
02020000
03030000
00022000
00033000
,
00010010
00000000
00010010
00000000
00020000
00000000
00000000
00000000
00031000
00000000
00010000
00001000
00000000
00010000
00000010
00001000
,
00000010
00000110
00001000
00000000
00000001
00000000
00001000
00000000
,
00101000
00000000
00101000
00000000
00200000
00000000
00000000
00000000
00310000
00000000
10000000
00100000
00000000
00100000
10000000
00010000
,
10000000
00110000
00010000
00000000
01000000
00000000
00001000
00000000
,
00010000
00000000
00000010
00000100
00000001
00000100
00000010
00001000
,
00000000
00001000
00000010
00001000
00000001
00000010
00000100
00001000
,
00000100
00000000
00010000
00000000
00001000
00000000
00001000
01000000
,
00000000
01000000
00100000
00000000
00100000
10000000
00010000
10000000
,
00020000
00000000
00000000
00230000
00000000
00000000
00302000
00000000
,
00000000
00023000
00030020
00000230
,
00000302
00000000
00000000
00000023
00000000
00000000
00000230
00000000
,
00001300
00000001
00001000
00000000
00001000
00000000
00000010
00000000
00000100
00000000
00000010
00000000
00010000
00000000
00001000
00000000
,
01000000
00000000
00100000
10000000
00010000
10000000
00100000
01000000
,
00000000
01000000
00010000
01000000
00001000
00100000
00001000
00010000
,
00001000
00000000
00010000
00000000
00000010
00000000
00000100
00000010
,
00000000
00000010
00000100
00000000
00000001
00000100
00000001
00001000
,
00000020
00000000
00000000
00002030
00000000
00000000
00003200
00000000
,
00000000
00020300
00032000
02003000
,
03200000
00000000
00000000
20300000
00000000
00000000
31000000
10000000
,
00100000
01000000
00010000
00100000
00001000
00010000
00000010
00000000
,
00000100
00000001
00001000
00000001
00000100
00000010
00001000
00000010
,
00010000
00001000
00100000
00010000
02000000
00000000
00000000
00000000
,
03100000
10000000
00100000
10000000
00010000
10000000
00010000
00100000
,
00010000
00100000
00001000
00100000
00001000
01000000
00020000
00000000
,
00130000
00001000
00100000
00001000
00010000
00000010
00000100
00000010
,
00001000
00000010
00000100
00000001
00002000
00000000
00000000
00000000
,
00003010
00001000
00000010
00010000
00000010
00010000
00000100
00010000
,
00001000
01000000
00001000
01000000
00100000
10000000
00020000
00000000
,
00130000
00010000
00100000
00010000
01000000
00010000
00100000
00001000
,
00100000
00001000
00010000
00000010
00000200
00000000
00000000
00000000
,
00000301
00001000
00000001
00001000
00000010
00001000
00000010
00000100
,
00000010
00010000
00000100
00010000
00001000
01000000
00020000
00000000
,
10030000
00100000
10000000
00010000
10000000
00010000
00100000
00010000
,
00100000
00001000
00010000
00000010
00000200
00000000
00000000
00000000
,
00000301
00001000
00000001
00001000
00000010
00001000
00000001
00000010
,
00000011
00000000
00001100
00000000
,
00011000
00022000
00000000
00000000
00000000
00000000
00000000
00000000
,
00000000
00000000
00000000
00000000
,
00000000
00000000
00000000
00000000
,
00000000
00000000
00000000
00000000
00000000
00033000
01001000
02200000
,
00000000
00000000
00000000
00000000
03300000
00000000
01000000
00010000
10000000
00010000
01000000
00010000
01010000
00000000
02002000
00000000
,
00000000
00000000
00000000
00000000
00000000
03003000
00011000
00020020
,
00000000
00000000
00000000
00000000
00030030
00000000
00000001
00001000
00000010
00001000
00000010
00000100
00000101
00000000
00002002
00000000
,
00000000
00000000
00000000
00000000
00000000
00003003
01100000
02020000
,
00000000
00000000
00000000
00000000
03030000
00000000
00010000
00100000
00001000
00100000
00001000
00010000
00010010
00000000
00000220
00000000
,
00000000
00000000
00000000
00000000
00000000
00000330
01001000
00022000
,
00000000
00000000
00000000
00000000
00033000
00000000
00010000
00001000
00010000
00000010
00010000
00000010
00000110
00000000
00000202
00000000
,
00000000
00000000
00000000
00000000
00000000
00000303
00001010
00020020
,
00000000
00000000
00000000
00000000
00030030
00000000
00100000
01000000
00100000
01000000
00010000
01000000
01010000
00000000
00220000
00000000
,
00000000
00000000
00000000
00000000
00000000
00330000
00011000
00022000
,
00000000
00000000
00000000
00000000
00033000
00000000
00000010
00010000
00000010
00010000
00000010
00001000
00001100
00000000
00002002
00000000
,
00000000
00000000
00000000
00000000
00000000
00003003
00010100
00022000
,
00000000
00000000
00000000
00000000
00033000
00000000
00001000
00010000
00001000
01000000
00001000
01000000
01010000
00000000
02200000
00000000
,
00000000
00000000
00000000
00000000
00000000
03300000
11000000
20020000
,
00000000
00000000
00000000
00000000
30030000
00000000
00010000
01000000
00100000
01000000
00010000
10000000
10010000
00000000
00220000
00000000
,
00000000
00000000
00330000
00000000
10000000
00000000
00100000
10000000
00010000
00100000
00001000
00010000
00011000
00000000
00022000
00000000
,
00000000
00000000
00000000
00000000
,
00033000
00000000
00000000
00000000
;

//---------------dance-double - Blank----------------
#NOTES:
     dance-double:
     Blank:
     Challenge:
     12:
     0.866,0.807,0.493,0.626,0.370:
00000000
00000000
00000000
00000000
,
10000000
00010000
01000000
00010000
01000000
00001000
00100000
00001000
,
00010000
00000000
00000010
00000000
00010000
00000000
00000010
00000000
00001000
00000010
00000100
00000001
00001000
00000010
00000100
00000001
,
00001000
00000100
00001000
00000100
00010000
00000100
00010000
00001000
,
01000000
00010000
01000000
00010000
10000000
01000000
00200000
00000000
,
00310000
10000000
00100000
10000000
00010000
00100000
00001000
00100000
,
00001000
00000000
00010000
00000000
00000010
00000000
00000100
00000000
00000001
00001000
00000010
00000100
00000001
00001000
00000010
00000100
,
00000001
00001000
00000100
00010000
00000100
01000000
00010000
01000000
,
00100000
10000000
00010000
00100000
01000000
10000000
00020000
00000000
,
00130000
00001000
00010000
00000010
00000100
00000001
00000100
00000010
,
00001000
00000000
00000010
00000000
00010000
00000000
00001000
00000000
01000000
00010000
10000000
00100000
01000000
00010000
10000000
00100000
,
01000000
00010000
10000000
00010000
00100000
00001000
00010000
00000010
,
00000100
00000001
00001000
00000001
00000010
00000100
00002000
00000000
,
00003010
00000100
00000001
00010000
00000100
00010000
00001000
01000000
,
00010000
00000000
10000000
00000000
00100000
00000000
10000000
00000000
00010000
00100000
01000000
10000000
00010000
00100000
01000000
10000000
,
00010000
01000000
00100000
10000000
00010000
00100000
00001000
00010000
,
00010010
00000100
01001000
00100000
,
00101000
00000000
00022000
00000000
00000010
00000000
00030000
00000000
00103000
00000000
00001000
00010000
00000000
00001000
00010000
00000010
,
00000110
00000202
00001000
00000000
00000010
00000000
00010000
00000303
,
00011000
00000000
02002000
00000000
10000000
00000000
00003000
00000000
03010000
00000000
10000000
00010000
00000000
01000000
00100000
01000000
,
01010000
00220000
00001000
00000000
10000000
00000000
00331000
00000000
,
00100000
00100000
10000000
00010000
10000000
01000000
00100000
00010000
,
01000000
01000000
00010000
00100000
00000010
00000100
00000010
00001000
,
00001100
00000000
00000001
00000000
00001010
00000000
00000001
00000010
,
00000000
00001000
00000010
00000000
00000100
00000001
00001000
00000010
,
00020000
00000000
00000100
00032000
00000000
00010000
02003000
00000000
,
00000000
00100000
03200000
00000000
20300000
00000000
30020000
00000000
,
00230000
00000000
00001000
00300020
00000000
00000100
00002030
00000000
,
00003010
00000100
00000010
00000100
00000010
00000000
00001000
00000000
00000001
00000000
00001000
00000000
00000100
00000000
00010000
00000000
,
00001000
00001000
01000000
00100000
10000000
01000000
00100000
00010000
,
10000000
10000000
00100000
01000000
00010000
00100000
00001000
00010000
,
00011000
00000000
00000010
00000000
00000101
00000000
00000010
00001000
,
00000000
00000010
00000001
00000000
00000100
00000010
00001000
00000100
,
00020000
00000000
00000100
00032000
00000000
00010000
02003000
00000000
,
00000000
00100000
03200000
00000000
20300000
00000000
30020000
00000000
,
00130000
00010000
00100000
00000000
00010000
00000000
10000000
00000000
00100000
00000000
01000000
00010000
01000000
00010000
01000000
00000000
,
00010000
00000000
00100000
00010000
00100000
00010000
10000000
00010000
10000000
00000000
00100000
00000000
01000000
00000000
00010000
00000000
,
00100000
01000000
10000000
00010000
01000000
00010000
00100000
00001000
,
00010000
00000000
00000010
00000000
00000100
00000000
00000001
00000000
00001000
00000010
00000100
00000001
00001000
00000010
00000100
00000001
,
00001000
00000100
00010000
00001000
01000000
00100000
10000000
00010000
,
00100000
00010000
00100000
01000000
10000000
00010000
02000000
00000000
,
03100000
10000000
00010000
00100000
00001000
00010000
00000010
00001000
,
00000010
00000000
00000100
00000000
00000001
00000000
00001000
00000000
00000001
00000010
00000100
00001000
00000001
00000010
00000100
00001000
,
00000001
00001000
00000010
00010000
00001000
00010000
00001000
01000000
,
00100000
10000000
00010000
00100000
00010000
00100000
00002000
00000000
,
00013000
00000010
00000100
00000001
00001000
00000001
00000010
00000100
,
00001000
00000000
00000100
00000000
00010000
00000000
00001000
00000000
01000000
00010000
10000000
00100000
01000000
00010000
10000000
00100000
,
01000000
00010000
10000000
00010000
00100000
00001000
00100000
00001000
,
00010000
00000010
00000100
00000001
00001000
00000100
00000020
00000000
,
00000130
00001000
00000001
00001000
00000100
00010000
00000100
00010000
,
00001000
00000000
01000000
00000000
00100000
00000000
10000000
00000000
00010000
00100000
01000000
10000000
00010000
00100000
01000000
10000000
,
00010000
10000000
00100000
01000000
00010000
10000000
00100000
01000000
,
01010000
00100000
00011000
00000010
,
M0011000
00022000
0M000000
00000000
00M00000
00000000
00000M00
00000000
,
000000M0
0000000M
M0000000
0M000000
,
00M00010
00000000
00000000
00000000
00000M00
00000000
00000010
00000000
000000M0
00000000
00000000
00000000
0000000M
00000010
00000000
00000000
,
M0000000
00000000
0M000010
00000000
00M00000
00033000
01001000
02200000
,
00000000
00000000
00000000
00000000
03000000
00000000
10300000
00100000
01000000
00010000
00100000
00010000
10010000
00000000
00202000
00000000
,
00000000
00000000
00010000
000M0000
00000000
00303000
00000110
00020020
,
00000000
00000000
00000000
00000000
00030000
00000000
00001030
00000100
00000001
00000100
00001000
00000010
00001010
00000000
00022000
00000000
,
00000000
00000000
00000001
0000000M
00000000
00033000
00110000
20200000
,
00000000
00000000
00000000
00000000
00300000
00000000
30100000
00010000
00100000
00001000
00010000
00000010
00000110
00000000
00002002
00000000
,
00000000
00000000
00010000
000M0000
00000000
00003003
00001100
00022000
,
00000000
00000000
00000000
00000000
00030000
00000000
00103000
00010000
01000000
00010000
10000000
01000000
01010000
00000000
22000000
00000000
,
33000000
00000000
00000000
00100000
10000000
00100000
10000000
00000000
00000000
00010000
00000000
00000000
00000000
00000000
00000000
00000000
00000000
00000000
00011000
00000000
00000000
00002020
00000000
00000000
,
00000000
00000000
00000000
00000000
00000030
00000000
00003001
00000100
00000010
00001000
00000001
00000010
00000110
00000000
00002200
00000000
,
00000000
00000000
00000010
000000M0
00000000
00003300
00010100
02000200
,
00000000
00000000
00000000
00000000
00000300
00000000
03100000
10000000
00100000
00010000
00100000
10000000
10010000
00000000
00202000
00000000
,
00000000
00000000
00000000
00000000
01000000
00000000
1M000000
00000000
00020000
00030000
00303000
00000000
00001100
00000000
00000202
00000000
,
00000000
00000000
00000000
00000000
00000003
00000000
00000301
00000010
00000100
00001000
00000010
00000100
00000101
00000000
00020200
00000000
,
00000000
00000000
00000010
000000M0
00000000
00030300
00011000
02020000
,
00000000
00000000
00000000
00000000
00030000
00000000
03010000
00100000
01000000
10000000
00010000
01000000
01100000
00000000
00202000
00000000
,
00000000
00000000
00000000
00000000
00300000
00000000
00000000
00000000
00013000
00000000
00000000
00000000
00001000
00010000
00001000
00010000
00001000
00000000
00010000
00000000
00010000
00000000
00000100
00000000
00001100
00000000
00000000
00000000
00022000
00000000
00000000
00000000
,
00000000
00000000
00000000
00000000
,
00033000
00000000
00000000
00000000
;
