#TITLE:Everlong;
#SUBTITLE:;
#ARTIST:Foo Fighters;
#TITLETRANSLIT:;
#SUBTITLETRANSLIT:;
#ARTISTTRANSLIT:;
#GENRE:;
#CREDIT:;
#BANNER:;
#BACKGROUND:;
#LYRICSPATH:;
#CDTITLE:;
#MUSIC:Everlong.mp3;
#OFFSET:-0.264;
#SAMPLESTART:118.001;
#SAMPLELENGTH:12.000;
#SELECTABLE:YES;
#BPMS:0.000=158.000,38.979=159.000,40.979=158.000,88.979=156.000,89.979=157.000,90.979=158.000,137.958=159.000,139.979=158.000,140.979=157.000,144.979=158.000,155.979=160.000,156.979=158.000,160.000=160.000,168.000=156.000,171.000=158.000,187.979=159.000,199.979=156.000,210.000=158.000,274.979=159.000,282.979=157.000,291.979=158.000,296.979=160.000,300.000=161.000,302.958=157.000,306.000=158.000,308.000=157.000,319.000=159.000,322.979=158.000,328.979=157.000,337.979=158.000,356.000=159.000,363.000=158.000,369.000=156.000,371.000=147.000;
#STOPS:;
#BGCHANGES:;
#KEYSOUNDS:;

//---------------dance-single - Blank----------------
#NOTES:
     dance-single:
     Blank:
     Challenge:
     10:
     0.788,0.853,0.331,0.421,0.252:
0000
0000
0000
0000
,
0000
0000
0000
0000
,
0000
0000
0000
0000
,
0000
0000
0000
0000
,
1000
0012
0003
0012
,
1003
0012
0003
0012
,
0003
0000
0000
0000
0012
0000
0000
0000
0003
0000
1000
0000
0001
0000
0100
0010
,
0100
0100
0010
0100
0001
0001
0100
0010
,
1000
1000
0001
1000
0100
0001
0100
1000
,
0010
0100
0001
0100
0001
0001
1000
0010
,
1000
1000
0001
1000
0001
0010
1000
0010
,
0001
0100
0110
0000
1000
0100
0110
0001
,
0000
1000
0001
1000
0010
0100
0001
1000
,
0100
0000
1000
0000
0001
0000
0100
0000
0010
0000
0100
0000
0001
0000
1000
0001
,
1000
1000
0010
1000
0001
0001
0100
0010
,
1000
1000
0010
1000
0010
0001
0010
1000
,
0001
0010
0001
0100
0001
0001
1000
0001
,
1000
1000
0010
0100
0001
0010
0100
1000
,
0010
0100
0101
0000
0010
0100
1100
1000
,
0000
0010
0100
0000
0001
1000
0001
0010
,
0100
1000
0010
0100
0001
0010
0100
1000
,
2002
3003
2002
3003
1000
0001
1000
0001
,
0202
0303
0202
0303
0100
0010
1000
0000
,
0022
0033
0022
0033
0001
1000
0010
0000
,
2200
3300
2200
3300
1000
0001
1000
0000
,
2002
3003
2002
3003
0202
0303
0201
0000
,
0310
1000
0001
1000
,
0100
0000
0000
0000
0010
0000
0000
0000
0001
0000
1000
0000
0001
0000
0100
0001
,
1000
1000
0001
1000
0010
0010
1000
0001
,
0100
0100
0010
1000
0001
0010
1000
0010
,
0001
0100
0010
1000
0001
0001
1000
0100
,
0100
1000
0010
1000
0100
0001
0100
1000
,
0010
0100
0101
0001
0000
1000
1001
0001
,
0010
0100
1100
1000
0000
0010
0100
0001
,
0010
0000
0001
0000
1000
0000
0100
0000
0010
0000
0100
0000
1000
0000
0010
0100
,
0001
1000
0010
1000
0100
0100
0010
0100
,
0100
1000
0001
0100
1000
0100
0001
1000
,
0001
0010
0001
1000
0010
0010
1000
0010
,
0010
0100
0001
1000
0100
0001
0100
1000
,
0010
1000
1100
0000
0010
0001
0101
0100
,
0010
1000
1001
0000
0001
0010
0100
1000
,
0010
0000
0100
0000
0001
0000
0100
0000
0010
0000
1000
0001
1000
0001
1000
0001
,
1001
1000
0010
0110
0010
1000
1100
0100
,
0010
0011
0001
1000
0010
0001
0010
2000
,
0000
3010
0100
0001
1000
0001
0010
0100
,
1100
0000
1000
0010
0100
0001
1000
0000
0001
0010
0100
1000
0001
0000
0100
0010
,
1000
0010
0100
0000
0010
1000
0001
1000
0100
0010
0001
0100
0010
0100
0002
0000
,
0000
1003
0001
0010
0001
0100
0010
1000
,
1001
1000
0010
0110
0100
0001
0011
0010
,
0100
1100
1000
0001
0100
0100
0100
0200
,
0000
0310
1000
0001
0010
0001
0100
0020
,
0000
1030
0001
1000
0100
0010
0001
0200
,
0000
0000
0310
0000
1000
0000
0001
0000
1000
0000
0100
0010
0100
0000
1000
0000
,
0010
0100
0010
0000
1000
0000
0100
0010
0100
0010
0001
1000
0010
0100
0020
0000
,
0000
1030
0001
0010
0100
1000
0010
0200
,
0000
0310
1000
0001
1000
0100
0010
0002
,
0000
0000
0103
0000
0010
0000
1000
0000
0010
0000
0100
0001
0100
0000
0010
0000
,
1000
0100
1000
0000
0010
0000
0100
0001
0010
0100
1000
0010
0100
0010
0200
0000
,
0000
0310
1000
0001
1000
0100
0010
0002
,
0000
1003
0001
1000
0010
0100
0001
2000
,
0000
3100
0001
0100
1000
0010
0100
0002
,
0000
0000
0013
0000
0100
0000
1000
0000
0001
0000
1000
0000
0010
0000
0100
0001
,
1000
0100
0010
0001
0010
0100
2000
0000
,
3010
0100
0001
1000
0001
0010
0200
0000
,
0300
0000
0000
0000
,
0000
0000
0000
0000
,
1000
1000
1000
1000
,
1000
0000
1000
0000
1000
0001
0100
0000
,
0010
0000
0100
0001
1000
0000
0001
1000
0001
0000
1000
0100
1000
0000
0100
0010
,
0001
0000
1000
0001
1000
0000
0010
0100
0001
0000
1000
0010
0100
0001
1000
0001
,
0010
0001
0010
0100
1000
0010
0100
0001
0100
0010
2000
0000
0000
0000
3000
0000
,
0011
0001
1000
1010
0010
0100
0101
0001
,
1000
0000
1100
0000
0010
0000
0001
0000
1001
0000
0100
0000
1000
0001
0100
0000
,
0101
0001
1000
1100
0100
0010
0011
0001
,
1000
1010
0010
0100
0010
0100
0001
1000
,
0001
0010
0100
0010
0100
1000
0010
0100
0010
0100
0001
0100
0010
0100
0010
1000
,
0010
0100
0001
0010
0100
1000
0010
1000
0010
0100
0001
1000
0001
0000
0020
0000
,
0000
0130
1000
0001
0100
0010
1000
0020
,
0000
0130
0001
1000
0100
0010
0001
2000
,
0000
0000
3010
0000
0100
0000
0001
0000
1000
0000
0001
0010
0001
0000
1000
0000
,
0001
0100
0001
0000
1000
0000
0010
0100
0001
1000
0100
0010
0001
1000
0020
0000
,
0000
0130
0001
1000
0001
0010
0100
2000
,
0000
3001
1000
0100
1000
0010
0100
0002
,
0000
0000
1003
0000
0001
0000
0010
0000
0100
0000
1000
0001
1000
0000
0010
0000
,
0100
0001
0100
0000
0010
0000
1000
0100
0010
0001
0010
0100
1000
0010
0200
0000
,
0000
0310
1000
0001
1000
0001
0010
0200
,
0000
1300
0010
0100
0001
1000
0001
0020
,
0000
0130
1000
0010
0100
0001
1000
0002
,
0000
0000
0013
0000
0100
0000
1000
0000
0010
0000
0100
0000
0001
0000
1000
0010
,
0100
0001
1000
0001
0100
0010
2020
3030
,
0001
0010
0100
1000
0010
0100
0202
0303
,
0010
1000
0001
1000
0010
0100
0220
0330
,
1000
0100
0010
0001
0100
0010
1000
0002
,
0200
0000
0000
0000
,
0000
0000
0000
0000
,
0303
0000
0000
0000
;

//---------------dance-single - Blank----------------
#NOTES:
     dance-single:
     Blank:
     Hard:
     8:
     0.522,0.525,0.325,0.110,0.003:
0000
0000
0000
0000
,
0000
0000
0000
0000
,
0000
0000
0000
0000
,
0000
0000
0000
0000
,
0000
2000
0000
0010
,
0000
0001
0000
0001
,
0000
0000
0000
0000
3001
0000
0000
0000
0000
0000
0100
0000
0010
0000
0100
0001
,
0100
0000
0010
1000
0001
1000
0000
0010
,
1000
0000
0001
1000
0100
0010
0001
0100
,
0010
0000
1000
0010
0100
0001
0000
1000
,
0000
0001
0010
0001
1000
0010
0100
0010
,
0100
0011
0100
1010
,
0100
1001
0100
0011
,
1000
0000
1001
0000
0010
1000
0010
0000
,
0100
0000
0001
1000
0100
1000
0000
0010
,
0100
0000
0001
1000
0001
0010
0001
0000
,
0100
0000
0010
1000
0100
0010
0000
0001
,
0000
1000
0010
0000
0100
0001
1000
0010
,
0200
0301
0200
1300
,
0200
0000
0301
0000
1000
0001
1000
0001
,
0000
0100
0000
0020
0000
0030
0000
0000
,
1000
0000
1000
0000
0010
0100
0010
0100
,
0001
0000
0001
0000
1000
0010
0100
0000
,
0001
0000
1000
0000
0001
0010
0001
0000
,
0100
0000
0010
0000
1000
0001
1000
0000
,
0010
0010
0100
0200
,
0301
0000
1000
0000
0001
0010
0001
0000
,
0100
0000
0010
0000
1000
0001
1000
0000
,
0010
0000
0100
0001
1000
0001
0000
0010
,
0001
0000
0100
0010
1000
0001
1000
0000
,
0001
0000
0010
0100
1000
0010
0000
0100
,
0000
0001
1000
0010
1000
0001
0010
0000
,
0100
1100
0010
0101
,
1000
0011
0100
1001
,
0010
0000
0110
0000
0001
1000
0001
0000
,
0100
0000
0010
1000
0001
1000
0000
0100
,
0010
0000
0001
0100
0010
1000
0010
0000
,
0100
0000
0001
1000
0010
1000
0000
0001
,
0000
0100
0010
1000
0001
0010
0001
0000
,
0020
1030
0020
0031
,
0020
1030
0010
0001
,
0100
0010
1000
0001
,
1010
0000
0000
0011
0000
0000
1001
0000
,
0000
0110
0000
0000
1000
0001
1000
0010
,
0200
0000
1000
0000
0301
0010
0100
1000
,
1100
0000
0000
0011
0000
0000
1010
0000
,
0000
1001
0000
0000
1000
0001
0010
0100
,
0020
0000
1000
0000
0031
0100
0010
0100
,
0101
0000
0000
0110
0000
0000
1001
0000
,
0000
1100
0000
0000
0010
0010
0010
0011
,
0000
0000
0001
0100
0010
1000
0000
1001
,
0000
0000
0010
1000
0100
0010
0000
0011
,
0000
0000
0100
0000
0101
0000
0000
1100
,
0000
0000
0101
0000
0001
0001
0001
1000
,
0000
0000
1000
0100
0010
0001
0000
1001
,
0000
0000
0010
0100
0001
0100
0000
0110
,
0000
0000
0010
0000
0011
0000
0000
1010
,
0000
0000
0011
0000
1000
1000
1000
0010
,
0000
0000
0001
0100
0010
1000
0000
1001
,
0000
0000
1000
0100
0010
0001
0000
0101
,
0000
0000
0100
0010
1000
0001
0010
0100
,
1000
0000
0010
0100
0001
0100
0010
0000
,
1000
1000
0001
0001
1000
1000
0010
0000
,
00M1
0001
1000
1000
0001
0001
0010
0000
,
00M0
0000
0000
0000
,
0000
0000
0000
0000
,
1000
1000
1000
1000
,
1000
0000
1000
0000
1000
0010
0100
0000
,
0001
0010
0001
0010
0100
1000
0100
1000
,
0010
0100
0001
0010
1000
0010
0100
1000
,
0010
0100
0001
1000
0010
0100
0001
0000
,
1000
0010
0001
1000
0100
0001
1000
0010
,
0001
1000
0100
0001
1000
0010
1000
0000
,
0001
0010
1000
0001
0100
1000
0001
0010
,
1000
0001
0100
1000
0001
0010
0001
0000
,
1000
0010
0100
0001
0010
0100
1000
0010
,
0100
0001
0100
0010
1000
1000
1000
0010
,
0000
0000
0100
0001
0010
0100
0000
1100
,
0000
0000
1000
0010
0100
0001
0000
1001
,
0000
0000
0100
0000
1100
0000
0000
0011
,
0000
0000
1010
0000
0100
0001
0010
0100
,
0000
0000
0100
1000
0010
0100
0000
0101
,
0000
0000
0001
1000
0010
0100
0000
0101
,
0000
0000
0010
0000
1010
0000
0000
1100
,
0000
0000
0101
0000
0100
0001
1000
0010
,
0000
0000
0100
0001
0010
0100
0000
1100
,
0000
0000
1000
0010
0100
0001
0000
1001
,
0000
0000
1000
0100
0010
0001
0100
0010
,
0100
0000
0001
0010
0100
1000
0010
0000
,
1000
0100
0001
0100
1000
0100
0002
0003
,
1000
0010
0001
0010
1000
0010
0002
0003
,
0001
0100
1000
0100
0001
0100
2000
3000
,
0001
0010
1000
0010
0001
0010
1000
0002
,
0200
0000
0000
0000
,
0000
0000
0000
0000
,
0303
0000
0000
0000
;

//---------------dance-single - Blank----------------
#NOTES:
     dance-single:
     Blank:
     Medium:
     5:
     0.310,0.295,0.193,0.090,0.000:
0000
0000
0000
0000
,
0000
0000
0000
0000
,
0000
0000
0000
0000
,
0000
0000
0000
0000
,
0000
0010
0000
0010
,
0000
0100
0000
0100
,
0000
0010
0000
0010
,
1000
0000
0010
0000
0010
0000
0000
0100
,
0000
0001
1000
0010
,
0100
0000
0001
0000
0001
0000
0000
0010
,
0000
0100
1000
0010
,
0100
0101
0100
0000
,
0010
1010
0010
0000
,
0100
0001
1000
0100
,
0010
0000
0100
0000
1000
0000
0000
0010
,
0000
0100
0001
1000
,
0001
0000
0010
0000
0100
0000
0000
1000
,
0000
0100
0010
0001
,
1000
1010
1000
0000
,
0001
0011
0001
0100
,
0010
1000
0002
0003
,
0100
0100
0100
0100
,
0010
0010
0010
0010
,
1000
1000
1000
1000
,
0001
0001
0001
0001
,
0100
0100
0200
0310
,
1000
1000
0001
0001
,
1000
0001
1000
0000
,
0010
0000
0100
0000
0001
0000
0000
0100
,
0000
0010
1000
0001
,
1000
0000
0100
0000
0010
0000
0000
0001
,
0000
0100
0010
1000
,
0001
0101
0001
0000
,
1000
1100
1000
0010
,
0100
0010
1000
0001
,
0010
0000
0100
0000
1000
0000
0000
0010
,
0000
0100
0001
0100
,
0010
0000
1000
0000
0001
0000
0000
0010
,
0000
0100
1000
0010
,
0100
0101
0100
0000
,
0010
1010
0010
0100
,
0001
1000
0010
0100
,
0001
0000
0000
1000
0000
0000
0100
0000
,
0000
0010
0000
0000
0001
0000
1000
0000
,
0020
0000
0030
0000
,
0100
0000
0000
0001
0000
0000
1000
0000
,
0000
0010
0000
0000
0100
0000
0001
0000
,
2000
0000
3000
0000
,
0001
0000
0000
0010
0000
0000
1000
0000
,
0000
0100
0000
0000
0001
0000
0000
1001
,
0000
0000
0100
0000
0100
0000
0000
1010
,
0000
0000
0001
0000
0001
0000
0000
1010
,
0000
0000
0100
0000
0100
0000
0000
0010
,
0000
0000
0100
0000
0020
0000
0030
1001
,
0000
0000
1000
0000
1000
0000
0000
0011
,
0000
0000
0100
0000
0010
0000
0000
1100
,
0000
0000
0010
0000
0010
0000
0000
1000
,
0000
0000
0001
0000
2000
0000
3000
0101
,
0000
0000
1000
0000
1000
0000
0000
0110
,
0000
0000
0001
0000
0001
0000
0000
1010
,
0000
0000
0001
0000
0100
0000
0000
0110
,
0000
0010
2000
3000
,
0001
0100
1000
0100
,
0001
0100
1000
0100
,
0002
0003
0000
0000
,
0000
0000
0000
0000
,
0001
0001
0001
0001
,
1000
1000
1000
1000
,
0020
0000
0000
0000
,
0200
0000
0000
0000
,
0000
0000
0330
0000
,
1000
0000
0000
0100
0000
0000
0001
0000
,
0000
0010
0000
0000
1000
0000
0000
0000
,
0001
0000
0000
0010
0000
0000
1000
0000
,
0000
0100
0000
0000
0001
0000
0000
0000
,
1000
0000
0000
0100
0000
0000
0001
0000
,
0000
0010
0000
0000
1000
0000
0000
1001
,
0000
0000
0010
0000
0010
0000
0000
0101
,
0000
0000
1000
0000
1000
0000
0000
0011
,
0000
0000
0100
0000
0010
0000
0000
1000
,
0000
0000
0001
0000
0100
0000
0000
0110
,
0000
0000
1000
0000
1000
0000
0000
0011
,
0000
0000
0100
0000
0100
0000
0000
1010
,
0000
0000
0001
0000
1000
0000
0000
0010
,
0000
0000
0100
0000
0001
0000
0000
1001
,
0000
0000
0100
0000
0100
0000
0000
0011
,
0000
0000
0010
0000
0010
0000
0000
1100
,
0000
0000
0100
0000
0001
0000
0000
1001
,
0000
0100
0020
0030
,
1000
0100
0001
0100
,
1000
0010
0001
0010
,
1000
0100
0001
0100
,
1000
0010
0001
0200
,
2000
0000
0000
0000
,
0000
0000
0000
0000
,
3300
0000
0000
0000
;

//---------------dance-single - Blank----------------
#NOTES:
     dance-single:
     Blank:
     Easy:
     4:
     0.272,0.328,0.145,0.104,0.000:
0000
0000
0000
0000
,
0000
0000
0000
0000
,
0000
0000
0000
0000
,
0000
0000
0000
0000
,
0020
0000
0030
0000
,
0200
0000
0000
0000
,
0000
0300
0000
0000
,
1000
0000
0001
0000
0100
0000
0000
0100
,
0000
0001
1000
0000
,
0001
0000
0010
0000
0100
0000
0000
1000
,
0000
0010
0100
0000
,
0001
0010
1000
0000
,
1000
0100
0001
0000
,
0010
0100
0010
0100
,
1000
0000
0010
0000
0100
0000
0000
0001
,
0000
0100
0010
0000
,
1000
0000
0001
0000
0100
0000
0000
0001
,
0000
0010
0100
0000
,
1000
0100
0001
0000
,
0001
0010
1000
0000
,
0010
0100
0020
0030
,
1000
0001
1000
0001
,
1000
0001
2000
3000
,
0010
0100
0010
0100
,
0010
0100
0020
0030
,
1000
0001
2000
3000
,
0001
0100
0010
0100
,
0001
1000
0002
0003
,
0100
0000
0010
0000
1000
0000
0000
0001
,
0000
1000
0001
0000
,
1000
0000
0100
0000
0010
0000
0000
0001
,
0000
0100
0010
0000
,
0001
0010
1000
0000
,
1000
0100
0001
0000
,
0100
0010
0100
0010
,
1000
0000
0100
0000
1000
0000
0000
0010
,
0000
0100
0001
0000
,
0100
0000
0010
0000
1000
0000
0000
0001
,
0000
1000
0001
0000
,
0010
1000
0100
0000
,
0010
0001
0100
0000
,
0010
1000
0002
0003
,
1010
0000
0000
0101
,
0000
0000
1001
1000
,
0002
0003
0000
0000
,
0011
0000
0000
1100
,
0000
0000
0101
0100
,
0020
0030
0000
0000
,
1001
0000
0000
0110
,
0000
0000
0000
0000
,
1000
0001
0100
0000
,
0001
0010
0100
0000
,
1000
0000
0010
0000
0100
0000
0000
0010
,
0000
0100
0010
0000
,
1000
0100
0010
0000
,
0001
1000
0010
0000
,
0100
0000
0001
0000
1000
0000
0000
0001
,
0000
1000
0001
0000
,
0100
0010
1000
0000
,
0001
0010
0100
0000
,
1000
0001
0100
0010
,
1000
0001
0010
0100
,
1000
1000
1000
0110
,
0001
0001
0001
0110
,
2000
3000
0000
0000
,
0000
0000
0000
0000
,
0002
0000
0000
0000
,
0003
0000
0000
0010
,
2000
0000
3000
0000
,
0002
0000
0000
0000
,
0000
0000
0003
0000
,
1001
0000
0000
0101
,
0000
0000
1100
0010
,
1001
0000
0000
0011
,
0000
0000
1001
0100
,
1100
0000
0000
0101
,
0000
0000
1000
0000
,
0001
0010
0100
0000
,
1000
0010
0100
0000
,
0001
0000
1000
0000
0010
0000
0000
0100
,
0000
0010
0100
0000
,
0001
0010
1000
0000
,
0100
0010
1000
0000
,
0001
0000
1000
0000
0010
0000
0000
0100
,
0000
0001
0010
0000
,
1000
0100
0010
0000
,
0001
1000
0010
0000
,
0100
0001
1000
0000
,
0001
0010
0100
0000
,
1000
1000
1000
0110
,
0001
0001
0001
0110
,
0100
0100
0100
1001
,
0010
0000
0010
0000
0010
0000
1000
0001
,
0200
0000
0000
0000
,
0000
0000
0000
0000
,
0300
0000
0000
0000
;

//---------------dance-single - Blank----------------
#NOTES:
     dance-single:
     Blank:
     Beginner:
     2:
     0.174,0.257,0.090,0.083,0.000:
0000
0000
0000
0000
,
0000
0000
0000
0000
,
0000
0000
0000
0000
,
0000
0000
0000
0000
,
0010
0000
0000
0000
,
0200
0000
0300
0000
,
0000
0000
0000
0000
,
1000
0000
0001
0000
,
1000
0000
0000
0000
,
0010
0000
0100
0000
,
0010
0000
0000
0000
,
1000
0000
0001
0000
,
0100
0000
0001
0000
,
1000
0000
0000
0000
,
0010
0000
0100
0000
,
0001
0000
0000
0000
,
1000
0000
0100
0000
,
0010
0000
0000
0000
,
0001
0000
1000
0000
,
0010
0000
1000
0000
,
0001
0000
0000
0000
,
0100
0100
0100
0000
,
0010
0010
0010
0000
,
1000
1000
1000
0000
,
0001
0001
0001
0000
,
0100
0000
0100
0000
,
0010
0000
1000
0000
,
0001
0000
0000
0000
,
1000
0000
0100
0000
,
1000
0000
0000
0000
,
0001
0000
0100
0000
,
0001
0000
0000
0000
,
0100
0000
0010
0000
,
1000
0000
0010
0000
,
0100
0000
0000
0000
,
0001
0000
1000
0000
,
0001
0000
0000
0000
,
0100
0000
0010
0000
,
0100
0000
0000
0000
,
0001
0000
0010
0000
,
0100
0000
1000
0000
,
0001
0000
0000
0000
,
1001
0000
0000
1001
,
0000
0000
1001
0000
,
0010
0000
0000
0000
,
0110
0000
0000
0110
,
0000
0000
0110
0000
,
1000
0000
0000
0000
,
1001
0000
0000
0110
,
0000
0000
1001
0000
,
0001
0001
0001
0000
,
0100
0100
0100
0000
,
0020
0000
0000
0000
,
0030
0000
0000
0000
,
1000
1000
1000
0000
,
0100
0100
0100
0000
,
0020
0000
0000
0000
,
0030
0000
0000
0000
,
0001
1000
0001
0000
,
1000
0001
1000
0000
,
0010
0000
0100
0000
,
0010
0000
1000
0000
,
0002
0000
0003
0000
,
0000
0000
0010
0010
,
0000
0000
0000
0000
,
0000
0000
0000
1000
,
2000
0000
3000
0000
,
0000
0000
0000
0001
,
0002
0000
0003
0000
,
0200
0000
0000
0000
,
0300
0000
0000
0000
,
0100
0000
0000
0010
,
0000
0000
0110
0000
,
0001
0000
0000
1000
,
0000
0000
1001
0000
,
0010
0000
0000
0100
,
0000
0000
0110
0000
,
0001
0001
0001
0000
,
1000
1000
1000
0000
,
0020
0000
0030
0000
,
0000
0000
0000
0000
,
1000
1000
0100
0000
,
0010
0010
0001
0000
,
0200
0000
0300
0000
,
0000
0000
0000
0000
,
0001
1000
0001
0000
,
0100
0010
0010
0000
,
1000
0000
0001
0000
,
0100
0000
0000
0000
,
0010
0010
0020
0030
,
0100
0100
0200
0300
,
0010
0010
0020
0030
,
0100
0100
0100
0000
,
1001
0000
0000
0000
;

//---------------dance-double - Blank----------------
#NOTES:
     dance-double:
     Blank:
     Challenge:
     9:
     0.700,0.689,0.407,0.331,0.055:
00000000
00000000
00000000
00000000
,
00000000
00000000
00000000
00000000
,
00000000
00000000
00000000
00000000
,
00000000
00000000
00000000
00000000
,
02000000
00000000
00000000
00001000
,
00002000
00000000
00000000
00000000
,
03003000
00000000
00000000
00000000
,
00001000
00010000
00000010
00001000
00000010
00000010
00000100
00000001
,
00000001
00001000
00000100
00001000
00000010
00010000
00001000
00010000
,
00001000
01000000
00100000
10000000
00010000
00010000
10000000
01000000
,
01000000
10000000
00100000
01000000
00010000
00100000
00001000
00010000
,
00000010
00001000
00001020
00000000
00000130
00000001
00000021
00000000
,
00000130
00010000
00012000
00000000
01003000
00100000
20100000
00000000
,
30010000
00000000
10000000
00000000
00100000
00000000
01000000
00000000
00010000
00000000
00100000
00000000
00001000
00000000
00010000
00001000
,
00010000
00010000
00000010
00001000
00000010
00000010
00000100
00000001
,
00000001
00001000
00000100
00010000
00001000
01000000
00100000
01000000
,
00010000
10000000
00100000
10000000
00010000
00010000
10000000
01000000
,
01000000
00100000
00001000
00100000
00010000
01000000
00001000
00100000
,
00001000
00010000
00021000
00000000
00030010
00001000
00001020
00000000
,
00000130
00000001
00002001
00000000
00003100
00000010
00000001
00001000
,
00000000
00000100
00000000
00020000
00000000
00030000
00000000
00000000
,
10010000
00000000
10010000
00000000
01000000
00100000
01000000
00100000
,
01100000
00000000
01100000
00000000
01000000
00001000
01000000
00000000
,
00011000
00000000
00011000
00000000
00010000
00000010
00010000
00000000
,
00000110
00000000
00000110
00000000
00001000
00000001
00001000
00000000
,
00000110
00000000
00000110
00000000
00001001
00000000
00002002
00003003
,
00000110
00000110
00011000
00011000
,
01100000
00000000
01100000
00000000
10000000
00010000
10000000
00000000
,
01000000
10000000
00100000
01000000
00010000
00010000
01000000
00100000
,
00100000
01000000
00001000
00010000
00000010
00000100
00000010
00000100
,
00000001
00001000
00000100
00001000
00000010
00000010
00000100
00000001
,
00000001
00001000
00000100
00001000
00000010
00010000
00001000
01000000
,
00100000
10000000
10020000
00000000
00130000
01000000
21000000
00000000
,
30100000
01000000
01002000
00000000
00013000
00001000
00021000
00000000
,
00030010
00000000
00000100
00000000
00000102
00000000
00000000
00000000
00000013
00000000
00000100
00000000
00001000
00000000
00000100
00010000
,
00000100
00010000
00001000
01000000
00100000
00100000
10000000
00010000
,
00010000
00100000
00001000
01000000
00100000
10000000
00010000
00100000
,
00001000
00010000
00000010
00000100
00000001
00000001
00001000
00000100
,
00000100
00000010
00000001
00001000
00000010
00010000
00001000
01000000
,
00100000
10000000
10020000
00000000
00130000
01000000
21000000
00000000
,
30100000
01000000
01020000
00000000
00130000
00001000
00021000
00001000
,
00030000
00010000
00000000
00000020
00000000
00000030
00000000
00000000
,
00001000
00000100
00000100
00000001
00000100
00000100
00001000
00000100
,
00000100
00000001
00000100
00000100
00001000
00000010
00010000
00002000
,
00000000
01003000
00100000
00000000
10000000
00010000
10000000
00010000
,
10000000
01000000
01000000
00010000
01000000
01000000
10000000
01000000
,
01000000
00010000
01000000
01000000
10000000
00100000
01000000
00020000
,
00000000
00130000
00001000
00000000
00010000
00000010
00000100
00000001
,
00001000
00000010
00000010
00000001
00000010
00000010
00001000
00000010
,
00000010
00000001
00000010
00000010
00001000
00000001
00000010
00001200
,
00000000
00010300
00001000
01000000
00100000
10000000
00010000
00210000
,
00000000
01300000
10000000
00010000
01000000
00001000
00010000
00012000
,
00000000
00000000
00013000
00000000
00000010
00000000
00000100
00000000
00000001
00000000
00001000
00000001
00001000
00000000
00000010
00000000
,
00001000
00000001
00001000
00000000
00000100
00000000
00001000
00000001
00001000
00000000
00000010
00000000
00000100
00000000
00000120
00000000
,
00000000
00001030
00000100
00010000
00001000
00100000
00010000
02010000
,
00000000
03100000
10000000
00010000
00100000
01000000
10000000
10200000
,
00000000
00000000
01300000
00000000
00010000
00000000
10000000
00000000
00010000
00000000
10000000
00100000
10000000
00000000
00010000
00000000
,
10000000
01000000
10000000
00000000
00010000
00000000
10000000
00100000
10000000
00000000
00100000
00000000
01000000
00000000
01020000
00000000
,
00000000
00130000
00001000
00010000
00000010
00000100
00000010
00002010
,
00000000
00003001
00000010
00000100
00001000
00000100
00010000
00012000
,
00000000
01003000
00100000
10000000
00010000
00100000
01000000
21000000
,
00000000
00000000
30100000
00000000
01000000
00000000
00010000
00000000
10000000
00000000
00010000
00000000
00100000
00000000
00000000
00100000
,
01000000
10000000
01000000
00010000
01000000
10000000
11000000
00000000
,
00100000
10000000
00100000
00010000
00100000
10000000
10100000
00000000
,
02000000
03000000
00000000
00000000
,
00000000
00000000
00000000
00000000
,
01000000
01000000
01000000
01000000
,
00010000
00000000
00010000
00000000
00100000
00001000
00100000
00000000
,
00001000
00010000
00001000
00010000
00000100
00010000
00000100
00010000
,
00000010
00000100
00000001
00000010
00000100
00001000
00000100
00010000
,
00001000
01000000
00100000
10000000
00020000
00000000
00030000
00000000
,
10000000
01000000
01000000
00010000
01000000
01000000
10000000
01000000
,
01000000
00010000
01000000
01000000
10000000
01000000
00010000
00001000
,
00000100
00000010
00000010
00000001
00000010
00000010
00000100
00000010
,
00000010
00000001
00000010
00000010
00000100
00000001
00000010
00000100
,
00001000
00000100
00000100
00000001
00000100
00000100
00001000
00000100
,
00000100
00000001
00000100
00000100
00001000
00000010
00000100
00000120
,
00000000
00001030
00000010
00001000
00000100
00010000
00001000
02001000
,
00000000
03100000
10000000
00010000
00100000
01000000
10000000
10200000
,
00000000
00000000
01300000
00000000
00010000
00000000
10000000
00000000
00100000
00000000
10000000
00010000
10000000
00000000
01000000
00000000
,
10000000
00010000
10000000
00000000
00100000
00000000
10000000
00010000
10000000
00000000
00010000
00000000
01000000
00000000
01200000
00000000
,
00000000
10300000
00010000
00100000
00001000
00010000
00001000
00021000
,
00000000
00030010
00000100
00000001
00000010
00000100
00001000
00001200
,
00000000
00000000
00000310
00000000
00000001
00000000
00001000
00000000
00000010
00000000
00000100
00000001
00000100
00000000
00000010
00000000
,
00001000
00000001
00001000
00000000
00000010
00000000
00000100
00000001
00000100
00000000
00000010
00000000
00001000
00000000
00001200
00000000
,
00000000
00001300
00000010
00000100
00000001
00001000
00000100
00020100
,
00000000
00031000
01000000
00100000
10000000
00010000
00100000
02100000
,
00000000
13000000
00100000
01000000
00010000
00100000
00001000
00021000
,
00000000
00000000
00030010
00000000
00000100
00000000
00000001
00000000
00001000
00000000
00000001
00000000
00000010
00000000
00000000
00000010
,
00000100
00001000
00000100
00000001
00000100
00001000
00001100
00000000
,
00000010
00000001
00000010
00001000
00000010
00000001
00000011
00000000
,
00000001
00000100
00001000
00000100
00000001
00000100
00001100
00000000
,
00010000
00100000
10000000
00100000
00010000
00100000
20000000
00020000
,
00100000
00000000
00000000
00000000
,
00000000
00000000
00000000
00000000
,
30030000
00000000
00000000
00000000
;

//---------------dance-double - Blank----------------
#NOTES:
     dance-double:
     Blank:
     Hard:
     8:
     0.471,0.525,0.380,0.104,0.000:
00000000
00000000
00000000
00000000
,
00000000
00000000
00000000
00000000
,
00000000
00000000
00000000
00000000
,
00000000
00000000
00000000
10000000
,
20020000
00000000
30030000
00001000
,
00022000
00000000
00033000
00000000
,
00000000
00000000
00000000
00000000
,
00001000
00000000
00000010
00001000
00000001
00001000
00000000
00000100
,
00010000
00000000
00001000
00010000
00001000
01000000
00100000
00000000
,
10000000
00000000
00010000
00100000
10000000
00100000
00000000
00010000
,
01000000
00000000
00100000
10000000
00010000
10000000
01000000
00000000
,
00100000
01010000
00100000
00101000
,
00010000
00011000
00000010
00001010
,
00000100
00000000
00001001
00000000
00000100
00000001
00001000
00000000
,
00000010
00000000
00000100
00000001
00001000
00000100
00000000
00010000
,
00001000
00000000
01000000
10000000
01000000
00010000
01000000
00000000
,
00100000
00000000
10000000
00010000
00100000
00001000
00000000
00010000
,
00001000
00000000
00010000
00000010
00000100
00000001
00001000
00000000
,
00000010
00001100
00000100
00011000
,
00000100
00101000
00010000
01100000
,
10000000
00000000
01010000
00000000
10000000
00100000
10000000
00000000
,
01000000
01000000
00100000
00100000
,
00010000
00000000
00010000
00000000
00100000
00001000
00010000
00000000
,
00000010
00000010
00000100
00000100
,
00000001
00000000
00000001
00000000
00001000
00000100
00001000
00000000
,
00000010
00000010
00001000
00001100
,
00000100
00000100
00010000
00010000
,
00001000
00000000
00001000
00000000
01000000
00100000
01000000
00000000
,
00010000
00000000
10000000
00100000
00010000
00100000
00000000
10000000
,
00010000
00000000
10000000
01000000
00100000
00010000
00100000
00000000
,
00001000
00000000
00010000
00000010
00000100
00000010
00000000
00001000
,
00000001
00000000
00000010
00000100
00001000
00000100
00010000
00000000
,
00001000
00110000
00010000
01100000
,
00010000
10010000
01000000
11000000
,
00100000
00000000
01010000
00000000
00100000
00001000
00100000
00000000
,
00001000
00000000
00010000
00000010
00000100
00000001
00000000
00000010
,
00001000
00000000
00000010
00000001
00000100
00000010
00001000
00000000
,
00000001
00000000
00001000
00000100
00001000
00000100
00000000
00010000
,
00001000
00000000
01000000
00100000
10000000
00010000
00100000
00000000
,
01000000
10100000
01000000
01010000
,
00100000
00011000
00000010
00001010
,
00000100
00000000
00001001
00000000
00000010
00000001
00001000
00000000
,
00001000
00000000
00001000
00000100
00000000
00000100
00010000
00000000
,
00010000
00001000
00000000
00001000
01000000
00100000
20000000
01000000
,
00000000
30000000
10000000
00010000
,
01000000
00000000
01000000
00100000
00000000
00100000
10000000
00000000
,
10000000
00010000
00000000
00010000
00100000
00001000
00020000
00000010
,
00000000
00030000
00000100
00001000
,
00000010
00000000
00000010
00000100
00000000
00000100
00000001
00000000
,
00000001
00001000
00000000
00001000
00000100
00010000
00001000
00011000
,
00000000
00000000
01000000
00100000
01000000
00100000
00000000
10100000
,
00000000
00000000
10000000
00010000
00100000
00010000
00000000
01010000
,
00000000
00000000
10000000
00000000
01000000
00000000
00000000
00100000
,
00000000
00000000
00010000
00000000
00001000
00010000
00001000
00011000
,
00000000
00000000
00010000
00000010
00000100
00000001
00000000
00001001
,
00000000
00000000
00001000
00000100
00000010
00000100
00000000
00001100
,
00000000
00000000
00000001
00000000
00000010
00000000
00000000
00000100
,
00000000
00000000
00001000
00000000
00010000
00001000
00010000
00011000
,
00000000
00000000
00001000
01000000
00100000
10000000
00000000
10010000
,
00000000
00000000
10000000
01000000
00100000
00010000
00000000
00110000
,
00000000
00000000
01000000
00001000
01000000
00001000
00000000
00011000
,
00000000
00000000
00010000
00000010
00000100
00000000
00000001
00000000
,
00001000
00000100
00001000
00000100
00000001
00000100
00002000
00000000
,
00003001
00000010
00000001
00000010
00001000
00000010
00000002
00000000
,
00001003
00000000
00000000
00000000
,
00000000
00000000
00000000
00000000
,
00000001
00000001
00001000
00001000
,
00000010
00000000
00000010
00000000
00000100
00000001
00000100
00000000
,
00000020
00000000
00000000
00000000
,
00020000
00000000
00000000
00000000
,
00030030
00000000
00000000
00000000
,
00001001
00000000
00000000
00000110
00000000
00000000
00001100
00000000
,
00000000
00011000
00000000
00000000
00001000
00000000
01000000
00000000
,
01100000
00000000
00000000
10010000
00000000
00000000
11000000
00000000
,
00000000
01100000
00000000
00000000
00100000
00000000
00001000
00000000
,
00011000
00000000
00000000
00000110
00000000
00000000
00001001
00000000
,
00000000
00000011
00000000
00000000
00000100
00000000
00000000
00000000
,
00000110
00000000
00000010
00001000
00000001
00001000
00000000
00001100
,
00000000
00000000
00000100
00010000
00001000
01000000
00000000
01100000
,
00000000
00000000
10000000
00000000
01000000
00000000
00000000
00100000
,
00000000
00000000
00010000
00000000
00001000
00010000
00001000
00011000
,
00000000
00000000
00000010
00001000
00000001
00000010
00000000
00000110
,
00000000
00000000
00000100
00001000
00000100
00010000
00000000
00011000
,
00000000
00000000
00010000
00000000
00001000
00000000
00000000
00100000
,
00000000
00000000
01000000
00000000
10000000
00010000
10000000
10100000
,
00000000
00000000
10000000
00100000
01000000
00010000
00000000
10010000
,
00000000
00000000
10000000
01000000
00100000
00010000
00000000
00110000
,
00000000
00000000
00100000
00001000
00010000
00001000
00000000
00011000
,
00000000
00000000
00010000
00000010
00000100
00000001
00001000
00000000
,
00000001
00000010
00000001
00000010
00001000
00000010
00000002
00000000
,
00001003
00000100
00001000
00000100
00000001
00000100
00002000
00000000
,
00003010
00000100
00000001
00000100
00001000
00000100
00000020
00000000
,
00001030
00000100
00010000
00001000
01000000
00100000
10000000
00020000
,
00200000
00000000
00000000
00000000
,
00000000
00000000
00000000
00000000
,
00330000
00000000
00000000
00000000
;

//---------------dance-double - Blank----------------
#NOTES:
     dance-double:
     Blank:
     Medium:
     6:
     0.312,0.328,0.242,0.083,0.000:
00000000
00000000
00000000
00000000
,
00000000
00000000
00000000
00000000
,
00000000
00000000
00000000
00000000
,
00000000
00000000
00000000
01000000
,
02000000
03000000
00000000
00001000
,
00002000
00003000
00000000
00000000
,
00000000
00000000
00000000
00000000
,
00010000
00000000
00000100
00000000
00001000
00000000
00000000
00000010
,
00000000
00000100
00000001
00001000
,
00000001
00000000
00000010
00000000
00000100
00000000
00000000
00010000
,
00000000
00001000
01000000
00100000
,
10000000
10010000
10000000
00000000
,
00010000
01010000
00010000
00000000
,
00100000
00001000
00010000
00000010
,
00000100
00000000
00000001
00000000
00001000
00000000
00000000
00000010
,
00000000
00001000
00000100
00010000
,
00001000
00000000
01000000
00000000
00100000
00000000
00000000
10000000
,
00000000
00010000
10000000
01000000
,
00100000
00110000
00100000
00000000
,
00001000
00011000
00001000
00000000
,
00010000
00000100
00002000
00003000
,
00000100
00000100
00001000
00001000
,
00000100
00000100
00010000
00010000
,
00001000
00001000
01000000
01000000
,
00100000
00100000
10000000
00010000
,
10000000
10000000
01000000
02000000
,
03100000
00100000
00010000
00010000
,
00100000
00100000
00001000
00010000
,
00000010
00000000
00000100
00000000
00000001
00000000
00000000
00001000
,
00000000
00000010
00001000
00000100
,
00010000
00000000
00001000
00000000
01000000
00000000
00000000
00100000
,
00000000
10000000
00010000
10000000
,
01000000
01100000
01000000
00000000
,
00100000
00101000
00100000
00000000
,
00001000
00010000
00000010
00000100
,
00000001
00000000
00001000
00000000
00000100
00000000
00000000
00000010
,
00000000
00000001
00000100
00001000
,
00000100
00000000
00000010
00000000
00010000
00000000
00000000
00001000
,
00000000
00100000
00010000
01000000
,
00100000
10100000
00100000
00000000
,
10000000
11000000
10000000
00000000
,
00100000
01000000
00200000
00300000
,
10000000
00000000
00000000
00100000
00000000
00000000
01000000
00000000
,
00000000
00001000
00000000
00000000
00010000
00000000
00001000
00000000
,
00020000
00030000
00000000
00000000
,
00000001
00000000
00000000
00000100
00000000
00000000
00000010
00000000
,
00000000
00001000
00000000
00000000
00000100
00000000
00010000
00000000
,
00002000
00003000
00000000
00000000
,
10010000
00000000
00000000
01000000
00000000
00000000
00110000
00000000
,
00000000
00100000
00000000
00000000
00001000
00000000
00000000
00011000
,
00000000
00000000
00010000
00000000
00000010
00000000
00000000
00000110
,
00000000
00000000
00000100
00000000
00000001
00000000
00000000
00001100
,
00000000
00000000
00000010
00000000
00000100
00000000
00000000
00000001
,
00000000
00000000
00000100
00000000
00000010
00000000
00000000
00001100
,
00000000
00000000
00000100
00000000
00010000
00000000
00000000
00011000
,
00000000
00000000
00001000
00000000
01000000
00000000
00000000
01100000
,
00000000
00000000
10000000
00000000
00010000
00000000
00000000
00100000
,
00000000
00000000
01000000
00000000
10000000
00000000
00000000
10100000
,
00000000
00000000
01000000
00000000
00010000
00000000
00000000
00110000
,
00000000
00000000
00100000
00000000
00001000
00000000
00000000
00011000
,
00000000
00000000
00010000
00000000
00000010
00000000
00000000
00000110
,
00000000
00000100
00000001
00001000
,
00000100
00000100
00000100
00001001
,
00000010
00000010
00000010
00001001
,
00000200
00000300
00000000
00000000
,
00000000
00000000
00000000
00000000
,
00001000
00001000
01000000
01000000
,
00100000
00100000
10000000
10000000
,
00020000
00000000
00000000
00000000
,
02000000
00000000
00000000
00000000
,
03030000
00000000
00000000
00000000
,
00010000
00000000
00000000
00100000
00000000
00000000
10000000
00000000
,
00000000
01000000
00000000
00000000
00010000
00000000
00000000
00000000
,
00001000
00000000
00000000
00000010
00000000
00000000
00000001
00000000
,
00000000
00000100
00000000
00000000
00001000
00000000
00000000
00000000
,
00010000
00000000
00000000
01000000
00000000
00000000
10000000
00000000
,
00000000
00100000
00000000
00000000
00010000
00000000
00000000
11000000
,
00000000
00000000
00100000
00000000
01000000
00000000
00000000
00110000
,
00000000
00000000
01000000
00000000
00001000
00000000
00000000
00011000
,
00000000
00000000
00010000
00000000
00000010
00000000
00000000
00000100
,
00000000
00000000
00000001
00000000
00001000
00000000
00000000
00000110
,
00000000
00000000
00001000
00000000
00000100
00000000
00000000
00011000
,
00000000
00000000
00001000
00000000
01000000
00000000
00000000
01100000
,
00000000
00000000
00100000
00000000
10000000
00000000
00000000
00010000
,
00000000
00000000
01000000
00000000
00100000
00000000
00000000
10010000
,
00000000
00000000
10000000
00000000
01000000
00000000
00000000
00101000
,
00000000
00000000
00001000
00000000
00010000
00000000
00000000
00000110
,
00000000
00000000
00000100
00000000
00000001
00000000
00000000
00001001
,
00000000
00000010
00001000
00000000
,
00000100
00000100
00000100
00011000
,
01000000
01000000
01000000
00011000
,
00000010
00000010
00000010
00011000
,
00100000
00100000
00100000
00002000
,
00020000
00000000
00000000
00000000
,
00000000
00000000
00000000
00000000
,
00033000
00000000
00000000
00000000
;

//---------------dance-double - Blank----------------
#NOTES:
     dance-double:
     Blank:
     Easy:
     4:
     0.291,0.328,0.145,0.180,0.000:
00000000
00000000
00000000
00000000
,
00000000
00000000
00000000
00000000
,
00000000
00000000
00000000
00000000
,
00000000
00000000
00000000
00000000
,
10010000
00000000
00000000
00000000
,
00011000
00000000
00000000
00000000
,
00000000
00000000
00000000
00000000
,
00010000
00000010
00000100
00000000
,
00000001
00001000
00000001
00000000
,
00001000
00000100
00010000
00001000
,
02000000
00000000
03000000
00000000
,
00100000
00100000
10000000
00000000
,
00010000
00010000
10000000
00000000
,
01000000
00100000
01000000
10000000
,
00010000
00100000
00001000
00000000
,
00010000
00000010
00000100
00000000
,
00000001
00000010
00000100
00001000
,
00000200
00000000
00000300
00000000
,
00010000
00001000
01000000
00000000
,
00100000
10000000
00010000
00000000
,
00100000
01000000
20000000
30000000
,
00100000
00100000
01000000
01000000
,
00010000
00010000
00100000
00100000
,
00001000
00001000
00010000
00010000
,
00000010
00000010
00000100
00000100
,
00000001
00001000
00000001
00001001
,
00000100
00000100
00000010
00000010
,
00001000
00000100
00010000
00000000
,
00001000
01000000
00100000
00000000
,
10000000
01000000
00010000
00000000
,
00100000
00001000
00010000
00000010
,
00000200
00000300
00000000
00000000
,
00000001
00000010
00000100
00000000
,
00001000
00000010
00010000
00000000
,
00001000
01000000
00100000
10000000
,
00010000
00100000
01000000
00000000
,
10000000
00100000
01000000
00000000
,
00001000
00010000
00000010
00000100
,
00000002
00000003
00000000
00000000
,
00000010
00000100
00001000
00000000
,
00000100
00010000
00001000
01000000
,
00100000
10000000
20020000
30030000
,
10000000
00000000
00000000
01000000
00000000
00000000
00100000
00000000
,
00000000
00010000
00000000
00000000
00110000
00000000
00100000
00000000
,
00002000
00003000
00000000
00000000
,
00010000
00000000
00000000
00000010
00000000
00000000
00000100
00000000
,
00000000
00000001
00000000
00000000
00001001
00000000
00001000
00000000
,
00000200
00000300
00000000
00000000
,
00010000
00000000
00000000
00001000
00000000
00000000
01000000
00000000
,
00000000
00100000
00000000
00000000
10100000
00000000
00000000
00000000
,
10000000
00100000
01100000
00000000
,
01000000
00001000
00100000
00010000
,
02000000
00000000
03000000
00000000
00100000
00000000
00000000
00100000
,
00000000
00100000
01000000
00000000
,
00010000
00100000
00101000
00000000
,
00010000
00000010
00000100
00000001
,
00002000
00000000
00003000
00000000
00000001
00000000
00000000
00001000
,
00000000
00000001
00001000
00000000
,
00000001
00000010
00000110
00000000
,
00001000
00000100
00020000
00030000
,
00001000
01000000
00100000
10000000
,
01000000
00100000
00010000
10000000
,
00100000
01000000
00200000
10300000
,
01000000
00100000
02000000
03010000
,
00100000
00000000
00000000
00000000
,
00000000
00000000
00000000
10000000
,
20000000
00000000
30000000
00000000
,
00000000
00000000
00000000
00100000
,
02000000
00000000
00000000
00000000
,
00200000
00000000
00000000
00000000
,
03300000
00000000
00000000
00000000
,
10010000
00000000
00000000
01100000
,
00000000
00000000
00011000
00000000
,
00001001
00000000
00000000
00000110
,
00000000
00000000
00001100
00000000
,
00011000
00000000
00000000
01100000
,
00000000
00000000
10000000
00000000
,
00010000
00100000
01100000
00000000
,
10000000
00100000
01000000
00001000
,
00020000
00000000
00030000
00000000
00000010
00000000
00000000
00000100
,
00000000
00000010
00000100
00000000
,
00000001
00001000
00001100
00000000
,
00000100
00010000
00001000
01000000
,
00200000
00000000
00300000
00000000
10000000
00000000
00000000
00010000
,
00000000
10000000
00010000
00000000
,
01000000
00100000
10000000
00010000
,
00100000
00001000
00020000
00030000
,
00000010
00000100
00000001
00000010
,
00000100
00001000
00000020
00000030
,
00001000
00000100
00002000
00003001
,
00000001
00000010
00000002
00001003
,
00001000
00000100
00002000
00003010
,
00000100
00000000
00000010
00000000
00010000
00000000
00001000
00010000
,
00022000
00000000
00000000
00000000
,
00000000
00000000
00000000
00000000
,
00033000
00000000
00000000
00000000
;
