#TITLE:Cycle Hit;
#SUBTITLE:;
#ARTIST:Kasai Harcores;
#TITLETRANSLIT:;
#SUBTITLETRANSLIT:;
#ARTISTTRANSLIT:;
#GENRE:;
#CREDIT:;
#BANNER:banner.png;
#BACKGROUND:bkd.png;
#LYRICSPATH:;
#CDTITLE:;
#MUSIC:Cycle Hit.mp3;
#OFFSET:-0.030000;
#SAMPLESTART:258.655426;
#SAMPLELENGTH:12.000000;
#SELECTABLE:YES;
#BPMS:0.000000=175.000000
;
#STOPS:
;
#BGCHANGES:64.000=gen1.png=1.000=0=0=1=====,
65.000=gen2.png=1.000=0=0=1=====,
66.000=gen3.png=1.000=0=0=1=====,
68.000=gen1.png=1.000=0=0=1=====,
69.000=gen2.png=1.000=0=0=1=====,
70.000=gen3.png=1.000=0=0=1=====,
72.000=kattob1.png=1.000=0=0=1=====,
73.000=kattob2.png=1.000=0=0=1=====,
74.000=kattob3.png=1.000=0=0=1=====,
76.000=gen1.png=1.000=0=0=1=====,
77.000=gen2.png=1.000=0=0=1=====,
78.000=gen3.png=1.000=0=0=1=====,
80.000=gen1.png=1.000=0=0=1=====,
81.000=gen2.png=1.000=0=0=1=====,
82.000=gen3.png=1.000=0=0=1=====,
84.000=gen1.png=1.000=0=0=1=====,
85.000=gen2.png=1.000=0=0=1=====,
86.000=gen3.png=1.000=0=0=1=====,
88.000=kattob1.png=1.000=0=0=1=====,
89.000=kattob2.png=1.000=0=0=1=====,
90.000=kattob3.png=1.000=0=0=1=====,
92.000=gen1.png=1.000=0=0=1=====,
93.000=gen2.png=1.000=0=0=1=====,
94.000=gen3.png=1.000=0=0=1=====,
96.000=gen1.png=1.000=0=0=1=====,
97.000=gen2.png=1.000=0=0=1=====,
98.000=gen3.png=1.000=0=0=1=====,
100.000=gen1.png=1.000=0=0=1=====,
101.000=gen2.png=1.000=0=0=1=====,
102.000=gen3.png=1.000=0=0=1=====,
104.000=kattob1.png=1.000=0=0=1=====,
105.000=kattob2.png=1.000=0=0=1=====,
106.000=kattob3.png=1.000=0=0=1=====,
108.000=gen1.png=1.000=0=0=1=====,
109.000=gen2.png=1.000=0=0=1=====,
110.000=gen3.png=1.000=0=0=1=====,
112.000=gen4.png=1.000=1=0=1===CrossFade==,
176.000=bkd.png=1.000=1=0=1===CrossFade==,
224.000=cam1.png=1.000=0=0=1=====,
225.000=cam2.png=1.000=0=0=1=====,
226.000=cam3.png=1.000=0=0=1=====,
228.000=cam1.png=1.000=0=0=1=====,
229.000=cam2.png=1.000=0=0=1=====,
230.000=cam3.png=1.000=0=0=1=====,
232.000=kattob1.png=1.000=0=0=1=====,
233.000=kattob2.png=1.000=0=0=1=====,
234.000=kattob3.png=1.000=0=0=1=====,
236.000=cam1.png=1.000=0=0=1=====,
237.000=cam2.png=1.000=0=0=1=====,
238.000=cam3.png=1.000=0=0=1=====,
240.000=cam1.png=1.000=0=0=1=====,
241.000=cam2.png=1.000=0=0=1=====,
242.000=cam3.png=1.000=0=0=1=====,
244.000=cam1.png=1.000=0=0=1=====,
245.000=cam2.png=1.000=0=0=1=====,
246.000=cam3.png=1.000=0=0=1=====,
248.000=kattob1.png=1.000=0=0=1=====,
249.000=kattob2.png=1.000=0=0=1=====,
250.000=kattob3.png=1.000=0=0=1=====,
252.000=cam1.png=1.000=0=0=1=====,
253.000=cam2.png=1.000=0=0=1=====,
254.000=cam3.png=1.000=0=0=1=====,
256.000=cam1.png=1.000=0=0=1=====,
257.000=cam2.png=1.000=0=0=1=====,
258.000=cam3.png=1.000=0=0=1=====,
260.000=cam1.png=1.000=0=0=1=====,
261.000=cam2.png=1.000=0=0=1=====,
262.000=cam3.png=1.000=0=0=1=====,
264.000=kattob1.png=1.000=0=0=1=====,
265.000=kattob2.png=1.000=0=0=1=====,
266.000=kattob3.png=1.000=0=0=1=====,
268.000=cam1.png=1.000=0=0=1=====,
269.000=cam2.png=1.000=0=0=1=====,
270.000=cam3.png=1.000=0=0=1=====,
272.000=cam4.png=1.000=1=0=1===CrossFade==,
336.000=bkd.png=1.000=1=0=1===CrossFade==,
432.000=cshow1.png=1.000=0=0=1=====,
433.000=cshow2.png=1.000=0=0=1=====,
434.000=cshow3.png=1.000=0=0=1=====,
436.000=cshow1.png=1.000=0=0=1=====,
437.000=cshow2.png=1.000=0=0=1=====,
438.000=cshow3.png=1.000=0=0=1=====,
440.000=kattob1.png=1.000=0=0=1=====,
441.000=kattob2.png=1.000=0=0=1=====,
442.000=kattob3.png=1.000=0=0=1=====,
444.000=cshow1.png=1.000=0=0=1=====,
445.000=cshow2.png=1.000=0=0=1=====,
446.000=cshow3.png=1.000=0=0=1=====,
448.000=cshow1.png=1.000=0=0=1=====,
449.000=cshow2.png=1.000=0=0=1=====,
450.000=cshow3.png=1.000=0=0=1=====,
452.000=cshow1.png=1.000=0=0=1=====,
453.000=cshow2.png=1.000=0=0=1=====,
454.000=cshow3.png=1.000=0=0=1=====,
456.000=kattob1.png=1.000=0=0=1=====,
457.000=kattob2.png=1.000=0=0=1=====,
458.000=kattob3.png=1.000=0=0=1=====,
460.000=cshow1.png=1.000=0=0=1=====,
461.000=cshow2.png=1.000=0=0=1=====,
462.000=cshow3.png=1.000=0=0=1=====,
464.000=cshow1.png=1.000=0=0=1=====,
465.000=cshow2.png=1.000=0=0=1=====,
466.000=cshow3.png=1.000=0=0=1=====,
468.000=cshow1.png=1.000=0=0=1=====,
469.000=cshow2.png=1.000=0=0=1=====,
470.000=cshow3.png=1.000=0=0=1=====,
472.000=kattob1.png=1.000=0=0=1=====,
473.000=kattob2.png=1.000=0=0=1=====,
474.000=kattob3.png=1.000=0=0=1=====,
476.000=cshow1.png=1.000=0=0=1=====,
477.000=cshow2.png=1.000=0=0=1=====,
478.000=cshow3.png=1.000=0=0=1=====,
480.000=cshow4.png=1.000=1=0=1===CrossFade==,
544.000=bkd.png=1.000=1=0=1===CrossFade==,
704.000=kasai1.png=1.000=0=0=1=====,
705.000=kasai2.png=1.000=0=0=1=====,
706.000=kasai3.png=1.000=0=0=1=====,
708.000=kasai1.png=1.000=0=0=1=====,
709.000=kasai2.png=1.000=0=0=1=====,
710.000=kasai3.png=1.000=0=0=1=====,
712.000=kattob1.png=1.000=0=0=1=====,
713.000=kattob2.png=1.000=0=0=1=====,
714.000=kattob3.png=1.000=0=0=1=====,
716.000=kasai1.png=1.000=0=0=1=====,
717.000=kasai2.png=1.000=0=0=1=====,
718.000=kasai3.png=1.000=0=0=1=====,
720.000=kasai1.png=1.000=0=0=1=====,
721.000=kasai2.png=1.000=0=0=1=====,
722.000=kasai3.png=1.000=0=0=1=====,
724.000=kasai1.png=1.000=0=0=1=====,
725.000=kasai2.png=1.000=0=0=1=====,
726.000=kasai3.png=1.000=0=0=1=====,
728.000=kattob1.png=1.000=0=0=1=====,
729.000=kattob2.png=1.000=0=0=1=====,
730.000=kattob3.png=1.000=0=0=1=====,
732.000=kasai1.png=1.000=0=0=1=====,
733.000=kasai2.png=1.000=0=0=1=====,
734.000=kasai3.png=1.000=0=0=1=====,
736.000=kasai1.png=1.000=0=0=1=====,
737.000=kasai2.png=1.000=0=0=1=====,
738.000=kasai3.png=1.000=0=0=1=====,
740.000=kasai1.png=1.000=0=0=1=====,
741.000=kasai2.png=1.000=0=0=1=====,
742.000=kasai3.png=1.000=0=0=1=====,
744.000=kattob1.png=1.000=0=0=1=====,
745.000=kattob2.png=1.000=0=0=1=====,
746.000=kattob3.png=1.000=0=0=1=====,
748.000=kasai1.png=1.000=0=0=1=====,
749.000=kasai2.png=1.000=0=0=1=====,
750.000=kasai3.png=1.000=0=0=1=====,
752.000=kasai4.png=1.000=1=0=1===CrossFade==,
816.000=gen4.png=1.000=0=0=1===CrossFade_Faster==,
824.000=cam4.png=1.000=0=0=1===CrossFade_Faster==,
832.000=cshow4.png=1.000=0=0=1===CrossFade_Faster==,
840.000=kasai4.png=1.000=0=0=1===CrossFade_Faster==,
848.000=gen4.png=1.000=0=0=1===CrossFade_Faster==,
856.000=cam4.png=1.000=0=0=1===CrossFade_Faster==,
864.000=cshow4.png=1.000=0=0=1===CrossFade_Faster==,
872.000=kasai4.png=1.000=0=0=1===CrossFade_Faster==,
880.000=bkd.png=1.000=1=0=1===CrossFade==,
99999=-nosongbg-=1.000=0=0=0 // don't automatically add -songbackground-
;
#KEYSOUNDS:;
#ATTACKS:;

//---------------dance-single - Blank----------------
#NOTES:
     dance-single:
     Blank:
     Challenge:
     13:
     0.795291,1.234196,0.221921,0.336051,0.706976,1756.000000,1686.000000,70.000000,106.000000,0.000000,0.000000,0.795291,1.234196,0.221921,0.336051,0.706976,1756.000000,1686.000000,70.000000,106.000000,0.000000,0.000000:
// measure 0
0000
0000
0000
0000
,  // measure 1
0000
0000
0000
0000
,  // measure 2
0000
0000
0000
0000
,  // measure 3
0000
0000
0000
0000
,  // measure 4
0000
0000
0000
0000
,  // measure 5
0000
0000
0000
0000
,  // measure 6
0000
0000
0000
0000
,  // measure 7
0000
0000
0010
0010
,  // measure 8
1010
0000
0000
0000
1000
0000
0001
1000
0010
0000
0100
0000
0001
0000
1000
0000
,  // measure 9
0001
0000
0001
0010
0100
0000
1000
0000
,  // measure 10
1010
0000
0000
0000
0010
0000
1000
0001
0010
0000
0001
0000
0100
0000
0010
0000
,  // measure 11
1000
0100
0010
0001
2000
0000
3010
0000
,  // measure 12
0110
0000
0000
0000
0100
0000
0001
1000
0100
0000
0010
0000
0001
0000
1000
0000
,  // measure 13
0020
0000
1030
0001
0020
0000
0130
1000
,  // measure 14
0001
0100
0010
1000
1001
0000
0110
0000
,  // measure 15
2002
0000
3003
0000
,  // measure 16
1001
1001
0220
0330
,  // measure 17
1001
1001
0220
0330
,  // measure 18
1000
0001
2000
3000
,  // measure 19
1001
1001
0220
0330
,  // measure 20
0010
0001
1000
0010
1000
0010
0100
0001
,  // measure 21
1000
0001
0010
0100
1000
0010
0100
0001
,  // measure 22
0010
0100
1000
0010
0001
0010
1000
0001
,  // measure 23
0010
0001
0100
0010
0001
0010
0100
0010
,  // measure 24
1000
0001
0010
0100
1000
0010
0100
0001
0100
0010
1000
0001
0010
0001
1000
0010
,  // measure 25
0100
0001
0100
0010
1000
0001
1000
0001
0010
0100
1000
0010
0100
0001
0100
0010
,  // measure 26
2000
3020
0230
0300
,  // measure 27
1001
1001
0220
0330
,  // measure 28
1001
0000
0000
0000
0001
0100
0100
1000
0001
0100
0100
1000
0001
1000
0001
1000
,  // measure 29
0002
0000
0000
0000
1003
0100
0100
0001
1000
0100
0100
0001
1000
0001
1000
0001
,  // measure 30
1000
0000
0010
0100
0001
1000
0001
0010
0001
0100
0010
1000
0001
0010
0100
1000
,  // measure 31
0010
0000
1000
0100
0100
0001
0010
0100
1000
0001
0100
0010
1000
0010
0100
0010
,  // measure 32
0100
0000
0000
0000
0001
0010
0010
1000
0001
0010
0010
1000
0001
1000
0001
1000
,  // measure 33
0002
0000
0000
0000
1003
0010
0010
0001
1000
0010
0010
0001
1000
0001
1000
0001
,  // measure 34
1000
0000
0001
0010
0100
1000
0001
1000
0001
0100
0001
1000
0010
0100
0001
1000
,  // measure 35
0001
0001
1000
1000
,  // measure 36
0020
0000
0000
0000
0130
0001
1000
0001
0010
0100
1000
0010
0100
0001
0100
0010
,  // measure 37
2000
0000
0000
0000
3001
0010
0010
1000
0001
0010
0010
1000
0001
1000
0001
1000
,  // measure 38
0010
0010
0001
1000
0001
0010
0100
1000
0010
0010
0001
1000
0001
0010
0100
1000
,  // measure 39
0010
0100
0010
0100
0001
0100
0100
1000
0010
0100
0010
0100
0001
0010
0010
1000
,  // measure 40
0020
0000
0000
0000
1030
0001
0100
0001
1000
0001
0100
0001
1000
0001
0100
0001
,  // measure 41
0020
0000
0130
1000
0001
1000
0100
1000
0001
1000
0100
1000
0001
0010
0100
1000
,  // measure 42
0010
0000
1000
0010
0010
0001
1000
0001
1000
0001
0010
0001
1000
0010
0100
0001
,  // measure 43
1000
0000
0010
0010
0001
0000
0001
1000
0001
0000
0001
1000
0001
1000
0001
1000
,  // measure 44
0001
0000
0001
0100
0001
0000
0001
0100
,  // measure 45
0010
1000
0001
0010
0100
0000
0100
1000
,  // measure 46
0001
0000
0001
1000
0010
0000
0010
0100
,  // measure 47
0001
0010
0100
1000
0020
0000
0130
0000
,  // measure 48
0001
0000
0001
1000
0100
0000
0100
0010
,  // measure 49
0001
1000
0010
0100
0001
0000
1000
0000
,  // measure 50
0001
0000
0010
0100
1000
0000
0010
0100
,  // measure 51
0001
0100
0010
1000
0001
0000
0011
0000
,  // measure 52
2001
0000
3010
0100
0002
0000
0013
0100
,  // measure 53
1000
0010
0001
0010
2000
0000
3100
0010
,  // measure 54
0002
0000
0103
0010
2000
0000
3001
0010
,  // measure 55
0100
1000
0100
0001
0200
0000
1300
0000
,  // measure 56
0110
0110
2002
3003
,  // measure 57
0110
0110
2002
3003
,  // measure 58
1000
0001
2000
3000
,  // measure 59
0110
0110
2002
3003
,  // measure 60
0010
0100
0001
1000
0001
0010
0100
1000
,  // measure 61
0010
0100
0001
1000
0001
0010
1000
0010
,  // measure 62
0001
0100
0010
1000
0001
1000
0010
0100
,  // measure 63
1000
0100
0010
1000
0001
0010
0100
1000
,  // measure 64
0001
0100
0010
0100
0001
1000
0001
0010
0100
1000
0010
1000
0010
0100
0001
1000
,  // measure 65
0001
1000
0100
0010
0001
0100
0010
0100
0001
1000
0001
0010
0100
1000
0001
0100
,  // measure 66
0020
0230
0320
0030
,  // measure 67
0100
0100
1001
0000
,  // measure 68
2020
0000
0000
0000
0000
0000
0000
0000
0000
0000
0000
0000
3030
0000
0000
0000
0000
0000
1000
0000
0010
0000
1000
0000
0010
0000
0000
0010
0000
0000
0001
0000
0000
1000
0000
0000
0010
0000
0000
0010
0000
0000
0001
0000
0000
1000
0000
0000
,  // measure 69
0020
0000
0000
0000
0000
0000
0000
0000
0000
0000
0000
0000
0030
0000
0000
0000
0000
0000
0001
0000
0100
0000
0001
0000
0100
0000
0000
0100
0000
0000
1000
0000
0000
0001
0000
0000
0100
0000
0000
0100
0000
0000
1000
0000
0000
0001
0000
0000
,  // measure 70
0100
0000
0010
1000
0001
0000
1000
0000
0100
0100
0001
1000
0100
0100
0001
2000
,  // measure 71
0000
3010
0010
0010
0000
0100
0200
0000
,  // measure 72
0320
0000
0000
0000
0000
0000
0000
0000
0000
0000
0000
0000
0030
0000
0000
0000
0000
0000
1000
0000
0001
0000
1000
0000
0001
0000
0000
0100
0000
0000
0100
0000
0000
1000
0000
0000
0001
0000
0000
0100
0000
0000
0100
0000
0000
1000
0000
0000
,  // measure 73
0002
0000
0000
0000
0000
0000
0000
0000
0000
0000
0000
0000
0003
0000
0000
0000
0000
0000
0100
0000
0010
0000
0100
0000
0010
0000
0000
0010
0000
0000
0001
0000
0000
1000
0000
0000
0010
0000
0000
0010
0000
0000
0001
0000
0000
1000
0000
0000
,  // measure 74
0010
0000
0100
0001
1000
0000
0001
0000
0100
0100
1000
0001
0100
0100
1000
0001
,  // measure 75
0100
0100
0010
0010
,  // measure 76
1001
0000
0000
0000
0000
0000
0000
0000
0000
0000
0000
0000
0000
0000
0000
0000
0000
0000
0001
0000
0100
0000
0010
0000
1000
0000
0000
0001
0000
0000
0100
0000
0000
0010
0000
0000
1000
0000
0000
0001
0000
0000
0100
0000
0000
0010
0000
0000
,  // measure 77
2000
0000
0000
0000
0000
0000
0000
0000
0000
0000
0000
0000
3000
0000
0000
0000
0000
0000
0001
0000
0010
0000
0100
0000
1000
0000
0000
0001
0000
0000
0010
0000
0000
0100
0000
0000
1000
0000
0000
0001
0000
0000
0010
0000
0000
0100
0000
0000
,  // measure 78
1000
0000
0010
0100
0010
0000
0100
0000
0010
1000
0001
0100
0010
1000
0001
0100
,  // measure 79
0010
0000
0100
0000
0001
0000
0000
1000
0000
0000
0010
0000
0000
0100
0000
0000
,  // measure 80
0010
0000
0000
0000
0000
0000
0000
0000
0000
0000
0000
0000
0100
0000
0000
0000
0000
0000
0010
0000
0100
0000
0010
0000
0100
0000
0000
0001
0000
0000
1000
0000
0000
0010
0000
0000
0100
0000
0000
0001
0000
0000
1000
0000
0000
0010
0000
0000
,  // measure 81
0200
0000
0000
0000
0000
0000
0000
0000
0000
0000
0000
0000
0300
0000
0000
0000
0000
0000
0100
0000
0010
0000
0100
0000
0010
0000
0000
1000
0000
0000
0001
0000
0000
0100
0000
0000
0010
0000
0000
1000
0000
0000
0001
0000
0000
0100
0000
0000
,  // measure 82
0010
0000
1000
0010
0100
0000
0001
0000
0010
0100
1000
0001
0100
0010
1000
0001
,  // measure 83
0020
0000
0000
0030
,  // measure 84
2002
0000
0000
3003
,  // measure 85
0000
0000
0000
0000
,  // measure 86
0000
0000
0000
0000
,  // measure 87
0000
0000
0000
0000
,  // measure 88
0010
0000
0000
0000
1000
0000
0001
1000
0001
0000
1000
0000
0010
0000
0100
0000
,  // measure 89
0001
0000
1000
0001
0010
0000
0100
1000
,  // measure 90
0001
0100
1000
0100
0001
0000
1000
0000
,  // measure 91
0110
0000
0000
0000
,  // measure 92
0010
0000
0000
0000
0010
0000
1000
0001
1000
0000
0100
0000
0010
0000
0001
0000
,  // measure 93
1000
0000
0010
1000
0001
0000
0010
0010
,  // measure 94
0100
0000
0000
0000
1000
0000
0001
1000
0010
0000
0100
0000
0001
0000
1000
0000
,  // measure 95
0001
0000
0010
0000
0100
0000
1000
0000
0010
0000
0000
0010
0100
0000
0100
0000
,  // measure 96
0001
0000
0000
0000
1000
0000
0001
0010
0001
0000
0100
0000
0010
0000
1000
0000
,  // measure 97
0001
0000
0001
0010
0100
0000
1000
0010
,  // measure 98
0100
0001
1000
0001
0010
0000
0100
0000
,  // measure 99
2000
0000
3000
0000
,  // measure 100
0010
0000
0000
0000
1000
0000
0001
1000
0010
0000
0100
0000
0001
0000
1000
0000
,  // measure 101
0001
0000
0010
0100
1000
0000
0010
0000
,  // measure 102
0110
0000
0000
0000
0100
0000
0001
1000
0001
0000
0010
0000
0100
0000
1000
0000
,  // measure 103
0010
0001
0010
1000
0002
0000
2003
0000
,  // measure 104
3100
0000
0000
0000
0010
0000
0001
0010
0001
0000
0100
0000
0010
0000
1000
0000
,  // measure 105
0001
0000
0010
0100
1000
0000
0010
0100
,  // measure 106
0001
1000
0001
0010
0100
0000
1000
0000
,  // measure 107
0020
0000
0030
0000
,  // measure 108
1001
1001
0220
0330
,  // measure 109
1001
1001
0220
0330
,  // measure 110
0002
2003
3002
0003
,  // measure 111
1001
1001
0220
0330
,  // measure 112
0001
0100
0100
1000
0100
0100
0001
1000
,  // measure 113
0001
0000
0010
0000
0010
0000
1000
0000
0010
0000
0010
0000
0001
0000
1000
0001
,  // measure 114
1000
0100
0100
0001
0100
0100
1000
0001
,  // measure 115
1000
0010
0010
0001
0010
0010
1000
0001
,  // measure 116
0010
0100
1000
0001
1000
0010
0100
0001
1000
0001
0010
0100
1000
0010
0100
0001
,  // measure 117
1000
0100
1000
0001
0100
0010
1000
0001
0010
0001
0100
0010
1000
0010
0100
0001
,  // measure 118
1000
0001
1000
0001
1000
0001
1000
0001
1000
0001
1000
0001
1000
0001
1000
0001
,  // measure 119
0010
0010
0010
0000
,  // measure 120
1001
0000
0000
1000
0010
0000
0100
0000
0001
0000
0100
0000
0010
0000
1000
0000
,  // measure 121
0001
0000
0000
0001
0010
0000
0100
0000
1000
0000
0010
0000
0100
0000
0001
0000
,  // measure 122
1000
0000
0000
1000
0010
0000
0100
0000
0001
0000
0100
0000
0010
0000
1000
0000
,  // measure 123
0002
0023
0230
2300
3002
0000
0403
0000
,  // measure 124
0310
0000
0000
0010
1000
0000
0001
0000
1000
0000
0001
0000
0010
0000
0100
0000
,  // measure 125
1000
0000
0000
1000
0010
0000
0100
0000
0001
0000
0100
0000
0010
0000
1000
0000
,  // measure 126
0001
0000
0000
0001
0010
0000
0001
0000
1000
0000
0010
0000
0100
0000
0001
0000
,  // measure 127
2000
3200
0320
0032
2003
0000
3004
0000
,  // measure 128
0103
0000
0010
1000
1001
0001
0010
0000
,  // measure 129
0100
0000
1000
0010
0110
0100
0100
0100
,  // measure 130
0010
0000
0100
0001
1001
1000
0100
0010
,  // measure 131
0002
0023
0230
2300
3020
0000
0430
0000
,  // measure 132
0310
0000
1000
0001
0011
0010
0100
0000
,  // measure 133
1000
0000
0010
0100
0101
0001
0001
0001
,  // measure 134
0010
0100
1000
0010
0100
0001
0100
0010
1000
0001
0010
0001
0010
0100
1000
0010
,  // measure 135
0200
0320
2030
3002
0023
0000
0430
0000
,  // measure 136
0320
0000
0000
0000
,  // measure 137
0030
0000
0000
0000
,  // measure 138
0000
0000
0000
0000
,  // measure 139
0000
0000
0000
0000
,  // measure 140
0000
0000
0000
0000
,  // measure 141
0000
0000
0000
0000
,  // measure 142
0000
0000
0000
0000
,  // measure 143
0000
0000
0000
0000
,  // measure 144
0010
0000
0010
0000
0010
0000
1000
0001
,  // measure 145
0100
0000
0001
0000
1000
0001
0010
0000
,  // measure 146
0100
0000
0100
0000
0100
0000
1000
0001
,  // measure 147
1000
0000
0010
0000
0100
0001
0010
0000
,  // measure 148
0001
0000
0001
0000
0001
0000
1000
0010
,  // measure 149
0100
0000
0001
0000
1000
0001
1000
0000
,  // measure 150
0100
0100
0010
0001
1000
1000
0010
0100
,  // measure 151
0001
0010
0100
1000
0020
0000
0130
0000
,  // measure 152
0001
0000
1000
0000
0010
0000
0100
0001
,  // measure 153
1000
0000
0001
0000
0010
0100
1000
0000
,  // measure 154
0010
0000
0100
0000
0001
0000
1000
0100
,  // measure 155
1000
0000
0010
0000
0100
0001
1000
0000
,  // measure 156
0001
0000
0100
0000
0010
0000
1000
0001
,  // measure 157
1000
0000
0010
0000
0100
0001
1000
0000
,  // measure 158
0100
0001
0100
1000
0100
0001
0100
1000
,  // measure 159
0200
0000
0300
0000
,  // measure 160
0010
0000
0000
0000
0001
0000
1000
0010
0100
0000
0010
0000
0100
0000
0001
0000
,  // measure 161
1000
0000
0001
0010
0100
0000
1000
0000
,  // measure 162
0010
0000
0000
0000
0100
0000
0001
0010
0100
0000
1000
0000
0010
0000
0100
0000
,  // measure 163
1000
0100
0010
1000
0001
0001
0010
0000
,  // measure 164
0100
0000
0000
0000
1000
0000
0010
0100
0010
0000
0100
0000
0001
0000
1000
0000
,  // measure 165
0001
0000
0010
0100
1000
0000
0010
0100
,  // measure 166
0001
0010
0100
1000
0001
0000
1000
0100
,  // measure 167
0001
0100
1000
0010
0100
0001
1000
0000
,  // measure 168
0010
0000
0000
0000
0010
0000
1000
0001
0100
0000
0010
0000
1000
0000
0001
0000
,  // measure 169
0010
0000
0010
0100
1000
0000
0010
0000
,  // measure 170
0100
0000
0000
0000
0100
0000
0001
1000
0001
0000
0010
0000
0100
0000
0010
0000
,  // measure 171
0001
1000
0010
0100
0001
0001
1000
0000
,  // measure 172
0010
0000
0000
0000
0010
0000
1000
0100
1000
0000
0010
0000
0100
0000
0001
0000
,  // measure 173
1000
0000
1000
0100
0010
0000
0001
0100
,  // measure 174
0010
0100
1000
0100
0010
0000
1000
0000
,  // measure 175
0002
0000
0003
0000
,  // measure 176
0110
0110
2002
3003
,  // measure 177
0110
0110
2002
3003
,  // measure 178
0001
1000
0002
0003
,  // measure 179
0110
0110
2002
3003
,  // measure 180
0001
0000
0010
0000
0100
0000
1000
0010
1000
0000
0010
0100
0000
0010
0100
0001
,  // measure 181
0100
0000
0001
0100
0000
0010
0100
0000
0001
0100
0010
1000
0001
1000
0010
1000
,  // measure 182
0100
0000
0010
0000
0001
0000
0100
0010
0100
0000
0010
1000
0000
0001
1000
0010
,  // measure 183
0100
0000
0010
0100
0000
0001
1000
0000
0001
1000
0000
0010
0100
0001
1000
0001
,  // measure 184
0010
0100
1000
0010
0100
0010
0100
0001
1000
0001
0010
0001
1000
0010
0100
0001
,  // measure 185
0010
0100
1000
0010
0100
0001
0100
0010
1000
0100
1000
0010
0100
0001
1000
0001
,  // measure 186
0010
0010
0200
0300
,  // measure 187
1001
1001
0220
0330
,  // measure 188
0001
0000
0010
0000
0001
0000
1000
0001
1000
0000
0010
0100
0000
0001
0100
0010
,  // measure 189
1000
0000
0100
1000
0000
0010
0100
0000
0001
0000
0010
0100
1000
0001
0100
0010
,  // measure 190
0100
0010
1000
0000
0001
0000
1000
0100
1000
0000
0100
0010
0001
0000
0010
0100
,  // measure 191
1000
0010
0100
0001
0100
0010
1000
0001
0010
0100
1000
0001
1000
0010
0100
0000
,  // measure 192
0010
0100
0001
0000
1000
0001
1000
0010
0100
0000
0001
0010
0000
0001
1000
0010
,  // measure 193
1000
0000
0010
0100
0000
0001
0100
0001
1000
0000
0010
1000
0100
0010
0100
1000
,  // measure 194
0001
0100
0010
0100
0001
1000
0001
0010
0001
1000
0010
0100
0001
0010
0100
0001
,  // measure 195
0100
1000
0010
0100
0001
1000
0010
1000
0100
1000
0010
0100
0001
1000
0001
0010
,  // measure 196
0100
1000
0001
0000
1000
0010
0100
0010
0100
0000
0001
1000
0000
0001
0010
0100
,  // measure 197
1000
0000
0010
0100
0000
0001
0100
0000
0010
0000
1000
0100
0010
0001
0010
0100
,  // measure 198
1000
0010
0100
0000
0010
0100
0001
1000
0001
0000
0010
0100
0000
1000
0100
1000
,  // measure 199
0001
0100
0001
0100
0010
1000
0001
0010
0001
1000
0010
0100
1000
0100
0010
1000
,  // measure 200
0001
0000
0010
0000
0001
0010
0100
0000
0010
0000
0100
1000
0010
0100
0001
0100
,  // measure 201
0010
0000
0100
0000
0001
1000
0010
0000
0100
0000
0010
1000
0001
1000
0100
0010
,  // measure 202
0001
0100
0010
1000
0010
0100
0001
1000
0100
0010
0001
0100
0010
1000
0010
1000
,  // measure 203
0001
0001
1000
1000
,  // measure 204
0020
0000
0000
0000
1030
0100
0100
0001
1000
0100
0100
0001
1000
0100
0100
0001
,  // measure 205
1000
0000
0000
0000
0001
0100
0100
1000
0001
0100
0100
1000
0001
0100
0100
1000
,  // measure 206
0001
0000
0000
0000
0000
0000
0000
0000
0000
0000
0000
0000
0100
0000
0000
0000
0000
0000
0010
0000
0100
0000
0010
0000
0100
0000
0000
0100
0000
0000
1000
0000
0000
0001
0000
0000
0100
0000
0000
0100
0000
0000
1000
0000
0000
0001
0000
0000
,  // measure 207
0100
0000
0000
0000
0000
0000
0000
0000
0000
0000
0000
0000
0010
0000
0000
0000
0000
0000
0100
0000
0010
0000
0100
0000
0010
0000
0000
0010
0000
0000
0001
0000
0000
1000
0000
0000
0010
0000
0000
0010
0000
0000
0001
0000
0000
1000
0000
0000
,  // measure 208
0010
0000
0100
0001
1000
0001
0010
0100
,  // measure 209
1000
0000
0010
0100
0001
1000
0001
0001
,  // measure 210
0001
0000
1000
0010
0100
0001
1000
0001
,  // measure 211
0010
0010
0200
0300
,  // measure 212
1000
0000
0000
0000
0001
0100
0100
1000
0001
0100
0100
1000
0001
0100
0100
1000
,  // measure 213
0001
0000
0000
0000
1000
0100
0100
0001
1000
0100
0100
0001
1000
0100
0100
0001
,  // measure 214
1000
0000
0000
0000
0000
0000
0000
0000
0000
0000
0000
0000
0010
0000
0000
0000
0000
0000
0100
0000
0010
0000
0100
0000
0010
0000
0000
0010
0000
0000
0001
0000
0000
1000
0000
0000
0010
0000
0000
0010
0000
0000
0001
0000
0000
1000
0000
0000
,  // measure 215
0010
0000
0000
0000
0000
0000
0000
0000
0000
0000
0000
0000
0100
0000
0000
0000
0000
0000
0010
0000
0100
0000
0010
0000
0100
0000
0000
0100
0000
0000
1000
0000
0000
0001
0000
0000
0100
0000
0000
0100
0000
0000
1000
0000
0000
0001
0000
0000
,  // measure 216
0100
0010
1000
0001
0010
0001
1000
0010
0100
0001
1000
0100
0010
0001
0100
0010
,  // measure 217
1000
0001
0010
0001
1000
0010
0100
0001
1000
0001
0100
0010
1000
0100
1000
0001
,  // measure 218
0100
0010
0200
0300
,  // measure 219
1001
1001
0220
0330
,  // measure 220
0001
0000
0000
0000
0100
0000
0010
0100
0010
0000
1000
0000
0001
0000
1000
0000
,  // measure 221
0100
0010
0001
0100
0010
0000
1000
0010
,  // measure 222
0110
0100
0001
1000
1001
0000
0110
0000
,  // measure 223
2002
0000
0000
0000
,  // measure 224
0000
0000
0000
0000
,  // measure 225
0000
0000
0000
0000
,  // measure 226
0000
0000
0000
0000
,  // measure 227
0000
0000
0000
0000
,  // measure 228
0000
0000
0000
0000
,  // measure 229
3003
0000
0000
0000
;

//---------------dance-single - Blank----------------
#NOTES:
     dance-single:
     Blank:
     Hard:
     11:
     0.686143,1.197896,0.221921,0.310689,0.447012,1515.000000,1445.000000,70.000000,98.000000,0.000000,0.000000,0.686143,1.197896,0.221921,0.310689,0.447012,1515.000000,1445.000000,70.000000,98.000000,0.000000,0.000000:
0000
0000
0000
0000
,
0000
0000
0000
0000
,
0000
0000
0000
0000
,
0000
0000
0000
0000
,
0000
0000
0000
0000
,
0000
0000
0000
0000
,
0000
0000
0000
0000
,
0000
0000
0000
0000
,
2000
0000
0000
0000
3000
0000
0001
0100
0001
0000
0100
0000
0010
0000
1000
0000
,
0001
0000
1000
0100
1000
0000
0010
0000
,
0200
0000
0000
0000
0300
0000
0001
1000
0001
0000
0010
0000
0001
0000
0100
0000
,
0010
1000
0001
0010
0100
0000
1000
0000
,
0020
0000
0000
0000
0030
0000
0100
0001
0100
0000
0010
0000
1000
0000
0001
0000
,
0010
0000
0100
1000
0001
0000
0100
0010
,
1000
0001
0010
0100
1000
0000
0001
0000
,
0200
0300
0000
0000
,
1001
1001
0220
0330
,
1001
1001
0220
0330
,
0001
1000
0001
0000
,
1001
1001
0220
0330
,
1000
0010
0100
0010
0100
0001
1000
0001
,
0010
0001
0100
0010
1000
0001
0010
0100
,
1000
0010
0100
0001
0100
0010
1000
0001
,
1000
0010
0100
0001
0100
0010
1000
0001
,
1000
0001
1000
0001
1000
0001
1000
0001
0100
0001
0100
0001
0100
0001
0100
0001
,
0100
0010
0100
0010
0100
0010
0100
0010
1000
0010
1000
0010
1000
0010
1000
0010
,
2000
0000
0000
3000
,
0110
0110
0110
0000
,
1000
0000
0000
0000
0010
0100
0001
0000
0010
0100
0001
0000
0010
0100
0001
0100
,
0010
0000
0000
0000
0001
1000
0100
0000
0001
1000
0100
0000
0001
1000
0100
1000
,
0001
0001
1000
0010
0100
0001
1000
0010
,
1000
1000
0100
0010
0001
0100
0010
1000
,
0010
0000
0000
0000
1000
0001
0100
0000
1000
0001
0100
0000
1000
0001
0100
0001
,
1000
0000
0000
0000
0010
1000
0001
0000
0010
1000
0001
0000
0010
1000
0001
1000
,
0010
0100
0001
0010
0100
1000
0010
0100
,
0001
0001
1000
1000
,
0010
0000
0000
0000
0100
0001
1000
0001
1000
0010
1000
0010
0100
0001
1000
0001
,
1000
0000
0000
0000
0001
0010
0100
0000
0001
0010
0100
1000
0001
1000
0010
0100
,
0001
0000
0100
0001
1000
0000
0001
1000
0001
0000
1000
0000
0100
0000
0010
0000
,
0001
0000
0000
0000
0001
1000
0010
0100
0001
0000
0100
0001
1000
0000
0001
1000
,
0100
0000
0000
0000
0001
1000
0001
1000
0100
1000
0100
1000
0001
1000
0001
1000
,
0100
0000
0000
0000
0010
0001
0010
0001
1000
0001
1000
0001
0010
0001
0010
0001
,
1000
0010
0100
0001
0010
0100
1000
0010
,
0220
0000
0330
0000
,
0001
0000
0001
0010
0100
0000
0100
1000
,
0001
1000
0010
0100
0001
0000
1000
0010
,
0100
0000
0100
0001
1000
0000
1000
0001
,
0010
0100
1000
0010
0100
0000
0100
0000
,
0001
0000
0001
1000
0010
0000
0010
1000
,
0100
0010
0001
0100
0010
0000
0010
0100
,
0001
0000
0001
0010
0100
0000
0100
1000
,
0001
0100
0010
1000
0010
0000
0110
0000
,
1000
0000
1000
0010
0100
0000
0001
1000
,
0001
0010
0100
1000
0010
0000
0100
0001
,
0100
0000
0010
1000
0001
0000
0001
0010
,
0100
1000
0001
1000
0001
0000
0100
0000
,
1001
1001
0220
0330
,
1001
1001
0220
0330
,
0001
1000
0002
0003
,
0110
0110
2002
3003
,
0010
0100
0001
1000
0001
0010
0100
1000
,
0001
1000
0010
0100
0001
0100
1000
0100
,
0001
1000
0001
0010
0100
1000
0001
0100
,
0010
0100
0001
1000
0001
0010
0100
1000
,
0001
1000
0001
1000
0010
1000
0010
1000
0010
0100
0010
0100
0010
0100
0001
0100
,
0001
1000
0001
0100
0001
1000
0010
0100
0010
0100
0001
0100
0010
0100
0010
1000
,
0010
0100
0020
0030
,
1001
1001
0220
0330
,
1001
0000
0000
0000
0000
0000
1000
0010
0100
0001
1000
0010
0100
0001
1000
0010
,
0100
0000
0000
0000
0000
0000
0001
0100
0010
1000
0001
0100
0010
1000
0001
0100
,
0010
0000
0000
0000
0010
0000
0010
0000
1000
0010
0100
0001
1000
0010
0100
0001
,
0000
1000
1000
1000
0000
0001
0001
0000
,
0100
0000
0000
0000
0000
0000
0001
1000
0010
0100
0001
1000
0010
0100
0001
1000
,
0010
0000
0000
0000
0000
0000
1000
0001
0100
0010
1000
0001
0100
0010
1000
0001
,
0100
0000
0010
1000
0001
0000
1000
0000
0001
0010
0100
1000
0001
0010
0100
1000
,
0001
0001
1000
1000
,
0010
0000
0000
0000
0000
0000
1000
0100
0010
0001
1000
0100
0010
0001
1000
0100
,
0010
0000
0000
0000
0000
0000
0001
0010
0100
1000
0001
0010
0100
1000
0001
0010
,
0100
0000
0010
0000
0001
0000
1000
0000
0010
0100
0001
1000
0010
0100
0001
1000
,
0010
0000
0100
0000
0001
0000
0000
0001
0000
0000
1000
0000
0000
1000
0000
0000
,
0010
0000
0000
0000
0000
0000
0010
0100
0001
1000
0010
0100
0001
1000
0010
0100
,
0001
0000
0000
0000
0000
0000
1000
0010
0100
0001
1000
0010
0100
0001
1000
0010
,
0100
0000
0001
1000
0001
0000
0100
0000
0001
0010
0100
1000
0001
0010
0100
1000
,
0002
0000
0000
0000
,
2000
0000
0000
3003
,
0000
0000
0000
0000
,
0000
0000
0000
0000
,
0000
0000
0000
0000
,
0020
0000
0000
0000
0030
0000
1000
0001
1000
0000
0010
0000
0100
0000
0001
0000
,
1000
0000
0001
0010
0100
0000
1000
0010
,
0100
0010
1000
0001
1000
0000
0001
0000
,
0020
0030
0000
0000
,
0200
0000
0000
0000
0300
0000
1000
0001
1000
0000
0010
0000
0100
0000
0001
0000
,
0100
0000
0001
0010
0100
0000
1000
0000
,
0020
0000
0000
0000
0030
0000
1000
0001
1000
0000
0001
0000
0010
0000
0100
0000
,
0010
0001
1000
0010
0100
0000
0010
0000
,
2000
0000
0000
0000
3000
0000
0001
0010
0001
0000
0100
0000
0010
0000
1000
0000
,
0001
0000
0010
0100
1000
0000
0010
0100
,
0001
0100
0010
1000
0001
0000
1000
0000
,
0220
0330
0000
0000
,
0002
0000
0000
0000
0003
0000
0100
0001
0100
0000
0010
0000
1000
0000
0001
0000
,
1000
0000
0100
0010
0001
0000
0100
0000
,
0020
0000
0000
0000
0030
0000
0100
0001
0100
0000
0001
0000
0010
0000
0100
0000
,
1000
0001
1000
0010
0100
0000
0001
0000
,
2000
0000
0000
0000
3000
0000
0100
0010
0100
0000
0010
0000
0001
0000
0100
0000
,
0010
0000
1000
0001
0010
0000
0100
1000
,
0010
0100
0001
1000
0001
0000
0010
0000
,
0220
0330
0000
0000
,
1001
1001
0220
0330
,
1001
1001
0220
0330
,
1000
0001
2000
3000
,
1001
1001
0220
0330
,
0110
0110
2002
3003
,
0110
0110
2002
3003
,
0001
1000
0002
0003
,
0110
0110
2002
3003
,
0010
0100
0010
0100
0001
0100
0001
0100
0010
1000
0010
1000
0001
1000
0001
1000
,
0001
0100
0001
0100
0001
0100
0010
0100
0010
0100
0010
1000
0010
1000
0010
1000
,
0001
1000
0001
1000
0001
0100
0001
0100
0001
0100
0010
0100
0010
1000
0010
1000
,
0010
0010
0200
0300
,
1001
0000
1000
0200
0301
0200
1300
0000
,
0010
0000
0100
0002
0003
0001
0001
0001
,
1000
0000
0001
0100
1000
0100
0001
0010
,
0100
0100
1000
0001
0200
0000
0320
0000
,
1030
0000
0001
0020
1030
0020
0031
0000
,
0100
0000
0010
2000
3000
1000
1000
1000
,
0001
0000
0000
0001
1000
0000
0010
0000
0100
0000
0100
0000
0001
0000
0100
0000
,
0010
1000
0010
0001
0020
0000
2030
0000
,
3001
0000
0010
0100
1100
1000
0001
0000
,
0100
0000
0010
1000
1001
0100
0100
0100
,
0010
0000
1000
0001
0011
0010
0100
1000
,
0010
0010
0100
0001
2000
0000
3002
0000
,
0013
0000
0100
1000
1001
0001
0100
0000
,
0010
0000
1000
0001
1001
0100
0100
0100
,
0010
0000
1000
0001
0011
0010
0100
1000
,
0010
0100
0001
1000
0020
0000
0230
0000
,
0302
0000
0000
0000
,
0003
0000
0000
0000
,
0000
0000
0000
0000
,
0000
0000
0000
0000
,
0000
0000
0000
0000
,
0000
0000
0000
0000
,
0000
0000
0000
0000
,
0000
0000
0000
0000
,
0010
0000
1000
0000
0001
0000
1000
0001
,
1000
0000
0010
0000
0100
0001
1000
0000
,
0010
0000
0010
0000
0010
0000
1000
0100
,
0010
0000
0001
0000
0010
0100
1000
0000
,
0010
0000
0100
0000
0001
0000
1000
0001
,
0010
0000
0100
0000
1000
0010
0100
0000
,
0001
0001
1000
0010
0100
0100
0001
1000
,
0010
0100
1000
0100
0020
0000
0030
0000
,
1000
0000
0100
0000
0010
0000
0001
0100
,
0010
0000
0100
0000
0001
1000
0001
0000
,
0010
0000
0100
0000
1000
0000
0010
0100
,
0010
0000
1000
0000
0001
0010
0100
0000
,
1000
0000
0010
0000
0100
0000
0001
1000
,
0001
0000
0010
0000
0100
1000
0010
0000
,
0100
0100
0001
1000
0010
0010
0100
0001
,
2000
0000
3000
0000
,
0200
0000
0000
0000
0300
0000
0001
0010
0001
0000
0100
0000
0010
0000
1000
0000
,
0001
0000
0001
0100
0010
0000
1000
0000
,
2000
0000
0000
0000
3000
0000
0001
1000
0001
0000
1000
0000
0100
0000
0010
0000
,
0001
0100
0010
1000
0010
0000
0100
0000
,
0002
0000
0000
0000
0003
0000
0010
0100
0010
0000
0100
0000
1000
0000
0010
0000
,
0100
0000
0001
1000
0001
0000
0010
0100
,
1000
0010
0100
0001
1000
0000
0001
0010
,
0100
1000
0001
1000
0010
0100
0010
0000
,
2000
0000
0000
0000
3000
0000
0001
0100
0001
0000
0100
0000
0010
0000
1000
0000
,
0001
0000
0010
0100
1000
0000
0010
0000
,
0200
0000
0000
0000
0300
0000
0010
1000
0010
0000
0100
0000
0001
0000
1000
0000
,
0001
0010
0100
1000
0001
0000
1000
0000
,
0020
0000
0000
0000
0030
0000
1000
0001
1000
0000
0001
0000
0100
0000
0010
0000
,
0100
0000
0001
0010
0100
0000
1000
0010
,
0100
0001
1000
0001
0010
0000
0100
0000
,
2000
0000
3000
0000
,
0110
0110
2002
3003
,
0110
0110
2002
3003
,
1000
0001
2000
3000
,
0110
0110
2002
3003
,
0001
0100
0010
1000
0001
0010
0100
1000
,
0001
1000
0010
0100
0001
1000
0010
1000
,
0100
0010
0001
0100
0010
1000
0010
0100
,
0001
1000
0001
0010
0100
1000
0010
0100
,
0001
1000
0001
1000
0010
1000
0010
1000
0001
1000
0001
1000
0001
0100
0001
0100
,
0010
0100
0010
0100
0001
0100
0001
0100
0001
1000
0001
1000
0010
1000
0010
1000
,
0010
0010
0200
0300
,
1001
1001
0220
0330
,
0001
0000
1000
0000
0010
0000
1000
0001
1000
0000
0010
0100
0000
0001
0100
0000
,
0010
0000
1000
0001
0000
1000
0100
0000
1000
0000
0001
0100
0001
0000
0100
0000
,
0010
0000
1000
0000
0001
0000
0010
0001
0010
0000
0100
1000
0000
0001
1000
0000
,
0010
0100
0000
0001
0100
0000
0001
1000
0000
0100
1000
0000
0100
0000
0010
0000
,
0001
0000
1000
0000
0010
0000
0100
0001
0100
0000
0010
1000
0000
0001
1000
0000
,
0100
0000
0010
0001
0000
1000
0001
0000
0010
0000
0100
0000
1000
0000
0010
0100
,
0001
0000
1000
0001
0000
1000
0100
0000
1000
0010
0000
0100
0001
0100
0010
0100
,
0001
0000
1000
0001
0000
0010
0100
0000
1000
0010
0000
0100
0020
0000
0000
0000
,
1030
0000
0001
0000
0010
0000
0001
0100
0001
0000
0100
0010
0000
1000
0010
0000
,
0100
0000
0001
1000
0000
0100
1000
0000
0010
0000
0100
0000
0001
0000
1000
0000
,
0001
0000
0010
0000
0100
0000
1000
0001
1000
0000
0010
0100
0000
0001
0100
0000
,
0010
1000
0000
0001
1000
0000
0100
0010
0000
0001
1000
0000
0001
0010
0100
1000
,
0001
0001
1000
0010
0100
0100
0001
1000
,
0010
0010
0100
0001
1000
1000
0100
0010
,
0001
0010
0001
0010
0001
1000
0001
1000
0010
1000
0010
1000
0010
0100
0010
0100
,
0010
0100
0010
0100
0020
0000
0030
0000
,
1000
0000
0000
0000
0001
1000
0100
0000
0001
1000
0100
0000
0001
1000
0100
1000
,
0001
0000
0000
0000
1000
0001
0010
0000
1000
0001
0010
0000
1000
0001
0010
0001
,
1000
0000
0000
0000
1000
0000
0001
0100
0010
1000
0001
0100
0010
1000
0001
0100
,
0010
0000
0000
0000
0000
0000
1000
0010
0100
0001
1000
0010
0100
0001
1000
0010
,
0100
0000
0001
0200
1300
0200
0301
0000
,
1000
0000
0001
0020
0030
0010
0010
0010
,
0100
1000
0002
0003
,
0100
0010
0100
0010
0200
0000
0300
0000
,
0010
0000
0000
0000
1000
0001
0100
0000
1000
0001
0100
0000
1000
0001
0100
0001
,
1000
0000
0000
0000
0001
1000
0010
0000
0001
1000
0010
0000
0001
1000
0010
1000
,
0001
0000
0000
0000
0000
0000
1000
0100
0010
0001
1000
0100
0010
0001
1000
0100
,
0010
0000
0000
0000
0000
0000
0001
0010
0100
1000
0001
0010
0100
1000
0001
0010
,
0100
0000
0001
0200
1300
0200
0301
0000
,
0010
0000
0100
1000
1000
1000
1000
1000
,
0010
0000
0100
0000
,
0010
0010
0010
0000
,
2000
0000
0000
0000
3000
0000
0010
1000
0010
0000
0100
0000
0001
0000
1000
0000
,
0001
0000
0010
0100
1000
0000
0010
0100
,
0101
0001
1000
0010
0110
0000
0110
0000
,
2002
0000
0000
0000
,
0000
0000
0000
0000
,
0000
0000
0000
0000
,
0000
0000
0000
0000
,
0000
0000
0000
0000
,
0000
0000
0000
0000
,
3003
0000
0000
0000
;

//---------------dance-single - Blank----------------
#NOTES:
     dance-single:
     Blank:
     Medium:
     9:
     0.601903,0.762298,0.231432,0.202899,0.129982,1329.000000,1256.000000,73.000000,64.000000,0.000000,0.000000,0.601903,0.762298,0.231432,0.202899,0.129982,1329.000000,1256.000000,73.000000,64.000000,0.000000,0.000000:
0000
0000
0000
0000
,
0000
0000
0000
0000
,
0000
0000
0000
0000
,
0000
0000
0000
0000
,
0000
0000
0000
0000
,
0000
0000
0000
0000
,
0000
0000
0000
0000
,
0000
0000
0000
0000
,
0002
0000
0003
1000
0010
0100
0001
0100
,
0001
0000
0010
0100
1000
0000
0010
0000
,
0200
0000
0300
0001
0100
0010
1000
0001
,
0010
0100
1000
0001
0100
0000
0010
0000
,
2000
0000
3000
0100
0010
0001
0100
0010
,
0100
0000
0001
0010
0100
0000
1000
0010
,
0100
0001
1000
0001
0010
0000
0100
0000
,
2000
0000
3000
0000
,
1001
1001
2002
3003
,
1001
1001
2002
3003
,
0110
0110
0220
0330
,
1001
1001
2002
3003
,
1000
0010
0100
0001
0100
0001
1000
0001
,
0010
0100
1000
0010
0100
0010
1000
0010
,
0100
0001
1000
0001
0010
0100
1000
0001
,
1000
0010
0100
0001
1000
0100
0010
0001
,
0100
0010
1000
0001
0010
0100
1000
0010
,
0100
0000
0001
0000
1000
0000
0001
0000
0100
0010
0100
0010
0100
0010
0100
0010
,
0200
0010
0310
0000
,
1001
1001
2002
3003
,
1010
0000
0000
0000
1000
0000
0010
0000
1000
0000
0010
0000
1000
0001
1000
0001
,
1000
0000
0000
0000
0001
0000
0100
0000
0001
0000
0100
0000
0001
1000
0001
1000
,
0001
0010
0100
1000
0010
0100
0001
0100
,
0010
1000
0001
1000
0100
0010
0001
0100
,
0010
0000
0000
0000
1000
0000
0001
0000
1000
0000
0001
0000
0100
0001
0100
0001
,
0100
0000
0000
0000
0010
0000
1000
0000
0010
0000
1000
0000
0001
1000
0001
1000
,
0001
0010
0100
1000
0010
1000
0100
0010
,
0001
0001
1000
1000
,
1001
0000
0000
0000
0001
0000
0100
0000
0010
0000
1000
0000
0010
1000
0010
1000
,
0010
0000
1000
0100
0010
0001
0100
1000
,
0100
0001
0100
1000
0100
0001
1000
0100
,
0010
0000
0001
0010
1000
0010
0001
0010
,
0100
0000
0000
0000
1000
0000
0010
0000
0100
0000
0001
0000
1000
0001
1000
0001
,
1000
0000
0010
0000
0100
0000
0001
0000
1000
0000
0001
0000
0010
0001
0010
0001
,
0010
0100
1000
0010
0100
0001
0100
0010
,
2000
0000
3000
0000
,
0010
0000
0100
0001
0100
0000
0010
1000
,
0001
0010
0100
1000
0010
0000
0100
0001
,
0100
0000
0001
1000
0001
0000
1000
0100
,
0010
0001
0100
0010
0100
0000
0000
0000
,
0001
0000
1000
0010
0100
0000
0001
1000
,
0001
1000
0100
0010
0001
0000
0100
0010
,
0100
0000
0010
1000
0001
0000
1000
0100
,
0010
0100
1000
0001
0100
0000
0000
0000
,
0010
0000
1000
0001
0010
0000
0100
1000
,
0001
0100
0010
0100
0001
0000
1000
0100
,
0010
0000
0001
1000
0001
0000
1000
0010
,
0100
0001
0010
0001
1000
0000
0000
0000
,
0110
0110
0220
0330
,
0110
0110
0220
0330
,
1001
1001
2002
3003
,
0110
0110
0220
0330
,
0010
1000
0001
1000
0001
0010
0100
0010
,
0100
1000
0010
0100
0001
1000
0001
0010
,
0100
1000
0010
0100
0001
1000
0100
1000
,
0010
0100
0001
1000
0001
0010
0100
1000
,
0010
0100
0001
1000
0010
1000
0100
0010
,
0001
0000
0100
0000
0010
0000
1000
0000
0001
1000
0001
1000
0001
1000
0001
1000
,
0002
1000
1003
0000
,
1001
1001
2002
3003
,
0010
0000
0000
0000
0000
0000
1000
0001
0100
0000
0010
0000
0100
0000
0001
0000
,
1000
0000
0000
0000
0000
0000
0001
0010
0100
0000
1000
0000
0010
0000
0100
0000
,
0010
0000
1000
0000
0001
0000
1000
0000
0001
1000
0010
0000
1000
0000
0100
0000
,
0000
0100
0100
0100
0000
0010
0010
0000
,
1001
0000
0000
0000
0000
0000
0001
1000
0010
0000
0100
0000
0010
0000
1000
0000
,
0100
0000
0000
0000
0000
0000
0010
0001
1000
0000
0001
0000
0100
0000
0010
0000
,
0100
0000
0001
0000
1000
0000
0100
0000
0010
0001
0010
0000
0001
0000
0100
0000
,
0010
0010
0100
0100
,
0010
0000
0000
0000
0000
0000
1000
0001
1000
0000
0010
0000
0100
0000
0010
0000
,
1000
0000
0000
0000
0000
0000
0001
0100
0010
0000
1000
0000
0001
0000
0010
0000
,
0001
0000
0100
0000
0010
0000
0100
0000
0001
1000
0010
0000
0100
0000
0010
0000
,
1000
0000
0000
0000
0001
0000
0000
1000
0000
0000
0001
0000
0000
1000
0000
0000
,
0001
0000
0000
0000
0000
0000
1000
0010
0100
0000
0010
0000
0100
0000
0001
0000
,
1000
0000
0000
0000
0000
0000
0001
1000
0100
0000
1000
0000
0010
0000
0100
0000
,
0001
0000
1000
0000
0001
0000
0010
0000
0100
1000
0100
0000
1000
0000
0010
0000
,
0200
0000
0000
0000
,
0310
0000
0000
0000
,
0000
0000
0000
0000
,
0000
0000
0000
0000
,
0000
0000
0000
0000
,
0100
0000
0000
0010
1000
0001
0010
0100
,
1000
0000
0010
0100
0001
0000
1000
0100
,
0010
0001
0010
0100
1000
0000
0010
0000
,
0100
0000
0000
0000
,
0010
0000
0000
0100
0001
0100
0010
1000
,
0001
0000
0010
0100
1000
0000
0010
0000
,
0100
0000
0000
0001
0100
0010
1000
0001
,
1000
0100
0010
0001
0100
0000
0010
0000
,
0100
0000
0000
0001
0010
0100
1000
0010
,
0100
0000
0010
0100
0010
0000
1000
0100
,
0010
0001
0100
0010
0100
0000
0001
0000
,
2000
3000
0010
0010
,
0100
0000
0000
0001
1000
0010
1000
0010
,
0100
0000
0001
0010
0100
0000
1000
0000
,
0010
0000
0000
0100
0001
0100
0010
1000
,
0001
0010
0100
1000
0010
0000
0100
0000
,
0001
0000
0000
1000
0100
1000
0001
0100
,
0010
0000
1000
0001
1000
0000
0001
0010
,
0100
1000
0010
0100
0001
0000
1000
0000
,
0020
0030
0000
0000
,
1001
1001
2002
3003
,
1001
1001
2002
3003
,
0110
0110
0220
0330
,
1001
1001
2002
3003
,
1000
0000
1000
0010
0000
0010
0100
0000
,
0001
0000
0001
1000
0000
1000
0100
0000
,
0010
0000
0010
0001
0000
0001
1000
0000
,
0010
0000
0010
0100
0000
0100
0001
0000
,
0010
0100
1000
0001
0100
0010
1000
0010
,
0100
0001
1000
0100
0010
0001
0100
0010
,
0100
0000
0001
0000
1000
0000
0010
0000
0100
0010
0100
0010
0100
0010
0100
0010
,
0200
0010
0310
0000
,
1000
0000
0010
1000
0000
1000
0001
0000
,
0010
0000
0100
1000
0000
1000
1000
1000
,
0010
0000
0100
0001
0000
0001
1000
0000
,
0001
0100
1000
0100
0002
0000
2003
0000
,
3010
0000
1000
0100
0000
0010
0001
0000
,
0100
0000
0010
1000
0000
0001
0001
0001
,
1000
0000
0100
0010
0000
0001
0100
0010
,
1000
0100
0001
0100
2000
0000
3020
0000
,
0130
0000
0001
0100
0110
0010
1000
0000
,
0001
0000
1000
0100
0110
0010
0010
0010
,
0001
0000
1000
0010
0110
0100
0001
1000
,
0001
0100
1000
0100
0002
0000
0023
0000
,
0130
0000
1000
0001
0101
0100
0010
1000
,
0001
0000
0010
0100
1100
1000
1000
1000
,
0010
0000
0100
0001
0101
0100
0010
1000
,
0001
0010
0100
1000
0010
0000
0100
0000
,
0002
0000
0000
0000
,
0003
0000
0000
0000
,
0000
0000
0000
0000
,
0000
0000
0000
0000
,
0000
0000
0000
0000
,
0000
0000
0000
0000
,
0000
0000
0000
0000
,
0000
0000
0000
0000
,
1000
0000
0001
0000
1000
0000
0010
0100
,
0001
0000
1000
0000
0001
0010
0100
0000
,
1000
0000
0010
0000
0100
0000
0001
1000
,
0001
0000
1000
0000
0001
0010
0100
0000
,
1000
0000
0010
0000
0100
0000
0001
1000
,
0001
0000
1000
0000
0010
1000
0100
0000
,
0100
0001
0100
1000
0100
0001
0100
1000
,
0100
0001
0100
1000
0020
0000
0030
0000
,
0100
0000
0001
0000
1000
0000
0001
0010
,
0100
0000
1000
0000
0010
0100
0010
0000
,
0100
0000
0001
0000
1000
0000
0100
0010
,
0001
0000
0100
0000
0010
1000
0010
0000
,
0100
0000
0001
0000
1000
0000
0001
0010
,
0001
0000
0100
0000
0010
0100
0001
0000
,
0100
0000
0010
0000
0100
0000
0010
0000
0100
0010
0100
0010
0100
0010
0100
0010
,
0200
0000
0300
0000
,
0010
0000
0000
1000
0001
1000
0100
0010
,
0001
0000
0100
0010
0100
0000
0001
0000
,
1000
0000
0000
0001
0010
0100
1000
0010
,
0100
0001
1000
0100
1000
0000
0010
0000
,
0100
0000
0000
0001
1000
0001
0010
0100
,
1000
0000
0010
0100
0001
0000
0100
0010
,
1000
0001
0010
0100
1000
0000
0010
0100
,
0001
0100
1000
0100
0001
1000
0001
0010
,
0100
0000
0000
1000
0010
0100
0001
1000
,
0001
0000
0010
0100
1000
0000
0010
0000
,
0100
0000
0000
0001
1000
0001
1000
0010
,
0100
0001
0010
0100
1000
0000
0010
0000
,
0100
0000
0000
0001
1000
0001
0010
0001
,
0100
0000
0010
1000
0001
0000
0010
0100
,
1000
0010
0100
0001
1000
0000
0001
0000
,
0200
0000
0300
0000
,
1001
1001
2002
3003
,
1001
1001
2002
3003
,
0110
0110
0220
0330
,
1001
1001
2002
3003
,
0010
1000
0001
0010
0100
1000
0010
0100
,
0001
0100
0010
1000
0001
1000
0100
0010
,
0001
0100
0010
0100
0001
1000
0001
0010
,
0100
1000
0010
0100
0001
1000
0100
1000
,
0010
0100
0001
1000
0001
0010
0100
1000
,
0010
0000
0100
0000
0001
0000
0100
0000
0010
0100
0010
0100
0010
0100
0010
0100
,
0020
0100
0130
0000
,
1001
1001
2002
3003
,
1000
0000
0010
0000
0100
0000
0001
1000
0001
0000
0010
0000
0100
0000
1000
0000
,
0010
0100
0001
1000
0001
0010
0100
1000
,
0010
0000
0100
0000
0001
0000
1000
0010
1000
0000
0010
0000
0100
0000
0001
0000
,
1000
0000
0000
0100
0000
0000
0010
0000
0000
0001
0000
0000
1000
0000
0010
0000
,
0100
0000
0001
0000
0010
0000
0001
0100
0001
0000
0100
0000
0010
0000
1000
0000
,
0001
0000
0010
0000
0100
0000
1000
0000
0010
0000
0100
0000
0001
0000
0100
0001
,
1000
0000
0000
0010
0000
0000
0100
0000
0000
0001
0000
0000
1000
0001
1000
0000
,
0010
0000
0000
0100
0000
0000
0001
0000
0000
0010
0000
0000
0100
1000
0001
0000
,
0100
0000
0010
0000
1000
0000
0001
1000
0100
0000
0010
0000
0001
0000
0100
0000
,
0010
1000
0010
0100
0001
1000
0001
0010
,
0100
0000
1000
0000
0001
0000
0100
0001
0100
0000
0010
0000
1000
0000
0001
0000
,
0010
0000
0000
0001
0000
0000
0100
0000
0000
0010
0000
0000
1000
0001
1000
0000
,
0010
0000
0010
0000
0100
0001
0100
0000
0010
0000
1000
0000
0001
0000
0010
0001
,
0010
0000
0001
0000
0100
0010
0100
0000
0010
0000
1000
0000
0001
0000
1000
0000
,
0100
0000
0010
0000
0001
1000
0001
0000
0100
0000
0010
0000
1000
0001
1000
0000
,
0010
0100
0001
0010
0200
0000
0300
0000
,
1010
0000
0000
0000
1000
0000
0010
0000
1000
0000
0010
0000
0100
0001
0100
0001
,
0100
0000
0000
0000
0001
0000
1000
0000
0001
0000
1000
0000
0010
1000
0010
1000
,
0010
0000
0000
0000
0000
0000
0100
0001
1000
0000
0001
0000
1000
0000
0010
0000
,
1000
0000
0000
0000
0000
0000
0010
0100
0001
0000
0100
0000
0010
0000
0100
0000
,
0001
0000
0010
0100
1100
1000
0001
0000
,
0100
0000
0010
1000
1001
0001
0001
0001
,
0010
0000
0100
1000
0001
0100
0010
1000
,
0001
1000
0020
0030
,
1001
0000
0000
0000
0100
0000
0001
0000
0100
0000
0001
0000
0100
0010
0100
0010
,
0100
0000
0000
0000
0010
0000
1000
0000
0001
0000
1000
0000
0001
1000
0001
1000
,
0001
0000
0000
0000
0000
0000
0010
0100
0001
0000
0100
0000
0001
0000
1000
0000
,
0010
0000
0000
0000
0000
0000
1000
0100
0010
0000
0100
0000
1000
0000
0001
0000
,
0100
0000
0010
1000
1001
0001
0010
0000
,
0100
0000
1000
0010
0110
0100
0100
0100
,
0001
1000
0001
0000
,
0100
0100
0100
0000
,
0010
0000
0000
1000
0001
0010
0001
0100
,
0010
0000
1000
0001
0010
0000
0100
1000
,
0010
0100
0001
1000
0001
0000
0100
0000
,
2002
0000
0000
0000
,
0000
0000
0000
0000
,
0000
0000
0000
0000
,
0000
0000
0000
0000
,
0000
0000
0000
0000
,
0000
0000
0000
0000
,
3003
0000
0000
0000
;

//---------------dance-single - Blank----------------
#NOTES:
     dance-single:
     Blank:
     Easy:
     7:
     0.434783,0.580798,0.199729,0.253624,0.003170,960.000000,897.000000,63.000000,80.000000,0.000000,0.000000,0.434783,0.580798,0.199729,0.253624,0.003170,960.000000,897.000000,63.000000,80.000000,0.000000,0.000000:
0000
0000
0000
0000
,
0000
0000
0000
0000
,
0000
0000
0000
0000
,
0000
0000
0000
0000
,
0000
0000
0000
0000
,
0000
0000
0000
0000
,
0000
0000
0000
0000
,
0000
0000
0000
0000
,
1000
0000
0010
0100
,
0001
0000
1000
0001
1000
0000
0000
0000
,
0010
0000
0100
0001
,
0010
0001
1000
0001
1000
0000
0010
0000
,
0100
0000
0001
1000
,
0010
0000
0100
0001
0100
0000
0010
0000
,
1000
0001
0010
0100
,
2200
3300
0000
0000
,
1001
1001
2002
3003
,
1001
1001
2002
3003
,
0110
0110
0220
0330
,
1001
1001
2002
3003
,
0010
0100
0002
0003
,
0010
0100
2000
3000
,
0010
0100
0002
0003
,
0100
0010
0200
0300
,
0001
1000
0020
0030
,
0100
0001
0200
0300
,
0010
1000
0001
0010
0100
1000
0010
0100
,
0020
0100
0130
0000
,
0100
0000
0001
1000
0001
1000
0001
0000
,
0010
0000
0001
1000
0001
1000
0001
0000
,
0100
0010
1000
0001
,
0010
0100
1000
0001
,
0100
0000
0010
1000
0010
1000
0010
0000
,
0100
0000
0001
1000
0001
1000
0001
0000
,
0010
0100
1000
0010
,
0100
0100
0010
0010
,
0100
0000
0001
1000
0010
1000
0001
0000
,
0100
0000
0001
1000
0100
1000
0001
0000
,
0100
0010
1000
0000
0001
1000
0001
0000
,
0010
0000
0100
1000
0001
0000
0100
0001
,
0100
0000
0010
0000
0010
0000
1000
0001
,
1000
0000
0100
0000
0100
0000
0010
0001
,
1000
0001
1000
0001
1000
0010
1000
0010
,
0100
0000
0000
0000
,
0010
0000
0100
0000
,
0001
1000
0010
0100
0001
0000
0000
0000
,
1000
0000
0100
0000
,
0010
0001
0100
0010
0100
0000
0000
0000
,
0010
0000
1000
0000
,
0001
1000
0001
1000
0010
0000
0000
0000
,
0100
0000
0001
0000
,
0010
0100
1000
0010
0100
0000
0000
0000
,
0010
0000
0100
0000
,
0001
0010
0100
1000
0010
0000
0000
0000
,
0100
0000
0010
0000
,
1000
0010
0100
0001
0010
0000
0000
0000
,
1001
1001
2002
3003
,
1001
1001
2002
3003
,
0110
0110
0220
0330
,
1001
1001
2002
3003
,
0001
0010
0200
0300
,
1000
0010
0200
0300
,
0001
1000
0002
0003
,
1000
0010
0200
0300
,
0001
0010
0200
0300
,
1000
0001
0200
0300
,
0010
0100
0020
0030
,
1001
1001
2002
3003
,
0010
0000
0000
0100
0001
1000
0001
0100
,
0001
0000
0000
0001
1000
0100
1000
0001
,
1000
0000
0010
0000
0100
0010
0100
0010
,
0000
0100
0010
0100
0000
0010
0010
0000
,
1000
0000
0000
0001
0010
0100
0010
0001
,
0010
0000
0000
0100
1000
0100
0010
0100
,
1000
0000
0010
0000
0100
0001
0100
0001
,
0000
0000
0000
0000
,
1001
0000
0000
1000
0010
0100
0001
1000
,
0001
0000
0000
0001
0100
0010
1000
0001
,
1000
0000
0100
0000
0010
0001
1000
0001
,
0100
0000
0000
0000
0010
0000
0000
0010
0000
0000
0010
0000
0000
0010
0000
0000
,
0010
0000
0000
0100
0001
1000
0001
1000
,
0001
0000
0000
1000
0100
1000
0010
0100
,
0010
0000
0100
0000
0001
1000
0001
2000
,
0000
0000
0000
0000
,
3010
0000
0000
0000
,
0000
0000
0000
0000
,
0000
0000
0000
0000
,
0000
0000
0000
0000
,
1000
0000
0010
0100
,
0001
0000
1000
0001
0100
0000
0010
0000
,
1000
0001
0100
0010
0100
0000
0001
0000
,
1000
0000
0000
0000
,
0010
0000
0100
0001
,
0010
0000
0100
1000
0001
0000
0000
0000
,
0100
0000
0010
1000
,
0001
0010
0100
1000
0100
0000
1000
0000
,
0010
0000
0100
0001
,
1000
0000
0010
1000
0001
0000
0010
0000
,
0100
1000
0010
0100
0010
0000
0100
0000
,
0001
0000
1000
1000
,
0010
0000
0100
0001
,
1000
0000
0100
0010
0001
0000
0000
0000
,
0100
0000
0010
1000
,
0001
0100
0010
1000
0001
0000
1000
0000
,
0100
0000
0010
0001
,
0100
0000
0010
1000
0001
0000
0010
0000
,
0100
1000
0001
1000
0010
0000
0100
0000
,
0002
0003
0000
0000
,
0110
0110
0220
0330
,
0110
0110
0220
0330
,
1001
1001
2002
3003
,
0110
0110
0220
0330
,
0001
1000
0200
0300
,
0010
0001
0200
0300
,
0010
1000
0020
0030
,
0100
0001
0200
0300
,
0010
0100
0220
0330
,
1000
0001
2002
3003
,
0100
0010
0100
0010
0100
0010
0100
0010
,
0200
0010
0310
0000
,
1000
0000
1000
0001
0000
0001
0000
0000
,
0100
0000
0100
0010
0000
0010
0010
0010
,
0100
0000
0100
0001
0000
0001
0010
0100
,
1000
0001
1000
0001
1000
0000
0010
0000
,
0100
0000
0100
0001
0000
0001
0000
0000
,
1000
0000
0010
0100
0000
0100
0100
0100
,
0001
0000
1000
0100
0000
0100
0010
0001
,
1000
0001
1000
0010
0100
0000
0001
0000
,
0010
0000
0100
1000
0001
1000
0001
0000
,
0100
0000
0010
1000
1000
1000
1000
1000
,
0010
0000
0100
0001
1000
0001
1000
0000
,
0001
0010
0001
0100
0010
0000
0100
0000
,
0010
0000
1000
0001
0100
0001
1000
0000
,
0010
0000
0100
0001
0001
0001
0001
0001
,
1000
0000
0100
1000
0000
0001
1000
0010
,
0100
0001
0100
0010
0100
0000
0001
0000
,
2000
0000
0000
0000
,
3000
0000
0000
0000
,
0000
0000
0000
0000
,
0000
0000
0000
0000
,
0000
0000
0000
0000
,
0000
0000
0000
0000
,
0000
0000
0000
0000
,
0000
0000
0000
0000
,
1000
0000
0001
0000
1000
0000
0010
1000
,
0010
0000
0100
0000
0001
1000
0010
0000
,
0100
0000
0001
0000
0010
0000
0100
1000
,
0001
0000
1000
0000
0010
0100
0010
0000
,
1000
0000
0001
0000
0010
0000
0100
1000
,
0001
0000
0100
0000
0010
1000
0001
0000
,
1000
0001
1000
0001
0100
0010
0100
0010
,
1000
0001
0100
0010
2000
0000
3000
0000
,
0010
0000
0100
0000
0001
0000
1000
0001
,
1000
0000
0001
0000
0010
0100
1000
0000
,
0010
0000
0100
0000
0001
0000
1000
0010
,
1000
0000
0001
0000
0010
0100
1000
0000
,
0010
0000
0100
0000
0001
0000
1000
0001
,
0010
0000
0001
0000
0100
0010
0100
0000
,
0001
1000
0001
1000
0010
0100
0001
1000
,
0200
0000
0300
0000
,
0010
0000
0001
1000
,
0010
0000
0100
0001
1000
0000
0000
0000
,
0001
0000
0010
0100
,
1000
0010
0100
0010
1000
0000
0010
0000
,
0100
0000
0001
1000
,
0010
0000
0100
0001
0010
0000
0100
0000
,
1000
0100
0010
0001
1000
0000
0010
0000
,
0100
0001
1000
0001
1000
0000
0010
0000
,
0100
0100
0010
0010
,
1000
0000
0001
1000
0001
0000
0001
0000
,
0010
0010
0100
0100
,
1000
0010
1000
0010
0100
0000
0100
0000
,
0001
0001
1000
1000
,
0010
0000
0100
0001
0100
0000
0001
0000
,
0010
0001
1000
0010
0100
0000
0001
0000
,
2002
0000
3003
0000
,
0110
0110
0220
0330
,
0110
0110
0220
0330
,
1001
1001
2002
3003
,
0110
0110
0220
0330
,
0001
1000
0020
0030
,
0100
0001
2000
3000
,
0100
0010
0002
0003
,
0100
0010
2000
3000
,
0010
0100
0020
0030
,
1000
0001
0020
0030
,
0100
0010
0100
1000
0001
0100
0010
0100
,
0020
0100
0130
0000
,
0010
1000
0001
1000
,
0100
0000
0010
0000
0001
1000
0010
0100
,
0001
1000
0001
0010
,
0100
0000
1000
0000
0010
0100
0001
0100
,
0010
1000
0001
0010
,
0100
0000
1000
0000
0010
0100
0001
0100
,
0010
0000
0010
0000
0100
0001
0100
0000
,
0001
0000
0001
0000
1000
0100
1000
0000
,
0010
0100
0001
1000
,
0001
0000
0010
0000
0100
1000
0010
0100
,
0010
0100
0001
1000
,
0001
0000
0010
0000
0100
1000
0010
0100
,
0001
1000
0001
0000
0100
0000
0100
0000
,
0010
1000
0010
0000
1000
0000
1000
0000
,
0001
0100
0001
0000
1000
0100
1000
0000
,
0010
0100
0010
0100
0020
0000
0030
0000
,
1000
0000
0001
0100
0001
0100
0001
0000
,
0010
0000
0100
1000
0100
1000
0100
0000
,
0010
0000
0000
0001
0100
0010
0100
0001
,
0100
0000
0000
0010
1000
0001
1000
0100
,
0010
0000
0010
0001
0000
0001
0000
0000
,
0100
0000
0100
0010
0000
0010
0010
0010
,
0100
0001
2000
3000
,
0001
0010
0200
0300
,
1000
0000
0010
0100
0010
0100
0010
0000
,
1000
0000
0001
0010
0001
0010
0001
0000
,
0100
0000
0000
0010
1000
0001
1000
0010
,
0100
0000
0000
0100
0010
1000
0001
1000
,
0001
0000
0001
0010
0000
0010
0000
0000
,
0100
0000
0100
1000
1000
1000
1000
1000
,
0010
0000
0100
0000
,
0110
0110
0220
0330
,
1000
0000
0010
0100
,
0001
0000
1000
0001
1000
0000
0010
0000
,
0110
0100
0101
0110
,
2002
0000
0000
0000
,
0000
0000
0000
0000
,
0000
0000
0000
0000
,
0000
0000
0000
0000
,
0000
0000
0000
0000
,
0000
0000
0000
0000
,
3003
0000
0000
0000
;

//---------------dance-single - Blank----------------
#NOTES:
     dance-single:
     Blank:
     Beginner:
     4:
     0.228261,0.326699,0.015851,0.009511,0.000000,504.000000,499.000000,5.000000,3.000000,0.000000,0.000000,0.228261,0.326699,0.015851,0.009511,0.000000,504.000000,499.000000,5.000000,3.000000,0.000000,0.000000:
0000
0000
0000
0000
,
0000
0000
0000
0000
,
0000
0000
0000
0000
,
0000
0000
0000
0000
,
0000
0000
0000
0000
,
0000
0000
0000
0000
,
0000
0000
0000
0000
,
0000
0000
0000
0000
,
1000
0000
0001
0000
,
0100
0010
0100
0000
,
0001
0000
1000
0000
,
0001
0010
0001
0000
,
0100
0000
0010
0000
,
0100
0000
0001
0000
,
1000
0010
0100
0010
,
0200
0300
0000
0000
,
0001
0001
0001
0000
,
0001
0001
0001
0000
,
1000
0010
1000
0000
,
1000
1000
1000
0000
,
0010
0010
0010
0000
,
0010
0010
0010
0000
,
0100
0010
0100
0000
,
0100
0100
0100
0000
,
0001
1000
0001
0000
,
0100
0010
1000
0000
,
0010
0010
0010
0000
,
0100
0100
0100
0000
,
0010
0000
1000
0010
,
0100
0000
0001
1000
,
0001
0000
0010
0000
,
0100
0000
1000
0000
,
0010
0000
0100
0001
,
0010
0000
0100
1000
,
0001
0000
1000
0000
,
0010
0000
0000
0000
,
0100
0000
0001
0010
,
0100
0000
1000
0010
,
1000
0000
0010
0000
,
0100
0000
0010
0010
,
0100
0001
0001
0001
,
1000
0100
0100
0100
,
0010
0000
0001
0000
,
1000
0000
0000
0000
,
0010
0000
0000
0000
,
0100
0000
0000
0000
,
0001
0000
1000
0000
,
0010
0100
0001
0000
,
1000
0000
0100
0000
,
1000
0010
0100
0000
,
0001
0000
1000
0000
,
0010
0100
0010
0000
,
1000
0000
0100
0000
,
0010
0001
1000
0000
,
0010
0000
0100
0000
,
0001
1000
0001
0000
,
0010
0010
0010
0000
,
0010
0010
0010
0000
,
0100
1000
0100
0000
,
1000
1000
1000
0000
,
0010
0010
0010
0000
,
0100
0100
0100
0000
,
0001
1000
0001
0000
,
1000
1000
1000
0000
,
0010
1000
0001
0000
,
0100
0010
0100
0000
,
0001
1000
0001
0000
,
0100
0100
0100
0000
,
0010
0000
1000
0001
,
1000
0000
1000
0001
,
0100
0100
0010
1000
,
0000
0010
0000
0010
,
0100
0000
0001
1000
,
0010
0000
0100
0001
,
1000
1000
0010
1000
,
0000
0000
0000
0000
,
0100
0000
0010
0100
,
0001
0000
0100
0001
,
1000
1000
0100
0010
,
0000
0001
0000
0001
,
0001
0000
0100
0010
,
1000
0000
0010
0100
,
0001
1000
0001
0010
,
0100
0000
0000
0000
,
1001
0000
0000
0000
,
0000
0000
0000
0000
,
0000
0000
0000
0000
,
0000
0000
0000
0000
,
1000
0000
0010
0000
,
1000
0001
1000
0000
,
0010
0000
0100
0000
,
0001
0000
0000
0000
,
0010
0000
0100
0000
,
1000
0001
1000
0000
,
0010
0000
0100
0000
,
0001
0010
0001
0000
,
0100
0000
0010
0000
,
1000
0001
1000
0000
,
0010
0000
0100
0000
,
0010
0000
0000
0000
,
1000
0000
0001
0000
,
0010
0001
0010
0000
,
0100
0000
1000
0000
,
0010
0100
0010
0000
,
1000
0000
0001
0000
,
0010
0100
1000
0000
,
0010
0000
0100
0000
,
0001
0000
0000
0000
,
1000
1000
1000
0000
,
1000
1000
1000
0000
,
0001
0100
0001
0000
,
0100
0100
0100
0000
,
0010
0010
0010
0000
,
0010
0010
0010
0000
,
1000
0001
1000
0000
,
0100
0100
0100
0000
,
0010
0010
0010
0000
,
0001
0001
0001
0000
,
0100
0001
0100
0000
,
0010
0000
0000
0000
,
1000
0000
0001
0000
,
0010
0000
0100
0000
,
1000
0000
0010
0000
,
0100
0100
0001
0000
,
1000
0000
0001
0000
,
0010
0000
0100
0000
,
1000
0000
0010
0000
,
0100
0100
0001
0000
,
0010
0000
0100
0000
,
0010
0000
0001
0000
,
1000
0000
0010
0000
,
0100
0100
0001
0000
,
1000
0000
0010
0000
,
0100
0000
0001
0000
,
0010
0000
0100
0000
,
1000
1000
0001
0000
,
0100
0000
0000
0000
,
0000
0000
0000
0000
,
0000
0000
0000
0000
,
0000
0000
0000
0000
,
0000
0000
0000
0000
,
0000
0000
0000
0000
,
0000
0000
0000
0000
,
0000
0000
0000
0000
,
1000
0000
0000
0000
,
0010
0000
0000
0000
,
0001
0000
0000
0000
,
0100
0000
0000
0000
,
0010
0000
0000
0000
,
1000
0000
0000
0000
,
0001
0001
0100
0100
,
0010
1000
0001
0000
,
1000
0000
0000
0000
,
0100
0000
0000
0000
,
0001
0000
0000
0000
,
0010
0000
0000
0000
,
0100
0000
0000
0000
,
0010
0000
0000
0000
,
0001
0001
1000
0010
,
0100
0000
0100
0100
,
0010
0000
1000
0000
,
0001
0010
0001
0000
,
0100
0000
0010
0000
,
1000
0001
1000
0000
,
0100
0000
0010
0000
,
0001
1000
0001
0000
,
0100
0010
0010
0000
,
1000
0001
1000
0000
,
0001
0000
0010
0000
,
0100
1000
0010
0000
,
0100
0000
0001
0000
,
1000
0001
1000
0000
,
0010
0000
0100
0000
,
0001
0010
0001
0000
,
0100
0000
0010
0000
,
1000
0000
0000
0000
,
0001
0001
0001
0000
,
0001
0001
0001
0000
,
1000
0010
1000
0000
,
0010
0010
0010
0000
,
0100
0100
0100
0000
,
0100
0100
0100
0000
,
0001
1000
0001
0000
,
0010
0010
0010
0000
,
0100
1000
0001
0000
,
0100
0010
1000
0000
,
0001
1000
0010
0100
,
0001
0000
0000
0000
,
0010
0000
0100
0000
,
0001
1000
0010
0000
,
1000
0000
0100
0000
,
0010
0001
0100
0000
,
0010
0000
1000
0000
,
0001
0010
0100
0000
,
1000
0000
0001
0000
,
0100
0010
0100
0000
,
0001
0000
1000
0000
,
0010
0001
0100
0000
,
0010
0000
1000
0000
,
0001
0010
0100
0000
,
1000
0000
0010
0000
,
0100
0001
1000
0000
,
0001
0000
0010
0000
,
0110
0000
0000
0000
,
1000
0000
0010
0000
,
0100
0000
0001
0000
,
0010
0000
0100
0000
,
1000
0000
0001
0000
,
1000
0000
0010
0000
,
0100
0000
0001
0000
,
1000
0000
0010
0000
,
0100
0000
0001
0000
,
0010
0000
0100
0000
,
0010
0000
1000
0000
,
0001
0000
0100
0000
,
0010
0000
1000
0000
,
0001
0000
0100
0000
,
0010
0000
1000
0000
,
0100
0000
0010
0000
,
0100
0100
0100
0000
,
0001
0000
1000
0000
,
0010
0100
0010
0000
,
1001
0000
0110
0000
,
2002
0000
0000
0000
,
0000
0000
0000
0000
,
0000
0000
0000
0000
,
0000
0000
0000
0000
,
0000
0000
0000
0000
,
0000
0000
0000
0000
,
3003
0000
0000
0000
;

//---------------dance-double - Blank----------------
#NOTES:
     dance-double:
     Blank:
     Challenge:
     14:
     0.753172,1.197896,0.298008,0.206069,0.643570,1663.000000,1569.000000,94.000000,65.000000,0.000000,0.000000,0.753172,1.197896,0.298008,0.206069,0.643570,1663.000000,1569.000000,94.000000,65.000000,0.000000,0.000000:
00000000
00000000
00000000
00000000
,
00000000
00000000
00000000
00000000
,
00000000
00000000
00000000
00000000
,
00000000
00000000
00000000
00000000
,
00000000
00000000
00000000
00000000
,
00000000
00000000
00000000
00000000
,
00000000
00000000
00000000
00000000
,
00000000
00000000
00000000
00000000
,
10000000
00000000
00000000
00000000
00000000
00000000
00100000
10000000
00100000
00000000
01000000
00000000
00010000
00000000
00100000
00000000
,
00001000
00000000
00001000
00000100
00000001
00000000
00000000
00000000
,
00000010
00000000
00000000
00000000
00000000
00000000
00000100
00001000
00000100
00000000
00010000
00000000
00001000
00000000
01000000
00000000
,
00100000
10000000
01000000
00100000
00010000
00000000
10000000
00000000
,
00100000
00000000
00000000
00000000
00000000
00000000
01000000
00010000
01000000
00000000
00001000
00000000
00010000
00000000
00000100
00000000
,
00000010
00000000
00000010
00000001
00000100
00000000
00000100
00000010
,
00001000
00000100
00010000
00001000
01000000
00000000
00100000
00000000
,
20200000
30300000
00000000
00000000
,
10010000
10010000
02200000
03300000
,
10010000
10010000
02200000
03300000
,
00011000
00011000
00022000
00033000
,
10010000
10010000
02200000
03300000
,
10000000
01000000
00100000
01000000
10000000
00100000
01000000
00010000
,
00100000
00001000
00000010
00000001
00001000
00000001
00000100
00000010
,
00001000
00000100
00000010
00000001
00000100
00000010
00000100
00000001
,
00001000
00000100
00010000
00001000
01000000
00010000
01000000
00100000
,
10000000
01000000
10000000
01000000
00100000
00010000
00100000
00010000
00100000
00001000
00100000
00001000
00010000
00001000
00010000
00001000
,
00010000
00000010
00010000
00000010
00000100
00000010
00000100
00000001
00001000
00000001
00001000
00000001
00000010
00000100
00001000
00000001
,
00002000
00000001
00003001
00000000
,
00000110
00000110
00002002
00003003
,
00001001
00000000
00000000
00000000
00000001
00000100
00000100
00001000
00000001
00000010
00000010
00001000
00000001
00000100
00000100
00010000
,
00001000
00000000
00000000
00000000
00001000
00100000
00100000
10000000
00010000
01000000
01000000
10000000
00010000
00100000
00100000
10000000
,
00010000
00000000
10000000
01000000
01000000
00010000
10000000
00010000
10000000
00010000
00100000
00010000
10000000
00100000
01000000
00010000
,
00100000
00000000
00001000
00010000
00010000
00100000
00001000
00100000
00010000
00100000
00010000
00010000
00001000
00010000
00001000
00010000
,
00000100
00000000
00000000
00000000
00001000
00000100
00000100
00000001
00001000
00000010
00000010
00000001
00001000
00000100
00000100
00000001
,
00001000
00000000
00000000
00000000
00000100
00010000
00001000
00001000
00000100
00010000
00001000
00001000
00000100
00010000
00001000
01000000
,
00100000
00000000
10000000
00100000
00100000
00010000
10000000
00010000
00100000
00001000
00010000
00001000
00010000
00001000
00100000
01000000
,
10000000
10000000
00010000
00010000
,
02000000
03000000
00000000
00000000
,
10010000
00000000
00000000
00000000
10000000
00100000
00100000
00010000
01000000
00010000
00100000
01000000
10000000
00100000
00100000
00010000
,
01000000
00000000
00001000
00100000
00010000
00010000
00001000
00010000
00000100
00001000
00000100
00000010
00000001
00000100
00000100
00001000
,
00000001
00000000
00001000
00000010
00000100
00000010
00000010
00000001
00001000
00000100
00000100
00000001
00001000
00000001
00000010
00000100
,
00001000
00000000
00000000
00000000
00000010
00010000
00000100
00001000
00000010
00010000
00000100
00001000
00000010
00001000
00001000
00010000
,
00001000
01000000
00010000
00100000
00001000
01000000
00010000
00100000
00001000
00100000
01000000
10000000
00100000
00100000
00010000
10000000
,
01000000
00000000
10000000
00010000
01000000
00001000
00010000
00001000
00010000
00000100
00000010
00000001
00001000
00000001
00000100
00000010
,
00001000
00000100
00010000
00001000
00100000
01000000
10000000
00100000
01000000
00010000
10000000
00010000
00100000
01000000
10000000
00100000
,
02000000
00000000
03000000
00000000
,
00000000
00000000
00000000
00000000
,
00000000
00000000
00000000
00000000
,
00000000
00000000
00000000
00000000
,
10000000
00000000
10000000
01000000
00100000
00000000
00100000
00001000
,
00010000
00000010
00000100
00000001
00001000
00000000
00000001
00000010
,
00000001
00000000
00001000
00000010
00000100
00000000
00000001
00000010
,
00000100
00001000
00000010
00010000
00001000
00000000
00000000
00000000
,
01000000
00000000
01000000
00100000
10000000
00000000
10000000
01000000
,
00100000
00010000
00100000
00001000
00010000
00000000
00000100
00001000
,
00000010
00000000
00000010
00000100
00000001
00000000
00000001
00000010
,
00000100
00001000
00000010
00000100
00000001
00000000
00000000
00000000
,
00000110
00000110
00002002
00003003
,
00000110
00000110
00002002
00003003
,
00011000
00011000
00022000
00033000
,
00000110
00000110
00002002
00003003
,
00000010
00001000
00000100
00010000
00001000
00100000
01000000
10000000
,
00100000
01000000
00010000
00100000
00001000
00010000
00000010
00000100
,
00000001
00001000
00000100
00010000
00000100
00001000
00000010
00000100
,
00000001
00000010
00000001
00001000
00000100
00010000
00001000
00010000
,
00001000
01000000
00001000
01000000
00010000
01000000
00010000
01000000
00100000
01000000
00100000
01000000
00100000
10000000
00100000
10000000
,
00010000
10000000
00010000
10000000
01000000
00100000
00010000
00100000
01000000
10000000
00100000
01000000
00010000
00100000
00010000
00100000
,
00002000
00010000
00013000
00000000
,
00011000
00011000
00022000
00033000
,
00001001
00000000
00000000
00000000
00000000
00000000
00000000
00000000
00000000
00000000
00000000
00000000
00000000
00000000
00000000
00000000
00000000
00000000
00000010
00000000
00000100
00000000
00000010
00000000
00000100
00000000
00000000
00000100
00000000
00000000
00001000
00000000
00000000
00000001
00000000
00000000
00000100
00000000
00000000
00000100
00000000
00000000
00001000
00000000
00000000
00000001
00000000
00000000
,
00000100
00000000
00000000
00000000
00000000
00000000
00000000
00000000
00000000
00000000
00000000
00000000
00000000
00000000
00000000
00000000
00000000
00000000
00000010
00000000
00001000
00000000
00000010
00000000
00001000
00000000
00000000
00001000
00000000
00000000
00010000
00000000
00000000
00000010
00000000
00000000
00001000
00000000
00000000
00001000
00000000
00000000
00010000
00000000
00000000
00000010
00000000
00000000
,
00001000
00000000
00010000
01000000
10000000
00000000
01000000
00000000
00010000
00100000
00100000
10000000
00010000
00100000
00100000
10000000
,
00000000
10000000
10000000
10000000
00000000
10000000
00010000
00000000
,
10010000
00000000
00000000
00000000
00000000
00000000
00000000
00000000
00000000
00000000
00000000
00000000
00000000
00000000
00000000
00000000
00000000
00000000
01000000
00000000
00100000
00000000
01000000
00000000
00100000
00000000
00000000
00100000
00000000
00000000
00010000
00000000
00000000
10000000
00000000
00000000
00100000
00000000
00000000
00100000
00000000
00000000
00010000
00000000
00000000
10000000
00000000
00000000
,
00010000
00000000
00000000
00000000
00000000
00000000
00000000
00000000
00000000
00000000
00000000
00000000
00000000
00000000
00000000
00000000
00000000
00000000
00100000
00000000
00001000
00000000
00100000
00000000
00001000
00000000
00000000
00001000
00000000
00000000
00000100
00000000
00000000
00010000
00000000
00000000
00001000
00000000
00000000
00001000
00000000
00000000
00000100
00000000
00000000
00010000
00000000
00000000
,
00001000
00000000
00001000
00000100
00000001
00000000
00000010
00000000
00000001
00000010
00000010
00001000
00000001
00000010
00000010
00001000
,
00000000
00000000
00000000
00000000
,
10010000
00000000
00000000
00000000
00000000
00000000
00000000
00000000
00000000
00000000
00000000
00000000
00000000
00000000
00000000
00000000
00000000
00000000
10000000
00000000
00100000
00000000
01000000
00000000
00010000
00000000
00000000
10000000
00000000
00000000
00100000
00000000
00000000
01000000
00000000
00000000
00010000
00000000
00000000
10000000
00000000
00000000
00100000
00000000
00000000
01000000
00000000
00000000
,
00010000
00000000
00000000
00000000
00000000
00000000
00000000
00000000
00000000
00000000
00000000
00000000
00000000
00000000
00000000
00000000
00000000
00000000
00010000
00000000
00100000
00000000
01000000
00000000
10000000
00000000
00000000
00010000
00000000
00000000
00100000
00000000
00000000
01000000
00000000
00000000
10000000
00000000
00000000
00010000
00000000
00000000
00100000
00000000
00000000
01000000
00000000
00000000
,
10000000
00000000
00100000
01000000
00001000
00000000
00010000
00000000
00000010
00000100
00000001
00001000
00000010
00000100
00000001
00001000
,
00000010
00000000
00000000
00000000
00000010
00000000
00000000
00010000
00000000
00000000
00001000
00000000
00000000
00000010
00000000
00000000
,
00000001
00000000
00000000
00000000
00000000
00000000
00000000
00000000
00000000
00000000
00000000
00000000
00000000
00000000
00000000
00000000
00000000
00000000
00000001
00000000
00000010
00000000
00000100
00000000
00001000
00000000
00000000
00000001
00000000
00000000
00000010
00000000
00000000
00000100
00000000
00000000
00001000
00000000
00000000
00000001
00000000
00000000
00000010
00000000
00000000
00000100
00000000
00000000
,
00001000
00000000
00000000
00000000
00000000
00000000
00000000
00000000
00000000
00000000
00000000
00000000
00000000
00000000
00000000
00000000
00000000
00000000
00001000
00000000
00000010
00000000
00000100
00000000
00000001
00000000
00000000
00001000
00000000
00000000
00000010
00000000
00000000
00000100
00000000
00000000
00000001
00000000
00000000
00001000
00000000
00000000
00000010
00000000
00000000
00000100
00000000
00000000
,
00000001
00000000
00000001
00000010
00001000
00000000
00010000
00000000
00100000
10000000
00010000
01000000
00100000
10000000
00010000
01000000
,
00200000
00000000
00300000
00000000
,
10010000
00000000
00000000
00000000
,
00000000
00000000
00000000
00000000
,
00000000
00000000
00000000
00000000
,
00000000
00000000
00000000
00000000
,
10000000
00000000
00000000
00000000
00000000
00000000
00010000
00100000
00010000
00000000
00100000
00000000
00001000
00000000
00010000
00000000
,
00000010
00000000
00000100
00000001
00001000
00000000
00001000
00000100
,
00010000
00001000
01000000
00100000
10000000
00000000
00010000
00000000
,
10000000
00000000
00000000
00000000
,
00100000
00000000
00000000
00000000
00000000
00000000
00001000
00010000
00001000
00000000
00010000
00000000
00000010
00000000
00000100
00000000
,
00000001
00000000
00000010
00000100
00001000
00000000
00000000
00000000
,
00000010
00000000
00000000
00000000
00000000
00000000
00000001
00001000
00000010
00000000
00001000
00000000
00000100
00000000
00010000
00000000
,
00001000
00000010
00000001
00001000
00000010
00000000
00000100
00000000
,
00000001
00000000
00000000
00000000
00000000
00000000
00000010
00000100
00001000
00000000
00000010
00000000
00010000
00000000
00001000
00000000
,
01000000
00000000
00100000
10000000
00010000
00000000
10000000
01000000
,
00100000
00010000
00100000
00001000
00010000
00000000
00000010
00000000
,
00000200
00000300
00000010
00000010
,
00001000
00000000
00000000
00000000
00000000
00000000
00000001
00000010
00000001
00000000
00001000
00000000
00000100
00000000
00010000
00000000
,
00001000
00000000
00001000
01000000
00100000
00000000
00000000
00000000
,
01000000
00000000
00000000
00000000
00000000
00000000
00100000
10000000
00100000
00000000
10000000
00000000
00010000
00000000
00100000
00000000
,
00001000
00010000
00000010
00001000
00000001
00000000
00000010
00000000
,
00000100
00000000
00000000
00000000
00000000
00000000
00001000
00000100
00001000
00000000
00000100
00000000
00010000
00000000
00001000
00000000
,
01000000
00000000
01000000
00100000
10000000
00000000
00010000
00100000
,
01000000
10000000
00100000
01000000
00001000
00000000
00010000
00000000
,
00002000
00003000
00000000
00000000
,
10010000
10010000
02200000
03300000
,
10010000
10010000
02200000
03300000
,
00011000
00011000
00022000
00033000
,
10010000
10010000
02200000
03300000
,
10000000
01000000
01000000
00010000
01000000
01000000
00100000
00010000
,
00100000
00001000
00001000
00000010
00001000
00001000
00010000
00001000
,
01000000
00100000
00100000
00010000
00100000
00100000
01000000
00010000
,
00100000
00001000
00001000
00000100
00001000
00001000
00010000
00000010
,
00001000
00000001
00001000
00000001
00001000
00000010
00001000
00000010
00000100
00000010
00000100
00000010
00000100
00000001
00000100
00000001
,
00001000
00000010
00001000
00000010
00001000
00000100
00001000
00000100
00010000
00000100
00010000
00000100
00010000
00001000
00010000
00001000
,
00020000
00001000
00031000
00000000
,
00011000
00011000
00011000
00000000
,
10010000
00000000
10000000
00200000
00310000
00200000
10300000
00000000
,
10010000
00000000
10000000
02000000
03000000
01000000
01000000
01000000
,
00100000
00000000
00001000
00010000
00000000
00010000
00001000
00000100
,
00000001
00000010
00000100
00001000
00000001
00000000
00000440
00000330
,
00001000
00000000
00000000
00000001
00001000
00000000
00000200
00000000
00000301
00000000
00000200
00000000
00001300
00000000
00000000
00000000
,
00001001
00000000
00000001
00000200
00000300
00000100
00000100
00000100
,
00000010
00000000
00001000
00000100
00000000
00000100
00010000
00001000
,
00010000
00100000
10000000
00010000
00100000
00000000
04400000
03300000
,
10010000
00000000
10000000
00100000
01100000
01000000
00010000
00000000
,
00100000
00000000
00001000
00010000
00010010
00000010
00000010
00000010
,
00000100
00000000
00000001
00001000
00001001
00001000
00000100
00000010
,
00000001
00000100
00000010
00010000
00001000
00000000
00044000
00033000
,
00101000
00000000
00001000
01000000
01100000
01000000
00010000
00000000
,
10000000
00000000
01000000
00100000
00110000
00010000
00010000
00010000
,
01000000
00000000
00100000
10000000
10010000
00010000
00100000
00001000
,
00010000
00000100
00000010
00000001
00000100
00000000
00000010
00000000
,
00002002
00000000
00000000
00000000
,
00003003
00000000
00000000
00000000
,
00000000
00000000
00000000
00000000
,
00000000
00000000
00000000
00000000
,
00000000
00000000
00000000
00000000
,
00000000
00000000
00000000
00000000
,
00000000
00000000
00000000
00000000
,
00000000
00000000
00000000
00000000
,
00001000
00000000
00000010
00000000
00001000
00000000
00000010
00010000
,
00001000
00000000
01000000
00000000
00100000
01000000
00100000
00000000
,
10000000
00000000
00010000
00000000
10000000
00000000
01000000
00100000
,
00010000
00000000
00100000
00000000
00001000
00010000
00001000
00000000
,
00010000
00000000
00000010
00000000
00000100
00000000
00000001
00001000
,
00000010
00000000
00001000
00000000
00000001
00000010
00000100
00000000
,
00001000
00000100
00000001
00000100
00001000
00000100
00000001
00000100
,
00001000
00000010
00010000
00001000
00100000
00000000
00000000
00000000
,
00010000
00000000
10000000
00000000
00100000
00000000
01000000
00010000
,
01000000
00000000
00010000
00000000
00100000
00001000
00010000
00000000
,
00000010
00000000
00000100
00000000
00000001
00000000
00001000
00000100
,
00001000
00000000
00000010
00000000
00000100
00000001
00001000
00000000
,
00000100
00010000
00001000
01000000
10000000
01000000
00100000
10000000
,
00010000
00100000
00001000
00010000
00000100
00000001
00000100
00000010
,
00000001
00000100
00001000
00000100
00000001
00000100
00001000
00000100
,
00000002
00000003
00001000
00001000
,
00000100
00000000
00000000
00000000
00000000
00000000
00010000
00001000
00010000
00000000
00001000
00000000
01000000
00000000
00100000
00000000
,
10000000
00000000
00010000
00100000
01000000
00000000
00000000
00000000
,
10000000
00000000
00000000
00000000
00000000
00000000
00100000
01000000
00100000
00000000
01000000
00000000
00001000
00000000
00010000
00000000
,
00001000
00010000
00000010
00000100
00000001
00000000
00000010
00000000
,
00000100
00000000
00000000
00000000
00000000
00000000
00001000
00000010
00001000
00000000
00000100
00000000
00010000
00000000
00001000
00000000
,
01000000
00000000
00100000
10000000
00010000
00000000
10000000
01000000
,
00100000
00010000
00100000
00001000
00010000
00000000
00000010
00001000
,
00000001
00000010
00001000
00000010
00000002
00000000
00002003
00000000
,
00003010
00000000
00000000
00000000
00000000
00000000
00010000
00000010
00010000
00000000
00001000
00000000
01000000
00000000
00100000
00000000
,
10000000
00000000
00010000
00100000
01000000
00000000
00000000
00000000
,
10000000
00000000
00000000
00000000
00000000
00000000
00100000
01000000
00100000
00000000
01000000
00000000
00001000
00000000
00010000
00000000
,
00001000
00000010
00000001
00001000
00000001
00000000
00000100
00000000
,
00000010
00000000
00000000
00000000
00000000
00000000
00001000
00000001
00001000
00000000
00000010
00000000
00000100
00000000
00000010
00000000
,
00010000
00000000
00001000
00100000
00010000
00000000
01000000
00100000
,
10000000
00010000
00100000
01000000
10000000
00000000
00100000
00000000
,
02200000
03300000
00000000
00000000
,
10010000
10010000
02200000
03300000
,
10010000
10010000
02200000
03300000
,
00011000
00011000
00022000
00033000
,
10010000
10010000
02200000
03300000
,
10000000
00000000
00100000
00000000
01000000
00000000
00010000
10000000
00100000
00000000
10000000
00010000
00000000
00100000
00010000
00100000
,
00001000
00000000
00010000
00001000
00000000
00010000
00000010
00000000
00000100
00000010
00000000
00001000
00000001
00001000
00000010
00000100
,
00000001
00000010
00000100
00000000
00000010
00000100
00001000
00000010
00000100
00000000
00000010
00010000
00000000
00001000
00010000
00001000
,
00100000
00000000
00010000
00100000
00000000
00010000
01000000
00000000
00100000
01000000
00000000
00100000
01000000
00010000
10000000
00010000
,
00100000
01000000
10000000
00100000
01000000
00010000
00100000
00001000
00100000
00010000
00100000
00001000
00010000
00000010
00000100
00000001
,
00000010
00000001
00000100
00000010
00001000
00000001
00000010
00000100
00001000
00000010
00000100
00000001
00000100
00000010
00001000
00000001
,
00002000
00000001
00003001
00000000
,
00000110
00000110
00002002
00003003
,
00000010
00000000
00001000
00000000
00000100
00000000
00010000
00001000
00010000
00000000
00001000
01000000
00000000
00100000
01000000
00010000
,
10000000
00000000
01000000
00100000
00000000
00010000
01000000
00000000
00100000
00000000
10000000
00100000
01000000
00010000
00100000
00001000
,
00100000
00001000
00010000
00000000
00000100
00001000
00000010
00001000
00000100
00000000
00000010
00000001
00000000
00001000
00000010
00001000
,
00000001
00000010
00000001
00000100
00000010
00001000
00000100
00010000
00001000
00010000
00000100
00010000
00001000
01000000
00100000
10000000
,
00010000
00100000
01000000
00000000
10000000
00100000
01000000
00100000
10000000
00000000
00010000
10000000
00000000
01000000
00100000
00010000
,
00100000
00000000
01000000
10000000
00000000
00100000
01000000
00000000
00010000
00000000
00100000
00001000
00010000
00001000
00100000
00010000
,
01000000
00100000
01000000
10000000
01000000
00100000
01000000
00010000
00100000
00001000
00010000
00000010
00000100
00001000
00000001
00000010
,
00000100
00001000
00000100
00000001
00000100
00000010
00000100
00001000
00000100
00000010
00001000
00000001
00000010
00000100
00001000
00000100
,
00010000
00001000
00010000
00000000
00001000
01000000
00100000
10000000
00010000
00000000
10000000
01000000
00000000
10000000
00100000
01000000
,
00010000
00000000
10000000
00010000
00000000
10000000
01000000
00000000
00100000
00000000
00010000
10000000
00100000
01000000
00001000
00010000
,
00001000
00100000
00010000
00000000
00100000
00001000
00010000
00000010
00000100
00000000
00000001
00001000
00000000
00000001
00000010
00000100
,
00001000
00000010
00000100
00000001
00000100
00000010
00001000
00000100
00001000
00000010
00010000
00001000
00010000
00000100
00001000
00000000
,
00000100
00000000
00010000
00000000
00001000
01000000
00001000
00000000
01000000
00000000
00100000
10000000
00010000
00100000
01000000
10000000
,
00100000
00000000
01000000
00000000
00010000
10000000
00100000
00000000
10000000
00000000
01000000
00100000
00010000
00100000
01000000
10000000
,
00010000
01000000
00001000
00010000
00001000
00000010
00000001
00001000
00000010
00000100
00000001
00000100
00000010
00001000
00000001
00000010
,
00000100
00010000
00001000
01000000
00200000
00000000
00300000
00000000
,
10010000
00000000
00000000
00000000
10000000
01000000
01000000
00010000
10000000
00100000
00100000
00010000
10000000
01000000
01000000
00010000
,
10000000
00000000
00000000
00000000
00001000
00100000
00010000
00010000
00001000
00100000
00010000
00010000
00001000
01000000
00100000
01000000
,
00010000
00000000
00000000
00000000
00000000
00000000
00000000
00000000
00000000
00000000
00000000
00000000
00000000
00000000
00000000
00000000
00000000
00000000
10000000
00000000
00100000
00000000
01000000
00000000
00010000
00000000
00000000
10000000
00000000
00000000
00100000
00000000
00000000
01000000
00000000
00000000
00010000
00000000
00000000
10000000
00000000
00000000
00100000
00000000
00000000
01000000
00000000
00000000
,
00010000
00000000
00000000
00000000
00000000
00000000
00000000
00000000
00000000
00000000
00000000
00000000
00000000
00000000
00000000
00000000
00000000
00000000
10000000
00000000
01000000
00000000
00100000
00000000
00010000
00000000
00000000
10000000
00000000
00000000
01000000
00000000
00000000
00100000
00000000
00000000
00010000
00000000
00000000
10000000
00000000
00000000
01000000
00000000
00000000
00100000
00000000
00000000
,
00010000
00100000
00001000
00010000
00011000
00001000
00000010
00000000
,
00000001
00000000
00001000
00000001
00001001
00001000
00001000
00001000
,
00000010
00001000
00000100
00001000
00000010
00010000
00001000
00010000
,
00001000
01000000
00001000
00010000
00001000
00000000
00010000
00000000
,
00000010
00000000
00000000
00000000
00000001
00000100
00000100
00001000
00000001
00000010
00000010
00001000
00000001
00000100
00000100
00001000
,
00000001
00000000
00000000
00000000
00010000
00000100
00001000
00001000
00010000
00000100
00001000
00001000
00010000
00000100
00001000
00001000
,
00010000
00000000
00000000
00000000
00000000
00000000
00000000
00000000
00000000
00000000
00000000
00000000
00000000
00000000
00000000
00000000
00000000
00000000
00000001
00000000
00000100
00000000
00000010
00000000
00001000
00000000
00000000
00000001
00000000
00000000
00000100
00000000
00000000
00000010
00000000
00000000
00001000
00000000
00000000
00000001
00000000
00000000
00000100
00000000
00000000
00000010
00000000
00000000
,
00001000
00000000
00000000
00000000
00000000
00000000
00000000
00000000
00000000
00000000
00000000
00000000
00000000
00000000
00000000
00000000
00000000
00000000
00001000
00000000
00000100
00000000
00000010
00000000
00000001
00000000
00000000
00001000
00000000
00000000
00000100
00000000
00000000
00000010
00000000
00000000
00000001
00000000
00000000
00001000
00000000
00000000
00000100
00000000
00000000
00000010
00000000
00000000
,
00000001
00000000
00001000
00000010
00000110
00000100
00001000
00000000
,
00010000
00000000
00001000
01000000
01001000
01000000
01000000
01000000
,
01100000
00000000
10010000
00000000
,
00011000
00000000
00000000
00000000
,
00000010
00000000
00000000
00000000
00000000
00000000
00001000
00000001
00001000
00000000
00000100
00000000
00010000
00000000
00001000
00000000
,
01000000
00000000
00100000
10000000
00010000
00000000
10000000
01000000
,
01100000
00100000
00010000
00100000
00101000
00000000
00010000
00000000
,
00022000
00000000
00000000
00000000
,
00000000
00000000
00000000
00000000
,
00000000
00000000
00000000
00000000
,
00000000
00000000
00000000
00000000
,
00000000
00000000
00000000
00000000
,
00000000
00000000
00000000
00000000
,
00033000
00000000
00000000
00000000
;

//---------------dance-double - Blank----------------
#NOTES:
     dance-double:
     Blank:
     Hard:
     12:
     0.676632,1.197896,0.244113,0.177537,0.424820,1494.000000,1417.000000,77.000000,56.000000,0.000000,0.000000,0.676632,1.197896,0.244113,0.177537,0.424820,1494.000000,1417.000000,77.000000,56.000000,0.000000,0.000000:
00000000
00000000
00000000
00000000
,
00000000
00000000
00000000
00000000
,
00000000
00000000
00000000
00000000
,
00000000
00000000
00000000
00000000
,
00000000
00000000
00000000
00000000
,
00000000
00000000
00000000
00000000
,
00000000
00000000
00000000
00000000
,
00000000
00000000
00000000
00000000
,
00010000
00000000
00000000
00000000
00000000
00000000
00001000
00010000
00001000
00000000
00010000
00000000
00000010
00000000
00000100
00000000
,
00000001
00000000
00001000
00000001
00001000
00000000
00000000
00000000
,
00000001
00000000
00000000
00000000
00000000
00000000
00001000
00000010
00001000
00000000
00000001
00000000
00001000
00000000
00000100
00000000
,
00010000
00001000
00100000
00010000
00100000
00000000
00010000
00000000
,
01000000
00000000
00000000
00000000
00000000
00000000
00100000
10000000
00100000
00000000
10000000
00000000
01000000
00000000
00100000
00000000
,
00010000
00000000
00100000
00001000
00010000
00000000
00000010
00010000
,
00000010
00001000
00000010
00000100
00000010
00000000
00001000
00000000
,
00000002
00000003
00000000
00000000
,
00001001
00001001
00000220
00000330
,
00001001
00001001
00000220
00000330
,
00011000
00011000
00022000
00033000
,
00001001
00001001
00000220
00000330
,
00000001
00000010
00000100
00001000
00000010
00000100
00000010
00010000
,
00000100
00010000
00001000
01000000
00100000
10000000
00010000
00100000
,
10000000
00100000
01000000
10000000
00100000
01000000
00010000
01000000
,
00001000
00010000
00000100
00010000
00000010
00000100
00000001
00001000
,
00000001
00001000
00000001
00001000
00000001
00001000
00000001
00001000
00000001
00001000
00000001
00001000
00000001
00001000
00000001
00001000
,
00000010
00010000
00000010
00010000
00000010
00010000
00000010
00010000
00000010
00010000
00001000
00010000
00001000
00010000
00001000
00010000
,
00002000
00010000
00013000
00000000
,
00011000
01100000
10010000
00000000
,
10000000
00000000
00000000
00000000
00010000
10000000
00100000
00000000
00010000
10000000
00100000
00000000
00010000
10000000
00100000
10000000
,
00010000
00000000
00000000
00000000
01000000
00001000
00010000
00000000
01000000
00001000
00010000
00000000
01000000
00001000
00010000
00001000
,
01000000
00000000
00001000
00010000
00000010
00000100
00000010
00001000
00000001
00000000
00001000
00000010
00001000
00000000
00000001
00000100
,
00000001
00000000
00000100
00000010
00000100
00000000
00000010
00000000
00010000
00000000
00001000
00000000
00010000
00000000
00001000
00000000
,
01000000
00000000
00000000
00000000
00100000
10000000
00010000
00000000
00100000
10000000
00010000
00000000
00100000
10000000
00010000
10000000
,
00100000
00000000
00000000
00000000
01000000
00001000
00010000
00000000
01000000
00001000
00010000
00000000
01000000
00001000
00010000
00001000
,
00010000
00000000
00000010
00001000
00000010
00000000
00000100
00000001
00001000
00000000
00000001
00000010
00000001
00000010
00000100
00001000
,
00000010
00000010
00000100
00000100
,
00011000
00000000
00000000
00000000
,
10010000
00000000
00000000
00000000
10000000
00100000
01000000
00010000
10000000
00000000
00000000
00000000
00010000
00100000
01000000
10000000
,
00100000
00000000
00000000
00000000
01000000
00001000
00010000
00001000
01000000
00000000
00000000
00000000
00001000
00100000
00010000
00100000
,
00001000
00000000
00000000
00000000
00010000
00000010
00000100
00000010
00001000
00000000
00000000
00000000
00000001
00000010
00000100
00001000
,
00000001
00000000
00000000
00000000
00001000
00000010
00000100
00000000
00001000
00000010
00000100
00000000
00001000
00000010
00000100
00000010
,
00010000
00000000
00000000
00000000
00000010
00010000
00001000
00000000
00000010
00010000
00001000
00000000
00000010
00010000
00001000
00010000
,
00000010
00000100
00000001
00000010
00000100
00001000
00000100
00010000
,
00001000
01000000
00100000
10000000
00010000
00100000
01000000
10000000
,
00200000
00000000
00300000
00000000
,
00000000
00000000
00000000
00000000
,
00000000
00000000
00000000
00000000
,
00000000
00000000
00000000
00000000
,
10000000
00000000
00010000
01000000
00100000
00000000
01000000
00001000
,
00010000
00001000
00010000
00000100
00001000
00000000
00000010
00000100
,
00000001
00000000
00000010
00000100
00001000
00000000
00000100
00010000
,
00001000
01000000
00100000
01000000
00010000
00000000
00000000
00000000
,
10000000
00000000
10000000
00100000
01000000
00000000
01000000
00010000
,
00100000
00010000
00100000
00001000
00010000
00000000
00010000
00000010
,
00000100
00000000
00000100
00000001
00001000
00000000
00001000
00000100
,
00000010
00000001
00000100
00000010
00001000
00000000
00000001
00000000
,
00000110
00000110
00002002
00003003
,
00000110
00000110
00002002
00003003
,
00011000
00011000
00022000
00033000
,
00000110
00000110
00002002
00003003
,
00000001
00001000
00000100
00010000
00000100
00001000
00000100
00010000
,
00001000
01000000
00100000
01000000
00010000
10000000
00010000
00100000
,
01000000
10000000
00100000
01000000
00010000
01000000
00100000
10000000
,
00010000
00100000
00001000
00100000
00001000
00010000
00001000
01000000
,
00010000
10000000
00010000
10000000
00010000
10000000
00010000
10000000
00010000
10000000
00010000
10000000
00010000
10000000
00010000
10000000
,
00010000
01000000
00010000
01000000
00010000
01000000
00010000
01000000
00001000
01000000
00001000
01000000
00001000
01000000
00001000
01000000
,
00002000
00010000
00013000
00000000
,
00011000
00011000
00022000
00033000
,
00000110
00000000
00000000
00000000
00000000
00000000
00000001
00000010
00000100
00001000
00000001
00000010
00000100
00001000
00000001
00000010
,
00000100
00000000
00000000
00000000
00000000
00000000
00001000
00000010
00000100
00000001
00001000
00000010
00000100
00000001
00001000
00000001
,
00000100
00000000
00000010
00001000
00000010
00000000
00001000
00000000
00000100
00010000
00001000
00010000
00000100
00010000
00001000
00010000
,
00000000
00001000
00001000
00001000
00000000
01000000
01000000
00000000
,
00100000
00000000
00000000
00000000
00000000
00000000
10000000
00100000
01000000
00010000
10000000
00100000
01000000
00010000
10000000
00100000
,
01000000
00000000
00000000
00000000
00000000
00000000
00010000
00100000
01000000
10000000
00010000
00100000
01000000
10000000
00010000
00100000
,
01000000
00000000
10000000
00010000
10000000
00000000
00100000
00000000
10000000
00010000
00100000
00010000
10000000
00010000
00100000
00010000
,
00000000
00000000
00000000
00000000
,
00000000
00000000
00000000
00000000
00000000
00000000
00000001
00000100
00000010
00001000
00000001
00000100
00000010
00001000
00000001
00000100
,
00000010
00000000
00000000
00000000
00000000
00000000
00001000
00000010
00000100
00000001
00001000
00000010
00000100
00000001
00001000
00000010
,
00000100
00000000
00000001
00001000
00000100
00000000
00001000
00000000
00000100
00010000
00001000
00010000
00000100
00010000
00001000
00010000
,
00001000
00000000
00000000
00000000
00001000
00000000
00000000
00100000
00000000
00000000
00010000
00000000
00000000
01000000
00000000
00000000
,
00100000
00000000
00000000
00000000
00000000
00000000
10000000
00100000
01000000
00010000
10000000
00100000
01000000
00010000
10000000
00100000
,
01000000
00000000
00000000
00000000
00000000
00000000
00010000
00100000
01000000
10000000
00010000
00100000
01000000
10000000
00010000
00100000
,
01000000
00000000
10000000
00100000
10000000
00000000
00100000
00000000
01000000
00010000
10000000
00010000
00100000
01000000
10000000
00100000
,
02000000
00000000
03000000
00000000
,
00011000
00000000
00000000
00000000
,
00000000
00000000
00000000
00000000
,
00000000
00000000
00000000
00000000
,
00000000
00000000
00000000
00000000
,
00010000
00000000
00000000
00000000
00000000
00000000
00000100
00001000
00000100
00000000
00001000
00000000
00000010
00000000
00000100
00000000
,
00000001
00000000
00001000
00000001
00000010
00000000
00000100
00001000
,
00000100
00010000
00001000
01000000
00100000
00000000
10000000
00000000
,
00010000
00000000
00000000
00000000
,
01000000
00000000
00000000
00000000
00000000
00000000
00010000
10000000
00010000
00000000
01000000
00000000
00100000
00000000
01000000
00000000
,
00001000
00000000
00010000
00001000
00010000
00000000
00000000
00000000
,
00000010
00000000
00000000
00000000
00000000
00000000
00000100
00000001
00000100
00000000
00000010
00000000
00001000
00000000
00000100
00000000
,
00010000
00001000
00100000
00010000
01000000
00000000
00100000
00000000
,
10000000
00000000
00000000
00000000
00000000
00000000
01000000
00100000
01000000
00000000
10000000
00000000
00100000
00000000
01000000
00000000
,
00010000
00000000
00100000
00001000
00100000
00000000
00001000
00010000
,
00000010
00000100
00000001
00000010
00000100
00000000
00001000
00000000
,
00001001
00000000
00000000
00000000
,
00010000
00000000
00000000
00000000
00000000
00000000
00001000
01000000
00001000
00000000
01000000
00000000
00100000
00000000
10000000
00000000
,
00010000
00000000
10000000
01000000
10000000
00000000
00000000
00000000
,
00100000
00000000
00000000
00000000
00000000
00000000
01000000
00010000
01000000
00000000
00010000
00000000
00100000
00000000
00001000
00000000
,
00010000
00000010
00000100
00000001
00000100
00000000
00000010
00000000
,
00001000
00000000
00000000
00000000
00000000
00000000
00000001
00000010
00000001
00000000
00001000
00000000
00000010
00000000
00001000
00000000
,
00000100
00000000
00010000
00001000
01000000
00000000
00100000
10000000
,
00010000
00100000
01000000
10000000
00100000
00000000
01000000
00000000
,
01010000
00000000
00000000
00000000
,
10010000
10010000
02200000
03300000
,
10010000
10010000
02200000
03300000
,
00011000
00011000
00022000
00033000
,
10010000
10010000
02200000
03300000
,
10000000
00100000
01000000
00100000
01000000
00010000
00100000
00001000
,
00100000
00001000
00010000
00000010
00000100
00000001
00000100
00000010
,
00001000
00000001
00000010
00000100
00001000
00000100
00010000
00001000
,
01000000
00100000
10000000
00100000
01000000
00010000
10000000
00010000
,
00100000
00001000
00100000
00001000
00100000
00001000
00100000
00001000
00100000
00001000
00100000
00001000
00100000
00001000
00100000
00001000
,
00010000
00001000
00010000
00001000
00010000
00001000
00010000
00001000
00010000
00000010
00010000
00000010
00010000
00000010
00010000
00000010
,
00020000
00001000
00031000
00000000
,
00011000
00011000
00022000
00033000
,
00001000
00000000
00010000
00100000
10000000
01000000
00010000
00000000
,
00010000
00000000
00001000
00000010
00000001
00000100
00001000
00001000
,
00010000
00000000
00100000
01000000
00000000
10000000
00100000
01000000
,
00010000
10000000
00010000
10000000
00100000
00000000
00000000
00000000
,
00010000
00000000
00001000
00000010
00000001
00000100
00001000
00000000
,
00001000
00000000
00010000
00100000
10000000
01000000
00010000
00010000
,
00001000
00000000
00000010
00000001
00000000
00000001
00001000
00000010
,
00000100
00000001
00000100
00000001
00001000
00000000
00000000
00000000
,
00010000
00000000
00001000
00000100
00000001
00000010
00001000
00000000
,
00001000
00000000
00010000
01000000
10000000
00100000
00010000
00010000
,
00001000
00000000
00000010
00000001
00000000
00001000
00000001
00001000
,
00000010
00000100
00000001
00000010
00000100
00000000
00000000
00000000
,
00011000
00000000
00001000
00010000
00100000
00010000
00001000
00000000
,
00011000
00000000
00010000
00001000
00000010
00000010
00000010
00001000
,
00010000
00000000
00001000
01000000
00000000
00100000
10000000
00010000
,
00100000
01000000
10000000
00100000
01000000
00000000
00010000
00000000
,
00022000
00033000
00000000
00000000
,
00000000
00000000
00000000
00000000
,
00000000
00000000
00000000
00000000
,
00000000
00000000
00000000
00000000
,
00000000
00000000
00000000
00000000
,
00000000
00000000
00000000
00000000
,
00000000
00000000
00000000
00000000
,
00000000
00000000
00000000
00000000
,
00010000
00000000
00010000
00000000
00010000
00000000
00001000
01000000
,
00100000
00000000
10000000
00000000
00010000
10000000
00010000
00000000
,
00100000
00000000
00100000
00000000
00100000
00000000
01000000
10000000
,
00010000
00000000
01000000
00000000
00001000
00010000
00001000
00000000
,
00010000
00000000
00010000
00000000
00010000
00000000
00000010
00001000
,
00000010
00000000
00000100
00000000
00000001
00001000
00000001
00000000
,
00000100
00000100
00001000
00000001
00000100
00000100
00001000
00000001
,
00000100
00001000
00000100
00000001
00000200
00000000
00000300
00000000
,
00010000
00000000
00010000
00000000
00010000
00000000
00001000
01000000
,
00100000
00000000
10000000
00000000
00010000
10000000
01000000
00000000
,
00100000
00000000
00100000
00000000
00100000
00000000
00001000
00010000
,
00001000
00000000
00010000
00000000
00000100
00001000
00000001
00000000
,
00000010
00000000
00000010
00000000
00000010
00000000
00001000
00000100
,
00010000
00000000
00001000
00000000
01000000
00100000
10000000
00000000
,
01000000
01000000
00010000
10000000
01000000
01000000
00010000
10000000
,
00200000
00300000
00000000
00000000
,
10000000
00000000
00000000
00000000
00000000
00000000
00010000
01000000
00010000
00000000
00100000
00000000
00001000
00000000
00010000
00000000
,
00001000
00000000
00010000
00000010
00000100
00000000
00000000
00000000
,
00000001
00000000
00000000
00000000
00000000
00000000
00001000
00000010
00001000
00000000
00000001
00000000
00000010
00000000
00000100
00000000
,
00001000
00000010
00010000
00001000
01000000
00000000
00100000
00000000
,
10000000
00000000
00000000
00000000
00000000
00000000
00010000
10000000
00010000
00000000
00100000
00000000
00001000
00000000
00010000
00000000
,
00001000
00000000
00010000
00000010
00000100
00000000
00000001
00000010
,
00000100
00001000
00000010
00000100
00000001
00000000
00001000
00000100
,
00010000
00001000
01000000
00100000
00010000
00100000
01000000
00010000
,
10000000
00000000
00000000
00000000
00000000
00000000
00010000
00100000
00010000
00000000
01000000
00000000
00100000
00000000
10000000
00000000
,
00010000
00000000
00100000
00001000
00010000
00000000
00000000
00000000
,
00000010
00000000
00000000
00000000
00000000
00000000
00001000
00000001
00001000
00000000
00000001
00000000
00000010
00000000
00000100
00000000
,
00001000
00000010
00000100
00000001
00001000
00000000
00000100
00000000
,
00010000
00000000
00000000
00000000
00000000
00000000
00001000
01000000
00001000
00000000
01000000
00000000
00100000
00000000
10000000
00000000
,
00010000
00000000
00100000
00010000
10000000
00000000
00100000
01000000
,
00010000
00100000
00001000
00010000
00000010
00000000
00000100
00000000
,
00002002
00003003
00000000
00000000
,
00001001
00001001
00000220
00000330
,
00001001
00001001
00000220
00000330
,
00011000
00011000
00022000
00033000
,
00001001
00001001
00000220
00000330
,
00000010
00000000
00001000
00000000
00000001
00000000
00001000
00000010
00001000
00000000
00000100
00000000
00010000
00000000
00001000
00000000
,
01000000
00100000
01000000
00010000
10000000
00010000
00100000
01000000
,
10000000
00000000
00100000
00000000
01000000
00000000
00010000
01000000
00010000
00000000
00100000
00000000
00001000
00000000
00010000
00000000
,
00000010
00000100
00000001
00000010
00000100
00001000
00000010
00000100
,
00000001
00000100
00000001
00000100
00000001
00000100
00000001
00000100
00000001
00000100
00000001
00000100
00000001
00000100
00000001
00000100
,
00000010
00001000
00000010
00001000
00000010
00001000
00000010
00001000
00000100
00001000
00000100
00001000
00000100
00001000
00000100
00001000
,
00000200
00010000
00010300
00000000
,
00011000
00011000
00022000
00033000
,
00010000
00000000
00001000
00000000
01000000
00000000
00010000
01000000
00010000
00000000
01000000
00000000
00100000
00000000
10000000
00000000
,
00010000
00000000
00100000
00000000
01000000
00000000
10000000
00000000
00100000
00000000
01000000
00010000
01000000
00100000
10000000
00010000
,
10000000
00000000
00010000
00000000
00100000
00000000
00001000
00010000
00001000
00000000
00010000
00000000
00000010
00000000
00000100
00000000
,
00000001
00000000
00000001
00000100
00000000
00000100
00000010
00000000
00000010
00001000
00000000
00001000
00000100
00010000
00001000
00010000
,
00001000
00000000
01000000
00000000
00100000
00000000
10000000
00010000
10000000
00000000
01000000
00000000
00100000
00000000
00010000
00000000
,
00100000
00000000
00001000
00000000
00010000
00000000
00000010
00000000
00000100
00000000
00000001
00000010
00000100
00001000
00000010
00000100
,
00000001
00000000
00000100
00000001
00000000
00001000
00000001
00000000
00001000
00000010
00000000
00000100
00000001
00000100
00000010
00000000
,
00001000
00000000
00000001
00001000
00000000
00000100
00010000
00000000
00001000
00010000
00000000
00001000
00010000
00001000
01000000
00000000
,
00010000
00000000
01000000
00000000
00100000
00000000
10000000
00010000
10000000
00000000
01000000
00000000
00100000
00000000
00010000
00000000
,
00100000
00000000
00001000
00000000
00010000
00000000
00000010
00000000
00000100
00000000
00000001
00001000
00000100
00001000
00000001
00000100
,
00000010
00000000
00001000
00000000
00000100
00000000
00010000
00001000
00010000
00000000
00001000
00000000
01000000
00000000
00100000
00000000
,
10000000
00000000
10000000
01000000
00000000
01000000
00100000
00000000
00100000
00010000
00000000
00010000
01000000
00100000
10000000
00100000
,
01000000
00000000
01000000
00000000
00010000
10000000
00010000
00000000
00200000
00000000
00300000
00000000
00001000
00010000
00001000
00000000
,
00010000
00000000
00010000
00000000
00000010
00001000
00000010
00000000
00000200
00000000
00000300
00000000
00000001
00001000
00000001
00000000
,
00000010
00000100
00000110
00000000
00000100
00010000
00011000
00000000
,
00010000
00001000
01000000
00100000
10000000
00000000
00000000
00000000
,
10000000
00000000
00000000
00000000
00100000
01000000
00001000
00000000
00100000
01000000
00001000
00000000
00100000
01000000
00001000
01000000
,
00100000
00000000
00000000
00000000
10000000
00010000
00100000
00000000
10000000
00010000
00100000
00000000
10000000
00010000
00100000
00010000
,
10000000
00000000
00000000
00000000
00000000
00000000
00010000
00100000
01000000
10000000
00010000
00100000
01000000
10000000
00010000
00100000
,
01000000
00000000
00000000
00000000
00000000
00000000
10000000
01000000
00100000
00010000
10000000
01000000
00100000
00010000
10000000
01000000
,
00100000
00000000
00100000
00001000
00010000
00001000
00010000
00000000
,
00001000
00000000
00000010
00000001
00001000
00000010
00000010
00000010
,
00000100
00000000
00000001
00001000
00000100
00010000
00001000
00000000
,
00010000
00000000
00001000
01000000
00010000
00100000
00001000
00010000
,
00000010
00000000
00000000
00000000
00001000
00000001
00000100
00000000
00001000
00000001
00000100
00000000
00001000
00000001
00000100
00000001
,
00001000
00000000
00000000
00000000
00000010
00010000
00001000
00000000
00000010
00010000
00001000
00000000
00000010
00010000
00001000
00010000
,
00000010
00000000
00000000
00000000
00000000
00000000
00000001
00000010
00000100
00001000
00000001
00000010
00000100
00001000
00000001
00000010
,
00000100
00000000
00000000
00000000
00000000
00000000
00001000
00000100
00000010
00000001
00001000
00000100
00000010
00000001
00001000
00000100
,
00000010
00000000
00000001
00000100
00001000
00000100
00000001
00000000
,
00001000
00000000
00000100
00010000
00001000
00100000
00100000
00100000
,
00110000
01000000
10010000
00000000
,
00010000
00010000
00020000
00030000
,
01000000
00000000
00000000
00000000
00000000
00000000
00001000
00100000
00001000
00000000
00010000
00000000
00001000
00000000
00010000
00000000
,
00000010
00000000
00000100
00000001
00001000
00000000
00000001
00000010
,
00000110
00000100
00001000
00000100
00010100
00000000
00010000
00000000
,
00022000
00000000
00000000
00000000
,
00000000
00000000
00000000
00000000
,
00000000
00000000
00000000
00000000
,
00000000
00000000
00000000
00000000
,
00000000
00000000
00000000
00000000
,
00000000
00000000
00000000
00000000
,
00033000
00000000
00000000
00000000
;

//---------------dance-double - Blank----------------
#NOTES:
     dance-double:
     Blank:
     Medium:
     9:
     0.534421,0.725998,0.180707,0.218750,0.069747,1180.000000,1123.000000,57.000000,69.000000,0.000000,0.000000,0.534421,0.725998,0.180707,0.218750,0.069747,1180.000000,1123.000000,57.000000,69.000000,0.000000,0.000000:
00000000
00000000
00000000
00000000
,
00000000
00000000
00000000
00000000
,
00000000
00000000
00000000
00000000
,
00000000
00000000
00000000
00000000
,
00000000
00000000
00000000
00000000
,
00000000
00000000
00000000
00000000
,
00000000
00000000
00000000
00000000
,
00000000
00000000
00000000
00000000
,
10000000
00000000
00000000
00010000
00100000
00010000
00100000
00010000
,
01000000
00000000
00001000
00100000
00010000
00000000
00000000
00000000
,
00100000
00000000
00000000
00001000
00010000
00000010
00000100
00000001
,
00001000
00000100
00001000
00000010
00000100
00000000
00000001
00000000
,
00001000
00000000
00000000
00000010
00000100
00000010
00001000
00000100
,
00010000
00000000
00001000
00010000
00001000
00000000
01000000
00100000
,
10000000
00010000
00100000
01000000
10000000
00000000
00100000
00000000
,
02200000
03300000
00000000
00000000
,
10000000
10000000
20000000
30000000
,
00010000
00010000
00020000
00030000
,
00001000
00001000
00002000
00003000
,
00000001
00000001
00000002
00000003
,
00000110
00000110
00000220
00000330
,
00011000
00011000
00022000
00033000
,
01100000
10010000
20020000
30030000
,
00100000
00100000
00100000
00000000
,
10000000
01000000
00100000
00010000
01000000
00100000
01000000
00010000
,
00100000
00001000
00010000
00000100
00000010
00000001
00000100
00000010
,
00002000
00000100
00003100
00000000
,
00011000
00011000
00011000
00000000
,
10010000
00000000
00010000
01000000
00010000
01000000
10000000
01000000
,
00010000
00000000
10000000
01000000
10000000
01000000
00010000
01000000
,
00100000
00010000
01000000
00001000
00010000
00000100
00000010
00000001
,
00000100
00001000
00000100
00000001
00001000
00000001
00000010
00000100
,
00001000
00000000
00000001
00000100
00000001
00000100
00001000
00000100
,
00000001
00000000
00001000
00000100
00001000
00000100
00000001
00000100
,
00001000
00000010
00000100
00000001
00001000
00000100
00010000
00001000
,
00100000
00100000
00010000
00010000
,
01000000
00000000
00010000
01000000
10000000
01000000
00010000
10000000
,
00010000
00000000
10000000
01000000
00010000
01000000
00100000
00010000
,
00100000
00001000
00010000
00000010
00000100
00001000
00000100
00000010
,
00001000
00000001
00000010
00001000
00000001
00000100
00000010
00000001
,
00001000
00000000
00000001
00000100
00000001
00000100
00001000
00000100
,
00000001
00000000
00001000
00000100
00001000
00000100
00000001
00000100
,
00001000
00000010
00000100
00000001
00000100
00001000
00000100
00000010
,
00001000
00000100
00010000
00001000
01000000
00100000
10000000
00010000
,
00200000
00000000
00300000
00000000
,
00000000
00000000
00000000
00000000
,
00000000
00000000
00000000
00000000
,
00000000
00000000
00000000
00000000
,
01000000
00000000
00100000
01000000
00010000
00000000
00010000
01000000
,
00001000
00010000
00001000
00010000
00000010
00000000
00000000
00000000
,
00001000
00000000
00000001
00001000
00000100
00000000
00001000
00000010
,
00001000
00000100
00010000
00001000
00010000
00000000
00000000
00000000
,
00001000
00000000
01000000
00010000
01000000
00000000
00100000
10000000
,
00010000
00100000
01000000
10000000
00100000
00000000
00000000
00000000
,
01000000
00000000
00100000
10000000
00010000
00000000
00100000
00001000
,
00100000
00001000
00010000
00000010
00000100
00000000
00000000
00000000
,
00000001
00000001
00000002
00000003
,
00001000
00001000
00002000
00003000
,
00010000
00010000
00020000
00030000
,
10000000
10000000
20000000
30000000
,
10010000
10010000
20020000
30030000
,
10010000
10010000
20020000
30030000
,
00011000
00011000
00022000
00033000
,
00001001
00001001
00002002
00003003
,
00000010
00001000
00000100
00010000
00001000
00010000
00001000
01000000
,
00100000
10000000
00010000
00100000
10000000
00100000
01000000
10000000
,
00200000
01000000
01300000
00000000
,
00100000
00100000
00200000
00300000
,
10000000
00000000
00000000
00000000
00000000
00000000
00010000
00000000
10000000
00010000
10000000
00000000
00010000
10000000
00010000
00000000
,
01000000
00000000
00000000
00000000
00000000
00000000
01000000
00000000
00001000
01000000
00001000
00000000
01000000
00001000
01000000
00000000
,
00001000
00000000
00010000
00000000
00000010
00000000
00000100
00000000
00000001
00001000
00000001
00000000
00001000
00000001
00001000
00000000
,
00000000
00000010
00000010
00000010
00000000
00000100
00000100
00000000
,
00000010
00000000
00000000
00000000
00000000
00000000
00001000
00000000
00000010
00001000
00000010
00000000
00001000
00000010
00001000
00000000
,
00000100
00000000
00000000
00000000
00000000
00000000
00010000
00000000
00000100
00010000
00000100
00000000
00010000
00000100
00010000
00000000
,
00001000
00000000
01000000
00000000
00100000
00000000
10000000
00000000
00010000
01000000
00010000
00000000
01000000
00010000
01000000
00000000
,
00100000
00000000
00000000
00000000
,
00100000
00000000
00000000
00000000
00000000
00000000
01000000
00000000
00010000
01000000
00010000
00000000
01000000
00010000
01000000
00000000
,
00001000
00000000
00000000
00000000
00000000
00000000
00010000
00000000
00001000
00010000
00001000
00000000
00010000
00001000
00010000
00000000
,
00000010
00000000
00000100
00000000
00000001
00000000
00001000
00000000
00000001
00001000
00000001
00000000
00001000
00000001
00001000
00000000
,
00000010
00000000
00000000
00000000
00001000
00000000
00000000
00001000
00000000
00000000
00000100
00000000
00000000
00000100
00000000
00000000
,
00010000
00000000
00000000
00000000
00000000
00000000
00001000
00000000
00010000
00001000
00010000
00000000
00001000
00010000
00001000
00000000
,
00010000
00000000
00000000
00000000
00000000
00000000
00001000
00000000
01000000
00001000
01000000
00000000
00001000
01000000
00001000
00000000
,
01000000
00000000
00100000
00000000
10000000
00000000
00010000
00000000
00100000
00010000
00100000
00000000
00010000
00100000
00010000
00000000
,
20000000
00000000
00000000
00000000
,
30100000
00000000
00000000
00000000
,
00000000
00000000
00000000
00000000
,
00000000
00000000
00000000
00000000
,
00000000
00000000
00000000
00000000
,
00100000
00000000
00000000
00010000
10000000
00100000
10000000
00010000
,
00100000
00000000
00001000
00100000
00001000
00000000
00010000
00000010
,
00000100
00000001
00000010
00000100
00001000
00000000
00000010
00000000
,
00000110
00000000
00000000
00000000
,
00000010
00000000
00000000
00001000
00000001
00001000
00000100
00001000
,
00000100
00000000
00010000
00001000
00010000
00000000
00000000
00000000
,
00001000
00000000
00000000
01000000
00100000
10000000
00010000
00100000
,
01000000
10000000
00100000
01000000
00010000
00000000
10000000
00000000
,
00010000
00000000
00000000
00100000
00001000
00010000
00001000
00010000
,
00000010
00000000
00000100
00000001
00001000
00000000
00000001
00000010
,
00000100
00001000
00000010
00000100
00000010
00000000
00010000
00000000
,
00002000
00003000
00000000
00000000
,
01000000
00000000
00000000
00100000
10000000
00010000
10000000
01000000
,
00100000
00000000
00010000
00100000
00001000
00000000
00000000
00000000
,
00010000
00000000
00000000
00000010
00000100
00000001
00000100
00000010
,
00001000
00000001
00000010
00000100
00001000
00000000
00000010
00000000
,
00000100
00000000
00000000
00000001
00001000
00000100
00010000
00001000
,
00010000
00000000
00001000
01000000
00100000
00000000
10000000
01000000
,
00100000
00010000
00100000
01000000
10000000
00000000
00100000
00000000
,
02000000
03000000
00000000
00000000
,
10000000
10000000
20000000
30000000
,
00010000
00010000
00020000
00030000
,
00001000
00001000
00002000
00003000
,
00000001
00000001
00000002
00000003
,
00000010
00000000
00001000
00000001
00000000
00001000
00000100
00000000
,
00010000
00000000
00001000
01000000
00000000
00100000
01000000
00000000
,
00010000
00000000
10000000
00100000
00000000
10000000
00010000
00000000
,
00100000
00000000
01000000
10000000
00000000
00010000
01000000
00000000
,
00010000
00100000
00001000
00010000
00000010
00000100
00000001
00000010
,
00000100
00001000
00000010
00000100
00000001
00001000
00000100
00010000
,
00002000
00010000
00013000
00000000
,
00011000
00011000
00022000
00033000
,
00001000
00000000
01000000
00100000
00000000
10000000
00100000
00000000
,
10000000
00000000
01000000
00100000
00000000
00010000
00010000
00010000
,
00100000
00000000
00001000
00100000
00000000
00001000
00010000
00000010
,
00000100
00000001
00000010
00000100
00001000
00000000
00000020
00000030
,
00001000
00000000
00000001
00000100
00000000
00000010
00000100
00000000
,
00000001
00000000
00001000
00000100
00000000
00000100
00000100
00000100
,
00010000
00000000
00001000
01000000
00000000
00100000
10000000
00010000
,
00100000
01000000
10000000
00100000
01000000
00000000
00020000
00030000
,
10000000
00000000
00010000
10000000
10010000
00010000
01000000
00000000
,
00010000
00000000
00100000
00001000
00011000
00010000
00010000
00010000
,
00000010
00000000
00000100
00000001
00001001
00001000
00000100
00000010
,
00000001
00000100
00000010
00001000
00000002
00000000
00000023
00000030
,
00000001
00000000
00001000
00000010
00000110
00000100
00000001
00000000
,
00001000
00000000
00000100
00010000
00011000
00001000
00001000
00001000
,
01000000
00000000
00100000
10000000
10010000
10000000
01000000
00100000
,
00010000
01000000
00100000
10000000
00010000
00000000
00100000
00000000
,
02000000
03000000
00000000
00000000
,
00000000
00000000
00000000
00000000
,
00000000
00000000
00000000
00000000
,
00000000
00000000
00000000
00000000
,
00000000
00000000
00000000
00000000
,
00000000
00000000
00000000
00000000
,
00000000
00000000
00000000
00000000
,
00000000
00000000
00000000
00000000
,
10000000
00000000
10000000
00000000
10000000
00000000
00100000
01000000
,
00100000
00000000
01000000
00000000
00010000
00100000
00001000
00000000
,
00010000
00000000
00010000
00000000
00010000
00000000
00000010
00000100
,
00000001
00000000
00001000
00000000
00000001
00000010
00000100
00000000
,
00001000
00000000
00001000
00000000
00001000
00000000
00000100
00010000
,
00001000
00000000
00010000
00000000
00001000
01000000
00100000
00000000
,
10000000
00100000
00010000
00100000
10000000
00100000
00010000
00100000
,
10000000
01000000
00100000
00010000
10000000
00000000
00000000
00000000
,
01000000
00000000
01000000
00000000
01000000
00000000
00100000
00010000
,
00100000
00000000
00001000
00000000
00010000
00000010
00010000
00000000
,
00000010
00000000
00000010
00000000
00000010
00000000
00000100
00000001
,
00001000
00000000
00000001
00000000
00000010
00000100
00001000
00000000
,
00000010
00000000
00000010
00000000
00000010
00000000
00000100
00000001
,
00001000
00000000
00000100
00000000
00010000
00001000
01000000
00000000
,
00100000
10000000
00100000
00010000
00100000
10000000
00100000
00010000
,
00200000
00000000
10000000
10300000
,
10000000
00000000
00000000
00010000
00100000
00001000
00100000
00010000
,
00100000
00000000
00001000
00010000
00000010
00000000
00000000
00000000
,
00000100
00000000
00000000
00000001
00001000
00000001
00001000
00000010
,
00000100
00000001
00000010
00000100
00001000
00000000
00000010
00000000
,
00010000
00000000
00000000
00001000
00010000
00001000
01000000
00100000
,
10000000
00000000
00010000
00100000
01000000
00000000
10000000
00100000
,
01000000
00010000
00100000
00001000
00010000
00000000
00001000
00010000
,
00000010
00000100
00000001
00000100
00002000
00000000
00003100
00000000
,
00000001
00000000
00000000
00001000
00000010
00001000
00000001
00000010
,
00000100
00000000
00000010
00000100
00001000
00000000
00000000
00000000
,
00000100
00000000
00000000
00010000
00001000
01000000
00100000
01000000
,
00010000
00100000
01000000
10000000
00100000
00000000
01000000
00000000
,
00010000
00000000
00000000
10000000
00100000
10000000
00010000
00100000
,
00001000
00000000
00010000
00000100
00001000
00000000
00000010
00000100
,
00000001
00000010
00000100
00001000
00000010
00000000
00000100
00000000
,
00000202
00000303
00000000
00000000
,
00000001
00000001
00000002
00000003
,
00001000
00001000
00002000
00003000
,
00010000
00010000
00020000
00030000
,
10000000
10000000
20000000
30000000
,
10010000
10010000
20020000
30030000
,
01100000
01100000
02200000
03300000
,
00011000
00011000
00022000
00033000
,
00001001
00001001
00002002
00003003
,
00000010
00000100
00000001
00000010
00000100
00001000
00000100
00010000
,
00001000
00100000
00001000
01000000
00100000
10000000
00010000
00100000
,
01000000
10000000
00200000
00300000
,
10010000
10010000
20020000
30030000
,
10000000
00100000
01000000
00100000
00010000
00100000
01000000
00100000
,
10000000
00010000
00100000
00001000
00010000
00000010
00000100
00000000
,
00000100
00000001
00000100
00001000
00000100
00000010
00000100
00000001
,
00000010
00000000
00000000
00000100
00000000
00000000
00001000
00000000
00000000
00000100
00000000
00000000
00010000
00001000
00010000
00000000
,
00001000
01000000
00100000
01000000
10000000
01000000
00100000
01000000
,
00010000
00100000
00001000
00010000
00000010
00000100
00000001
00000010
,
00000100
00001000
00000100
00000001
00000100
00001000
00000100
00000010
,
00000100
00001000
00000100
00000001
00000100
00001000
00000100
00000010
,
00000001
00000100
00000010
00001000
00000010
00000001
00000010
00001000
,
00000100
00010000
00001000
01000000
00100000
10000000
00010000
00000000
,
00100000
01000000
10000000
01000000
00010000
01000000
10000000
01000000
,
00100000
00000000
00000000
00010000
00000000
00000000
00100000
00000000
00000000
00001000
00000000
00000000
00010000
00001000
00010000
00000000
,
00000010
00000000
00000100
00000000
00000001
00001000
00000001
00000000
00000100
00000000
00000000
00000000
00000000
00000000
00000000
00000000
,
00000010
00000000
00010000
00000000
00001000
00010000
00001000
00000000
00010000
00000000
00000000
00000000
00000000
00000000
00000000
00000000
,
00001000
00000000
00100000
00000000
00010000
01000000
00010000
00000000
01000000
00000000
00100000
00000000
10000000
00010000
10000000
00000000
,
02000000
03000000
00000000
00000000
,
10010000
00000000
10000000
01000000
10000000
01000000
00010000
01000000
,
10000000
00000000
00010000
01000000
00010000
01000000
10000000
01000000
,
00010000
00000000
00000000
00000000
00000000
00000000
10000000
00000000
00010000
10000000
00010000
00000000
10000000
00010000
10000000
00000000
,
00100000
00000000
00000000
00000000
00000000
00000000
01000000
00000000
00010000
01000000
00010000
00000000
01000000
00010000
01000000
00000000
,
00100000
00000000
10000000
01000000
00010000
01000000
10000000
00000000
,
00100000
00000000
01000000
00001000
00010000
00010000
00001000
00010000
,
00000010
00000100
00000001
00001000
00000001
00000000
00000010
00000100
,
00001000
00000001
00000100
00000010
00001000
00000000
00000010
00000000
,
00001000
00000000
00000001
00000100
00000001
00000100
00001000
00000100
,
00000001
00000000
00001000
00000100
00001000
00000100
00000001
00000100
,
00001000
00000000
00000000
00000000
00000000
00000000
00000001
00000000
00001000
00000001
00001000
00000000
00000001
00001000
00000001
00000000
,
00000100
00000000
00000000
00000000
00000000
00000000
00000010
00000000
00001000
00000010
00001000
00000000
00000010
00001000
00000010
00000000
,
00000100
00000000
00000001
00001000
00000100
00010000
00001000
00000000
,
00100000
00000000
00010000
01000000
00100000
00100000
00100000
10000000
,
00020000
10030000
00000000
00000000
20000000
30010000
00000000
00000000
,
01100000
01100000
20020000
30030000
,
10000000
00000000
00000000
00100000
01000000
00010000
01000000
00100000
,
01000000
00000000
00001000
00100000
00010000
00000000
00100000
00001000
,
00010000
00000010
00000100
00000001
00000010
00000000
00000100
00000000
,
00022000
00000000
00000000
00000000
,
00000000
00000000
00000000
00000000
,
00000000
00000000
00000000
00000000
,
00000000
00000000
00000000
00000000
,
00000000
00000000
00000000
00000000
,
00000000
00000000
00000000
00000000
,
00033000
00000000
00000000
00000000
;

//---------------dance-double - Blank----------------
#NOTES:
     dance-double:
     Blank:
     Easy:
     5:
     0.311595,0.435599,0.133152,0.034873,0.003170,688.000000,646.000000,42.000000,11.000000,0.000000,0.000000,0.311595,0.435599,0.133152,0.034873,0.003170,688.000000,646.000000,42.000000,11.000000,0.000000,0.000000:
00000000
00000000
00000000
00000000
,
00000000
00000000
00000000
00000000
,
00000000
00000000
00000000
00000000
,
00000000
00000000
00000000
00000000
,
00000000
00000000
00000000
00000000
,
00000000
00000000
00000000
00000000
,
00000000
00000000
00000000
00000000
,
00000000
00000000
00000000
00000000
,
10000000
00000000
00100000
01000000
,
00001000
00010000
00001000
00000000
,
00010000
00000000
00000010
00000100
,
00000001
00000010
00000100
00001000
,
00000010
00000000
00001000
00000100
,
00010000
00001000
01000000
00100000
,
10000000
00010000
00100000
01000000
,
20000000
30000000
00000000
00000000
,
01000000
01000000
01000000
00000000
,
00100000
00100000
00100000
00000000
,
00010000
00010000
00010000
00000000
,
00001000
00001000
00001000
00000000
,
00000010
00000001
00000100
00000000
,
00000010
00001000
00000100
00000000
,
00000010
00000010
00000010
00000000
,
00001000
00001000
00001000
00000000
,
00010000
00010000
00010000
00000000
,
01000000
01000000
01000000
00000000
,
00100000
10000000
00010000
00000000
,
10000000
00010000
10010000
00000000
,
10000000
00100000
00100000
01000000
,
00010000
00100000
00100000
00001000
,
00010000
00000010
00000100
00000001
,
00000010
00000100
00001000
00000100
,
00010000
00001000
00001000
01000000
,
00100000
10000000
10000000
01000000
,
00100000
00010000
00100000
00001000
,
00020000
00030000
00000000
00000000
,
00000010
00001000
00001000
00000001
,
00000010
00000100
00001000
00000100
,
00010000
00001000
01000000
00100000
,
10000000
00010000
00010000
00100000
,
01000000
10000000
10000000
00100000
,
01000000
00001000
00001000
00010000
,
00000010
00000000
00000100
00000000
,
00000020
00000000
00000030
00000000
,
00000100
00000000
00000000
00000000
,
00000000
00000000
00000000
00000000
,
00000000
00000000
00000000
00000000
,
00000000
00000000
00000000
00000000
,
00000100
00000000
00000001
00000000
,
00001000
00000100
00010000
00000000
,
00001000
00000000
01000000
00000000
,
00100000
10000000
00010000
00000000
,
10000000
00000000
01000000
00000000
,
10000000
00010000
00100000
00000000
,
00001000
00000000
00010000
00000000
,
00000010
00000100
00000001
00000000
,
00000010
00000010
00000010
00000000
,
00000100
00000100
00000100
00000000
,
00001000
00001000
00001000
00000000
,
00010000
00010000
00010000
00000000
,
00100000
01000000
10000000
00000000
,
00100000
01000000
00010000
00000000
,
10000000
10000000
10000000
00000000
,
00100000
00100000
00100000
00000000
,
00010000
00010000
00010000
00000000
,
00001000
00001000
00001000
00000000
,
00000010
00000001
00001000
00000000
,
00000010
00001000
00001001
00000000
,
00001000
00000000
00000001
00001000
,
00001100
00000000
00010000
00000100
,
00010100
00010000
00001000
01000000
,
00000000
00100000
00100000
10000000
,
00010000
00000000
10000000
00010000
,
10010000
00000000
00100000
00010000
,
01010000
01000000
00001000
00010000
,
00000020
00000030
00000000
00000000
,
00000100
00000000
00000001
00001000
,
00001100
00000000
00010000
00000100
,
00010100
00001000
01000000
00100000
,
10000000
00000000
00000000
00000000
00010000
00000000
00000000
10000000
00000000
00000000
00010000
00000000
00000000
10000000
00000000
00000000
,
10010000
00000000
00100000
01000000
,
01010000
00000000
00100000
00001000
,
00011000
00010000
00000010
00000100
,
00000001
00000000
00000000
00000000
,
00001000
00000000
00000000
00000000
,
00000000
00000000
00000000
00000000
,
00000000
00000000
00000000
00000000
,
00000000
00000000
00000000
00000000
,
00000010
00000000
00001000
00000100
,
00010000
00001000
00010000
00001000
,
01000000
00100000
10000000
00010000
,
00100000
00000000
00000000
00000000
,
00010000
00000000
01000000
00100000
,
10000000
00010000
00100000
00000000
,
00001000
00000000
00010000
00000010
,
00000100
00000001
00000010
00000100
,
00001000
00000000
00000100
00010000
,
00001000
01000000
00100000
10000000
,
00010000
00100000
01000000
10000000
,
00100000
00000000
00000000
00000000
,
01000000
00000000
00010000
00100000
,
00001000
00010000
00001000
00000000
,
00010000
00000000
00000010
00000100
,
00000001
00000010
00000100
00001000
,
00000100
00000000
00010000
00001000
,
01000000
00100000
10000000
00010000
,
00100000
01000000
10000000
00100000
,
01000000
00000000
00000000
00000000
,
10000000
10000000
10000000
00000000
,
00100000
00100000
00100000
00000000
,
00010000
00010000
00010000
00000000
,
00001000
00001000
00001000
00000000
,
00000010
00000001
00000100
00000000
,
00000010
00001000
00000100
00000000
,
00001000
00001000
00001000
00000000
,
00010000
00010000
00010000
00000000
,
01000000
00100000
10100000
00000000
,
00100000
10000000
10010000
00000000
,
00100000
00001000
00010000
00000000
,
00011000
00011000
00022000
00033000
,
00001000
00000010
00000001
00000000
,
00000001
00000100
00001000
00000000
,
00010000
00100000
10000000
01000000
,
00010000
00010000
00001000
00001000
,
00010000
00100000
10000000
00000000
,
10000000
01000000
00010000
00000000
,
00001000
00000010
00000001
00000100
,
00002000
00003000
00000000
00000000
,
00010000
00001000
01001000
00000000
,
00100000
01000000
01010000
00000000
,
10000000
01000000
01100000
00000000
,
00010000
10000000
10100000
00000000
,
01000000
00001000
00011000
00000000
,
00000010
00010000
00010100
00000000
,
00001000
00000010
00000110
00000100
,
00000001
00000010
00000100
00001000
,
00000020
00000030
00000000
00000000
,
00000000
00000000
00000000
00000000
,
00000000
00000000
00000000
00000000
,
00000000
00000000
00000000
00000000
,
00000000
00000000
00000000
00000000
,
00000000
00000000
00000000
00000000
,
00000000
00000000
00000000
00000000
,
00000000
00000000
00000000
00000000
,
00001000
00001000
00001000
00000010
,
00000100
00000001
00001000
00000100
,
00010000
00010000
00010000
00001000
,
01000000
00100000
10000000
00010000
,
00100000
00100000
00100000
01000000
,
10000000
00100000
01000000
00000000
,
00010000
10000000
00010000
10000000
,
00100000
01000000
00001000
00000000
,
00010000
00010000
00010000
00000010
,
00000100
00000001
00000010
00000100
,
00001000
00001000
00001000
00000010
,
00000001
00000010
00001000
00000100
,
00010000
00010000
00010000
00001000
,
01000000
00100000
10000000
00010000
,
00100000
10000000
00100000
00010000
,
01000000
00000000
00000000
00000000
,
10000000
00000000
00100000
01000000
,
00001000
00010000
00001000
00000000
,
00010000
00000000
00000010
00000100
,
00000001
00000010
00000100
00001000
,
00000100
00000000
00010000
00001000
,
01000000
00100000
10000000
00010000
,
00100000
01000000
10000000
00100000
,
01000000
00010000
01000000
00100000
,
10000000
00000000
00100000
01000000
,
00001000
00010000
00001000
00000000
,
00010000
00000000
00000010
00000100
,
00000001
00000010
00000001
00001000
,
00000100
00000000
00010000
00001000
,
01000000
00100000
10000000
00010000
,
00100000
01000000
10000000
00100000
,
01000000
00000000
00000000
00000000
,
10000000
10000000
10000000
00000000
,
00100000
00100000
00100000
00000000
,
00010000
00010000
00010000
00000000
,
00001000
00001000
00001000
00000000
,
00000010
00000001
00001000
00000000
,
00000100
00001000
00000001
00000000
,
00000100
00000100
00000100
00000000
,
00001000
00001000
00001000
00000000
,
00010000
00010000
00010000
00000000
,
00100000
00100000
00100000
00000000
,
01000000
10000000
10010000
00000000
,
01100000
01100000
01100000
00000000
,
01000000
10000000
01000000
00010000
,
00001000
00000010
00000001
00000000
,
00000100
00000001
00000100
00001000
,
00010000
00100000
10000000
00000000
,
10000000
00010000
10000000
01000000
,
00100000
00010000
00100000
00001000
,
00010000
00000010
00000100
00000001
,
00000020
00000000
00000030
00000000
,
00000001
00000100
00001000
00010000
,
00100000
10000000
00010000
00000000
,
10000000
01000000
00010000
00001000
,
00000010
00000001
00000100
00000010
,
00000100
00000001
00000101
00000000
,
00000010
00001000
00001100
00000000
,
00010000
00001000
01000000
00100000
,
10000000
00010000
10010000
00000000
,
01000000
00100000
00100000
01000000
,
00010000
00100000
00100000
00001000
,
00010000
00000000
00000010
00000100
,
00000110
00000000
00000100
00000010
,
00001010
00000000
00001000
00000100
,
00010000
00001000
01000000
00100000
,
10000000
01000000
00010000
01000000
,
10000000
00100000
00010000
00100000
,
10000000
00010000
00010000
00100000
,
00001000
00010000
00010000
00000010
,
00000100
00000000
00000001
00001000
,
00001001
00000000
00001000
00000100
,
00010100
00010000
00001000
01000000
,
00100000
10000000
00010000
00100000
,
01100000
00000000
10010000
00000000
,
01100000
01100000
01100000
00000000
,
10000000
00000000
00100000
01000000
,
00010000
00100000
00001000
00010000
,
00010100
00001000
00000110
00000001
,
00002002
00000000
00000000
00000000
,
00000000
00000000
00000000
00000000
,
00000000
00000000
00000000
00000000
,
00000000
00000000
00000000
00000000
,
00000000
00000000
00000000
00000000
,
00000000
00000000
00000000
00000000
,
00003003
00000000
00000000
00000000
;
