#TITLE:Chaotic Drift;
#SUBTITLE:;
#ARTIST:Freezepond;
#TITLETRANSLIT:;
#SUBTITLETRANSLIT:;
#ARTISTTRANSLIT:;
#GENRE:;
#CREDIT:;
#BANNER:;
#BACKGROUND:;
#LYRICSPATH:;
#CDTITLE:;
#MUSIC:Chaotic Drift.mp3;
#OFFSET:0.000;
#SAMPLESTART:39.520;
#SAMPLELENGTH:12.000;
#SELECTABLE:YES;
#BPMS:0.000=173.000;
#STOPS:;
#BGCHANGES:;
#KEYSOUNDS:;

//---------------dance-single - Blank----------------
#NOTES:
     dance-single:
     Blank:
     Challenge:
     12:
     0.965,1.000,0.156,0.492,0.764:
0000
0000
0000
0000
,
0000
0000
0000
0000
,
0000
0000
0000
0000
,
0000
0000
0MM0
M00M
,
00M1
0000
0M01
0000
10M0
0001
0M01
0000
,
10M0
0000
0M10
0000
01M0
0001
10M0
00M1
,
M100
M100
001M
001M
1M00
0M01
M010
0M01
,
1000
0010
0100
0010
1000
0010
1000
0001
0010
0001
1000
0010
0100
0001
0100
0010
,
2M0M
0000
3100
0002
0000
0103
2000
0000
,
3020
0000
0130
2000
0000
3100
0010
1000
,
0002
0000
0013
2000
0000
3010
0002
0100
,
0023
0000
1030
0002
0000
0013
0100
1000
,
0002
0000
0013
2000
0000
3010
0002
0000
,
2003
0000
3010
0100
1000
0100
0001
0100
,
0020
0000
1030
0002
0000
0013
2000
0000
,
3020
0000
0031
1000
0010
0100
0001
1000
,
001M
0100
M001
0100
0010
0100
0001
0100
0010
0000
1000
0000
0010
0000
1000
0000
,
0001
0000
0010
0000
1000
0000
0010
0000
0002
0000
0000
0000
0103
0010
000M
1000
,
0000
0001
1000
0001
0010
0000
0000
0000
0100
0000
1000
0000
0010
0000
0100
0000
,
0001
0000
1000
0000
0001
0000
0010
0000
0100
1000
0000
0001
1000
0000
0010
0000
,
0100
0100
2001
0000
3010
M100
0001
0010
,
0100
0000
0001
0000
0100
0000
1000
0000
0020
0000
0000
0000
0130
0001
00M0
0010
,
0000
0100
1000
0100
0001
1000
0010
1000
0010
0000
0100
0000
0010
0000
1000
0001
,
0100
0001
1000
0100
1000
0000
0010
0000
0100
0001
0100
0000
0001
0000
1000
0000
,
0010
0100
0010
1000
0010
0100
0001
0000
2000
0000
0000
0000
3010
0000
M002
0000
,
0000
0013
200M
0000
3200
M000
0310
0M01
,
1000
0010
0100
0001
2000
0000
3100
M002
,
0000
0103
200M
0000
3020
M000
0130
00M1
,
1000
0001
0100
0001
1000
0001
0100
0001
1000
0000
0010
0000
0001
0000
0010
0000
,
1000
0001
0010
0100
2000
0000
3010
M100
,
0001
1000
0010
0001
0010
1000
0001
0100
,
0010
1000
0100
0001
0200
0000
1300
0M10
,
0001
0010
1000
0001
0010
0100
0001
0100
,
1000
0000
0000
0000
0010
0000
0000
0000
0100
0000
0000
0000
0001
2000
0000
0000
0000
0000
0000
0000
0000
0000
0000
0000
3010
0000
0000
0000
M100
0000
0000
0000
,
0001
0010
0100
1000
0010
0001
0010
1000
,
0001
0100
0010
1000
0002
0000
0013
010M
,
1000
0010
0100
0001
1000
0100
0001
0100
,
0010
0001
1000
0010
0200
0000
0301
1M00
,
0001
0010
1000
0010
0001
0100
0010
1000
,
0001
0100
1000
0100
0002
0000
1003
001M
,
0100
0001
0010
0001
1000
0010
1000
0100
,
0001
0100
1000
0010
0100
0001
0100
0020
,
0000
0000
0000
0000
0030
1000
00M1
1000
0001
0000
0100
0000
0010
0000
1000
0000
,
0100
0010
0001
1000
0010
0100
0001
0010
,
0200
0000
0000
0000
0301
0000
0M00
0000
1000
0000
0010
0000
0100
0000
0001
1000
,
0001
1000
0001
0010
0100
0000
0000
0100
1000
0000
0010
0000
0100
0000
0001
0010
,
0001
1000
0001
1000
0010
0000
0000
0010
0100
0000
0001
0000
1000
0000
0100
0010
,
0100
0010
0100
1000
0001
0000
0100
0000
0010
1000
0001
1000
0010
0000
0100
0000
,
0001
0012
1003
0010
M2MM
0000
0000
0000
,
0000
M0MM
2000
0000
,
0000
00MM
0020
0000
,
0000
000M
0002
0000
,
0000
0000
0000
0000
3333
0000
0000
0000
MM1M
0000
0100
0000
0001
0000
1000
0001
,
1000
0001
1000
0010
0100
0000
0000
0001
0100
0000
0010
0000
1000
0000
0001
0010
,
0100
0010
0100
1000
0010
0000
0000
0100
0001
0000
1000
0000
0010
0000
0100
0001
,
1000
0001
1000
0010
0100
0000
0001
0000
0010
0100
0010
0100
1000
0000
0010
0000
,
0100
0000
0102
0000
1003
0000
0010
0000
1000
0010
1000
0010
0100
0001
0100
0001
,
1000
0001
1000
0001
0100
0010
0100
0010
1000
0010
0100
0010
0100
0010
0100
0001
,
0100
0001
0010
0001
0010
0001
0100
0001
0100
0010
1000
0010
1000
0100
1000
0100
,
0010
0100
0010
0100
1000
0010
1000
0010
0100
0001
0100
0001
0100
0010
0100
0010
,
1000
0010
1000
0001
1000
0001
0010
0001
0010
0100
1000
0100
0010
0100
1000
0010
,
1000
0010
0100
0001
0100
0001
0010
0001
1000
0010
1000
0010
0100
0010
0100
0001
,
0010
0100
0010
0001
1000
0001
1000
0010
0100
0001
1000
0001
1000
0010
1000
0010
,
0100
0001
1000
0001
0010
0001
0010
0100
0001
0100
1000
0010
1000
0010
0100
0001
,
1000
0010
0100
0001
1000
0010
0100
0010
1000
0000
0001
0000
0101
0000
0001
0000
,
1000
0000
1100
0000
1000
0000
1001
0000
0010
0100
0001
1000
0010
0100
0001
1000
,
0010
0100
0001
1000
0010
0100
0001
0100
0020
0000
0000
0000
1000
0000
0000
0000
,
0130
0001
1000
0001
0010
0100
2000
0000
,
3010
0100
0001
1000
0010
0000
1MM1
0000
,
0001
0010
1000
0010
0001
0000
M11M
0000
,
1000
0100
0010
0001
1000
0010
0100
0010
,
1000
0010
0000
0000
1M0M
0010
0000
0000
1000
0010
0000
0000
1000
0010
0000
0000
0100
0001
0000
0000
M1M0
0001
0000
0000
0100
0001
0000
0000
0100
0001
0000
0000
,
0100
0010
0000
0000
M10M
0010
0000
0000
0100
0010
0000
0000
0100
0010
0000
0000
1000
0000
0000
0000
0010
0000
0100
0000
0001
0000
0000
0000
1000
0000
0000
0000
,
0002
0000
0000
0000
0013
1000
0010
1000
0010
0000
0001
0000
1000
0000
0010
0000
,
0100
0000
0000
0000
0001
0000
0000
0000
1000
0000
0000
0000
0100
0000
0000
0000
1000
0001
0000
0000
1000
0001
0000
0000
1000
0010
0000
0000
1000
0010
0000
0000
,
1000
0001
0000
0000
1000
0001
0000
0000
0010
0001
0000
0000
0010
0001
0000
0000
1000
0001
0000
0000
1000
0001
0000
0000
1000
0010
0000
0000
1000
0010
0000
0000
,
0100
0010
0000
0000
0100
0010
0000
0000
0100
0001
0000
0000
0100
0001
0000
0000
0100
0000
0010
0000
0100
0000
0010
0000
1000
0000
0010
0000
0100
0000
0010
0000
,
1000
0010
1000
0001
1000
0001
1000
0001
0010
0100
0010
0001
0010
0100
0010
0001
,
0010
0001
1000
0001
1000
0001
1000
0010
0100
0001
1000
0001
1000
0010
0100
0001
,
1000
0001
0010
0001
1000
0010
0100
0010
2M00
30M2
2M03
30M2
2M03
30M2
2M03
30M2
,
2M03
30M2
2M03
30M2
2M03
30M2
2M03
30M2
0203
0000
0000
0000
M0MM
0000
0000
0000
,
0000
0000
0000
0000
,
0000
0000
0300
MMMM
,
0000
0000
0000
0000
,
0000
0000
0000
0000
1010
0010
0100
0001
,
1001
0001
1000
0010
0100
0001
1000
0001
,
0010
0100
1000
0010
0110
0100
0001
1000
,
1001
0001
0010
0100
1000
0100
0010
0001
,
1000
0010
0000
0001
0010
0000
1000
0000
0010
0000
0100
0000
0101
0000
0001
0000
,
1000
0010
1010
1000
0001
0010
0100
1000
,
0100
0010
0001
1000
0010
0100
0101
0001
,
1000
0000
0100
0000
0110
0000
0010
0000
0001
0010
0000
0100
1000
0000
0010
0000
,
0100
0002
0000
0103
0010
1000
1001
1000
,
0001
0010
1100
1000
0010
0100
0001
1000
,
0001
0010
1000
0010
0100
1000
1010
0010
,
0100
0000
0001
0000
1001
0000
1000
0000
0010
0100
0000
0010
0100
0000
0001
0000
,
1000
0010
0100
0001
2002
0000
3003
0000
;

//---------------dance-single - Blank----------------
#NOTES:
     dance-single:
     Blank:
     Hard:
     9:
     0.714,0.721,0.179,0.268,0.130:
0000
0000
0000
0000
,
0000
0000
0000
0000
,
0000
0000
0000
0000
,
0000
0000
0000
0000
,
1000
0000
0001
0000
1000
0001
1000
0000
,
0001
0000
0100
0000
0010
1000
0001
1000
,
0001
0010
0001
0010
0100
1000
0100
1000
,
0010
0100
0001
1000
0010
0100
0001
0010
,
0012
0000
1000
1000
0000
0100
0103
0000
,
0020
0000
1000
1030
0000
1001
0000
0010
,
2000
0000
0001
0001
0000
0100
3100
0000
,
0020
0000
0001
0031
0000
0110
0000
0100
,
2000
0000
0001
0001
0000
0010
3010
0000
,
0002
0000
0010
0013
0000
0110
0000
0010
,
0200
0000
1000
1000
0000
0010
0310
0000
,
0002
0000
1000
1003
0000
0101
0000
0010
,
1000
0001
1000
0000
0001
1000
0001
0000
0100
0000
0010
0000
1000
0000
0001
0000
,
0010
0100
1000
0010
0200
0000
0301
1000
,
0001
1000
0010
0100
0001
0010
0100
0010
,
0100
1000
0010
0100
1000
0100
0001
0100
,
1000
0100
0010
1000
0001
0010
0100
0010
,
0100
1000
0010
0100
0001
1000
0100
0020
,
0000
0000
0000
0000
0030
0001
0100
0001
0100
0000
0010
0000
1000
0000
0001
0010
,
0001
0010
0001
0000
1000
0000
0010
0000
0100
0001
0100
0000
0010
0000
1000
0000
,
0001
1000
0001
0000
0100
0000
0010
0000
2000
0000
0000
0000
0001
0000
0001
0000
,
0000
0010
3010
0000
0002
0000
1003
1000
,
0000
0110
0000
1000
0002
0000
0010
0010
,
0000
1000
1003
0000
0020
0000
0100
0130
,
0001
1000
0010
0100
0001
1000
0010
0100
0001
0000
1000
0000
0100
0000
1000
0000
,
0001
1000
0010
0100
0002
0000
0013
0100
,
1000
0100
0010
0001
1000
0010
0100
0001
,
1000
0001
1000
0100
0020
0000
0130
1000
,
0010
0100
0001
1000
0001
0010
0100
0010
,
0100
1000
0010
0200
0000
0310
1000
0001
,
0010
1000
0010
0001
1000
0010
0100
0001
,
1000
0100
0010
0001
2000
0000
3010
0100
,
0001
1000
0001
0010
0100
1000
0001
1000
,
0010
0100
0001
0100
0020
0000
1030
0001
,
0010
0100
0010
0001
1000
0010
0100
0001
,
0100
1000
0100
0010
2000
0000
3001
0010
,
0100
1000
0010
0100
0001
1000
0100
0010
,
0100
0010
0001
1000
0010
0100
0001
0200
,
0000
0000
0000
0000
0300
0010
1000
0010
1000
0000
0001
0000
1000
0000
0001
0000
,
0010
0001
1000
0001
1000
0010
1000
0001
,
0200
0000
0000
0000
0310
0000
0000
0000
1000
0000
0001
0000
0100
0000
0000
0100
,
0000
0010
1000
0010
1000
0000
0000
0000
0001
0000
0010
0000
0100
0000
0000
0010
,
0000
0001
1000
0001
1000
0000
0000
0000
0100
0000
0010
0000
0001
0000
1000
0000
,
0010
0000
0100
0000
0001
0000
0010
0000
0100
1000
0100
1000
0100
0000
0010
0000
,
0001
1000
0010
0100
0202
0000
0000
0000
,
0000
0303
2200
0000
,
0000
3300
2020
0000
,
0000
3030
0022
0000
,
0000
0000
0000
0000
0033
0000
0000
0000
0010
0000
0100
0000
0001
0000
0000
1000
,
0000
0010
0100
0010
0100
0000
0000
0000
0001
0000
0010
0000
0100
0000
0000
1000
,
0000
0001
1000
0001
1000
0000
0000
0000
0100
0000
0010
0000
0001
0000
1000
0000
,
0010
0100
0001
0100
0010
1000
0001
0010
,
0100
1100
1000
0010
0100
0001
0010
1000
,
0010
0001
0010
1000
0010
0100
1000
0001
,
1000
0100
1000
0001
1000
0010
0100
0001
,
1000
0010
0100
0001
0010
0100
1000
0100
,
0001
0100
1000
0010
0100
0001
0010
0100
,
0001
0100
1000
0010
0001
0010
1000
0001
,
1000
0100
0001
1000
0001
0100
1000
0010
,
0100
0001
0010
0100
0010
0100
1000
0010
,
0100
0001
0010
0100
1000
0001
0100
0001
,
1000
0000
0100
0000
1000
0000
0001
0000
0100
0010
0100
0000
0001
1000
0001
0000
,
0100
0010
0100
0000
0001
1000
0001
0000
0210
0000
0000
0000
0301
0000
0000
0000
,
0001
0010
0100
1000
0010
1000
0010
0000
,
0100
0001
1000
0001
0100
0000
1001
0000
,
0001
1000
0100
1000
0001
0000
1001
0000
,
0100
0010
1000
0010
0200
0000
0301
0000
,
1000
0010
1000
0010
0100
0001
1000
0001
,
0010
0000
0001
0000
1000
0000
0010
0000
0100
0000
0001
1000
0001
0000
1000
0000
,
0020
0000
0000
0000
0130
0001
0100
0001
0100
0000
0010
0000
1000
0000
0001
0000
,
0010
0100
1000
0100
0010
0001
1000
0010
,
0100
0001
1000
0100
0001
0100
0010
0001
,
1000
0010
0100
0001
1000
0001
1000
0010
,
0100
0001
0100
0010
1000
0010
1000
0001
,
0010
0100
0010
0001
1000
0001
1000
0001
,
0100
0010
0100
0010
1000
0100
1000
0100
,
0010
0001
1000
0010
0220
0000
0000
0000
,
0330
0000
0000
0000
,
0000
0000
0000
0000
,
0000
0000
0000
0000
,
0000
0000
1000
0010
,
1001
0010
0100
0100
,
1001
0000
0010
1000
0001
0000
0100
0000
,
0110
0001
1000
0001
,
1000
0010
0100
0001
1000
0000
0110
0000
,
0001
0010
1000
0000
0001
0000
1010
0000
,
0100
0001
1000
0000
0010
0000
1001
0000
,
0100
0010
1000
0000
0001
0010
0001
0010
,
0100
1000
0010
0100
0001
0000
1001
0000
,
0010
1000
0001
0000
0100
0000
1010
0000
,
0100
0001
1000
0001
0010
0000
1100
0000
,
0010
0100
0001
0000
1000
0001
1000
0001
,
0100
0010
1000
0001
0020
0000
0030
0000
;

//---------------dance-single - Blank----------------
#NOTES:
     dance-single:
     Blank:
     Medium:
     8:
     0.629,0.685,0.156,0.238,0.034:
0000
0000
0000
0000
,
0000
0000
0000
0000
,
0000
0000
0000
0000
,
0000
0000
0000
0000
,
1000
0001
0010
0100
,
0001
0100
1000
0010
,
0100
0001
0100
0001
1000
0010
1000
0010
,
0100
0001
1000
0001
1000
0010
0100
0000
,
0001
0000
1000
0001
0000
0100
0010
0000
,
1000
0000
0010
0100
0010
0000
0100
0000
,
0001
0000
0010
0001
0000
1000
0010
0000
,
0100
0000
0001
1000
0001
0000
0100
0000
,
0010
0000
1000
0100
0000
0010
0001
0000
,
1000
0000
0010
1000
0010
0000
0100
0000
,
0001
0000
1000
0001
0000
0010
0001
0000
,
0100
0000
0010
0000
1000
0001
1000
0000
,
0010
0010
0010
0010
0100
0001
1000
0000
,
0010
0100
0010
1000
0010
0000
0100
0001
,
1000
0001
1000
0000
0001
0010
0100
0000
,
1000
0100
0010
0001
1001
0000
0110
0000
,
1001
0000
0110
0000
1000
0010
0100
0000
,
0001
1000
0001
1000
0010
0000
0100
0002
,
0000
0000
0003
0010
0010
0100
1000
0010
,
0100
0001
1000
0001
0100
0010
1000
0001
,
0010
0100
0100
1000
0020
0000
0000
0230
,
0000
0301
0002
0000
0023
0000
0000
0230
,
0000
2300
0000
3010
0200
0000
0000
0302
,
0000
1003
2000
0000
3020
0000
0000
0130
,
0001
1000
0001
0000
1000
0001
1000
0000
0010
0000
0100
0000
0001
0000
0000
0000
,
0100
0010
1000
0010
0100
0000
0001
0000
,
1000
0100
0010
0001
1000
0010
0100
0000
,
0001
1000
0001
1000
0010
0000
0100
0000
,
0001
0010
0100
0000
1000
0010
1000
0000
,
0001
0100
0001
0100
0010
0000
1000
0001
,
1000
0001
1000
0000
0010
0100
0001
0100
,
0010
0100
0001
1000
0001
0000
0010
0100
,
1000
0100
0010
0000
0001
1000
0001
0000
,
1000
0010
0100
0001
1000
0000
0001
0010
,
0100
1000
0010
0000
1000
0001
0100
0000
,
0001
1000
0010
0100
0001
0000
0010
0100
,
1000
0100
0010
0000
0001
1000
0010
0100
,
0001
1000
0001
0100
0010
1000
0001
0020
,
0000
0000
0030
0100
0100
1000
0001
1000
,
0010
0100
0001
1000
0001
0010
0001
1000
,
0001
0000
0000
0000
0010
0000
0000
0000
0100
0000
0001
0000
1000
0000
0000
0001
,
0000
0000
0100
0000
0100
0000
0000
0000
0001
0000
0010
0000
0100
0000
0000
1000
,
0000
0000
0010
0000
0010
0000
0000
0000
0100
0000
0001
0000
1000
0000
0000
0001
,
0000
0010
0010
0000
0100
1000
0001
1000
,
0010
0100
0001
0010
0200
0000
0000
0000
,
0000
0000
2300
0000
,
0000
0000
3020
0000
,
0000
0000
0032
0000
,
0000
0000
0000
0000
0103
0010
1000
0001
,
0010
0100
1000
0000
0010
0100
0001
1000
,
0001
0010
0001
0000
1000
0010
0100
0001
,
1000
0100
0001
0000
0100
1000
0010
0100
,
0001
1001
0001
1000
0010
0100
0001
0010
,
0100
1000
0010
0000
0100
0001
1000
0001
,
0010
0100
1000
0000
0010
0100
0001
1000
,
0001
0100
0010
0000
1000
0100
0010
0001
,
1000
1001
0001
0100
0010
1000
0001
0010
,
0100
1000
0010
0000
0100
0001
1000
0001
,
0100
0010
1000
0000
0001
0010
0100
0001
,
0100
1000
0010
0000
0100
0001
1000
0010
,
0100
0110
0010
1000
0001
0010
0100
1000
,
0100
0010
0001
1000
0020
0130
0020
0130
,
0020
0130
0020
0130
0002
0000
1000
0000
,
0013
0100
0001
1000
0010
0100
0001
0000
,
1000
0001
0010
0100
1000
0000
0011
0000
,
1000
0100
0010
0001
1000
0000
0101
0000
,
0010
1000
0001
0100
0010
0000
1001
0000
,
1000
1000
0001
0001
0100
0100
0010
0010
,
1000
0000
1000
0000
0001
0000
0001
0000
0010
0000
0000
0010
0100
0000
1000
0000
,
0002
0000
0103
0100
0010
1000
0001
0010
,
0100
1000
0100
0010
0001
0001
1000
1000
,
0010
0010
0100
0100
0001
0001
0010
0010
,
0100
0000
0100
0000
1000
0000
1000
0000
0010
0100
0010
0000
0100
0000
0001
0000
,
0100
0000
0001
0000
0100
0000
0000
0000
0001
1000
0001
1000
0001
0000
0100
0000
,
0010
1000
0001
0000
1000
0100
0010
0001
,
1000
0010
0100
0001
2000
3002
2003
3002
,
2003
3002
2003
3002
0103
0000
0000
0000
,
0000
0000
0000
0000
,
0000
0000
0000
0000
,
0000
0000
0000
0000
,
0000
0000
1000
0010
,
1001
0010
0100
0001
,
0010
0100
1000
0000
0010
0000
0100
0000
,
1001
0000
0010
0000
0100
0001
0100
0000
,
0010
1000
0001
0010
0100
0000
1010
0000
,
1000
0001
0100
0110
,
0010
0000
1000
0001
0010
0000
0110
0000
,
1000
0001
0100
0110
,
0001
0010
0001
0010
0001
0000
0110
0000
,
0010
1000
0001
1001
,
1000
0100
0010
0000
0001
0000
0110
0000
,
0001
1000
0010
0101
,
0010
1000
0000
0100
0220
0000
0330
0000
;

//---------------dance-single - Blank----------------
#NOTES:
     dance-single:
     Blank:
     Easy:
     6:
     0.458,0.541,0.134,0.440,0.000:
0000
0000
0000
0000
,
0000
0000
0000
0000
,
0000
0000
0000
0000
,
0000
0000
0000
0000
,
1000
1000
0001
0001
,
1000
1000
0001
0001
,
0100
0010
1000
0001
,
0010
0100
0010
0100
0010
0100
0010
0000
,
0002
0000
0003
2000
0000
3010
0100
0000
,
0020
0000
0030
2000
0000
3200
0000
0310
,
0002
0000
0003
2000
0000
3010
0100
0000
,
0002
0000
0003
2000
0000
3020
0000
0130
,
0002
0000
0003
0020
0000
0130
2000
0000
,
3020
0000
0030
0200
0000
0302
0000
0013
,
0200
0000
0300
2000
0000
3010
0200
0000
,
0302
0000
0003
0020
0000
0230
0000
1300
,
0000
0000
0100
0001
,
1000
0000
0010
1000
0010
0000
0000
0000
,
0100
0100
0001
1000
,
0001
0000
0010
0100
0000
0100
0000
0100
,
0000
0100
0000
0100
1000
0000
0010
0000
,
0100
0000
0001
0000
1000
0000
0001
2000
,
0000
3000
0010
1000
,
0001
0010
0100
0001
,
1000
0000
0010
0000
0100
0000
0000
1001
,
0000
0000
0010
0000
0010
0000
0000
1001
,
0000
0100
0000
0000
0010
0000
0000
1001
,
0000
0100
0100
0000
,
0010
1000
0010
1000
0001
0000
0010
0000
,
0100
1000
2002
3003
,
0010
1000
0001
0010
,
0100
0001
0202
0303
,
0010
1000
0001
1000
,
0010
0000
0100
0002
0003
0000
1000
0000
,
0001
0001
0010
0100
,
1000
0010
0202
0303
,
0010
1000
0001
0000
1000
0000
0100
0000
,
0001
1000
2020
3030
,
0010
0100
0001
0010
,
1000
0001
0202
0303
,
0010
1000
0001
0010
,
0100
0000
0001
0000
1000
0000
0100
0020
,
0030
0000
0001
0001
,
1000
0010
0100
0001
,
2002
0000
3003
0000
0100
0000
0000
0010
,
0000
0010
1000
0000
0001
0000
0000
0100
,
0000
0010
0000
1000
0001
0000
0000
0010
,
0000
0100
1000
0000
0010
0000
0000
0100
,
0000
0001
0000
0000
0220
0000
0000
0000
,
0000
0330
2002
0000
,
0000
3003
0220
0000
,
0000
0330
2002
0000
,
0000
3003
0010
0001
,
0000
1000
0001
0000
0100
0000
0010
0000
,
0000
1000
0100
0000
0010
0000
0001
0000
,
0000
1000
0010
0000
0001
0000
0100
0000
,
0010
0001
1000
1000
,
0001
0001
0100
0100
,
0010
0010
1000
1000
,
0100
0100
0001
0001
,
0010
0010
1000
0001
,
0010
1000
0100
0010
,
1000
0001
0100
0010
,
0001
1000
0010
0100
,
0001
0010
1000
0001
,
1000
0000
0010
0000
0100
0001
0100
0001
,
0100
0001
0100
0001
2000
0000
3010
0000
,
0001
1000
0010
0100
,
0010
0001
0010
0100
1000
0000
0010
0000
,
1000
0010
0100
0001
0010
0000
0100
0000
,
1000
0100
0010
0001
1000
0000
0000
0000
,
0001
1000
0001
1000
0010
1000
0010
1000
,
0001
1000
0001
0000
0100
0000
0010
1000
,
0010
0000
0100
0000
0001
0000
1000
0100
,
1000
0100
1000
0000
0002
0000
0023
0000
,
0230
2300
3020
0230
,
0302
0000
2003
0000
3010
0000
0100
0001
,
0100
0001
0100
0000
0010
0000
1000
0100
,
1000
0010
0200
0000
,
0000
0000
0000
0000
0310
0100
0010
0100
,
0010
0100
0010
0100
0220
0000
0330
0000
,
0000
0000
0000
0000
,
0000
0000
0000
0000
,
0000
0000
0000
0000
,
0000
0000
0100
0000
,
1001
0000
0010
0001
,
1001
0000
0100
0000
,
0110
0000
0010
0010
,
1000
0001
0100
0010
,
0000
1000
0010
0000
0100
0000
0001
0000
,
0000
1000
0001
0000
0010
0000
0100
0000
,
0000
1000
0100
0000
0010
0000
0001
0000
,
1000
0010
0100
0001
,
0000
1000
0010
0000
0001
0000
0100
0000
,
0000
0010
1000
0000
0001
0000
0010
0000
,
0100
1000
0100
0000
0010
0000
0001
0000
,
1000
0010
0220
0330
;

//---------------dance-single - Blank----------------
#NOTES:
     dance-single:
     Blank:
     Beginner:
     2:
     0.160,0.216,0.052,0.000,0.000:
0000
0000
0000
0000
,
0000
0000
0000
0000
,
0000
0000
0000
0000
,
0000
0000
0000
0000
,
1000
1000
0000
0000
,
0001
0001
0000
0000
,
0100
0000
0010
0000
,
0100
0000
0000
0000
,
0001
0000
0001
0000
,
1000
0000
1000
0000
,
0010
0000
0010
0000
,
1000
0000
1000
0000
,
0001
0000
0001
0000
,
0100
0000
0100
0000
,
0010
0000
0010
0000
,
1000
0000
1000
0000
,
0000
0000
0100
0000
,
0001
0000
1000
0000
,
0000
0000
0010
0000
,
1000
0000
0100
0100
,
0100
0000
0001
0000
,
1000
0000
0010
0000
,
0000
0000
0100
0000
,
0100
0000
0001
0000
,
0000
0000
0110
0000
,
0000
0000
0000
0000
,
0000
0000
1001
0000
,
0000
0000
0000
0000
,
0010
0010
0010
0000
,
1000
0000
0001
0000
,
0000
0000
0010
0000
,
0001
0000
1000
0000
,
0000
0000
0100
0000
,
0010
0000
0001
0000
,
0000
0000
1000
0000
,
0010
0000
0100
0000
,
0001
0001
0001
0000
,
1000
0000
0100
0000
,
0000
0000
0010
0000
,
1000
0000
0001
0000
,
0000
0000
0100
0000
,
0010
0000
0001
0000
,
0000
0000
1000
0000
,
0010
0000
1000
0000
,
0001
0000
0100
0000
,
0000
0000
1001
0000
,
0000
0000
0010
0000
,
0000
0000
0100
0000
,
0000
0000
1001
0000
,
0000
0000
0010
0000
,
0000
0000
0100
0000
,
0000
0000
1000
0000
,
0000
0000
0010
0000
,
0000
0000
0001
0000
,
0000
0000
1000
0000
,
0000
0000
0010
0000
,
0000
0000
0100
0000
,
0010
0000
0100
0000
,
0010
0000
1000
0000
,
0010
0000
1000
0000
,
0010
0000
1000
0000
,
0001
0000
1000
0000
,
0001
0000
0010
0000
,
0001
0000
0010
0000
,
0001
0000
0100
0000
,
0000
0000
0010
0010
,
0010
0010
0010
0000
,
0001
0000
1000
0000
,
0100
0100
0100
0000
,
0001
0001
0001
0000
,
0010
0010
0010
0000
,
0000
0000
0000
0000
,
0000
0000
0100
0000
,
0100
0000
0010
0010
,
0010
0000
1000
1000
,
1000
0000
0001
0001
,
0001
0000
0110
0000
,
0000
0000
1001
0000
,
0000
0000
0100
0000
,
0000
0000
0010
0000
,
0000
0000
0000
0000
,
0000
0000
0000
0000
,
0000
0000
0000
0000
,
0000
0000
0000
0000
,
0000
0000
0100
0000
,
0000
0000
0010
0000
,
0000
0000
1000
0000
,
0000
0000
0001
0001
,
0000
0000
0010
0000
,
0000
0000
1000
0000
,
0000
0000
0001
0000
,
0000
0000
0100
0000
,
0000
0000
0010
0000
,
0000
0000
1000
0000
,
0000
0000
0001
0000
,
0000
0000
0010
0010
,
0000
0000
1001
0000
;

//---------------dance-double - Blank----------------
#NOTES:
     dance-double:
     Blank:
     Easy:
     5:
     0.344,0.360,0.075,0.045,0.000:
00000000
00000000
00000000
00000000
,
00000000
00000000
00000000
00000000
,
00000000
00000000
00000000
00000000
,
00000000
00000000
00010000
10000000
,
00010000
00000000
00100000
00100000
,
00001000
00000000
00010000
00000100
,
00010000
00000000
00000010
00000100
,
00000001
00001000
00000001
00000010
,
00000100
00000000
00001000
00000100
,
00000001
00000000
00010000
00001000
,
01000000
00000000
00100000
10000000
,
00010000
00000000
00100000
01000000
,
10000000
00000000
00100000
01000000
,
00001000
00000000
00010000
00000010
,
00001000
00000000
00000010
00000100
,
00000001
00000000
00000100
00000010
,
00010000
00001000
00010000
00001000
00010000
00000000
00001000
00000000
,
00100000
00010000
01000000
00000000
,
00100000
10000000
00010000
00100000
,
00001000
00010000
00000100
00001000
,
00000010
00000100
00000001
00000010
,
00000100
00001000
00000010
00010000
,
00001000
00000000
01000000
00100000
,
10000000
00010000
10000000
00000000
00010000
00100000
00010000
00000000
,
00100000
00001000
00100000
00001000
00100000
00000000
00000000
00010000
,
00000000
00000000
00000000
00000000
00010000
00000000
00000000
00000100
,
00000000
00000010
00000000
00000000
00000001
00000000
00000000
00000100
,
00000000
00000000
00000010
00000000
,
00001000
00001000
00000100
00010000
,
00001000
01000000
00100000
00000000
,
10000000
00010000
00100000
01000000
,
10000000
00100000
01000000
00000000
,
00010000
00100000
00001000
00010000
,
00000100
00000000
00001000
00000100
00001000
00000000
00000010
00000000
,
00000100
00000001
00000010
00000100
,
00001000
00000001
00000100
00000000
,
00000010
00001000
00000010
00000000
00000100
00000000
00000001
00000000
,
00001000
00000100
00010000
00000000
,
00001000
01000000
00100000
10000000
,
00010000
00100000
00001000
00000000
,
00010000
00000100
00000010
00001000
,
00000001
00000000
00000100
00000010
00000100
00000000
00000010
00000000
,
00000100
00000000
00001000
00000010
,
00000100
00000001
00010000
00001000
,
01000000
00000000
00000000
00000000
00100000
00000000
00000000
10000000
,
00000000
00000000
00010000
00000000
00100000
00000000
00000000
00001000
,
00000000
00001000
00000000
00000000
00010000
00000000
00000000
00000100
,
00000000
00000000
00001000
00000000
00000010
00000000
00000000
00000100
,
00000000
00000100
00000000
00000000
00001001
00000000
00000000
00000000
,
00000000
00000000
00011000
00000000
,
00000000
00000000
01100000
00000000
,
00000000
00000000
10010000
00000000
,
00000000
00000000
00010000
00100000
,
00001000
00010000
00000010
00000100
,
00000001
00000010
00001000
00000100
,
00010000
00001000
01000000
00100000
,
10000000
10010000
00000000
00000000
01000000
00000000
01000000
00000000
,
00100000
00100000
10000000
10000000
,
00010000
00010000
00100000
00100000
,
00001000
00001000
00000010
00000010
,
00000001
00000001
00001000
00001000
,
00000100
00000100
00010000
00010000
,
00001000
00001000
00100000
00100000
,
00010000
00010000
01000000
01000000
,
10000000
10000000
00100000
01000000
,
00100000
01000000
00010000
00010000
,
00010000
00010000
00002000
00003000
,
00010000
00000010
00000100
00000001
,
00000010
00000100
00000110
00000000
,
00001000
00000100
00010100
00000000
,
00010000
00001000
02000000
00000000
,
00100000
00100000
00010000
00010000
,
00001000
00000000
03001000
00000000
00010000
00000000
00000100
00001000
,
00000100
00000000
00010000
00000000
00000010
00000000
00000100
00000001
,
00000100
00000001
00000100
00000000
00000010
00000000
00001000
00000000
,
00000100
00010000
00001000
01000000
,
00100000
10000000
01000000
01000000
,
00010000
00000000
00100000
00001000
,
00010000
00000000
00000020
00000000
,
00000000
00000000
00020000
00000000
,
00000000
00000000
00001000
00000000
,
00000000
00000000
00000000
00030030
,
00000000
00000000
00000000
00000000
,
00000000
00000000
00000000
00000000
,
00000000
00000000
00001000
00000000
,
00110000
00000000
00001000
00010000
,
00000010
00000000
00000100
00000000
,
00001001
00000000
00000010
00000010
,
00001000
00000001
00000010
00000100
,
00001000
00000000
00010000
00000100
,
00001000
00000000
00010000
00100000
,
10000000
00000000
00100000
01000000
,
00010000
10000000
00010000
00100000
,
00001000
00000000
00010000
00000100
,
00000010
00000000
00001000
00000001
,
00000010
00000100
00001000
00000100
,
00010000
00001000
00010000
00000000
00022000
00000000
00033000
00000000
;

//---------------dance-double - Blank----------------
#NOTES:
     dance-double:
     Blank:
     Hard:
     8:
     0.597,0.577,0.268,0.112,0.000:
00000000
00000000
00000000
00000000
,
00000000
00000000
00000000
00000000
,
00000000
00000000
00000000
00000000
,
00000000
00000000
00000000
00000000
,
00010000
00000010
00000100
00000001
,
00000010
00001000
00000100
00000010
,
00001000
00000001
00000100
00000010
00001000
00000010
00001000
00000100
,
00010000
00001000
00010000
00001000
00010000
00001000
00010000
00000100
,
00001000
00000000
00000010
00000000
00000100
00000001
00001000
00000000
,
00000100
00000000
00001000
00000100
00010000
00001000
00010000
00000000
,
00100000
00000000
10000000
00000000
00010000
10000000
00010000
00000000
,
00100000
00000000
00010000
01000000
00010000
01000000
00001000
00000000
,
00010000
00000000
00000010
00000000
00000100
00000001
00000100
00000000
,
00000001
00000000
00000010
00001000
00000010
00001000
00000010
00000000
,
00001000
00000000
00100000
00000000
01000000
10000000
00010000
00000000
,
00100000
00000000
01000000
10000000
01000000
10000000
00010000
00000000
,
00000000
00000000
00000000
00000000
00100000
00001000
00100000
00001000
,
00010000
00001000
00010000
00000010
00000100
00000000
00000001
00000000
,
00001000
00000000
00000100
00000000
00000001
00000010
00000001
00000010
,
00001000
00000010
00000001
00000100
00000000
00000110
00000000
00000101
,
00000000
00001000
00000100
00000000
00010000
00000000
00001000
00000000
,
00100000
00000000
00010000
00000000
01000000
00100000
01000000
00200000
,
00000000
00000000
00300000
01000000
00010000
01000000
00010000
00100000
,
00001000
00100000
00000010
00001000
00000010
00000100
00000001
00001000
,
00000001
00000010
00000100
00001000
00001100
00000000
00000000
00000101
,
00000000
00000000
00000010
00000000
00000101
00000000
00000000
00001000
,
00000000
00010010
00000000
00000000
00011000
00000000
00000000
00110000
,
00000000
00000000
00001000
00000000
01010000
00000000
00000000
10000000
,
00100000
01000000
00100000
01000000
00010000
00100000
00001000
00100000
,
00001000
00010000
00000010
00010000
00000100
00000000
00000000
00010000
,
00000100
00001000
00000100
00000000
00000010
00000100
00001000
00000100
,
00000001
00000100
00000010
00001000
00000001
00000000
00000000
00000001
,
00000100
00000001
00001000
00000000
00000010
00000000
00010000
00000000
,
00001000
01000000
00001000
02000000
00000000
03000000
00100000
10000000
,
00010000
00100000
00010000
00000000
10000000
01000000
00010000
01000000
,
10000000
00100000
01000000
00010000
00100000
00000000
00001000
00000000
,
00010000
00000100
00001000
00000000
00000010
00001000
00000010
00000001
,
00000010
00001000
00000001
00001000
00000100
00000000
00000000
00001000
,
00000100
00000010
00000001
00000000
00000100
00000010
00010000
00001000
,
00010000
00000100
00010000
00001000
01000000
00000000
00000000
01000000
,
00010000
00100000
00010000
00000000
00100000
00000000
10000000
00000000
,
00010000
00000000
00100000
01000000
10000000
01000000
00100000
00020000
,
00000000
00030000
01000000
00010000
00100000
00001000
00100000
00010000
,
01000000
00010000
00100000
00001000
00010000
00000010
00001000
00000100
,
00002000
00000000
00003000
00000000
00101000
00000000
00000000
00011000
,
00000000
00001000
00010000
00000000
00110000
00000000
00000000
10010000
,
00000000
10100000
00000000
00100000
00010000
00000000
00000000
00011000
,
00000000
00010000
00000100
00000000
00000101
00000000
00000000
00001001
,
00000000
00001010
00000000
00000100
00000220
00000000
00000000
00000000
,
00000000
00000330
00020200
00000000
,
00000000
00030300
20200000
00000000
,
00000000
30300000
00022000
00000000
,
00000000
00000000
00033000
00000000
00100000
00000000
00010000
00100000
,
00001000
00010000
00001000
00000000
00010000
00000000
00001000
00000100
,
00000010
00000100
00001000
00000000
00000100
00000000
00000001
00000100
,
00001000
00000100
00000001
00001000
00000010
00001000
00000010
00000010
,
00000100
00000101
00000000
00000000
00001000
00000010
00000100
00000010
,
00001000
00000010
00000100
00000010
00001000
00000100
00010000
00000100
,
00001000
00000100
00010000
00001000
01000000
00100000
10000000
00010000
,
01000000
00100000
10000000
00010000
00100000
01000000
00100000
00010000
,
10000000
00100000
01000000
00010000
00100000
00001000
00010000
00001000
,
00100000
00001000
00010000
00001000
00010000
00000010
00000100
00000001
,
00001000
00000010
00000100
00000001
00000010
00000100
00001000
00000001
,
00001000
00000010
00000100
00000001
00001000
00000001
00000010
00000100
,
00001000
00001000
00000010
00000100
00000001
00000100
00000010
00001000
,
00000010
00000100
00000001
00001000
00001000
00000100
00000100
00010000
,
00010000
00001000
00001000
00100000
00120000
00000000
10030000
00000000
,
00010000
01000000
00100000
10000000
00100000
01000000
01000000
00000000
,
00100000
10000000
00100000
00010000
00100000
00000000
00011000
00000000
,
00001000
00000100
00000001
00000100
00001000
00000000
00001100
00000000
,
00000010
00001000
00000001
00000010
00000200
00000000
00000300
00000000
,
00001000
00000100
00001000
00000100
00010000
00000100
00010000
00001000
,
00010000
00001000
01000000
00000000
00100000
01000000
00010000
00100000
,
00001000
00000000
00010000
00010000
00000010
00001000
00000010
00000001
,
00000010
00001000
00000100
00000000
00001000
00000001
00001000
00000001
,
00001000
00000010
00001000
00000010
00001000
00000100
00001000
00000010
,
00001000
00000010
00000100
00000001
00001000
00000000
00010000
00001000
,
00010000
00001000
00100000
00000000
00010000
00000000
10000000
00100000
,
01000000
00000000
10000000
00000000
00100000
00010000
00100000
00010000
,
00100000
00010000
00100000
00010000
00001000
00001000
00001000
00001000
,
00001000
00001000
00001000
00001000
00011000
00000000
00000000
00000000
,
00000000
00000000
00000000
00000000
,
00000000
00000000
00000000
00000000
,
00000000
00000000
00000000
00000000
,
00000000
00000000
10000000
00010000
,
00011000
00000100
00000001
00000010
,
00001100
00000010
00001000
00000100
,
00011000
00000000
00010000
00000000
00001000
01000000
00001000
01000000
,
01000000
00100000
10000000
00010000
00100000
00000000
01100000
00000000
,
10000000
00010000
00001000
00001100
,
00000010
00001000
00000001
00001100
,
00000001
00000100
00000010
00001000
,
00001000
00000010
00001000
00000001
00000010
00000000
00010100
00000000
,
00010000
01000000
00100000
10010000
,
00010000
00100000
00001000
00011000
,
00010000
00000000
00000010
00000000
00001000
00000010
00001000
00000000
,
00000100
00010000
00001000
00010000
00002000
00000000
00003000
00000000
;

//---------------dance-double - ----------------
#NOTES:
     dance-double:
     :
     Medium:
     8:
     0.537,0.577,0.075,0.112,0.000:
00000000
00000000
00000000
00000000
,
00000000
00000000
00000000
00000000
,
00000000
00000000
00000000
00000000
,
00000000
00000000
00000000
00000000
,
00100000
00001000
00010000
00000010
,
00000100
00000001
00000010
00001000
,
00000010
00000001
00000010
00000001
00001000
00000001
00001000
00000001
,
00000100
00000010
00000100
00000010
00000100
00000010
00000100
00000010
,
00001000
00000000
00001000
00000100
00000000
00000100
00010000
00000000
,
00001000
00000000
00001000
01000000
00000000
00100000
00000000
10000000
,
00010000
00000000
01000000
00100000
00000000
10000000
00010000
00000000
,
00100000
00000000
00001000
00010000
00000000
00000100
00000000
00001000
,
00000010
00000000
00000001
00000010
00000000
00001000
00000001
00000000
,
00000100
00000000
00000010
00001000
00000000
00000100
00000000
00010000
,
00001000
00000000
01000000
00100000
00000000
10000000
00010000
00000000
,
00100000
00000000
01000000
10000000
00000000
00100000
00000000
01000000
,
00000000
00000000
00000000
00000000
00010000
00100000
00010000
00000000
,
00100000
00001000
00010000
00001000
00010000
00000000
00000010
00000000
,
00000100
00000001
00001000
00000000
00000001
00000010
00000001
00000000
,
00001000
00000010
00000100
00000001
00000000
00001000
00000000
00000100
,
00000000
00010000
00000000
00001000
01000000
00000000
00100000
00000000
,
10000000
00000000
00010000
00000000
00100000
00000000
00010000
00200000
,
00000000
00000000
00300000
00000000
00010000
10000000
00010000
00100000
,
00001000
00100000
00001000
00010000
00000010
00000100
00000001
00001000
,
00000001
00000010
00000100
00001000
00001100
00000000
00000000
00000001
,
00000000
00000000
00000010
00000000
00000100
00000000
00000000
00001000
,
00000000
00000100
00000000
00000000
00001000
00000000
00000000
00010000
,
00000000
00001000
01000000
00000000
,
00100000
10000000
00100000
10000000
00010000
00100000
00010000
00100000
,
00010000
10000000
00100000
01000000
00010000
00000000
00100000
00000000
,
00001000
00000000
00010000
00000000
00000010
00000100
00000001
00000100
,
00000010
00001000
00000010
00000100
00000001
00000000
00000010
00000000
,
00000100
00001000
00000010
00010000
,
00001000
01000000
00001000
01000000
00010000
00000000
00100000
00000000
,
01000000
10000000
00010000
00000000
01000000
00000000
10010000
00000000
,
00100000
10010000
01000000
00010000
,
00100000
00001000
00010000
00000000
00000010
00010000
00000010
00001000
,
00000010
00000100
00000001
00000100
00000010
00000000
00001000
00000000
,
00000100
00000000
00000010
00000000
00000100
00000001
00000100
00001000
,
00000010
00001000
00000001
00001000
00000100
00000000
00010000
00000000
,
00001000
01000000
00100000
10000000
,
00010000
00000000
00100000
01000000
10000000
01000000
00100000
00010000
,
10000000
00000000
00100000
00000000
01000000
00010000
01000000
00000000
,
00100000
10000000
00010000
10000000
00010000
00000000
00100000
00001000
,
00200000
00000000
00301000
00000000
00010000
00000000
00010000
00001000
,
00000000
00001000
00100000
00000000
00010000
00000000
00010000
01000000
,
00000000
00100000
00000000
10000000
00010000
00000000
00010000
00100000
,
00000000
00001000
00010000
00000000
00001000
00000000
00000010
00000000
,
00000100
00000001
00000020
00000000
,
00000000
00000000
00002030
00000000
,
00000000
00000000
00203000
00000000
,
00000000
00000000
02300000
00000000
,
00000000
00000000
00000000
00000000
03100000
00000000
10000000
00010000
,
00100000
00010000
10000000
00000000
00010000
00000000
00100000
00001000
,
00010000
00001000
00100000
00000000
00001000
00000000
00010000
00000010
,
00000100
00000001
00000010
00000000
00000100
00000000
00001000
00000010
,
00000100
00000001
00001000
00000000
00010000
00010000
00000010
00000010
,
00010000
00010000
00000010
00000010
00010000
00010000
00001000
00001000
,
00010000
00010000
00001000
00001000
01000000
01000000
00001000
00001000
,
01000000
01000000
00001000
00001000
10000000
10000000
00010000
00010000
,
10000000
10000000
00010000
00010000
01000000
01000000
00100000
00100000
,
10000000
10000000
00100000
00100000
01000000
01000000
00010000
00010000
,
00100000
00100000
00001000
00001000
00010000
00010000
00001000
00001000
,
00010000
00010000
00000010
00000010
00000100
00000100
00000001
00000001
,
00001000
00001000
00000001
00000001
00000010
00000001
00001000
00000000
,
00000010
00001000
00000001
00000000
00000100
00000010
00000100
00000010
,
00000100
00000010
00000100
00000010
00001000
00000000
00000001
00000000
,
00001000
00000000
00000100
00010000
00000100
00000000
00010000
00000000
,
00001000
01000000
00100000
10000000
00200000
00000000
00300000
00000000
,
01000000
00010000
00100000
00001000
00020000
00000000
00030000
00000000
,
00001000
00010000
00000010
00000100
00000002
00000000
00000003
00000000
,
00001000
00000100
00001000
00000100
00010000
00000100
00010000
00001000
,
00010000
00001000
01000000
00000000
00100000
00000000
00100000
10000000
,
00010000
00000000
00100000
00000000
00010000
01000000
10000000
01000000
,
00010000
00100000
00001000
00000000
00010000
00010000
00000010
00000010
,
00000100
00000100
00000001
00000001
00000010
00000010
00000100
00000100
,
00001000
00000010
00000100
00000001
00001000
00000000
00000100
00010000
,
00000100
00010000
00000100
00000000
00010000
00000000
00001000
01000000
,
00100000
10000000
00220000
00000000
,
00000000
00330000
00200020
00000000
,
00000000
00300030
00011000
00000000
,
00000000
00000000
00000000
00000000
,
00000000
00000000
00000000
00000000
,
00000000
00000000
00000000
00000000
,
00000000
00000000
00001000
00010000
,
00010100
00000100
00001000
00000010
,
00001001
00000010
00001000
00000100
,
00010100
00000000
00010000
00000000
00001000
01000000
00001000
00000000
,
01000000
00100000
10000000
00010000
00100000
00000000
01000000
00000000
,
10000000
00010000
00100000
00000000
01000000
00000000
00010000
00000000
,
00100000
00001000
00010000
00000000
00000010
00000000
00000100
00000000
,
00000001
00001000
00000100
00000000
00000010
00000001
00001000
00000001
,
00001000
00000010
00001000
00000001
00000010
00000000
00000100
00000000
,
00010000
00001000
01000000
00000000
00100000
00000000
10000000
00000000
,
00010000
10000000
00100000
00000000
01000000
00000000
00010000
00000000
,
00100000
00001000
00010000
00000000
00000010
00001000
00000010
00000000
,
00010000
00001000
01000000
00100000
20200000
00000000
30300000
00000000
;

//---------------dance-double - Blank----------------
#NOTES:
     dance-double:
     Blank:
     Challenge:
     10:
     0.729,1.000,0.097,0.365,0.186:
00000000
00000000
00000000
00000000
,
00000000
00000000
00000000
00000000
,
00000000
00000000
00000000
00000000
,
00000000
00000000
00000000
00000000
,
00010000
00100000
00001000
00010000
,
00000010
00000000
00000100
00000000
00000001
00000000
00000010
00001000
,
00010000
00000100
00010000
00001000
01000000
00100000
10000000
00010000
,
00100000
01000000
00100000
01000000
10000000
00010000
10000000
00010000
00100000
01000000
00100000
01000000
10000000
00010000
10000000
00010000
,
01000000
00000000
01000000
00010000
00000000
00010000
00100000
00000000
,
00001000
00000000
00010000
00000010
00000000
00000110
00000000
00000001
,
00001000
00000000
00000001
00000010
00000000
00000100
00001000
00000000
,
00010100
00000000
00010000
00001000
00000000
01001000
00000000
00100000
,
10000000
00000000
00010000
00100000
00000000
01000000
10000000
00000000
,
01100000
00000000
01000000
00010000
00000000
00101000
00000000
00010000
,
00000010
00000000
00000100
00000001
00000000
00000010
00001000
00000000
,
00001010
00000000
00000010
00000001
00000000
00001000
00000000
00000100
,
00001000
00010000
00000100
00010000
00001000
00010000
00000100
00010000
00001000
00000000
01000000
00000000
00100000
00000000
10000000
00000000
,
00010000
00100000
10000000
00100000
00020000
00000000
00130000
00001000
,
00010000
00000010
00000001
00000010
00001000
00000001
00000010
00000100
,
00001000
00000100
00000001
00000100
00001000
00000100
00001000
00000100
,
00001000
00000100
00001000
00000010
00000100
00000001
00001000
00000100
,
00010000
00001000
00100000
00001000
00010000
00001000
00100000
00020000
,
00000000
00000000
00000000
00000000
00030000
10000000
00100000
10000000
00100000
00000000
01000000
00000000
00010000
00000000
00100000
00000000
,
00010000
10000000
00010000
00100000
00001000
00100000
00001000
00010000
,
00000010
00000100
00000001
00001000
00000002
00000000
00000000
00000203
,
00000000
00000000
00002300
00000000
00023000
00000000
00000000
00230000
,
00000000
00000000
20300000
00000000
32000000
00000000
00000000
03200000
,
00000000
00000000
00320000
00000000
00032000
00000000
00013000
00000010
,
00001000
00000001
00000100
00000000
00001000
00000001
00000100
00000000
00000010
00000000
00001000
00000000
00000001
00000000
00010000
00000000
,
00001000
01000000
00100000
00010000
00200000
00000000
10300000
00010000
,
00100000
10000000
00100000
00010000
00100000
00001000
00010000
00000010
,
00000001
00000010
00001000
00000001
00000020
00000000
00000130
00001000
,
00000001
00001000
00000010
00010000
00001000
00000100
00001000
00010000
,
00001000
01000000
00100000
20100000
00000000
30000000
00100000
01000000
,
00010000
00100000
01000000
10000000
00100000
01000000
00010000
00100000
,
00001000
00010000
00000010
00000001
00000020
00000000
00001030
00000001
,
00000010
00000100
00001000
00000010
00000100
00000001
00001000
00000100
,
00010000
00001000
00000100
00001000
00020000
00000000
00031000
01000000
,
00100000
10000000
00010000
00100000
01000000
00010000
01000000
10000000
,
00100000
01000000
00010000
00100000
00002000
00000000
00013000
00000100
,
00001000
00000100
00001000
00000010
00000100
00000001
00000010
00000100
,
00001000
00000100
00000001
00000100
00001000
00000010
00000100
00000002
,
00000000
00000000
00000000
00000000
00000003
00001000
00000010
00001000
00000001
00000000
00001000
00000000
00000100
00000000
00010000
00000000
,
00001000
01000000
10000000
01000000
00010000
00100000
01000000
10000000
,
00200000
00000000
00000000
00000000
00000000
00000000
00000000
00000000
01300000
00000000
00010000
00000000
00100000
00000000
00000000
00001000
,
00000000
00100000
00001000
00000000
00010000
00000000
00000001
00000000
00000100
00000000
00000010
00000000
00001000
00000000
00000000
00000001
,
00000000
00000010
00000000
00000010
00000100
00000000
00000000
00000000
00001000
00000000
00000100
00000000
00000001
00000000
00000100
00000000
,
00001000
00000000
00000010
00001000
00000010
00000000
00001000
00000000
00000100
00000000
00010000
00000000
00001000
00000000
01000000
00000000
,
00100000
20200000
00000000
30300000
02000000
00000000
00000000
00000000
,
00000000
00000000
00002000
00000000
,
00000000
00000000
00020000
00000000
,
00000000
00000000
00000002
00000000
,
00000000
00000000
00000000
00000000
03033003
00000000
00000000
00000000
00010000
00000000
00001000
00000000
00100000
00000000
00000000
00010000
,
00000000
01000000
00000000
00100000
10000000
00000000
00000000
00000000
00010000
00000000
00100000
00000000
00001000
00000000
00000000
00010000
,
00000000
00000010
00000000
00000100
00000001
00000000
00000000
00000000
00000010
00000000
00001000
00000000
00000001
00000000
00001000
00000000
,
00000100
00010000
00001000
01000000
00100000
00010000
00100000
01000000
,
00010000
20010000
00000000
30000000
01000000
00100000
00010000
00100000
,
01000000
10000000
01000000
00010000
01000000
10000000
00100000
01000000
,
00010000
00100000
01000000
00010000
01000000
00100000
00010000
10000000
,
00010000
00100000
00001000
00010000
00000010
00000001
00000010
00001000
,
00000001
00001000
00000100
00000010
00001000
00000010
00000001
00001000
,
00000010
00010000
00001000
01000000
00100000
00010000
00100000
01000000
,
00010000
10000000
00010000
00100000
10000000
00100000
01000000
10000000
,
00100000
00010000
00100000
10000000
00010000
00100000
00001000
00010000
,
00000010
00000100
00000001
00001000
00000100
00000100
00000010
00001000
,
00001000
00000000
00000010
00000000
00000100
00000000
00000010
00000000
00001000
00000001
00001000
00000000
00000010
00000100
00000010
00000000
,
00001000
00000001
00001000
00000000
00000010
00010000
00001000
00000000
00012000
00000000
00000000
00000000
00100000
00000000
00000000
00000000
,
00013000
00100000
01000000
10000000
00100000
01000000
01000000
00000000
,
00010000
00100000
00001000
00000100
00000001
00000000
00000100
00000000
,
00001000
00000010
00000001
00001000
00000010
00000000
00000100
00000000
,
00000001
00000010
00000100
00010000
00001000
00000000
00010000
00000000
,
00001000
00001000
00001000
00002000
00100000
00100000
00100000
00100000
,
10000000
00000000
10000000
00000000
10000000
00000000
10003000
00000000
00100000
00000000
01000000
00010000
10000000
00000000
00010000
00000000
,
00200000
00000000
00300000
00000000
00001000
00010000
00001000
00010000
00000010
00000000
00000100
00000000
00000001
00000000
00001000
00000000
,
00000001
00000010
00000100
00001000
00000100
00000100
00000010
00000010
,
00000001
00000001
00001000
00001000
00000100
00000100
00010000
00010000
,
00001000
00000000
00001000
00000000
01000000
00000000
01000000
00000000
00100000
10000000
00100000
00000000
01000000
00000000
00010000
00000000
,
10000000
00000000
00010000
00000000
00100000
00000000
00100000
00000000
00001000
00010000
00001000
00100000
00001000
00000000
00010000
00000000
,
00000010
00000010
00000100
00000100
00000001
00001000
00000001
00000010
,
00001000
00000000
00000010
00000000
00000100
00000000
00001000
00000000
00000002
00002003
00003002
00002003
00003002
00002003
00003002
00002003
,
00003002
00002003
00003002
00002003
00003002
00002003
00003002
00002003
00000020
00000000
00000000
00000000
00000000
00000000
00000000
00000000
,
00003030
00000000
00000000
00000000
,
00000000
00000000
00000000
00000000
,
00000000
00000000
00000000
00000000
,
00000000
00000000
00000000
00000000
00010000
00001000
01000000
00001000
,
01000000
00100000
10000000
00010000
00100000
00000000
01000000
00000000
,
10000000
01000000
00100000
00010000
00100000
00001000
00100000
00001000
,
00010000
00000010
00000100
00000001
00001000
00000000
00000001
00000000
,
00001000
00000001
00000000
00000100
00000001
00000000
00000010
00000000
00000100
00000000
00000000
00000000
00001000
00000000
00000001
00000000
,
00000100
00000010
00010000
00000000
00001000
00000000
01000000
00100000
,
10000000
00010000
00100000
00000000
01000000
00000000
10000000
00100000
,
00010000
00100000
10000000
00000000
00010000
00000000
00100000
00001000
,
00010000
00010100
00000100
00001000
00000010
00000000
00000001
00001000
,
00000100
00000001
00001000
00000000
00000001
00000000
00000100
00001000
,
00000010
00000100
00000001
00000000
00001000
00000000
00000100
00010000
,
00001000
01000000
00100000
10000000
00010000
01000000
01100000
00100000
,
10000000
00010000
00010000
00100000
00202000
00000000
00303000
00000000
;
