#TITLE:Chacarron;
#SUBTITLE:(Chacarron Macarron);
#ARTIST:El Chombo;
#TITLETRANSLIT:;
#SUBTITLETRANSLIT:;
#ARTISTTRANSLIT:;
#GENRE:;
#CREDIT:;
#BANNER:;
#BACKGROUND:;
#LYRICSPATH:;
#CDTITLE:;
#MUSIC:chac.mp3;
#OFFSET:-0.040;
#SAMPLESTART:14.472;
#SAMPLELENGTH:12.000;
#SELECTABLE:YES;
#BPMS:0.000=110.048,50.000=110.158,68.000=110.050,153.000=110.040,168.000=110.120,172.000=109.000,174.000=110.000,191.000=110.150,194.000=110.200,195.000=110.050,197.000=111.050,198.000=110.050,204.000=110.150,217.000=110.050;
#STOPS:;
#BGCHANGES:;
#KEYSOUNDS:;

//---------------dance-single - Blank----------------
#NOTES:
     dance-single:
     Blank:
     Challenge:
     10:
     0.758,0.730,0.016,0.218,1.000:
0000
0000
0000
0000
0000
0000
0000
0000
0000
0000
0000
0000
0010
0000
0000
0010
,
1000
0000
0001
0000
1000
0000
0000
1000
0010
0000
0100
0000
0010
0000
0000
0010
,
1000
0000
0100
0000
0010
0000
0000
0010
0001
0000
0100
0000
0010
0000
0000
0010
,
0100
0000
0001
0000
0010
0000
0000
0010
0100
0000
1000
0000
0001
0000
0000
0001
,
0100
0000
0010
0000
1000
0000
0000
1000
0100
0000
0010
0001
2000
0000
0000
3000
,
M000
0000
0010
0001
2000
0000
0000
3000
M000
0000
0010
0001
2000
0000
0000
3000
,
M000
0000
0010
0001
2000
0000
0000
3000
M000
0000
0001
0100
0010
1000
0001
0010
,
0100
1000
0010
0100
0001
0100
0010
1000
0100
1000
0001
0100
0010
1000
0001
0010
,
0001
0100
0010
1000
0001
0010
0100
1000
0010
0100
0001
0100
0010
1000
0001
0010
,
0001
1000
0100
0010
0001
0100
0010
1000
0010
0100
1000
0100
0001
0100
0001
0010
,
0100
0001
0100
1000
0010
0100
0001
1000
0001
0000
1000
0100
0010
0000
0001
0100
,
0010
0000
1000
0100
0010
0001
0010
0100
1000
0000
0010
1000
0100
0000
0010
0001
,
1000
0000
0001
0100
0010
1000
0010
0100
0001
0000
0000
0000
0101
0000
0000
0001
,
0100
0000
0010
0000
0100
0000
0010
1000
0001
0000
1000
0001
1000
0000
0000
1000
,
0100
0000
0010
0000
0001
0000
0100
0010
1000
0000
0010
0100
0001
0000
0000
0001
,
1000
0000
0010
0000
0100
0000
0001
1000
0001
0000
0010
0001
1000
0000
0000
1000
,
0010
0000
0000
0000
0200
0300
0000
0000
0002
0003
0000
0000
0002
0003
0000
0000
0000
0000
0002
0003
1000
0000
0010
0000
0100
0000
0000
0000
0001
0000
0010
0000
,
0000
0001
0100
0010
0100
0000
0001
1000
0000
0000
0000
0010
0100
0001
1000
0000
,
0001
0010
0100
0010
0100
1000
0000
0010
0000
0000
0100
0001
0100
0000
0010
1000
,
0000
1000
0001
0010
0000
0001
0100
0000
0020
0000
0030
0000
0200
0000
0000
0000
,
0000
0000
0000
0000
0300
0000
0000
0M00
0M00
0000
0010
1000
0002
0000
0000
0003
,
000M
0000
0010
1000
0002
0000
0000
0003
000M
0000
0010
1000
0002
0000
0000
0003
,
000M
0000
0010
1000
0002
0000
0000
0003
000M
0000
1000
0010
0100
0001
1000
0001
,
0010
0001
0100
0010
1000
0001
1000
0100
1000
0010
0100
0010
1000
0001
0010
0001
,
0100
0010
1000
0001
0010
0100
1000
0010
0100
0010
0100
0001
0100
0010
1000
0001
,
1000
0100
0010
0100
1000
0010
0100
0001
1000
0001
0010
1000
0010
0100
1000
0010
,
0100
0001
0100
0010
1000
0001
0010
0001
0100
0000
0001
0100
0010
0000
1000
0100
,
0010
0000
0001
0100
0010
0100
0001
1000
0001
0000
0010
0100
1000
0000
0010
0100
,
0001
0000
1000
0010
0100
0001
0100
0010
1000
0000
0001
0010
0100
1000
0100
1000
,
0100
0001
0100
0001
0100
1000
0100
1000
0001
0000
0010
0100
1000
0000
0010
0100
,
0001
0000
1000
0010
0100
0001
0100
0010
1000
0000
0001
0100
0010
1000
0001
0010
,
0001
1000
0010
1000
0010
0100
0001
1000
0100
1000
0010
0100
0001
1000
0001
0010
,
0001
0010
0100
1000
0010
0100
0001
0100
0001
1000
0100
1000
0010
0100
0001
0010
,
0001
1000
0010
0100
0001
1000
0001
0010
0100
0010
0100
1000
0010
0100
0001
0100
,
0010
1000
0100
0010
0001
0010
1000
0010
0001
0000
1000
0010
0200
0000
0000
0300
,
0M00
0000
1000
0010
0200
0000
0000
0300
0M00
0000
1000
0010
0200
0000
0000
0300
,
0M00
0000
1000
0010
0200
0000
0000
0300
0M00
0000
0000
0000
0011
0000
0000
0001
,
1000
0000
0010
0000
0100
0000
0001
0010
0100
0000
0010
0100
1000
0000
0000
1000
,
0010
0000
0100
0000
0001
0000
1000
0010
1000
0000
0001
0010
0100
0000
0000
0100
,
1000
0000
0001
0000
1000
0000
0010
0100
0001
0000
0100
0010
1000
0000
0000
1000
,
0001
0000
0000
0000
0020
0030
0000
0000
0020
0030
0000
0000
0020
0030
0000
0000
0000
0000
0200
0300
1000
0000
0001
0000
0100
0000
0000
0000
0010
0000
0100
0000
,
0001
0000
1000
0001
0010
0000
0001
0100
0010
0000
0000
0100
0010
1000
0001
0000
,
1000
0100
1000
0010
0100
0001
0000
0100
0000
0000
0010
0100
0001
0000
0100
0001
,
0000
0000
0000
0000
0000
0000
0000
0000
0000
0010
0000
0000
0000
0000
0000
0001
0000
0000
0010
0000
0000
0000
0000
0000
0200
0000
0000
0000
0000
0000
0000
0000
0000
0000
0000
0000
1000
0000
0000
0000
1000
0000
0000
0000
1000
0000
0000
0000
,
1000
0000
0000
0000
1000
0000
0000
0000
1000
0000
0000
0000
1000
0000
0000
0000
1000
0000
0000
0000
0000
1000
0000
0000
1300
0000
0000
0000
0000
0000
0010
0000
0000
0100
0000
0000
0001
0000
0000
0000
0000
0000
0100
0000
0000
0010
0000
0000
,
0100
0000
0001
1000
0001
0010
0000
0100
1000
0000
0000
0010
0100
0001
0100
0000
,
0010
1000
0001
1000
0001
0010
0000
0100
0000
0000
1000
0001
1000
0000
0010
0000
,
0100
0001
1000
0001
0010
0100
0000
1000
0000
0000
0000
0000
0020
0000
0000
0000
,
0000
0000
0000
0000
0000
0000
0000
0000
0030
0000
0000
00M0
00M0
00M0
00M0
0000
0000
0000
0000
0000
0001
0000
0100
0000
0020
0000
0000
0000
0000
0000
0030
0000
,
00M0
0000
0001
0100
0020
0000
0000
0030
00M0
0000
0001
0100
0020
0000
0000
0030
,
00M0
0000
0001
0100
0020
0000
0000
0030
00M0
0000
0001
1000
0100
0010
0100
1000
,
0001
0100
0010
1000
0001
0010
0001
1000
0010
0100
0001
0010
0100
0001
0100
1000
,
0010
0100
0001
1000
0010
1000
0001
0010
0001
0010
0100
1000
0010
0100
0001
1000
,
0001
1000
0100
1000
0010
0100
0001
0100
1000
0100
0010
1000
0001
0010
0001
0010
,
0100
1000
0010
0100
0001
1000
0001
1000
0100
0000
0010
0001
0100
0000
0010
1000
,
0100
0000
0010
0001
1000
0010
1000
0001
0010
0000
0001
0100
0010
0000
1000
0100
,
0010
0000
0001
0100
0010
1000
0010
0100
0001
0000
0001
1000
0010
1000
0010
1000
,
0010
0001
0010
0001
0010
1000
0010
1000
0001
0000
0100
0001
0010
0000
0100
1000
,
0010
0000
0100
0001
1000
0001
0100
0010
1000
0000
0000
0000
0000
0000
0000
0000
;

//---------------dance-single - Blank----------------
#NOTES:
     dance-single:
     Blank:
     Hard:
     7:
     0.492,0.458,0.016,0.039,0.203:
0000
0000
0000
0010
,
1000
0001
0100
0000
0001
1000
0010
0000
,
1000
0100
0010
0000
0001
0100
0010
0000
,
0100
0010
1000
0000
0001
1000
0010
0000
,
1000
0000
0100
0000
0010
0000
0000
0000
0001
0000
1000
0001
1000
0000
0000
0000
,
0000
0000
1000
0001
1000
0000
0000
0000
0000
0000
1000
0001
1000
0000
0000
0000
,
0000
0000
1000
0001
1000
0000
0000
0000
0000
0000
0001
0000
0100
0000
0010
0000
,
1000
0001
0010
0100
1000
0010
0100
1000
,
0100
0001
1000
0001
0010
1000
0010
0100
,
1000
0001
1000
0010
0100
0001
1000
0001
,
0010
0000
0100
0000
1000
0000
0010
0000
0100
0000
0001
1000
0001
0000
1000
0001
,
1000
0000
0010
0000
0100
0000
0010
0000
0100
0000
0001
1000
0001
0000
1000
0001
,
1000
0010
0100
0010
0100
0000
1001
0000
,
0100
0000
0000
0000
0010
0000
1000
0001
1000
0000
0001
1000
0001
0000
0000
0000
,
0100
0000
0000
0000
0010
0000
1000
0100
1000
0000
0100
1000
0100
0000
0000
0000
,
0010
0000
0000
0000
0001
0000
0100
0001
0100
0000
0001
0100
0001
0000
0000
0000
,
0001
0000
0100
0000
0100
0000
0200
0000
0300
0100
0010
0000
1000
0000
0001
0000
,
1000
1000
0010
0100
0001
0000
1000
0100
,
0010
0001
0100
0010
0100
0000
0001
0010
,
1000
0010
0001
0010
0100
0000
2000
0000
,
0000
0000
0000
0000
3000
0000
0000
0000
0000
0000
0001
1000
0001
0000
0000
0000
,
0000
0000
0001
1000
0001
0000
0000
0000
0000
0000
0001
1000
0001
0000
0000
0000
,
0000
0000
0001
1000
0001
0000
0000
0000
0000
0000
0010
0000
0100
0000
1000
0000
,
0010
0100
0001
1000
0010
0001
0010
0100
,
0001
1000
0001
0010
0100
0001
0100
1000
,
0010
0100
0001
1000
0010
1000
0100
0010
,
0001
0000
0100
0000
0010
0000
0100
0000
0001
0000
1000
0010
1000
0000
0010
1000
,
0010
0000
0100
0000
0001
0000
1000
0000
0001
0000
0100
0001
0100
0000
0001
0100
,
0001
0100
0010
1000
0001
0010
0100
0100
,
1000
0000
1000
0000
0010
0000
0100
0000
0001
0000
1000
0001
1000
0000
0010
1000
,
0010
0100
0001
1000
0001
0010
0100
1000
,
0100
0001
0100
1000
0010
0100
0001
1000
,
0010
0100
0001
1000
0001
0010
0100
0010
,
1000
0010
0001
0100
0010
1000
0001
1000
,
0100
0000
1000
0000
0010
0000
0100
0000
0001
0000
0100
0010
0100
0000
0000
0000
,
0000
0000
0100
0010
0100
0000
0000
0000
0000
0000
0100
0010
0100
0000
0000
0000
,
0000
0000
0100
0010
0100
0000
0000
0000
0000
0000
0000
0000
1001
0000
0000
0000
,
0010
0000
0000
0000
0100
0000
1000
0001
1000
0000
0010
1000
0010
0000
0000
0000
,
0100
0000
0000
0000
0001
0000
0010
0001
0010
0000
0001
1000
0001
0000
0000
0000
,
0100
0000
0000
0000
0010
0000
1000
0010
1000
0000
0010
0100
0010
0000
0000
0000
,
0100
0000
0010
0000
0010
0000
0020
0000
0030
0010
0100
0000
0001
0000
1000
0000
,
0100
0000
0010
0001
1000
0000
0010
0100
,
0001
1000
0100
0001
0100
1000
0010
0100
,
0001
0000
0000
1000
0000
0000
0001
0000
0000
0010
0000
0000
0200
0000
0000
0300
0000
0000
1000
0000
0010
0000
1000
0000
,
0010
0000
1000
0000
0010
0000
1000
0000
0010
0000
1000
0000
0010
0000
0000
0100
0000
0000
0001
0000
0000
0010
0000
0000
,
0001
0100
0010
1000
0001
0000
0010
0100
,
1000
0001
0100
0010
1000
0000
0001
1000
,
0100
0100
0010
0001
1000
0000
0020
0000
,
0000
0000
0000
0000
0030
0000
0000
0000
0000
0000
0010
0100
0010
0000
0000
0000
,
0000
0000
0010
0100
0010
0000
0000
0000
0000
0000
0010
0100
0010
0000
0000
0000
,
0000
0000
0010
0100
0010
0000
0000
0000
0000
0000
1000
0000
0001
0000
0010
0000
,
0100
0001
0100
1000
0010
0100
0001
1000
,
0010
0100
0001
1000
0001
0010
0001
0100
,
0010
1000
0001
1000
0100
0010
0001
0100
,
0010
0000
1000
0000
0010
0000
0100
0000
0001
0000
1000
0001
1000
0000
0010
1000
,
0010
0000
0100
0000
0001
0000
0100
0000
0010
0000
1000
0001
1000
0000
0001
1000
,
0001
1000
0100
0010
0001
0100
0100
0010
,
0010
0000
0100
0000
0100
0000
0001
0000
1000
0000
0001
0010
0001
0000
1000
0001
,
1000
0010
0100
0001
0100
0000
0010
0000
;

//---------------dance-single - Blank----------------
#NOTES:
     dance-single:
     Blank:
     Medium:
     5:
     0.380,0.367,0.273,0.523,0.000:
0000
0000
0000
0000
0000
0000
0000
0200
,
0000
0300
0000
0002
0000
0003
0000
0010
,
0000
0010
0000
0010
0000
0100
1000
0000
,
0000
0000
0020
0000
0030
0100
0010
0000
,
0010
0000
0000
0011
,
0000
1100
0000
1010
,
0000
0101
0000
0002
,
0023
2030
3200
0302
,
0023
2030
3200
0302
,
0023
2030
3200
0302
,
0023
0000
2030
0000
3010
0001
1000
0001
,
1000
0000
0100
0010
0100
0000
0001
1000
,
0001
0000
0100
0010
1000
0000
0001
0000
,
1001
0000
0100
0010
0100
0000
0001
0000
,
1100
0000
0010
1000
0010
0000
0100
0000
,
1001
0000
0010
0001
0010
0000
0100
0000
,
1001
0000
0010
0100
0010
0000
1000
0000
,
1100
0000
0001
0000
0101
0000
0100
0010
,
0100
0001
0100
0000
0010
0000
1000
0000
,
1001
0010
0011
0200
,
0000
0300
0000
0011
,
0000
1010
0000
1100
,
0000
0101
0000
0002
,
0203
2300
3020
0032
,
0203
2300
3020
0032
,
0203
2300
3020
0032
,
0203
0000
2300
0000
3200
0000
0301
1000
,
0001
0000
1000
0010
1000
0000
0001
0100
,
0010
0000
1000
0001
1000
0000
0001
0010
,
0001
0100
0100
0010
,
1000
0000
0001
1000
0001
0000
0020
0000
,
2030
3200
0302
0023
,
2030
3200
0302
0023
,
2030
3200
0302
0023
,
2030
3200
0301
0011
,
0000
1100
0000
1010
,
0000
0101
0000
1000
,
1001
0000
0010
0100
0001
0000
0100
0000
,
0110
0000
0010
1000
0001
0000
1000
0000
,
1001
0000
0010
0100
0010
0000
0100
0000
,
0101
0000
0001
1000
0010
0000
0100
0000
,
0101
0000
0010
0000
1010
0000
1000
0001
,
1000
0010
0100
0000
0001
0000
1000
0000
,
1100
0000
0010
0000
0011
0000
0100
0010
,
0100
0000
0001
0100
0010
0000
1000
0000
,
0101
1000
0010
0100
,
0011
1000
0001
0100
,
0010
1000
0001
2002
,
3003
0000
0000
0011
,
0000
1100
0000
1010
,
0000
0101
0000
2000
,
3020
0032
0203
2300
,
3020
0032
0203
2300
,
3020
0032
0203
2300
,
3020
0000
2030
0000
3001
1000
0010
1000
,
0001
0000
0100
0010
0100
0000
0001
1000
,
0001
0000
1000
0100
1000
0000
0010
0000
,
0100
0000
0001
0100
0010
0000
1000
0001
,
1000
0000
0001
0010
0100
0000
1000
0000
;

//---------------dance-single - Blank----------------
#NOTES:
     dance-single:
     Blank:
     Easy:
     3:
     0.241,0.205,0.016,0.320,0.000:
0000
0000
0000
0000
0000
0000
0000
0100
,
0000
0000
0000
0010
0000
0000
0000
1000
,
0000
1000
0000
1000
0000
0000
0010
0000
,
0000
0100
0000
0010
,
0020
0030
0000
0002
,
0003
2000
3000
0002
,
0003
2000
3000
0001
,
0100
1000
0100
0001
,
0100
1000
0100
0001
,
0100
1000
0100
0001
,
0100
1000
0100
0001
,
1000
0020
0030
1000
,
0001
0020
0030
0100
,
0000
1000
0010
1000
,
0000
0001
0100
0010
,
0000
1000
0001
1000
,
0000
0001
0010
0002
,
0003
2000
3000
0010
,
0100
0001
1000
0200
,
0300
0020
0030
1001
,
0000
0000
0000
0200
,
0300
0020
0030
0200
,
0300
0020
0030
1000
,
0010
0001
0010
1000
,
0010
0001
0010
1000
,
0010
0001
0010
1000
,
0010
0001
0010
1000
,
0001
0200
0300
0010
,
1000
0200
0300
0010
,
0010
0100
0100
0010
,
0001
2000
3000
1000
,
0100
0001
0100
1000
,
0100
0001
0100
1000
,
0100
0001
0100
1000
,
0100
0001
0100
2000
,
3000
0020
0030
0200
,
0300
0002
0003
1000
,
0001
0020
0030
0100
,
1000
0002
0003
0100
,
0010
0200
0300
0010
,
1000
0001
1000
0200
,
0300
0020
0030
0001
,
1000
0020
0030
0100
,
0001
1000
0001
0020
,
0030
0000
0000
0200
,
0300
0002
0003
1000
,
0001
2000
3000
0020
,
0030
0200
0300
1001
,
0000
0000
0000
0020
,
0030
0200
0300
0002
,
0003
2000
3000
0001
,
0010
1000
0010
0001
,
0010
1000
0010
0001
,
0010
1000
0010
0001
,
0010
1000
0010
0001
,
1000
0020
0030
0100
,
0001
2000
3000
0010
,
0010
0100
0100
0001
,
1000
0200
0300
0000
;

//---------------dance-single - Blank----------------
#NOTES:
     dance-single:
     Blank:
     Beginner:
     1:
     0.075,0.069,0.000,0.000,0.000:
0000
0000
0000
0000
,
0000
0000
0000
0000
,
0000
0000
0000
0000
,
0000
0000
0000
0000
,
0000
0000
0000
0001
,
0000
0001
0000
0001
,
0000
1000
0000
0010
,
0000
0000
0000
0001
,
0000
0000
0000
0100
,
0000
0000
0000
1000
,
0000
0000
0000
0010
,
0000
0000
0000
0100
,
0000
0000
0000
0010
,
0000
0000
0000
1000
,
0000
0000
0000
0001
,
0000
0000
0000
1000
,
0000
0000
0000
0010
,
0000
0010
0000
0010
,
0000
0000
0000
0100
,
0000
0100
0000
0100
,
0000
0000
0000
0001
,
0000
0001
0000
0001
,
0000
0001
0000
0100
,
0000
0000
0000
1000
,
0000
0000
0000
0010
,
0000
0000
0000
0001
,
0000
0000
0000
0100
,
0000
0000
0000
0010
,
0000
0000
0000
0100
,
0000
0100
0000
0010
,
0000
0000
0000
0100
,
0000
0000
0000
1000
,
0000
0000
0000
0010
,
0000
0000
0000
0001
,
0000
0000
0000
0100
,
0000
0100
0000
0100
,
0000
0000
0000
0010
,
0000
0000
0000
1000
,
0000
0000
0000
0001
,
0000
0000
0000
1000
,
0000
0000
0000
0100
,
0000
0000
0000
0010
,
0000
0000
0000
0001
,
0000
0000
0000
1000
,
0000
0000
0000
0010
,
0000
0010
0000
0010
,
0000
0000
0000
0100
,
0000
0100
0000
0001
,
0000
0000
0000
1000
,
0000
1000
0000
1000
,
0000
0000
0000
0010
,
0000
0000
0000
0001
,
0000
0000
0000
0100
,
0000
0000
0000
1000
,
0000
0000
0000
0010
,
0000
0000
0000
0100
,
0000
0000
0000
0010
,
0000
0010
0000
0100
,
0000
0000
0000
0001
;

//---------------dance-double - Blank----------------
#NOTES:
     dance-double:
     Blank:
     Challenge:
     9:
     0.571,0.531,0.117,0.148,0.433:
00000000
00000000
00000000
00000000
00000000
00000000
00000000
00000000
00000000
00000000
00000000
00000000
10000000
00000000
00000000
00100000
,
01000000
00000000
00010000
00000000
10000000
00000000
00000000
01000000
00100000
00000000
00010000
00000000
10000000
00000000
00000000
00100000
,
01000000
00000000
00010000
00000000
10000000
00000000
00000000
01000000
00100000
00000000
00010000
00000000
00001000
00000000
00000000
00000100
,
00000010
00000000
00000001
00000000
00001000
00000000
00000000
00000010
00000100
00000000
00000001
00000000
00001000
00000000
00000000
00000100
,
00000010
00000000
00000001
00000000
00001000
00000000
00000000
00000010
00000100
00000000
00000001
00000010
00002000
00000000
00000000
00003000
,
0000M000
00000000
00000001
00000010
00002000
00000000
00000000
00003000
0000M000
00000000
00000001
00000010
00002000
00000000
00000000
00003000
,
0000M000
00000000
00000001
00000010
00002000
00000000
00000000
00003000
0000M000
00000000
00100000
00000000
00000010
00000000
01000000
00000000
,
00000100
00100000
00000010
01000000
00000100
00100000
00000010
01000000
,
00000100
00100000
00000010
01000000
00000100
00010000
00001000
00000010
,
00001000
00010000
00001000
00000010
00001000
00010000
00001000
00000010
,
00001000
00000000
00010000
00000000
00001000
00000000
01000000
00000000
00100000
00000000
10000000
00100000
10000000
00000000
00010000
01000000
,
00010000
00000000
10000000
00100000
10000000
00010000
01000000
00010000
10000000
00000000
00010000
00100000
00010000
00000000
10000000
01000000
,
10000000
00000000
00010000
00100000
00010000
10000000
01000000
10000000
00010000
00000000
00000000
00000000
10000000
00000000
00000000
00000000
,
10100000
00000000
00000000
00000000
00100000
00000000
10000000
00100000
00010000
00000000
10000000
01000000
00010000
00000000
00000000
00000000
,
00011000
00000000
00000000
00000000
00001000
00000000
00001000
00000100
00000001
00000000
00001000
00000010
00000001
00000000
00000000
00000000
,
00001001
00000000
00000000
00000000
00001000
00000000
00000010
00001000
00000100
00000000
00000010
00000001
00000100
00000000
00000000
00000000
,
00010100
00000000
00000000
00000000
00001000
00000000
01000000
00010000
00100000
00000000
01000000
10000000
00100000
00000000
01000000
00000000
,
01010000
00000000
00010000
00000000
10000000
00000000
01000000
00000000
00200000
00000000
00000000
00000000
00301000
00010000
00001000
00000000
,
00010000
00000010
00000100
00000010
00000100
00000010
00000000
00001000
00000000
00000000
0000M001
00000010
00000100
00000000
00000010
00000100
,
00000000
00000000
00000000
00010000
00000000
00001000
00010000
00000000
00002000
00000000
00000000
00000000
02000000
00000000
00000000
00000000
,
03003000
00000000
00000000
00000000
00000000
00000000
00000000
00000000
00000000
00000000
10000000
00100000
00020000
00000000
00000000
00030000
,
000M0000
00000000
10000000
00100000
00020000
00000000
00000000
00030000
000M0000
00000000
10000000
00100000
00020000
00000000
00000000
00030000
,
000M0000
00000000
10000000
00100000
00020000
00000000
00000000
00030000
000M0000
00000000
00000010
00000000
01000000
00000000
00000100
00000000
,
00100000
00000010
01000000
00000100
00100000
00000010
01000000
00000100
,
00100000
00000010
01000000
00000100
00100000
00001000
00010000
00100000
,
00010000
00001000
00010000
00100000
00010000
00001000
00010000
00100000
,
00010000
00000000
00001000
00000000
00010000
00000000
00100000
00000000
00010000
00000000
00001000
00100000
00001000
00000000
00100000
00010000
,
00100000
00000000
00001000
00100000
00001000
00100000
00010000
00100000
00001000
00000000
00010000
00000010
00010000
00000000
00000010
00000100
,
00000010
00000000
00010000
00000010
00010000
00000010
00000100
00000010
00010000
00000000
00000001
00000000
00000010
00000000
00001000
00000000
,
00000010
00000000
00000001
00000000
00000010
00000000
00001000
00000000
00000010
00000000
00000001
00000100
00000001
00000000
00001000
00000010
,
00001000
00000000
00000001
00000100
00000001
00001000
00000010
00001000
00000100
00000000
01000000
00000000
00000010
00000000
00100000
00000000
,
00000100
01000000
00000010
00100000
00000100
01000000
00000010
00100000
,
00000100
01000000
00000010
00100000
00000100
00010000
00100000
00010000
,
00001000
00000010
00001000
00010000
00100000
00010000
00001000
00000010
,
00001000
00000000
00010000
00000000
00100000
00000000
00010000
00000000
00001000
00000000
10000000
00100000
00020000
00000000
00000000
00030000
,
000M0000
00000000
10000000
00100000
00020000
00000000
00000000
00030000
000M0000
00000000
10000000
00100000
00020000
00000000
00000000
00030000
,
000M0000
00000000
10000000
00100000
00020000
00000000
00000000
00030000
000M0000
00000000
00000000
00000000
00011000
00000000
00000000
00001000
,
00010000
00000000
00000010
00000000
00000100
00000000
00000001
00000000
00001000
00000000
00000100
00000000
00000110
00000000
00000000
00000010
,
00000001
00000000
00001000
00000000
00000010
00000000
00010000
00000000
00001000
00000000
00010000
00000000
00011000
00000000
00000000
00001000
,
01000000
00000000
00100000
00000000
10000000
00000000
00100000
00000000
00010000
00000000
00100000
00000000
10100000
00000000
00000000
10000000
,
01000000
00100000
01000000
10000000
00010000
01000000
00100000
10000000
,
00010000
00000000
00000000
00000000
00010000
00000000
01000000
00000000
00001000
00000000
00000000
00000000
00010000
00001000
00010000
00000000
,
00000010
00000100
00000010
00001000
00000001
00001000
00000000
00000100
00000000
00000000
00000M10
00000001
00001000
00000000
00000010
00001000
,
00000000
00000000
00000000
00000000
00000000
00000000
0000M000
00000000
00000000
00000100
00000000
00000000
00000000
00000000
00000000
00000100
00000000
00000000
00010000
00000000
00000000
00000000
00000000
00000000
00012000
00000000
00000000
00000000
00000000
00000000
00000000
00000000
00000000
00000000
00000000
00000000
01003000
00000000
00000000
00000000
01000000
00000000
00000000
00000000
10000000
00000000
00000000
00000000
,
01000000
00000000
00000000
00000000
01000000
00000000
00000000
00000000
00010000
00000000
00000000
00000000
01000000
00000000
00000000
00000000
01000000
00000000
00000000
00000000
10000000
00000000
00000000
00000000
01000000
00000000
00000000
00000000
00000000
00000000
00100000
00000000
00000000
00010000
00000000
00000000
10000000
00000000
00000000
00000000
00000000
00000000
00010000
00000000
00000000
10000000
00000000
00000000
,
00100000
00000000
01000000
00100000
01000000
00100000
00000000
00100000
00000000
00000000
00M00000
00000000
10000000
01000000
00100000
00000000
,
00100000
00010000
00100000
00001000
00010000
00001000
00000000
00001000
00000000
00000000
0001M000
00000010
00001000
00000000
00000010
00000000
,
00000100
00000010
00000100
00000010
00000100
00000001
00000000
00001000
00000000
00000000
0000M000
00000000
00022000
00000000
00000000
00000000
,
00033000
00000000
00000000
00001001
,
00000000
10010000
00000000
00001001
,
00000000
00000000
10010000
00000000
00000000
10000000
00001000
00010000
,
00000001
00001000
00000001
00010000
00001000
10000000
00010000
10000000
,
00001000
00010000
00000001
00001000
00000001
00010000
00001000
10000000
,
00010000
10000000
00001000
00010000
00000001
00001000
00000001
00010000
,
00001000
00000000
10000000
00000000
00010000
00000000
10000000
00000000
00100000
00000000
01000000
00010000
01000000
00000000
00100000
10000000
,
00100000
00000000
01000000
00010000
01000000
00100000
10000000
00100000
01000000
00000000
00010000
00100000
00010000
00000000
10000000
01000000
,
10000000
00000000
00010000
00100000
00010000
10000000
01000000
10000000
00010000
00000000
01000000
00000000
00001000
00000000
00100000
00000000
,
00001000
00000000
01000000
00000000
00001000
00000000
00100000
00000000
00001000
00000000
00010000
00000100
00010000
00000000
00000100
00001000
,
00000100
00000000
00010000
00001000
00010000
00000100
00001000
00000100
00020000
00000000
00000000
00000000
00030000
00000000
00000000
00000000
,
00000000
000M0000
00000000
00000000
00000000
00000000
00000000
00000000
;

//---------------dance-double - Blank----------------
#NOTES:
     dance-double:
     Blank:
     Hard:
     7:
     0.474,0.505,0.234,0.328,0.000:
00000000
00000000
00000000
10000000
,
00100000
00010000
10000000
00000000
01000000
00010000
10000000
00000000
,
00100000
00010000
10000000
00000000
01000000
00010000
00100000
00000000
,
00010000
00100000
00001000
00000000
00010000
00000010
00000100
00000010
,
00000200
00000300
00000000
00001001
,
00000000
00010001
00000000
00001001
,
00000000
00000000
00010001
00000000
00000000
00000001
00010000
00001000
,
00010000
00000001
00010000
00001000
00010000
00000010
00010000
00001000
,
00010000
00000100
00010000
00000010
00010000
00000001
00000010
00000100
,
00001000
00000100
00000010
00000100
00000001
00000100
00010000
00001000
,
01000000
00100000
10000000
00010000
00100000
20000000
30100000
00020000
,
00130000
20000000
30100000
00020000
00130000
00020000
01030000
20000000
,
31000000
00020000
01030000
20000000
31000000
00000000
10100000
00000000
,
01010000
00000000
01000000
00100000
00001000
00000000
00010010
00000000
,
00000110
00000000
00000001
00000100
00001000
00000000
00001001
00000000
,
00000011
00000000
00000001
00000010
00001000
00000000
00011000
00000000
,
02100000
00000000
10000000
10000000
03100000
00000000
00010000
10000000
,
01000000
00000000
01000000
00100000
00002000
00000000
00013000
00000010
,
00000001
00000010
00001000
00000010
00000001
00000000
00000010
00001000
,
00000100
00000000
00000100
00010000
00000200
00000000
00011000
00000000
,
00000300
00000000
00000000
10001000
,
00000000
10010000
00000000
10001000
,
00000000
00000000
10010000
00000000
00000000
10000000
00001000
00010000
,
00001000
10000000
00001000
00010000
00001000
00100000
00001000
01000000
,
00001000
00100000
00001000
01000000
00010000
00100000
01000000
10000000
,
00010000
00100000
01000000
10000000
00100000
01000000
00001000
00010000
,
00000100
00000010
00000001
00001000
00000001
00002000
00003100
00000002
,
00000103
00002000
00003100
00000002
00000103
00002000
00003010
00000002
,
00000013
00002000
00003010
00000002
00000013
00002000
00000010
00000001
,
00003010
00000002
00000010
00001000
00000013
00002000
00003100
00000002
,
00000103
00002000
00003100
00000002
00000103
00010000
00000001
00010000
,
00001000
00010000
00000001
00010000
00001000
00010000
00000010
00010000
,
00000100
00010000
00000010
00010000
00001000
00010000
00001000
01000000
,
00100000
10000000
01000000
00100000
00010000
01000000
10000000
01000000
,
00010000
00100000
01000000
10000000
00100000
01000000
01100000
00000000
,
00000000
00011000
00000000
00000110
,
00000000
00001001
00000000
00000010
,
00001010
00000000
00000010
00010000
00001000
00000000
00010000
00000000
,
00110000
00000000
00100000
10000000
00010000
00000000
00100000
00000000
,
01100000
00000000
01000000
10000000
00010000
00000000
00100000
00000000
,
00012000
00100000
00100000
00000000
00013000
00000010
00000100
00000000
,
00000001
00000010
00000100
00000000
00000010
00000100
00010000
00000100
,
00001000
00000010
00000001
00000010
00001000
00000100
00010000
00001000
,
01000000
00000000
00100000
10000000
00020000
00000000
00400000
00000000
,
00000000
00000000
00000000
00000000
00330000
00010000
00100000
00100000
,
10000000
00010000
01000000
01000000
20000000
00000000
30100000
01000000
,
00010000
00100000
00001000
00000010
00000001
00001000
00000100
00000100
,
00000001
00001000
00000010
00000010
00000200
00000000
00011000
00000000
,
00000300
00000000
00000000
10001000
,
00000000
00011000
00000000
10001000
,
00000000
00000000
00011000
00000000
00000000
10000000
00001000
00010000
,
00001000
10000000
00001000
00010000
00001000
01000000
00001000
00100000
,
00001000
01000000
00001000
00100000
00001000
00010000
00000010
00000100
,
00000001
00000010
00000100
00001000
00000010
00000100
00000001
00000100
,
00000010
00001000
00000100
00000010
00000001
00002000
00003100
00000002
,
00000103
00002000
00003100
00000002
00000103
00002000
00003010
00000002
,
00000013
00002000
00003010
00000002
00000013
00001000
00000100
00010000
,
00100000
10000000
00010000
00100000
01000000
20000000
31000000
00020000
,
01030000
20000000
30100000
00020000
00130000
10000000
00000000
MM000000
;

//---------------dance-double - Blank----------------
#NOTES:
     dance-double:
     Blank:
     Medium:
     6:
     0.398,0.367,0.250,0.507,0.031:
00000000
00000000
00000000
00000001
,
00001000
00000100
00001000
00000000
00000001
00000100
00000001
00000000
,
00001000
00000010
00001000
00000000
00000001
00000010
00000001
00000000
,
00001000
00000100
00010000
00000000
00000100
00010000
00001000
00010000
,
00002000
00003000
00000000
00110000
,
00000000
10100000
00000000
11000000
,
00000000
01010000
00000000
00020000
,
00230000
20300000
32000000
03002000
,
00203000
20300000
32000000
03020000
,
00230000
20300000
32000000
03002000
,
00203000
20300000
31000000
10010000
,
01100000
00000000
10000000
00010000
10000000
00000000
01100000
00000000
,
01001000
00000000
00000000
00000000
00010000
00000000
00001000
00000000
00010000
00000000
00000000
00000000
00000100
00000000
00000000
00001000
,
00000100
00000000
00000000
00000000
00001000
00000000
00000010
00000000
00000100
00000000
00000000
00000000
00000001
00000000
00000000
00001000
,
00000001
00000000
00000000
00000000
00000010
00000000
00000100
00000000
00001000
00000000
00000000
00000000
00000100
00000000
00000000
00010000
,
00000100
00000000
00000000
00000000
00010000
00000000
00001000
00000000
00100000
00000000
00000000
00000000
00010000
00000000
00000000
01000000
,
00010000
00000000
01000000
01000000
00000000
0M000000
00010000
10000000
,
00100000
00000000
01000000
00001000
00010000
00000000
00001000
00001000
,
00010000
00010000
00000010
00000100
00000001
00000000
00001000
00000100
,
00001000
00000000
00000010
00000002
00002000
00000000
00000010
000000M0
,
000030M3
00000000
00000000
00000011
,
00000000
00001010
00000000
00001100
,
00000000
00000011
00000000
00000002
,
00000023
00002030
00003200
00000302
,
00000023
00020030
00030200
00000302
,
00000023
00002030
00003200
00000302
,
00000023
00020030
00030100
00000011
,
00001001
00000000
00001000
00000100
00010000
00000000
00011000
00000000
,
01100000
00000000
00100000
10000000
00010000
00000000
10000000
10000000
,
00010000
00010000
01000000
00100000
01000000
00000000
00110000
00000000
,
10010000
00000000
10000000
00100000
01000000
00000000
00020000
00000000
,
00230000
20300000
32000000
03002000
,
00203000
20300000
32000000
03020000
,
00230000
20300000
32000000
03002000
,
00203000
20300000
31000000
01100000
,
00000000
10010000
00000000
00011000
,
00000000
00000000
00000000
00000000
00001001
00000000
00000000
00000000
00000000
00000000
00000000
00000000
00000001
00000000
00000000
00001000
,
00000001
00000000
00000000
00000000
00001000
00000000
00000010
00000000
00000100
00000000
00000000
00000000
00000010
00000000
00000000
00001000
,
00000010
00000000
00000000
00000000
00001000
00000000
00000100
00000000
00010000
00000000
00000000
00000000
00001000
00000000
00000000
00100000
,
00001000
00000000
00000000
00000000
00100000
00000000
00010000
00000000
10000000
00000000
00000000
00000000
00100000
00000000
00000000
10000000
,
00100000
00000000
01000000
01000000
00000000
0M000000
00010000
10000000
,
00100000
00000000
01000000
00010000
01000000
00000000
00010000
00010000
,
00100000
00100000
00001000
00010000
00001000
00000000
00010000
00000010
,
00000100
00000000
00000100
00000001
00000100
00000000
00000040
00000000
,
00000000
00000000
00000000
00000000
00000030
00000000
00000010
00000010
,
00001000
00000000
00000010
00000010
00000001
00000000
00000010
00001000
,
00000001
00000000
00001000
00001000
00000100
00000000
00010000
00001000
,
00010000
00000000
00001000
20000000
00020000
00000000
00100000
00M00000
,
30M30000
00000000
00000000
10100000
,
00000000
00110000
00000000
01010000
,
00000000
11000000
00000000
20000000
,
30200000
00320000
02030000
23000000
,
30200000
00302000
02003000
23000000
,
30200000
00320000
02030000
23000000
,
30200000
00302000
01003000
10100000
,
01010000
00000000
10000000
00010000
00100000
00000000
11000000
00000000
,
00110000
00000000
00100000
00001000
00010000
00000000
00001000
00010000
,
00001000
00010000
00000010
00000100
00000001
00000000
00001100
00000000
,
00000011
00000000
00001000
00000001
00001000
00000000
00000M00
00000000
;

//---------------dance-double - Blank----------------
#NOTES:
     dance-double:
     Blank:
     Easy:
     4:
     0.325,0.368,0.039,0.047,0.031:
00000000
00000000
00000000
00000001
,
00000100
000000M0
00000100
00000000
00001000
00000000
00000001
00000000
,
00000010
00000M00
00000010
00000000
00001000
000M0000
00001000
00000000
,
00000000
02000000
03000000
00100000
,
00100000
00000000
00000000
00010000
,
00000000
00010000
00000000
00010000
,
00000000
00000000
00010000
00000000
00000000
01000000
00100000
01000000
,
00100000
01000000
00100000
01000000
00100000
01000000
00100000
01000000
,
00100000
01000000
00100000
01000000
00100000
10000000
00010000
10000000
,
00010000
10000000
00010000
10000000
00010000
10000000
00010000
10000000
,
00010000
10000000
00010000
10000000
00010000
00000000
00100000
00000000
,
00001000
00010000
00000010
00000100
,
00000001
00000010
00000100
00001000
,
00000000
00000010
00001000
00011000
,
00000000
00100000
00010000
00011000
,
00000000
00000100
00010000
00011000
,
00000000
00000000
01000000
00000000
01000000
00000000
01000000
00000000
00000000
01000000
00000000
00000000
00100000
00000000
00000000
00000000
,
10000000
00000000
00010000
00000000
00100000
00000000
00001000
00100000
,
00001000
00000000
00010000
00001000
00010000
00000000
00000010
00000000
,
00000100
00000000
00000001
00001000
00000001
00000000
00000220
00000000
,
00000330
00000000
00000000
00001000
,
00000000
00001000
00000000
00001000
,
00000000
00000000
00001000
00000000
00000000
00000010
00000100
00000010
,
00000100
00000010
00000100
00000010
00000100
00000010
00000100
00000010
,
00000100
00000010
00000100
00000010
00000100
00000001
00001000
00000001
,
00001000
00000001
00001000
00000001
00001000
00000001
00001000
00000001
,
00001000
00000001
00001000
00000001
00001000
00000001
00001000
00000000
,
00000010
00001000
00000100
00010000
,
00001000
00000000
00100000
00000000
01000000
00000000
00100000
00100000
,
01000000
01000000
00100000
00000000
01000000
00000000
00010000
00000000
,
10000000
00000000
00100000
00000000
10000000
00100000
01000000
00100000
,
01000000
00100000
01000000
00100000
01000000
00100000
01000000
00100000
,
01000000
00100000
01000000
00100000
01000000
00010000
10000000
00010000
,
10000000
00010000
10000000
00010000
10000000
00010000
10000000
00010000
,
10000000
00010000
10000000
00010000
10000000
00100000
01000000
00000000
,
00000000
01000000
00000000
01000000
,
00000000
01000000
00000000
10000000
,
00100000
01000000
00010000
00100000
,
00001000
00010000
00000010
00000100
,
00000001
00000010
00000100
00001000
,
00010000
00000000
00001000
00000000
00001000
00000000
00001000
00000000
00000000
00001000
00000000
00000000
00010000
00000000
00000000
00000000
,
00001000
00000000
01000000
00000000
00100000
00000000
10000000
00010000
,
10000000
00000000
00100000
01000000
00100000
00000000
01000000
00000000
,
00010000
00000000
00000000
00100000
00000000
00000000
00001000
00000000
00000000
00020000
00M00000
00M00000
,
00M00000
00000000
00M00000
00000000
00M00000
00000000
00M00000
00000000
00M00000
00000000
00M00000
00000000
00M30000
00000000
00000000
00000000
00000000
00000000
00001000
00000000
00000000
00010000
00000000
00000000
,
00001000
00000000
00010000
00000010
00001000
00000000
00000001
00000000
,
00001000
00000000
00000010
00000100
00000010
00000000
00001000
00000000
,
00000001
00000010
00000100
00002002
,
00003003
00000000
00000000
00001000
,
00000000
00001000
00000000
00001000
,
00000000
00000000
00001000
00000000
00000000
00000010
00000100
00000010
,
00000100
00000010
00000100
00000010
00000100
00000010
00000100
00000010
,
00000100
00000010
00000100
00000010
00000100
00000001
00001000
00000001
,
00001000
00000001
00001000
00000001
00001000
00000001
00001000
00000001
,
00001000
00000001
00001000
00000001
00001000
00000000
00000010
00000000
,
00001000
00000100
00010000
00001000
,
01000000
00000000
00100000
00000000
10000000
00000000
00010000
00010000
,
01000000
01000000
00100000
00000000
10000000
00000000
00010000
00000000
,
00100000
00000000
00001000
00000000
00010000
00000000
00000000
00M00000
;
