#TITLE:Brain Power;
#SUBTITLE:;
#ARTIST:NOMA;
#TITLETRANSLIT:;
#SUBTITLETRANSLIT:;
#ARTISTTRANSLIT:;
#GENRE:;
#CREDIT:;
#BANNER:brain power banner.png;
#BACKGROUND:brain power.png;
#LYRICSPATH:;
#CDTITLE:;
#MUSIC:brain power.ogg;
#OFFSET:-0.528;
#SAMPLESTART:48.254;
#SAMPLELENGTH:12.000;
#SELECTABLE:YES;
#BPMS:0.000=170.000,100.000=171.000,115.979=170.000,123.979=171.000,139.917=173.000;
#STOPS:35.500=0.032
,139.792=-0.017
,367.792=-0.015
,395.854=-0.034
;
#BGCHANGES:;
#KEYSOUNDS:;

//---------------dance-single - Blank----------------
#NOTES:
     dance-single:
     Blank:
     Challenge:
     14:
     1.000,1.000,0.402,0.874,1.000:
0000
0000
0000
0000
,
0M10
1000
00M1
1000
010M
0001
M100
1000
,
010M
0010
M100
1000
010M
0001
M100
1000
,
001M
0100
M001
0010
1M00
0010
M001
0010
,
010M
0010
M001
1000
0M10
0100
0101
1001
,
0010
1000
0001
1000
0001
0010
0001
1000
0010
0100
0001
0100
0010
1000
0001
0010
,
0001
1000
0010
0100
0001
1000
0100
1000
010M
0010
0100
1000
0010
0100
0001
1000
,
0001
0000
0010
0000
1000
0000
0010
0000
0001
0000
0100
0000
0010
0000
1000
0000
0001
0100
0001
0100
0001
0000
1000
0000
0010
0000
0100
0000
0001
0000
1000
0000
,
1MM1
0000
0000
1M1M
0000
0000
MM11
0000
0000
1MM1
0000
0000
1M1M
0000
0010
0000
,
0100
0100
0010
0001
1000
0010
0100
0010
,
1000
0001
0010
0001
1000
0010
0100
0010
,
1000
1000
0100
0001
0100
1000
0010
0100
,
0001
0100
0010
1000
0010
0001
1M1M
1MM1
,
0010
0001
1000
0001
0100
0010
1000
0001
,
0010
1000
0010
0001
0100
0100
0010
0010
,
1000
0001
0100
0001
1000
0010
1000
0010
,
0011
0000
0000
0010
1000
0010
1M1M
0000
0000
MM11
0000
0000
,
M2M1
0000
0000
0001
0000
0000
0010
0000
0000
0000
0000
0000
0301
0000
0010
0000
1000
0000
0M10
0000
0000
0001
0000
0000
,
1MM1
0000
0000
11MM
0000
0000
1MM1
0000
0010
0000
0010
0000
0100
0000
0100
0000
,
0102
0000
1000
0000
0000
0000
0000
0000
0010
0000
0010
0000
0013
0000
0000
000M
,
1100
0000
0000
0000
0001
0000
0001
0000
0100
0010
1000
0001
1000
0010
0100
0001
,
0010
0000
0100
0000
1000
0000
0000
0000
M11M
0000
0000
MM11
0000
0000
1MM1
0000
,
2000
0000
0000
0000
0000
0000
0010
0000
0000
0000
0000
0000
3010
0000
0000
0000
0000
0000
0000
0000
0000
M000
0000
0000
0001
0000
0000
0000
0100
0000
0000
0000
0001
0000
0000
0000
0002
0000
0000
0000
0000
0000
0000
0000
0000
0000
0000
0000
,
0023
0000
0000
0000
0000
0000
0000
0000
0000
000M
0000
0000
0130
0000
0000
0000
0000
0000
1000
0000
0000
0000
0000
0000
0002
0000
0000
0000
0000
0000
0000
0000
0000
0000
0000
0000
0103
0000
0000
0000
0010
0000
0000
0000
1000
0000
0000
0000
,
0002
0000
0000
0000
0000
0000
0000
0000
0000
0000
0000
0000
0013
0000
0000
0000
0100
0000
0000
0000
1000
0000
0000
0000
0010
0000
0000
0100
0000
0000
0001
0000
0000
0100
0000
0000
1000
0000
0000
0000
0000
0000
0100
0000
0000
0000
0000
0000
,
0001
1000
0010
1000
0001
0010
0001
0100
,
0010
1000
0001
0010
0100
0100
0010
0010
,
0001
1000
0010
0100
0001
0100
1000
0100
,
0001
1000
0010
0100
0001
0010
M11M
11MM
,
1000
0010
0100
0001
1000
0001
0010
1000
,
0010
0001
0100
0010
1000
0001
0100
0010
,
1000
0100
0001
0100
1000
0010
0001
0010
,
1000
0100
0001
0100
1000
0010
0100
0001
,
0010
0000
0000
0000
0100
0000
0000
0000
1000
0000
0000
0000
0001
0000
0000
0000
0100
0001
0100
0001
0100
0000
0010
0000
1000
0000
0001
0000
0010
0000
0100
0000
,
11MM
0000
0000
M1M1
0000
0000
1M1M
0000
0000
MM11
0000
0000
1MM1
0000
0001
0000
,
0200
0000
0000
0000
0310
1000
0M01
0010
0100
0010
0001
1000
0010
0100
0001
1000
,
0001
1000
0001
0100
0020
0000
2030
0000
3020
0000
0032
0000
0023
0000
2030
0000
,
3002
0000
0000
0000
0013
1000
001M
0001
1000
0010
0100
0001
1000
0100
0001
0100
,
1000
1000
0020
0000
0230
0000
0302
0000
2003
0000
3002
0000
0023
0000
0230
0000
,
2300
0000
0000
0000
0000
0000
3010
0100
M001
0000
0001
1000
0000
1000
0100
0010
,
0001
1000
0010
0100
0002
0000
2003
0000
3020
0000
0032
0000
0023
0000
2030
0000
,
3002
0000
0000
0000
0013
100M
0001
0000
0001
0100
0000
0100
0010
0000
0010
1000
,
0001
0010
0001
1000
0010
0000
0100
0000
0010
0001
0010
0000
0100
0001
0100
0000
,
0020
0000
0000
0000
0000
0000
1030
00M1
0010
0001
1000
0010
0100
0001
1000
0100
,
0010
0001
0010
0100
0200
0000
2300
0000
3020
0000
0032
0000
0023
0000
2030
0000
,
3002
0000
0000
0000
0103
0010
100M
0001
1000
0001
0010
0100
0010
0001
1000
0010
,
0100
0100
0002
0000
2003
0000
3020
0000
0032
0000
0023
0000
2030
0000
3002
0000
,
0023
0000
0000
0000
0000
0000
0130
1000
00M1
0000
0001
1000
0000
1000
0010
0100
,
0001
1000
0001
0010
0200
0000
2300
0000
3002
0000
0203
0000
0320
0000
2030
0000
,
3020
0000
0000
0000
0130
00M1
1000
0000
0001
0010
0000
0100
1000
0001
0100
0010
,
1000
0010
0100
0001
1000
0000
0010
0000
0100
0010
0001
0000
0100
0010
1000
0000
,
0002
0000
0000
0000
0000
0000
0103
0010
100M
0001
0010
0001
1000
0010
0100
0001
,
1000
0010
0100
0001
0002
0000
0023
0000
0230
0000
2300
0000
3020
0000
0230
0000
,
0302
0000
0000
0000
0103
0010
100M
0001
0010
1000
0010
0001
0100
0010
1000
0010
,
0100
0010
0002
0000
0023
0000
2030
0000
3002
0000
0023
0000
0230
0000
0320
0000
,
0031
1000
0001
1000
0001
0000
0100
0000
0010
0000
1000
0000
0001
0000
0010
0000
0001
0000
0100
0000
0010
0000
1000
0000
0100
0000
1000
0000
0001
0000
0100
0000
,
0001
1000
0010
1000
0010
0100
0001
0010
0100
0010
0001
1000
0010
0100
0001
0010
,
0011
1M01
1M10
10M1
01M1
1M01
11M0
1M01
,
0010
0000
0100
0000
0001
0000
1000
0000
0001
0000
0010
0000
0100
0000
1000
0000
0010
1000
0010
1000
0010
0000
0100
0000
0001
0000
1000
0000
0001
0000
0010
0000
,
0200
0000
0000
2300
0000
0000
3010
0100
0001
0010
1000
0010
,
0001
0100
0010
1000
0100
0001
0100
1000
0010
0100
0001
1000
,
0020
0000
0000
0000
0000
0000
0000
0000
0000
0000
0000
0000
0130
0000
0000
0001
0000
0000
1000
0000
0001
0000
1000
0000
0001
0000
0000
0000
0100
0000
0000
0000
0010
0000
0000
0000
1000
0000
0000
0000
0000
0000
0001
0000
0000
0000
0000
0000
,
0010
0000
0000
0100
0000
0000
0000
0000
0000
0100
0000
0000
1000
0000
0010
0000
0100
0000
0001
0000
0100
0000
0010
0000
1000
0000
0000
0010
0000
0000
0100
0000
0000
0001
0000
0000
2MM1
0000
0000
0000
0000
0000
0000
0000
0000
0000
0000
0000
,
3020
0000
0000
0130
0001
0100
1000
0100
0001
0200
0000
0000
,
0310
0000
0000
0000
1000
0000
0000
0000
0010
0000
0000
0000
0100
0000
0000
0001
0000
0000
1000
0000
0000
0001
0000
0000
0010
0000
0000
0000
0000
0000
0010
0000
0000
0000
0000
0000
0100
0000
0000
0000
0000
0000
0100
0000
0000
0000
0000
0000
,
1000
0000
0000
0000
0000
0000
0001
0000
0000
0000
0000
0000
0100
0000
0000
0000
0000
0000
0010
0000
0000
0000
0000
0000
1000
0000
0010
0000
0100
0000
0001
0000
1000
0000
0010
0000
0100
0000
0000
0001
0000
0000
1000
0000
0000
0010
0000
0000
,
0100
0001
0100
0001
0200
0000
0320
0000
2030
0000
3002
0000
0023
0000
0230
0000
,
1300
0000
0010
1000
0010
0000
0100
0000
0001
0000
0000
0000
0001
0000
0000
0000
1000
0000
0000
0000
1000
0000
0000
0000
0020
0000
0000
0000
0000
0000
0000
0000
,
0130
0000
0100
0000
0011
0000
0000
1010
0000
0000
1001
0000
0010
0100
0010
0100
,
0001
0000
0000
0000
0000
0000
0000
0000
0000
0000
0000
0000
1000
0000
0000
0000
0000
0000
0000
0000
0000
0000
0000
0000
0001
0000
0000
0000
0000
0000
0000
0000
0000
0000
0000
0000
1000
0000
0000
0000
0000
0000
0000
0000
0000
0000
0000
0000
0100
0000
0000
0000
0000
0000
0000
0000
0000
0000
0000
0000
0000
0000
0000
0000
0010
0000
0000
0000
0000
0000
0000
0000
0000
0000
0000
0000
0000
0000
0000
0000
0001
0000
0000
0000
0000
0000
0000
0000
0000
0000
0000
0000
0000
0000
0000
0000
1000
0000
0000
0000
0000
0000
0000
0000
0000
0000
0000
0000
0000
0000
0000
0000
0100
0000
0000
0000
0000
0000
0000
0000
0000
0000
0000
0000
0000
0000
0000
0000
0010
0000
0000
0000
0000
0000
0000
0000
0000
0000
0000
0000
0000
0000
0000
0000
0001
0000
0000
0000
0000
0000
0000
0000
0000
0000
0000
0000
1000
0000
0000
0000
0000
0000
0001
0000
0000
0000
0000
0000
1000
0000
0000
0000
0000
0000
0000
0000
0000
0000
0000
0000
0010
0000
0000
0000
0000
0000
0000
0000
0000
0000
0000
0000
,
0100
0000
0000
0001
0000
0000
0000
0000
0000
0001
0000
0000
1000
0000
0001
0000
0100
0000
0010
0000
0100
0000
0001
0000
1000
0000
0000
0001
0000
0000
0010
0000
0000
0100
0000
0000
21MM
0000
0000
0000
0000
0000
0000
0000
0000
0000
0000
0000
,
3010
0000
0000
0000
1000
0000
0000
0000
0001
0000
0000
0000
0010
0000
0000
0000
1000
0000
0000
0000
0010
0000
0000
0000
0001
0000
0000
0000
0000
0000
0001
0000
0000
0000
0000
0000
0100
0000
0000
0010
0000
0000
0000
0000
0000
1000
0000
0000
,
0000
1000
0001
0000
0010
0100
1000
0001
0100
0000
0100
0000
0001
0000
0001
0000
,
0010
0000
0000
0000
0000
0000
0100
0000
0000
0000
0000
0000
1000
0000
0000
0000
0000
0000
0001
0000
0000
0000
0000
0000
0100
0000
0001
0000
0100
0000
0010
0000
1000
0000
0010
0000
0100
0000
0000
0001
0000
0000
1000
0000
0000
0001
0000
0000
,
0010
0100
1000
0000
0020
0000
0230
0000
0302
0000
2003
0000
3020
0000
0032
0000
,
0013
0000
0000
1000
0000
0000
0001
0000
0000
0010
0000
0000
0100
0000
1000
0000
0001
0000
0100
0000
0010
0000
1000
0000
,
0010
0000
0001
0000
0010
0000
1000
0000
0010
0000
0100
0000
0001
0000
0000
0000
0000
0000
1001
0000
0000
1001
0000
0000
,
0010
0000
1000
0000
0010
0000
1000
0000
0020
0000
0000
0000
1030
0001
1000
0000
0001
0000
0010
0000
0000
0000
0001
0000
0010
0000
0001
0000
1000
0000
0010
0000
,
0100
0000
0000
0000
0001
0000
0000
0000
1000
0000
0000
0000
0100
0000
0010
0000
0001
0000
0010
0000
0100
0000
1000
0000
0100
0000
0000
0010
0000
0000
0001
0000
0000
1000
0000
0000
1M2M
0000
0000
0000
0000
0000
0000
0000
0000
0000
0000
0000
,
0230
0000
0000
0000
0000
0000
0301
0000
0000
0001
0000
0000
1000
0000
0000
1000
0000
0000
0010
0000
0100
0000
0001
0000
,
1000
0000
0001
0000
0010
0000
0200
0000
0000
0000
0000
0000
0310
0000
0001
0000
1000
0000
0010
0000
0000
0001
0000
0000
,
0010
0000
0000
0000
0000
0000
0010
0000
0000
0000
0000
0000
1000
0000
0000
0000
0000
0000
1000
0000
0000
0000
0000
0000
0001
0000
0010
0000
0100
0000
1000
0000
0100
0000
0010
0000
0001
0000
0000
0010
0000
0000
0100
0000
0000
1000
0000
0000
,
0010
0100
0001
0100
0002
0000
2003
0000
3200
0000
0320
0000
0032
0000
2003
0000
,
3010
0000
0000
0000
0000
0000
0000
0000
0000
0000
0000
0000
0100
0000
0000
0000
0000
0000
0001
0000
0000
0000
0000
0000
0100
0000
0000
0000
0000
0000
0000
0000
0000
0000
0000
0000
0001
0000
0000
0000
0000
0000
0000
0000
0000
0000
0000
0000
1000
0000
0000
0000
0000
0000
0000
0000
0000
0000
0000
0000
0000
0000
0000
0000
0100
0000
0000
0000
0000
0000
0000
0000
0000
0000
0000
0000
0000
0000
0000
0000
0010
0000
0000
0000
0000
0000
0000
0000
0000
0000
0000
0000
0000
0000
0000
0000
0100
0000
0000
0000
0000
0000
0000
0000
0000
0000
0000
0000
0000
0000
0000
0000
1000
0000
0000
0000
0000
0000
0000
0000
0000
0000
0000
0000
0000
0000
0000
0000
0010
0000
0000
0000
0000
0000
0000
0000
0000
0000
0000
0000
0000
0000
0000
0000
0200
0000
0000
0000
0000
0000
0000
0000
0000
0000
0000
0000
0000
0000
0000
0000
0000
0000
0000
0000
0000
0000
0000
0000
0000
0000
0000
0000
0000
0000
0000
0000
0000
0000
0000
0000
0000
0000
0000
0000
0000
0000
0000
0000
0000
0000
0000
0000
,
0301
0000
0000
0000
0010
0000
0000
0000
0001
0000
0000
0000
1001
0000
0000
0000
0000
0000
0000
0000
0000
1010
0000
0000
0000
0000
0000
0000
0000
0000
0011
0000
0000
0000
0000
0000
0001
0000
0000
0100
0000
0000
0001
0000
0000
0100
0000
0000
,
0010
0000
1000
0000
0001
0000
0010
0000
0100
0000
0000
0000
1000
0000
0000
0000
0010
0000
0000
0000
0100
0000
0000
0000
0001
0000
0010
0001
0010
0000
0100
0000
,
1000
0000
0000
0010
0000
0000
0100
0000
0000
0001
0000
0000
1000
0000
0001
0000
0010
0000
0100
0000
1000
0000
0001
0000
0010
0000
0000
0100
0000
0000
1000
0000
0000
0001
0000
0000
M2M1
0000
0000
0000
0000
0000
0000
0000
0000
0000
0000
0000
,
0310
0000
0000
0000
1000
0000
0000
0000
0001
0000
0000
0000
0010
0000
0000
0000
0001
0000
0000
0000
1000
0000
0000
0000
0010
0000
0000
0100
0000
0000
0000
0000
0000
0001
0000
0000
0000
0000
0000
1000
0000
0000
0000
0000
0000
0100
0000
0000
,
0000
0010
0001
0000
1000
0000
0010
0100
0001
0000
0001
0000
1000
0000
1000
0000
,
0010
0000
0000
0000
0100
0000
0000
0000
0001
0000
0000
0000
1000
0000
0000
0000
0010
0000
0000
0000
0100
0000
0000
0000
M1M1
0000
0000
0000
0000
0000
0000
0000
0000
11MM
0000
0000
0000
0000
0000
0000
0000
0000
M11M
0000
0000
0000
0000
0000
,
0002
0000
0000
0000
0000
0000
0000
0000
0000
0023
0000
0000
0000
0000
0000
0000
0000
0000
0130
0000
0000
1000
0000
0000
0001
0000
0100
0000
0010
0000
1000
0000
0001
0000
0010
0000
0100
0000
1000
0000
0010
0000
0100
0000
0001
0000
1000
0000
,
1MM1
0000
0000
1M1M
0000
0000
M11M
0000
0000
1MM1
0000
0000
MM11
0000
11MM
0000
,
0020
0000
0000
0000
0000
0000
0130
0001
1000
00M1
0010
0100
1000
0010
0100
0001
,
1000
0010
0100
0001
0002
0000
2003
0000
3020
0000
0032
0000
0023
0000
2030
0000
,
3002
0000
0000
0000
0000
0000
0103
0010
100M
0001
0010
0100
0010
0001
1000
0010
,
0100
0100
0002
0000
2003
0000
3020
0000
0230
0000
0302
0000
0023
0000
0230
0000
,
2300
0000
0000
0000
0000
0000
3010
0100
0001
M000
1000
0001
0000
1000
0010
0100
,
0001
0010
0100
1000
0020
0000
0230
0000
0302
0000
2003
0000
3002
0000
0023
0000
,
0130
0000
1000
0000
0001
1000
0010
0000
0100
0001
0000
0100
0010
0000
0100
0001
,
1000
0001
0010
0001
1000
0010
0100
0001
1000
0001
0100
0010
1000
0001
0010
0100
,
1000
0000
0010
0000
0100
0000
0001
0000
1000
0000
0010
0000
0100
0000
0001
0000
1000
0001
1000
0001
1000
0000
0010
0000
0100
0000
0001
0000
1000
0000
0010
0000
,
M22M
0000
0000
0000
,
0000
0000
0000
0000
,
0330
0000
0000
0000
;

//---------------dance-single - Blank----------------
#NOTES:
     dance-single:
     Blank:
     Hard:
     10:
     0.844,0.929,0.069,0.271,0.444:
0000
0000
0000
0000
,
MM1M
0100
0001
1000
0010
0100
00M1
0100
,
100M
0100
M001
0100
100M
0100
M010
0100
,
10M0
0100
M001
0100
001M
0100
10M0
0100
,
M001
0100
100M
0100
M010
0100
10M0
0100
,
M002
0000
0003
1000
0010
1000
0010
1000
0010
0100
0010
0100
0001
0100
0001
0100
,
0002
0000
0003
1000
0100
1000
0100
1000
0002
0000
0003
0100
0010
0100
0010
0100
,
0002
0000
0000
0000
2003
0000
0000
0000
3010
0100
0010
0100
0010
1000
0001
1000
,
0010
0000
0000
1000
0000
0000
M001
0000
0000
001M
0000
0000
01M0
0000
1000
0000
,
0001
0100
1000
0100
0001
1000
0010
1000
,
0001
1000
0010
1000
0001
1000
0100
0010
,
0001
0010
1000
0010
0001
0100
0010
1000
,
0001
0100
0010
1000
0001
0100
0M10
0M10
,
1000
0001
1000
0100
1000
0001
1000
0100
,
1000
0010
0100
0001
0010
0100
1000
0010
,
0100
0001
0010
0001
1000
0001
0010
0001
,
2000
0000
0000
3010
0100
0001
2MM0
0000
0000
3MM2
0000
0000
,
MM23
0000
0000
0000
0000
0000
0230
0000
0000
0000
0000
0000
1300
0000
0001
0000
1000
0000
0010
0000
0000
0100
0000
0000
,
0001
0000
0000
1000
0000
0000
0010
0000
0100
0000
0001
0000
0100
0000
0001
0000
,
1000
0200
0000
0000
0010
0010
0310
0000
,
0001
0000
0000
0000
1000
0000
0010
0000
0100
0001
0100
0001
0100
0001
1000
0001
,
1000
0000
0010
0000
0020
0000
0000
0000
0130
0000
0000
1000
0000
0000
0001
0000
,
0010
0000
0000
0100
0000
0000
1000
0000
0000
0000
0000
0000
0010
0000
0100
0000
0010
0000
0100
0000
0000
0001
0000
0000
,
1000
0000
0000
0000
0000
0000
0010
0000
0000
0100
0000
0000
0001
0000
0000
0000
0000
0000
0010
0000
0001
0000
1000
0000
,
0001
0000
0000
0100
0000
0000
0010
0000
1000
0000
0001
0000
1000
0000
0000
0010
0000
0000
0100
0000
0000
0001
0000
0000
,
1MMM
0010
0100
0010
1000
0010
0100
0010
,
0100
0001
0010
0001
0100
0001
0010
0001
,
1000
0100
0010
0100
1000
0100
0010
0001
,
1000
0010
0100
0001
1000
0010
01M0
01M0
,
0001
1000
0010
1000
0001
0010
0001
1000
,
0010
0100
0001
1000
0100
0010
0001
1000
,
0010
0100
0001
1000
0010
0100
0001
1000
,
0001
0010
0100
1000
0001
0010
0100
1000
,
0002
0000
2003
0000
3020
0000
0230
0000
0301
1000
0001
1000
0010
0000
1000
0000
,
1MM1
0000
0000
MM11
0000
0000
1MM1
0000
0000
1M1M
0000
0000
1MM1
0000
0010
0000
,
0200
0000
0000
0301
1M00
0010
0100
0001
,
0010
0001
0010
0001
0010
0000
0001
0000
1000
0000
0010
0000
0100
0000
0001
0000
,
2000
0000
0000
3010
M100
0001
1000
0001
,
1000
0010
1000
0000
0010
0000
0100
0000
0001
0000
1000
0000
0001
0000
0010
0000
,
0200
0000
0000
1300
0M10
0100
0001
1000
,
0001
0010
0001
0010
0001
0000
1000
0000
0010
0000
0100
0000
0001
0000
1000
0000
,
0020
0000
0000
0130
00M1
1000
0001
0010
,
0100
1000
0100
1000
0100
0000
0001
0000
0100
0000
1000
0000
0010
0000
0100
0000
,
0002
0000
0000
0013
010M
1000
0010
0100
,
0001
1000
0001
1000
0010
0000
0100
0000
0001
0000
0010
0000
0100
0000
1000
0000
,
0002
0000
0000
0103
001M
1000
0010
0100
,
0001
1000
0001
0000
0100
0000
0010
0000
1000
0000
0001
0000
0010
0000
0100
0000
,
0020
0000
0000
0130
10M0
0001
0100
0010
,
1000
0010
1000
0010
0100
0000
0001
0000
1000
0000
0001
0000
0010
0000
0100
0000
,
2000
0000
0000
3010
M100
0001
1000
0010
,
0100
0010
0100
0010
0100
0000
0001
0000
1000
0000
0010
0000
0100
0000
0001
0000
,
0020
0000
0000
0130
10M0
0001
0100
0010
,
1000
0001
1000
0001
1000
0000
0010
0000
0001
0000
0010
0000
1000
0000
0001
0000
,
0020
0000
0000
0130
10M0
0010
0100
0001
,
1000
0001
1000
0000
0010
0000
0100
0000
0001
0000
0010
0000
0100
0000
0010
0000
,
0002
0000
0000
1003
001M
0001
0010
1000
,
0001
1000
0001
1000
0001
0000
0010
0000
0100
0000
1000
0000
0010
0000
0100
0000
,
0010
0100
0001
1000
0001
0010
0100
1000
,
0010
1000
0001
1000
0001
0000
0010
0000
0100
1000
0100
0000
0010
0001
1000
0000
,
0020
0000
0000
0000
0000
0000
1030
0000
1000
0001
0000
0001
,
0010
0000
0010
0100
0000
0100
1000
0000
1000
0010
0000
0010
,
0200
0000
0301
0001
0010
0100
1000
0001
,
0100
0000
0010
0000
1000
0001
1000
0001
1000
0000
0010
0000
M22M
0000
0330
0000
,
0001
0000
0000
0010
0000
0001
1000
0000
0010
0100
0000
0000
,
0001
0000
0000
0000
0001
0000
1000
0000
0000
0000
1000
0000
0010
0000
0000
0010
0000
0000
0100
0000
0000
0001
0000
0000
,
1000
0000
0001
0000
0010
0000
0100
0000
1000
0010
1000
0010
1000
0000
0010
0000
,
0100
0001
0100
0001
0100
0000
0001
0000
0010
0000
0100
0000
1000
0000
0010
0000
,
0100
0100
0001
0001
0010
0100
1000
0000
,
0001
0000
0001
0000
1000
0000
0000
0010
0000
0000
0100
0000
0001
1000
0001
1000
,
0001
0000
0000
0010
0000
0000
0010
0000
0000
0000
0100
0000
1000
0000
0000
0000
0001
0000
1000
0000
0000
0000
0000
0000
,
0010
0000
0100
0000
0001
1000
0001
1000
0001
0000
0100
0000
MM1M
0000
0000
0000
,
1000
0000
0000
0000
0000
0000
0000
0000
0001
0000
0000
0000
1000
0000
0000
0000
0000
0000
0000
0000
0010
0000
0000
0000
0100
0000
0000
0000
0000
0000
0001
0000
0000
0000
0000
0000
0100
0000
0000
0000
0000
0000
0000
0000
0000
0010
0000
0000
,
0000
1000
0001
0000
0100
0000
0010
0000
1000
0000
1000
0000
0001
0000
0001
0000
,
0010
0000
0100
0000
1000
0000
0010
0000
0100
0001
1000
0001
1000
0000
0010
0000
,
0100
0001
0001
0010
0100
1000
0010
0100
,
0001
0000
0000
1000
0000
0000
0010
0000
0000
0000
0000
0000
0100
0000
0000
0000
0100
0000
0001
0000
0000
0000
0001
0000
,
0010
0000
0000
0000
0010
0000
1000
0000
0000
0000
1000
0000
0010
0000
0000
0001
0000
0000
0100
0000
0000
0100
0000
0000
,
0010
0000
1000
0000
0001
0000
1000
0000
0000
1000
0000
0000
0010
0000
0000
0100
0000
0000
0001
0000
0000
1000
0000
0000
,
0001
0000
0010
0000
0100
1000
0100
1000
0100
0000
0010
0000
MMM1
0000
0000
0000
,
0100
0000
0000
0000
0000
0000
0010
0000
0000
1000
0000
0000
0010
0000
0000
1000
0000
0000
0010
0000
0000
0000
0100
0000
,
0001
0000
0100
0020
0000
0000
1030
0000
0001
0200
0000
0000
,
0301
0000
1000
0000
0001
0000
1000
0000
0010
0100
0001
0100
0001
0000
1000
0000
,
0010
0010
0100
0001
0010
0100
1000
0010
,
0100
0000
0000
0001
0000
0000
1000
0000
0000
0000
0001
0000
1000
0000
0000
0010
0000
0000
0100
0000
0000
0000
0000
0000
,
0001
0000
0000
0000
0000
0000
0000
0000
1000
0000
0000
0000
0001
0000
0000
0000
0000
0000
0000
0000
0000
0100
0000
0000
0000
0000
0000
0000
0000
0000
0010
0000
0000
0000
0000
0000
1000
0000
0000
0000
0000
0000
1000
0000
0000
0000
0000
0000
,
0010
0100
0001
0010
0001
0100
0010
0000
,
0010
0000
0000
0000
1000
0001
1000
0001
1000
0000
0010
0000
M1MM
0000
0000
0000
,
0001
0000
0000
0000
0001
0000
0010
0000
0000
0000
0010
0000
0100
0000
0000
1000
0000
0000
0010
0000
0000
0100
0000
0000
,
0001
0100
0010
1000
0001
0001
0010
0010
,
0100
0000
0000
0000
0100
0000
1000
0000
0000
0000
1000
0000
0001
0000
0000
0000
0010
0000
0000
0000
0000
1000
0000
0000
,
0010
0000
0000
0100
0000
0000
0001
0000
1000
0000
0010
0000
0100
0000
0001
0000
,
0010
0000
0000
0001
0000
0000
1000
0000
0000
0010
0000
0000
0100
0000
0100
0000
,
0020
0000
0000
1030
00M1
0010
0100
1000
,
0001
1000
0001
1000
0001
0000
1000
0000
0010
0000
0100
0000
0001
0000
1000
0000
,
0020
0000
0000
0130
00M1
0010
0100
1000
,
0010
1000
0010
0000
0100
0000
0001
0000
0010
0000
0001
0000
1000
0000
0010
0000
,
0200
0000
0000
0301
1M00
0001
0010
0001
,
1000
0001
1000
0001
1000
0000
0010
0000
0100
0000
0001
0000
0010
0000
0001
0000
,
0200
0000
0000
0310
1M00
0001
0010
0100
,
1000
0001
1000
0001
1000
0000
1001
0000
0001
1000
0001
1000
0001
0000
1001
0000
,
1000
0001
1000
0001
1000
0000
1001
0000
0001
0000
0100
0000
1000
0000
0010
0000
,
M22M
0000
0000
0000
,
0000
0000
0000
0000
,
0330
0000
0000
0000
;

//---------------dance-single - Blank----------------
#NOTES:
     dance-single:
     Blank:
     Medium:
     9:
     0.732,0.714,0.090,0.215,0.243:
0000
0000
0000
0000
,
0010
0100
0001
1000
0010
1000
0001
1000
,
0010
1000
0001
0100
0010
0100
0001
0100
,
0010
0100
0001
1000
0001
0010
0001
1000
,
0001
0010
0100
1000
0001
1000
0100
1000
,
0MM1
1000
0001
1000
0001
0000
1000
0000
0010
0000
0100
0000
0010
0000
1000
0000
,
0MM1
0100
0001
0100
0001
0000
1000
0000
M01M
0100
0010
0100
0010
0000
1000
0000
,
1MM1
M1M1
1MM1
11MM
,
0010
0000
0000
1001
0000
0000
0100
0000
0000
1001
0000
0000
0010
0000
1000
0000
,
0001
0001
0010
0100
1000
0000
0010
0000
,
0100
0001
1000
0001
0100
0001
1000
0010
,
0100
0100
0001
0010
0100
0000
1000
0000
,
0010
0100
1000
0100
0010
0100
1M00
1M00
,
0001
0000
0100
0000
0010
1000
0001
1000
,
0010
0100
0001
0100
0001
0001
0010
0010
,
0100
1000
0001
1000
0100
1000
0010
1000
,
0010
0000
0000
0100
0001
0100
M0M2
0000
0000
2MM3
0000
0000
,
32MM
0000
0000
0320
0000
0000
0031
1000
0001
1000
0000
0000
,
0010
0000
0000
0010
0000
0000
0100
0000
0001
0000
0000
0000
0010
0000
0000
0000
,
1000
0001
0100
0000
0010
0100
0010
0000
,
1000
0000
0000
0000
0001
0000
0100
0000
0001
1000
0001
0000
0100
0000
0010
0000
,
1000
0000
0000
0000
0100
0000
0000
0000
0010
0000
0000
0001
0000
0000
0010
0000
,
0001
0000
0000
1000
0000
0000
0010
0100
0010
0100
0000
0000
,
0001
0000
0000
0000
0000
0000
1000
0000
0000
1000
0000
0000
0001
0000
0000
0000
0000
0000
0100
0000
0010
0000
0100
0000
,
0010
0000
0001
1000
0010
0100
0010
0100
,
00M1
1000
0010
1000
0001
1000
0010
1000
,
0001
0100
0010
0100
0001
0100
0010
0100
,
0001
0010
0001
1000
0001
0010
0001
1000
,
0010
0100
0010
1000
0010
0100
0M10
0M10
,
2000
3002
0013
0100
,
1000
0010
0200
0302
,
2003
3002
0013
0100
,
1000
0000
0010
0000
0100
0000
0001
1000
,
0010
0000
0100
0000
0001
0000
1000
0000
0001
1000
0001
1000
0001
0000
0000
0000
,
0100
1001
0010
1001
,
M2MM
0000
0000
0300
0001
1000
0010
1000
,
0001
0010
0100
1000
0010
0100
0001
1000
,
MM2M
0000
0000
0030
0100
0001
1000
0001
,
0010
1000
0010
0001
0100
0010
1000
0001
,
2MMM
0000
0000
3000
0010
0100
0001
1000
,
0001
0010
0100
0010
0001
1000
0010
0100
,
MMM2
0000
0000
0003
1000
0010
0100
0001
,
1000
0000
0001
0000
0010
0000
0100
0000
1000
0001
1000
0000
0010
0000
0001
0000
,
MM2M
0000
0000
0030
1000
0001
0010
0100
,
0010
0001
1000
0010
0100
0001
1000
0100
,
MM2M
0000
0000
0030
0001
1000
0010
1000
,
0010
0100
0001
0010
0100
1000
0010
0100
,
MMM2
0000
0000
0003
1000
0001
0010
0001
,
1000
0010
0100
0001
0010
0100
1000
0010
,
M2MM
0000
0000
0300
0010
0100
0001
0100
,
0010
0000
1000
0000
0001
0000
0010
0000
0100
1000
0100
0000
0010
0000
0001
0000
,
2MMM
0000
0000
3000
0010
0100
0001
0100
,
0010
1000
0001
0010
0100
0001
0100
0010
,
MMM2
0000
0000
0003
1000
0010
0100
0001
,
0100
1000
0100
0001
0010
1000
0010
0001
,
2MMM
0000
0000
3000
0010
0100
0001
0100
,
1000
0100
0010
1000
0001
0010
0100
1000
,
0010
0100
0010
0100
0001
0100
0010
1000
,
0001
1000
0001
0000
0100
0000
0010
0000
1000
0001
1000
0000
0010
0000
0100
0000
,
0002
0000
0000
0003
0000
0000
0010
0000
0010
1000
0000
1000
,
0001
0000
0001
0010
0000
0010
0001
0000
0001
1000
0000
1000
,
0020
0000
0230
0000
0301
1000
0001
1000
,
0010
0000
0100
0000
0001
0000
0100
0001
0100
0000
0001
0000
1MM1
0000
0000
0000
,
0100
0000
0000
0010
0000
0010
1000
0000
1000
0001
0000
0000
,
0010
0000
0000
0000
0010
0000
0001
0000
0000
0000
0001
0000
1000
0000
0000
0001
0000
0000
1000
0000
0000
0010
0000
0000
,
0100
0010
0100
0010
1000
0001
0100
0010
,
1000
0010
1000
0000
0001
0000
0010
0000
0100
0000
0010
0000
0001
0000
1000
0000
,
0010
0000
0000
0000
0010
0000
0100
0000
0000
0001
0000
0000
0100
0000
0000
0001
0000
0000
2000
0000
0000
0000
0000
0000
,
3100
0000
0001
0000
0100
0000
0000
0010
0000
0000
1000
0000
0001
0000
0100
0000
,
0010
0000
0000
1000
0000
0000
0010
0000
0000
0000
0010
0000
0100
0000
0000
0000
0100
0000
0001
0000
0000
0000
0000
0000
,
0010
0000
0000
0000
0001
0000
0100
0001
0100
0000
0010
0000
M11M
0000
0000
0000
,
1000
0000
0000
0000
1000
0000
0100
0000
0000
0000
0100
0000
0010
0000
0000
0000
0000
0000
0001
0000
0000
1000
0000
0000
,
0001
0100
0010
1000
0010
0000
0100
0000
,
0001
0000
1000
0000
0001
0000
1000
0000
0010
0000
0100
0010
0100
0000
0000
0000
,
0001
0100
0010
1000
0001
0010
0001
1000
,
0010
0000
0000
0100
0000
0000
0001
0000
0001
1000
0000
1000
,
0010
0000
0000
0000
0010
0000
0100
0000
0000
0000
0100
0000
0001
0000
0000
0000
0000
0000
0010
0000
0000
0001
0000
0000
,
1000
0010
1000
0010
0100
0001
0100
0010
,
1000
0000
0001
0000
0010
0000
0001
0010
0001
0000
1000
0000
1MM1
0000
0000
0000
,
0010
0000
0000
0000
0000
0000
0100
0000
0000
0001
0000
0000
0100
0000
0000
0001
0000
0000
0010
0000
0000
0000
0010
0000
,
0001
0000
0001
1000
0000
0000
0010
0000
0010
0100
0000
0000
,
0001
0000
1000
0000
0001
0000
1000
0000
0010
0000
0100
0001
0100
0000
0010
0000
,
1000
0000
0001
1000
0001
0000
0010
0000
0100
0000
1000
0000
0010
0000
0100
0000
,
0001
0000
0000
0010
0000
0010
0001
0000
0001
1000
0000
0000
,
0010
0000
0000
0000
0000
0000
0000
0000
0010
0000
0000
0000
0100
0000
0000
0000
0000
0000
0000
0000
0000
0001
0000
0000
0000
0000
0000
0000
0000
0000
1000
0000
0000
0000
0000
0000
0010
0000
0000
0000
0000
0000
0100
0000
0000
0000
0000
0000
,
0001
0100
0010
0100
0010
1000
0001
0010
,
0001
0000
0000
0000
0100
0000
0001
1000
0001
0000
1000
0000
1M1M
0000
0000
0000
,
0100
0000
0000
0000
0100
0000
0001
0000
0000
0000
0001
0000
1000
0000
0000
0000
0000
0000
0010
0000
0000
0100
0000
0000
,
0001
1000
0001
0100
0010
0000
1000
0001
,
1000
0000
0000
0000
0000
0000
0000
0000
1000
0000
0000
0000
0001
0000
0000
0000
0000
0000
0000
0000
0001
0000
0000
0000
0100
0000
0000
0000
0000
0000
0000
0000
0000
0010
0000
0000
0000
0000
0000
0000
0000
0000
1000
0000
0000
0000
0000
0000
,
0001
0000
0000
0100
0000
0000
0010
0000
1000
0000
0001
0000
0010
0000
0001
0000
,
1000
1000
0001
0001
,
M2MM
0000
0000
0300
0001
1000
0001
1000
,
0010
0100
0001
0010
0001
1000
0010
0100
,
MMM2
0000
0000
0003
1000
0001
1000
0001
,
0010
0100
1000
0010
0100
0001
1000
0010
,
M2MM
0000
0000
0300
0001
1000
0001
1000
,
0010
0100
0001
0010
0001
1000
0010
0100
,
MMM2
0000
0000
0003
0010
0100
1000
0001
,
0100
0010
0100
0000
0001
0000
1000
0000
0010
0100
0010
0000
1000
0000
0001
0000
,
0100
0010
0100
0000
0001
0000
1000
0000
0010
0100
0010
0000
1000
0000
0001
0000
,
2002
0000
0000
0000
,
0000
0000
0000
0000
,
3003
0000
0000
0000
;

//---------------dance-single - Blank----------------
#NOTES:
     dance-single:
     Blank:
     Easy:
     8:
     0.677,0.572,0.076,0.194,0.035:
0000
0000
0000
0000
0000
0000
0010
0100
,
0001
2000
0MMM
0000
3010
0000
0001
0000
,
0010
1000
0001
0010
,
1000
0010
0001
0100
,
1000
0000
0010
0000
0100
0000
0001
1000
,
0MM1
1000
0010
0100
0001
0100
0010
1000
,
0MM1
0010
0001
1000
0M1M
0100
0001
1000
,
0M10
1000
0M01
0010
0M01
1000
001M
0100
,
0001
0000
0000
1000
0000
0000
0001
0000
0000
1000
0000
0000
0001
0000
0100
0000
,
0010
1000
0010
1000
0010
0000
0100
0000
,
0001
1000
0001
0010
,
0100
1000
0100
0010
0001
0000
1000
0000
,
0010
0000
0100
0000
0001
0000
0M10
1M00
,
1001
0010
0100
1000
,
0001
0000
0100
0000
0010
1000
0010
0001
,
0010
1000
0001
0010
,
1100
0000
0000
0010
0000
0100
0020
0000
0000
2030
0000
0000
,
3002
0000
0000
0000
0013
0100
0010
0000
,
0002
0000
0000
0000
0103
0010
0100
0000
,
0001
2000
0000
3000
0010
0100
0010
0000
,
1000
0000
0001
0100
0010
1000
0010
1000
,
0001
0000
0000
0000
0010
0000
0000
0000
0100
0000
0000
1000
0000
0000
1000
0000
,
0001
0000
0000
0200
0000
0000
0000
0000
0000
0300
0000
0000
0010
0000
0000
0000
1000
0000
0001
0000
0000
0000
0000
0000
,
0010
0000
0000
0000
0000
0000
0100
0000
0000
1000
0000
0000
0100
0000
0000
0000
0000
0000
0010
0000
0000
0000
0001
0000
,
0010
0000
0100
1000
0001
1000
0010
0100
,
0010
1000
0001
0100
0000
0001
1000
0100
,
0000
1000
0001
0010
0001
1000
0010
0100
,
0001
1000
0010
1000
0000
0001
0010
0001
,
0000
0100
0010
1000
0001
0010
0M01
1M00
,
0010
0100
0001
1000
0000
0010
0100
0001
,
0000
1000
0001
0010
0001
1000
0010
0100
,
0001
1000
0010
1000
0000
0001
0010
0001
,
0000
0100
0001
1000
0001
0010
0001
1000
,
0010
0100
0001
1000
0001
0100
0010
1000
,
1001
0011
1001
1100
,
0020
0000
0000
0000
0031
1000
0001
1000
,
0010
0100
0001
0100
0010
1000
0010
1000
,
0002
M000
0000
0000
0013
0100
0010
0100
,
1000
0010
0100
0001
0100
0010
1000
0001
,
0020
000M
0000
0000
0130
1000
0001
1000
,
0010
0100
0001
0100
1000
0100
0010
0100
,
0020
0M00
0000
0000
1030
0001
1000
0001
,
0010
0100
0010
0001
1000
0010
0100
0001
,
2000
000M
0000
0000
3100
0010
0100
0010
,
0001
0010
1000
0010
0001
0100
0010
1000
,
0020
M000
0000
0000
0130
0001
0100
0001
,
1000
0001
0010
1000
0010
0001
1000
0010
,
0200
00M0
0000
0000
0301
1000
0001
1000
,
0010
0100
0001
0100
0010
1000
0001
0010
,
0002
00M0
0000
0000
0103
0001
0100
0001
,
0100
0010
1000
0001
0010
0001
1000
0010
,
0200
00M0
0000
0000
0301
1000
0001
1000
,
0010
0100
0001
0010
1000
0010
0001
1000
,
0020
M000
0000
0000
0130
0001
0100
0001
,
0100
0010
1000
0001
0010
0100
0010
0001
,
2000
000M
0000
0000
3010
0100
0010
1000
,
0010
0100
0001
0100
0001
0010
0001
1000
,
0020
M000
0000
0000
0130
0001
0100
0001
,
1000
0100
0001
0100
1000
0010
0100
0001
,
2000
0000
3000
0000
0010
0100
0001
0100
,
0010
1000
0001
1000
0010
0100
0001
0100
,
0020
0000
0230
0000
0301
1000
0001
0010
,
0001
0000
1000
0010
0100
0001
1MM1
0000
,
0010
0000
0100
0001
0100
0001
1000
0000
,
0010
0100
0001
1000
0001
0010
0001
0010
,
0001
1000
0010
0100
0001
1000
0001
0010
,
0100
1000
0010
0100
0001
0100
0010
1000
,
0001
0000
0010
0001
0010
0001
1000
0000
,
0010
0000
0100
0000
0010
0000
0000
1000
0000
0000
0001
0000
0010
0000
0001
0000
,
1000
0010
0100
0010
0100
0001
1000
0001
,
0010
0000
0100
1000
0010
0100
M1M1
0000
,
1000
0001
1000
0001
1000
0000
0010
0100
,
0001
0100
0010
1000
0001
0010
0001
0010
,
0001
0100
0010
1000
0001
1000
0001
0100
,
0010
1000
0001
1000
0001
0010
0001
1000
,
0010
0000
0100
0000
0001
1000
0001
1000
,
0010
1000
0001
1000
0010
0000
0100
0001
,
0100
0010
0100
0000
0001
0010
0001
1000
,
0001
1000
0010
0100
0001
1000
11MM
0000
,
0010
0000
0001
0100
0001
0100
0001
1000
,
0001
1000
0010
0000
0100
0001
1000
0000
,
0010
0100
0001
1000
0001
1000
0010
1000
,
0001
0010
0001
0010
0100
1000
0100
1000
,
0001
0000
0100
0010
1000
0010
0100
0000
,
0001
0000
0000
0000
0100
0000
0000
0010
0000
0000
0010
0000
1000
0000
0001
0000
,
0010
0001
0100
0010
0100
0010
1000
0000
,
0001
0000
0010
0100
1000
0001
M1M1
0000
,
0010
1000
0001
1000
0001
0000
0010
0001
,
1000
0001
1000
0010
0100
0001
0100
0001
,
1000
0000
0000
0010
0000
0000
0100
0000
0000
0001
0000
0000
0100
0000
0000
0000
0001
0000
0000
0000
0000
1000
0000
0000
,
0100
0000
0000
0010
0000
0000
0001
0000
1000
0000
0010
0000
0100
0000
0001
0000
,
1000
0001
0100
0010
,
2000
0000
0000
0000
3010
0100
0010
0100
,
0001
1000
0001
0010
0100
0010
0001
1000
,
0020
M000
0000
0000
0130
0001
0100
0001
,
1000
0001
0010
1000
0010
0001
1000
0010
,
0200
00M0
0000
0000
0301
1000
0001
1000
,
0010
0100
0001
0010
0100
1000
0100
0001
,
0200
000M
0000
0000
1300
0010
0100
0001
,
1000
0001
0100
0010
1000
0001
0100
0010
,
1000
0100
0001
0100
1000
0010
0100
0001
,
2002
0000
0000
0000
,
0000
0000
0000
0000
,
3003
0000
0000
0000
;

//---------------dance-single - Blank----------------
#NOTES:
     dance-single:
     Blank:
     Beginner:
     3:
     0.270,0.280,0.104,0.000,0.000:
0000
0000
0000
0000
,
0110
0000
0001
0001
,
0001
0000
1000
1000
,
1000
0000
0010
0010
,
0010
0000
0100
0100
,
0001
1000
0001
1000
,
0010
0100
0010
0100
,
0001
1000
0010
0100
,
0110
0000
0000
0000
,
0100
0100
0100
0000
,
0001
0000
1000
0000
,
0001
0001
0001
0000
,
0010
0000
0100
1000
,
1001
0000
0010
0000
,
0001
0000
0100
0100
,
0100
0000
1000
0000
,
0010
0100
0110
0110
,
0001
0000
0001
0000
,
1000
0000
1000
0000
,
0010
0000
0100
0000
,
0001
0000
1000
0000
,
0001
0000
0010
0000
,
1000
0000
0100
0000
,
0010
0000
0001
0000
,
1000
0000
0010
0010
,
0100
0000
0001
0000
,
1000
0000
0001
0000
,
0010
0000
1000
0000
,
0100
0000
0010
0010
,
0001
0000
0100
0000
,
0010
0000
1000
1000
,
0001
0000
0100
0000
,
0010
0000
0001
1000
,
1001
0000
0100
0000
,
0010
0010
0100
0100
,
0001
0000
0000
0000
,
1000
0010
1000
0010
,
0100
0000
0000
0000
,
0001
0100
0010
0100
,
1000
0000
0000
0000
,
1000
0010
0001
0100
,
0010
0000
0000
0000
,
0001
1000
0001
1000
,
0110
0000
0000
0000
,
0001
0001
1000
0010
,
0100
0000
0000
0000
,
0001
0010
1000
0100
,
0001
0000
0000
0000
,
1000
0100
0001
0010
,
1000
0000
0000
0000
,
0001
1000
0001
1000
,
1001
0000
0000
0000
,
0100
0010
0001
1000
,
0010
0000
0000
0000
,
0001
0010
1000
0001
,
0100
0000
0000
0000
,
1000
0010
0001
1000
,
0001
0000
1000
0000
,
0001
1000
0001
1000
,
1001
0100
0000
0010
,
0000
1000
0000
0001
,
0000
0010
0000
1000
,
0000
0001
0010
0110
,
0000
0010
0000
1000
,
0000
0001
0000
0010
,
0000
1000
0000
0100
,
0010
0010
1000
0001
,
1001
1000
0000
0010
,
0000
0100
0000
0001
,
0000
0010
0000
1000
,
0000
0001
1000
1001
,
0000
0010
0000
1000
,
0000
0100
0000
0001
,
0000
1000
0000
0010
,
0001
0100
0001
0001
,
1000
0010
0000
1000
,
0000
0010
0000
0001
,
0000
1000
0000
0010
,
0000
0100
0001
1001
,
0000
0010
0000
1000
,
0000
0001
0000
0100
,
0000
0010
0000
1000
,
0010
0001
0001
0010
,
0100
1000
0000
0001
,
0000
0100
0000
0010
,
0000
1000
0000
0100
,
0000
0001
0010
0110
,
0000
1000
0000
0010
,
0000
0100
0000
0001
,
0000
0010
0010
0010
,
1000
0000
0000
0000
,
0001
0001
1000
0010
,
0100
0000
0000
0000
,
0001
0010
1000
0010
,
0001
0000
0000
0000
,
1000
0100
0001
0010
,
0100
0000
0000
0000
,
0001
1000
0010
0100
,
0001
0000
0000
0000
,
1000
1000
0001
0001
,
0100
0010
1000
0001
,
0110
0000
0000
0000
;

//---------------dance-double - Blank----------------
#NOTES:
     dance-double:
     Blank:
     Challenge:
     12:
     0.990,1.000,0.243,0.305,0.936:
00000000
00000000
00000000
00000000
,
00100000
01000000
00M10000
10000000
00010000
01000000
00M10000
00100000
,
00001000
00100000
0001M000
00100000
00001000
00010000
0000M010
00000100
,
00000001
00000100
000010M0
00000100
00000010
00000100
000000M1
00001000
,
00000100
00010000
00001M00
01000000
00100000
10000000
10M10000
01010000
,
00100000
10000000
00010000
10000000
0M010000
00100000
00001000
00100000
00001000
00010000
00000010
00010000
00M01000
00010000
00000100
00001000
,
00000010
00000100
00000001
00000100
000M1000
00000100
00000001
00001000
00000010
00001000
00000100
00001000
000M0100
00000010
00000001
00001000
,
00000100
00000000
00010000
00000000
00001000
00000000
00010000
00000000
00001M00
00000000
00100000
00000000
00010000
00000000
01000000
00000000
00100000
10000000
00100000
10000000
00100000
00000000
01000000
00000000
0001M000
00000000
10000000
00000000
00010000
00000000
00100000
00000000
,
00110000
00000000
00000000
00011000
00M00000
00000000
00001010
00000000
00000000
00000110
00000000
00000000
00M01001
00000000
00001100
00000000
,
00001000
00001000
000M0100
00000010
00000001
00001000
0000001M
00001000
,
00000100
00010000
00001M00
01000000
00100000
10000000
00M10000
00100000
,
01000000
01000000
10M00000
00010000
01000000
00010000
0M100000
00001000
,
00010000
00000100
000M0001
00000100
00001000
00000010
0000M110
00001010
,
00001000
00000001
0000M010
00000001
00001000
00000010
0000M100
00000001
,
00001000
00000100
0010M000
00010000
01000000
01000000
0M100000
00100000
,
10000000
00010000
M0100000
00001000
00010000
00000010
00010M00
00001000
,
01001000
00000000
00000000
0M001000
00010000
00100000
20000000
00000000
00000000
320M0000
00000000
00000000
,
03200000
00000000
00000000
00000000
00000000
00000000
M0310000
00000000
00000000
00000000
00000000
00000000
00001000
00000000
00010000
00000000
00001000
00000000
00M10000
00000000
00000000
00010000
00000000
00000000
,
00000010
00000000
00000000
00001001
000M0000
00000000
00001000
00000000
00000010
00000000
00000100
00000000
0000M010
00000000
00000100
00000000
,
00000002
00002000
00000M00
00000003
00000010
00003010
00000M10
00000000
,
00001100
00000000
00000000
00000000
00011M00
00000000
00001000
00000000
01000000
00100000
10000000
00010000
0M100000
00010000
10000000
00100000
,
02000000
00000000
00020000
00000000
03M00000
00000000
00000000
00000000
00130000
00000000
00000000
00011000
00M00000
00000000
00000010
00000000
,
00002000
00000000
00000000
000000M0
00000000
00000000
00003001
00001000
00000010
0000M200
00000000
00000000
,
00000302
00000000
00000000
00000000
00000000
00000000
00001M03
00000000
00000000
00000100
00000000
00000000
00020000
00000000
00000000
00000000
00000000
00000000
00031M00
00000000
01000000
00000000
00100000
00000000
,
20000000
00000000
00000000
00000000
00000000
00000000
00000000
00000000
00000000
00000000
00000000
00000000
300M1000
00000000
00000000
00000000
01000000
00000000
00000000
00000000
00100000
00000000
00000000
00000000
10000000
00000000
00000000
00100000
00000000
00000000
10000000
00000000
00000000
00100000
00000000
00000000
2M000000
00000000
00000000
00000000
00000000
00000000
30100000
00000000
00000000
00000000
00000000
00000000
,
01000000
00010000
0M100000
00010000
01000000
00001000
0M100000
00001000
,
00010000
00000010
000M0100
00000001
00000100
00001000
000M0100
00000010
,
00000100
00000001
000M1000
00000100
00010000
00001000
010M0000
10000000
,
01000000
00010000
M0100000
01000000
10000000
00100000
M1100000
10010000
,
00100000
00001000
00M10000
00001000
01000000
00100000
1M000000
00010000
,
00100000
00001000
00M00010
00001000
00010000
00000010
000M0100
00000001
,
00001000
00000100
0000M001
00000100
00001000
00000010
0000M100
00000001
,
00010000
00001000
010M0000
10000000
01000000
00010000
1M000000
00010000
,
00100000
00000000
00100000
00000000
M1000000
00000000
01000000
00000000
10000000
00100000
01000000
00010000
M0100000
00001000
00100000
00010000
,
01010000
00000000
00000000
00110000
0M000000
00000000
00101000
00000000
00000000
00011000
00000000
00000000
00M10010
00000000
00000010
00000000
,
00000200
00000000
00000000
00000000
000M0000
00000000
00000000
00000000
00000301
00001000
00000001
00001000
000M0010
00000100
00000001
00000100
,
00000010
00001000
00000100
00001000
000M0100
00000000
00010000
00000000
00001000
00000000
01000000
00000000
001M0000
00000000
10000000
00000000
,
02000000
00000000
00000000
00000000
M0000000
00000000
00000000
00000000
03100000
00010000
00100000
00010000
0M100000
00001000
00010000
00001000
,
00010000
00000100
00010000
00000000
000M0100
00000000
00001000
00000000
00000010
00000000
00000100
00000000
000M0001
00000000
00001000
00000000
,
00000200
00000000
00000000
00000000
0000M000
00000000
00000310
00000001
00001000
00000000
00001000
00000010
000M0000
00000010
00000100
00000010
,
00001000
00000001
00001000
00000001
000M0010
00000000
00000100
00000000
00001000
00000000
00000100
00000000
00M10000
00000000
00001000
00000000
,
02000000
00000000
00000000
00000000
000M0000
00000000
00000000
00000000
03100000
10000000
00010000
10000000
0M010000
00100000
00010000
01000000
,
00100000
10000000
00010000
00100000
M0001000
00000000
00010000
00000000
00000010
00000100
00000010
00000000
000M1000
00000001
00001000
00000000
,
00000200
00000000
00000000
00000000
0000M000
00000000
00000000
00000000
00000310
00000001
00000010
00000001
0000M010
00000001
00001000
00000010
,
00001000
00000010
00000100
00000001
000M1000
00000000
00000100
00000000
00010000
00000000
00001000
00000000
010M0000
00000000
00100000
00000000
,
20000000
00000000
00000000
00000000
0M000000
00000000
00000000
00000000
30010000
01000000
00010000
01000000
0010M000
10000000
00010000
00100000
,
00010000
10000000
00100000
00000000
M1000000
00000000
00010000
00000000
00100000
00000000
00001000
00000000
00M10000
00000000
00000010
00000000
,
00000200
00000000
00000000
00000000
000000M0
00000000
00000310
00000001
00000010
00000000
00000010
00000100
0000000M
00000100
00001000
00000001
,
00001000
00000010
00000100
00000001
0000M100
00000000
00000001
00000000
00001000
00000000
00000100
00000000
00010M00
00000000
00001000
00000000
,
00020000
00000000
00000000
00000000
0000M000
00000000
00000000
00000000
00031000
01000000
00000000
00100000
010M0000
00000000
00100000
10000000
,
00010000
00100000
00010000
00100000
M0001000
00000000
00100000
00000000
00010000
01000000
00010000
00000000
1000M000
00100000
01000000
00000000
,
00020000
00000000
00000000
00000000
0M000000
00000000
00000000
00000000
00130000
00001000
00100000
00001000
M1000000
00010000
01000000
00010000
,
00100000
01000000
10000000
01000000
100M0000
00000000
00100000
00000000
01000000
00000000
00010000
00000000
0M100000
00000000
00001000
00000000
,
00020000
00000000
00000000
00000000
0000M000
00000000
00000000
00000000
00030010
00001000
00000010
00001000
000M0010
00000100
00000010
00000100
,
00000001
00001000
00000001
00000000
00010M00
00000000
00001000
00000000
01000000
00000000
00100000
00000000
1M000000
00000000
00010000
00000000
,
00200000
00000000
00000000
00000000
M0000000
00000000
01300000
10000000
00010000
00000000
00010000
10000000
0M000000
10000000
00100000
01000000
,
00010000
01000000
00010000
00100000
0M010000
00000000
10000000
00000000
00010000
00000000
00100000
00000000
00M01000
00000000
00010000
00000000
,
00000010
00000100
0000M010
00000100
00000001
00001000
000000M1
00001000
,
00000100
00000010
00000100
00000010
0000M100
00000000
00000010
00000000
00000001
00001000
00000010
00000000
00000M01
00001000
00000100
00000000
,
00000011
00000000
00000000
00000002
00000000
00000000
000000M0
00000000
00000000
00000000
00000000
00000000
00001003
00000000
00000010
00000000
00001000
00000000
00000M10
00000000
00001000
00000000
00000100
00000000
,
00010000
00001000
00010000
00M01000
01000000
00100000
10000000
01000000
00100000
010M0000
10000000
00100000
,
02000000
00000000
00000000
00000000
03M10000
00000000
00010000
00000000
00100000
00001000
00000000
00100000
0M010000
00000000
01000000
00000000
,
00100000
00000000
10000000
00000000
0M010000
10000000
00100000
01000000
00010000
00000000
10000000
00000000
20M20000
00000000
30030000
00000000
,
00001000
00000000
00000000
00M10000
00000010
00010000
00000010
00001000
00000010
00020M00
00000000
00000000
,
00030010
00000000
00000000
00000000
00001000
00000000
00000000
00000000
00000010
00000000
00000000
00000000
00M10000
00000000
00000000
00001000
00000000
00000000
00010000
00000000
00000000
00001000
00000000
00000000
00100000
00000000
00000000
00000000
00000000
00000000
00010000
00000000
00000000
00000000
00000000
00000000
010M0000
00000000
00000000
00000000
00000000
00000000
00100000
00000000
00000000
00000000
00000000
00000000
,
10000000
00000000
00010000
00000000
1M000000
00000000
00100000
00000000
01000000
00010000
10000000
00010000
01M00000
00100000
01000000
00010000
,
10000000
01000000
10000000
01000000
100M0000
00000000
00100000
00000000
01000000
00000000
00010000
00000000
0M100000
00000000
00001000
00000000
,
00020000
00000010
00M30100
00000001
00000100
00000001
000M2000
00000000
,
00003100
00000000
00000001
00000000
00001M01
00000000
00000000
00000100
00000000
00000000
00011000
00000000
00001M00
00010000
00001000
00010000
,
00001000
00000000
00000000
01000000
00000000
00000000
00001000
00000000
00000000
01000000
00000000
00000000
00M01000
00000000
00000000
00000000
01000000
00000000
00000000
00000000
00010000
00000000
00000000
00000000
01000000
00000000
00000000
00000000
00100000
00000000
00000000
00000000
01000000
00000000
00000000
00000000
001M0000
00000000
00000000
10000000
00000000
00000000
00100000
00000000
00000000
10000000
00000000
00000000
,
00010000
00100000
00000000
00010000
M1000000
00010000
10000000
00010000
00100000
00000000
00010000
00000000
01M10000
00000000
00000000
00000000
,
00001000
00000000
00000000
00000000
00100000
00000000
00000000
00000000
00001000
00000000
00000000
00000000
00M10000
00000000
00000000
00000000
00000010
00000000
00000000
00000000
00010000
00000000
00000000
00000000
00000100
00000000
00000000
00000000
00000000
00000000
00000100
00000000
00000000
00000000
00000000
00000000
000M1000
00000000
00000000
00000001
00000000
00000000
00000000
00000000
00000000
00000100
00000000
00000000
,
00000000
00000010
00001000
00000000
00000M01
00000000
00001000
00000100
00001000
00000000
00001000
00000000
00000M10
00000000
00000010
00000000
,
00000100
00000000
00000001
00000000
000010M0
00000000
00000001
00000000
00000001
00000010
00000100
00001000
000000M1
00000010
00000100
00001000
,
00000001
00001000
00000010
00000000
0000M100
00000000
00000001
00000000
00010000
00000000
00001000
00000000
010M0000
00000000
00100000
00000000
,
20000000
00000000
00000000
00000000
00000000
00000000
3M100000
00000000
00000000
00100000
00000000
00000000
01000000
00000000
00010000
00000000
00100000
00000000
M0010000
00000000
01000000
00000000
00001000
00000000
,
00010000
00000000
00001000
00000000
00100000
00000000
0M001000
00000000
00010000
00000000
00000010
00000000
00001000
00000000
00000000
00000000
00000000
00000000
000M0001
00000000
00000000
00000001
00000000
00000000
,
00000100
00000000
00000000
00000000
00000010
00000000
00000000
00000000
00000100
00000000
00000000
00000000
0000M020
00000000
00000000
00000000
00000000
00000000
00000000
00000000
00000000
00000000
00000000
00000000
00001030
00000000
00000000
00000001
00000000
00000000
00000000
00000000
00000000
00001000
00000000
00000000
00000M10
00000000
00000000
00001000
00000000
00000000
00000001
00000000
00000000
00001000
00000000
00000000
,
00000100
00000000
00000000
00000000
00001000
00000000
00000000
00000000
00000001
00000000
00000000
00000000
000001M0
00000000
00000000
00000001
00000000
00000000
00001000
00000000
00000000
00000010
00000000
00000000
00000100
00000000
00000000
00000000
00000000
00000000
00000001
00000000
00000000
00000000
00000000
00000000
00001M01
00000000
00000000
00000000
00000000
00000000
00000000
00000000
00000000
00000000
00000000
00000000
,
00000200
00000000
00000000
00000000
00000000
00000000
000103M0
00000000
00000000
00010000
00000000
00000000
00010000
00000000
00000000
00010000
00000000
00000000
00M01000
00000000
01000000
00000000
00001000
00000000
,
01000000
00000000
00100000
00000000
01000000
00000000
00M20000
00000000
00000000
00000000
00000000
00000000
10030000
00000000
01000000
00000000
00100000
00000000
M0010000
00000000
00000000
00010000
00000000
00000000
,
00100000
00000000
00001000
00000000
00M10000
00000000
00000010
00000000
00010000
00001000
00010000
00001000
0M100000
00010000
00100000
00010000
,
01000000
00100000
10000000
00100000
010M0000
00000000
00010000
00000000
10000000
00000000
00010000
00000000
0010M000
00000000
00001000
00000000
,
00010000
00000100
00010000
0000M010
00001000
00000010
00000100
00000001
00000100
0000M010
00000000
00000000
,
00001000
00000000
00000000
00000000
00000001
00000000
00000000
00000000
00001000
00000000
00000000
00000000
000001M0
00000000
00000000
00000000
00000000
00000000
00000000
00000000
00000000
00001001
00000000
00000000
00000000
00000000
00000000
00000000
00000000
00000000
00000010
00000000
00000000
00000000
00000000
00000000
00001M00
00000000
00000000
00000001
00000000
00000000
00001000
00000000
00000000
00000001
00000000
00000000
,
00000100
00000010
00000100
00000010
0000100M
00000000
00000100
00000000
00001000
00000000
00000100
00000000
0001M000
00000000
00001000
00000000
,
01000000
00000000
00100000
00000000
1M000000
00010000
10000000
00100000
01000000
00000000
00010000
00000000
10M10000
00000000
00000000
00000000
,
00100000
00000000
00001000
00000000
00010000
00000000
00M01000
00000000
00010000
00000000
00000010
00000000
00000100
00000000
00000000
00000001
00000000
00000000
0000M100
00000000
00000000
00000010
00000000
00000000
,
00001000
00000001
000M1000
00000100
00010000
00010000
00001M00
00001000
,
01000000
00010000
01000000
00M10000
10000000
00100000
10000000
00000000
10010000
0M000000
00100000
00000000
,
02000000
00002000
000M0000
00000000
00000000
00000000
03M03000
00000000
,
00110000
0010M010
00010100
000M0110
,
00002000
00000000
00000000
00000000
000000M0
00000000
00000000
00000000
00003001
00001000
00000001
00001000
000M0010
00000100
00000010
00001000
,
00000001
00001000
00000100
00001000
000001M0
00000000
00000010
00000000
00000001
00000000
00001000
00000000
000001M0
00000000
00010000
00000000
,
00002000
00000000
00000000
00000000
000M0000
00000000
00000000
00000000
01003000
00010000
01000000
00010000
10M00000
00010000
10000000
00100000
,
01000000
00010000
10000000
00000000
0M010000
00000000
00100000
00000000
00010000
00000000
01000000
00000000
000M1000
00000000
00010000
00000000
,
00000020
00000000
00000000
00000000
00000M00
00000000
00001030
00000001
00001000
00000000
00000010
00000100
0000M000
00000100
00000001
00001000
,
00000001
00000010
00000001
00001000
00000M10
00000000
00000100
00000000
00000001
00000000
00001000
00000000
000001M0
00000000
00010000
00000000
,
00002000
00000000
00000000
00000000
00000M00
00000000
00000000
00000000
00103000
00010000
00000000
10000000
0002M000
00000000
00000000
00030000
,
00100000
00001000
00100000
00001000
0M010000
00000010
00010000
00000010
00100000
00001000
00100000
00001000
000100M0
00000100
00010000
00000100
,
01000000
00001000
01000000
00001000
0M010000
00000010
00010000
00000010
00010000
00001000
01000000
00001000
000100M0
00000100
00010000
00000020
,
00020000
0000M000
00000M00
0000M000
,
00000M00
0000M000
00000M00
0000M000
,
00030M30
00000000
00000000
00000000
;

//---------------dance-double - Blank----------------
#NOTES:
     dance-double:
     Blank:
     Hard:
     10:
     0.846,0.857,0.180,0.215,0.472:
00000000
00000000
00000000
00000000
,
10000000
00001000
M1000000
00001000
0M010000
00001000
001M0000
00001000
,
00M10000
00000001
00010000
0000001M
00010000
000010M0
00010000
0000M100
,
00010000
00001M00
001M0000
00001000
00M10000
00001000
001M0000
00001000
,
00010000
0000M010
00010000
000010M0
00010000
0000M010
00010000
00001000
,
01000000
00001000
01000000
00001000
01000000
00000000
00100000
00000000
10000000
00000000
00010000
00000000
00100000
00000000
00001000
00000000
,
00010000
00000100
00010000
00000100
00010000
00000000
00001000
00000000
00100000
00001000
00100000
00001000
00100000
00000000
00010000
00000000
,
01000000
00100000
10000000
00000000
00100000
01000000
00010000
00000000
10000000
00010000
10000000
00010000
00100000
00000000
00001000
00000000
,
00011000
00000000
00000000
00010100
00000000
00000000
00001001
00000000
00000000
00000110
00000000
00000000
00001001
00000000
00000001
00000000
,
00001000
00000100
00010000
00000100
00010000
00001000
01000000
00010000
,
01000000
00010000
00100000
10000000
00100000
00010000
01000000
00100000
,
10000000
00010000
10000000
00010000
00100000
00001000
00100000
00001000
,
00010000
00000010
00000100
00000001
00001000
00000001
00000020
00000230
,
00001300
00000001
00001000
00000010
00000100
00000001
00001000
00000100
,
00010000
00001000
00010000
00001000
01000000
00100000
10000000
00010000
,
00100000
01000000
10000000
00100000
01000000
00100000
01000000
00010000
,
00110000
00000000
00000000
00100000
00001000
00100000
00002000
00000000
00000000
00023000
00000000
00000000
,
00030020
00000000
00000000
00000000
00000000
00000000
00000100
00000000
00000000
00000000
00000000
00000000
00001030
00000000
00000001
00000000
00001000
00000000
00000001
00000000
00000000
00000100
00000000
00000000
,
00000010
00000000
00000000
00001001
00000000
00000000
00000100
00000000
00000010
00000000
00000100
00000000
00000010
00000000
00001000
00000000
,
00000010
00002000
00000000
00000000
00003100
00001000
00000100
00000000
,
00011000
00000000
00000000
00000000
00001000
00000000
01000000
00000000
00100000
01000000
00100000
01000000
00100000
10000000
00100000
10000000
,
00010000
00000000
00200000
00000000
00000000
00000000
00000000
00000000
00310000
00000000
00000000
00110000
00000000
00000000
00100000
00000000
,
00001000
00000000
00000000
00020000
00000000
00000000
00000000
00000000
00000000
00000000
00000000
00000000
00030010
00000000
00001000
00000000
00000010
00000000
00001000
00000000
00000000
00000010
00000000
00000000
,
00000100
00000000
00000000
00000000
00000000
00000000
00000001
00000000
00000000
00001000
00000000
00000000
00000020
00000000
00000000
00000000
00000000
00000000
00000130
00000000
00000001
00000000
00000100
00000000
,
00000001
00000000
00000000
00000000
00000000
00000000
00001000
00000000
00000001
00000000
00001000
00000000
00000001
00000000
00000000
00000100
00000000
00000000
00000010
00000000
00000000
00001000
00000000
00000000
,
00000100
00010000
00001000
01000000
00001000
00010000
00001000
01000000
,
00100000
10000000
00010000
10000000
00100000
10000000
00010000
00100000
,
00001000
00010000
00000010
00010000
00001000
00010000
00000010
00001000
,
00000100
00001000
00000001
00001000
00000100
00001000
00000002
00002003
,
00003010
00000100
00000001
00000100
00000010
00001000
00000001
00001000
,
00000010
00000100
00000001
00001000
00000100
00000010
00000001
00001000
,
00000100
00010000
00001000
01000000
00001000
00010000
00001000
01000000
,
00100000
10000000
00010000
10000000
00100000
10000000
00010000
01000000
,
00010000
00100000
00001000
00100000
00001000
00010000
00000010
00001000
,
00001001
00000000
00000000
00001100
00000000
00000000
00011000
00000000
00000000
01001000
00000000
00000000
00100000
00000000
10000000
00000000
,
00020000
00000000
00000000
00000000
10030000
001M0000
01000000
00010000
,
10000000
00010000
10000000
00010000
10000000
00000000
00010000
00000000
00100000
00000000
00001000
00000000
00010000
00000000
00000010
00000000
,
00000200
00000000
00000000
00000000
00000301
00001M00
00000010
00001000
,
00000100
00010000
00000100
00000000
00010000
00000000
00001000
00000000
01000000
00000000
00100000
00000000
10000000
00000000
00010000
00000000
,
00200000
00000000
00000000
00000000
00000000
00000000
00310000
00000000
10M00000
00000000
10000000
00100000
00000000
00100000
01000000
00010000
,
01000000
00010000
01000000
00000000
00010000
00000000
00100000
00000000
00010000
00000000
00100000
00000000
00001000
00000000
00010000
00000000
,
00000020
00000000
00000000
00000000
00001030
000000M1
00001000
00000100
,
00010000
00000100
00010000
00000100
00010000
00000000
00001000
00000000
01000000
00001000
01000000
00000000
00100000
10000000
00100000
00000000
,
20000000
00000000
00000000
00000000
30100000
M1000000
00010000
00100000
,
00001000
00100000
00001000
00100000
00001000
00000000
00010000
00000000
00001000
00000000
00010000
00000000
00000010
00000000
00000100
00000000
,
00000002
00000000
00000000
00000000
00001003
0000010M
00001000
00000100
,
00010000
00001000
00010000
00000000
00001000
00000000
01000000
00000000
00100000
00000000
10000000
00000000
00010000
00000000
00100000
00000000
,
02000000
00000000
00000000
00000000
00000000
00000000
13000000
00000000
01000000
00000000
01000000
00100000
00000000
00100000
00010000
10000000
,
00010000
10000000
00010000
10000000
00010000
00000000
01000000
00000000
00100000
00000000
10000000
00000000
00010000
00000000
00100000
00000000
,
00002000
00000000
00000000
00000000
00013000
0000M010
00000100
00000001
,
00001000
00000001
00001000
00000001
00001000
00000000
00000010
00000000
00000100
00000001
00000100
00000000
00000010
00001000
00000010
00000000
,
00000200
00000000
00000000
00000000
00000301
00001M00
00000100
00010000
,
00001000
00010000
00001000
00010000
00001000
00000000
01000000
00000000
00100000
00000000
10000000
00000000
00010000
00000000
00100000
00000000
,
02000000
00000000
00000000
00000000
13000000
01000000
00100000
00010000
,
01000000
00001000
01000000
00000000
00001000
00000000
00010000
00000000
00000010
00000000
00000100
00000000
00000001
00000000
00001000
00000000
,
00000200
00000000
00000000
00000000
00000000
00000000
00000310
00000000
00000M01
00000000
00000001
00001000
00000000
00001000
00000010
00000100
,
00000001
00001000
00000001
00001000
00000100
00000000
00000010
00000000
00000001
00000000
00001000
00000000
00000010
00000000
00010000
00000000
,
00001000
00100000
00010000
00100000
00010000
01000000
00100000
10000000
,
00010000
00100000
00010000
00100000
00010000
00000000
01000000
00000000
00100000
10000000
00100000
00000000
10000000
00010000
00100000
00000000
,
00002000
00000000
00000000
00013000
00000000
00000000
00010000
00000000
00010000
00000010
00000000
00000010
,
00000100
00000000
00000100
00000001
00000000
00000001
00001000
00000000
00001000
00000100
00000000
00000100
,
00020000
00000000
00031000
00001000
00010000
00001000
01000000
00100000
,
10000000
00000000
00000000
00000000
00010000
10000000
00010000
10000000
00010000
00000000
01000000
00000000
M11M0000
00000000
00000000
00000000
,
00100000
00000000
00000000
01000000
00000000
01000000
00010000
00000000
00010000
00100000
00000000
00000000
,
00001000
00000000
00000000
00000000
00001000
00000000
00010000
00000000
00000000
00001000
00000000
00000000
00010000
00000000
00000000
00000010
00000000
00000000
00000100
00000000
00000000
00000001
00000000
00000000
,
00001000
00000000
00000010
00000000
00001000
00000000
00000010
00000000
00000100
00000001
00001000
00000001
00001000
00000000
00000100
00000000
,
00001000
00000100
00001000
00000100
00001000
00000000
00000100
00000000
00010000
00000000
00001000
00000000
01000000
00000000
00100000
00000000
,
10000000
10000000
00100000
01000000
00100000
01000000
00010000
00000000
,
00100000
00000000
00001000
00000000
00010000
00000000
00000000
00010100
00000000
00000000
00001000
00000000
00000100
00001000
00000100
00001000
,
00000100
00000000
00000000
00000010
00000000
00000000
00000001
00000000
00000000
00000000
00000001
00000000
00001000
00000000
00000000
00000000
00001000
00000000
00000100
00000000
00000000
00000010
00000000
00000000
,
00000001
00000000
00001000
00000000
00000001
00001000
00000001
00001000
00000001
00000000
0000M100
00000000
000011MM
00000000
00000000
00000000
,
00001000
00000000
00000000
00000000
00001000
00000000
00010000
00000000
00000000
00000000
00010000
00000000
00001000
00000000
00000000
00001000
00000000
00000000
01000000
00000000
00000000
00100000
00000000
00000000
,
10000000
00010000
00100000
01000000
10000000
10000000
00100000
01000000
,
00010000
00000000
00100000
00000000
00010000
00000000
01000000
00000000
00100000
10000000
00100000
10000000
00100000
00000000
01000000
00000000
,
00010000
00100000
00001000
00000000
00100000
00000000
00001000
00000000
00010000
00000000
00001000
00000000
00010000
00000000
00000010
00000000
,
00000100
00000000
00000000
00000000
00000000
00000000
00000001
00000000
00000000
00000001
00000000
00000000
00001000
00000000
00000000
00000000
00001000
00000000
00000010
00000000
00000000
00000000
00000010
00000000
,
00000100
00000000
00000000
00000000
00000100
00000000
00000001
00000000
00000000
00000000
00000001
00000000
00001000
00000000
00000000
00000000
00000000
00000000
00000100
00000000
00000000
00000100
00000000
00000000
,
00000001
00000000
00000000
00000000
00000001
00000000
00000100
00000000
00000000
00001000
00000000
00000000
00000010
00000000
00000000
00001000
00000000
00000000
00001000
00000000
00000000
00000100
00000000
00000000
,
00010000
00000000
00001000
00000000
01000000
00100000
01000000
00100000
10000000
00000000
00010000
00000000
1MM10000
00000000
00000000
00000000
,
00100000
00000000
00000000
00000000
00000000
00000000
01000000
00000000
00000000
00010000
00000000
00000000
01000000
00000000
00000000
00010000
00000000
00000000
00100000
00000000
00000000
00000000
00100000
00000000
,
00001000
00000000
00000000
00000000
00001000
00000000
00010000
00000000
00000000
00000000
00000000
00000000
00000100
00000000
00000000
00000000
00000100
00000000
00001000
00000000
00000000
00001000
00000000
00000000
,
00000010
00000000
00000100
00000000
00000001
00000000
00001000
00000000
00000001
00000010
00000001
00000010
00000001
00000000
00001000
00000000
,
00000010
00001000
00000010
00001000
00000001
00000000
00001000
00000000
00000100
00000000
00010000
00000000
00001000
00000000
00010000
00000000
,
00001000
00000000
00000000
01000000
00000000
00000000
00100000
00000000
00000000
00000000
00100000
00000000
10000000
00000000
00000000
00000000
10000000
00000000
00010000
00000000
00000000
00000000
00000000
00000000
,
00100000
00000000
00000000
00000000
00000000
00000000
00000000
00000000
00100000
00000000
00000000
00000000
00001000
00000000
00000000
00000000
00000000
00000000
00000000
00000000
00000000
00011000
00000000
00000000
00000000
00000000
00000000
00000000
00000000
00000000
00010000
00000000
00000000
00000000
00000000
00000000
00000010
00000000
00000000
00001000
00000000
00000000
00000010
00000000
00000000
00001000
00000000
00000000
,
00000010
00000100
00000001
00001000
00000010
00001000
00000001
00000010
,
00000100
00000000
00000010
00000000
00000001
00001000
00000001
00001000
00000001
00000000
00001000
00000000
00001M1M
00000000
00000000
00000000
,
00000100
00000000
00000000
00000000
00000100
00000000
00010000
00000000
00000000
00000000
00010000
00000000
00001000
00000000
00000000
00100000
00000000
00000000
00010000
00000000
00000000
10000000
00000000
00000000
,
00100000
10000000
00010000
01000000
00100000
00100000
01000000
01000000
,
00010000
00000000
00010000
00100000
00000000
00100000
00001000
00000000
00011000
00000000
00010010
00000000
,
00000010
00000200
00000000
00000000
00000300
00000000
00000000
00000000
,
00001001
00001100
00010100
01001000
,
00200000
00000000
00000000
00000000
10300000
00M10000
00100000
00010000
,
01000000
00010000
01000000
00010000
01000000
00000000
00010000
00000000
00100000
00000000
00001000
00000000
00010000
00000000
00000100
00000000
,
00020000
00000000
00000000
00000000
00030010
000M1000
00000100
00000010
,
00000001
00001000
00000001
00000000
00000100
00000000
00000010
00000000
00001000
00000000
00000100
00000000
00010000
00000000
00001000
00000000
,
00020000
00000000
00000000
00000000
00000000
00000000
00000000
00000000
00031000
00000000
000M1000
00010000
00000000
00010000
00000100
00010000
,
00000100
00001000
00000100
00001000
00000100
00000000
00000010
00000000
00000001
00000000
00001000
00000000
00000010
00000000
00000100
00000000
,
00000002
00000000
00000000
00000000
00001003
0000001M
00010000
00001000
,
01000000
00001000
01000000
00001000
01000000
00000000
00001000
00000000
00010000
00000010
00010000
00000010
00010000
00000000
00001000
00000000
,
00100000
00001000
00100000
00001000
00100000
00000000
00001000
00000000
00010000
00000100
00010000
00000000
00000010
00010000
00000010
00000000
,
00022000
00000000
00000000
00000000
,
00000000
00000000
00000000
00000000
,
00033000
00000000
00000000
00000000
;

//---------------dance-double - Blank----------------
#NOTES:
     dance-double:
     Blank:
     Medium:
     9:
     0.705,0.607,0.160,0.173,0.090:
00000000
00000000
00000000
00000000
,
01000000
00100000
10000000
00100000
01000000
00010000
00100000
00010000
,
01000000
00100000
10000000
00100000
01000000
00010000
00100000
00001000
,
00100000
00010000
01000000
00010000
00100000
00001000
00010000
00001000
,
00010000
00000010
00000100
00000010
00001000
00000001
00000100
00000010
,
00000120
00000000
00001M30
00000001
00000010
00000001
00001000
00000010
,
00001010
00000000
00000100
00010000
00011M00
00000000
00001000
01000000
,
M11MM000
00000000
1M1M0000
00000000
1MM10000
00010000
00100000
00001000
,
00010000
00000000
00000000
00001000
00000000
00000000
00010000
00000000
00000000
00000100
00000000
00000000
00001000
00000000
00001000
00000000
,
00000010
00000100
00000001
00000100
00000010
00000000
00001000
00000000
,
00000001
00000010
00000000
00000100
00000000
00001000
00000000
00000010
,
00000100
00000001
00000100
00000010
00001000
00000000
00000100
00000000
,
00010000
00001000
00000000
00100000
00000000
00010000
01000000
00100000
,
10000000
00000000
00010000
00000000
00100000
00010000
00000000
10000000
,
00000000
00100000
00000000
01000000
00010000
00100000
00001000
00010000
,
00001000
00000000
00010000
00000000
00000100
00001000
00000000
00000010
,
00001010
00000000
00000000
00001000
00000001
00001000
00000001
00000000
00000000
00000110
00000000
00000000
,
00002000
00000000
00003100
00000000
00000001
00000100
00001000
00000000
,
00000200
00000000
00000301
00000000
00000100
00001000
00000010
00000100
,
00000010
00010000
00001000
00000000
01000000
01000000
01000000
00000000
,
00100000
00000000
10000000
00010000
00100000
00010000
01000000
00100000
,
20000000
00000000
31000000
00000000
00010000
01000000
10000000
00000000
,
02000000
00000000
03010000
00000000
01000000
10000000
00100000
01000000
,
00010000
00000000
00000000
00000000
00000000
00000000
00100000
00000000
00000000
00010000
00000000
00000000
00100000
00000000
00000000
00000000
00000000
00000000
00001000
00000000
00010000
00000000
00001000
00000000
,
00010000
00000000
00000000
00000000
00000000
00000000
00001000
00000000
00010000
00000000
00001000
00000000
00010000
00000000
00000000
00000000
00000000
00000000
00000100
00000000
00000000
00000010
00000000
00000000
,
00000001
00001000
00000010
00000100
00000000
00000001
00000000
00000010
,
00000000
00000100
00000000
00001000
00000010
00000100
00000010
00001000
,
00000100
00010000
00000000
00001000
00000000
01000000
00000000
00100000
,
00000000
10000000
00000000
00010000
00000000
00100000
01000000
10000000
,
00100000
01000000
00010000
01000000
00000000
00100000
00000000
10000000
,
00000000
00010000
00000000
00100000
00001000
00010000
00001000
00010000
,
00000010
00001000
00000000
00000001
00000000
00000100
00000000
00000010
,
00000000
00001000
00000000
00000100
00000000
00000001
00000010
00000000
,
00001000
00000000
00000010
00000000
00010000
00000000
00001000
00000000
01000000
00001000
01000000
00001000
01000000
00000000
00100000
00000000
,
00110000
10010000
10100000
01100000
,
00020000
00000000
00000000
00000000
00130000
00010000
10000000
00010000
,
01000000
00010000
01000000
00100000
10000000
00010000
00100000
00001000
,
00020000
0000M000
00000000
00000000
00031000
00010000
00000010
00000100
,
00000001
00000010
00001000
00000010
00000001
00000100
00000010
00001000
,
00000200
0000M000
00000000
00000000
00001300
00000100
00001000
00000100
,
00010000
00001000
01000000
00100000
00010000
00100000
01000000
00010000
,
20000000
000M0000
00000000
00000000
30100000
10000000
00100000
10000000
,
00010000
00100000
00001000
00010000
00000010
00000001
00000010
00010000
,
00002000
000M0000
00000000
00000000
00013000
00001000
00010000
00001000
,
01000000
00100000
10000000
00010000
00100000
10000000
00100000
00010000
,
02000000
000M0000
00000000
00000000
03100000
10000000
00100000
10000000
,
00010000
00100000
00001000
00100000
00000100
00010000
00000100
00001000
,
00000020
0000M000
00000000
00000000
00000130
00000001
00000100
00000001
,
00001000
00000010
00000100
00000001
00000010
00000100
00001000
00000100
,
00020000
00000M00
00000000
00000000
00031000
01000000
00001000
01000000
,
00100000
10000000
00010000
00100000
10000000
00100000
00010000
01000000
,
00200000
0M000000
00000000
00000000
10300000
00010000
10000000
00010000
,
00100000
00001000
00010000
00000010
00000100
00000001
00000100
00001000
,
00000200
0000M000
00000000
00000000
00000310
00001000
00000010
00001000
,
00000001
00000010
00001000
00000010
00000001
00001000
00000010
00010000
,
00002000
000M0000
00000000
00000000
00013000
00001000
00010000
00001000
,
01000000
00100000
10000000
00010000
00100000
10000000
00100000
00010000
,
02000000
000M0000
00000000
00000000
03100000
10000000
00100000
10000000
,
00010000
10000000
00010000
00000000
00100000
00000000
00001000
00000000
00010000
00000000
00000010
00000000
00000100
00000000
00000001
00000000
,
00002000
00000000
00003010
00000000
00001000
00000001
00000010
00000001
,
00001000
00000010
00000100
00000001
00001000
00000100
00000001
00000100
,
00001000
00000000
00000010
00000000
00001000
00000001
00001000
00000100
,
00010000
00000000
00000000
00000000
00001000
00010000
00001000
00010000
00001000
00000000
00000000
00000000
01MM1000
00000000
00000000
00000000
,
00100000
00000000
10000000
00010000
10000000
00010000
00100000
00000000
,
00010000
10000000
00010000
10000000
00100000
01000000
00010000
00100000
,
00001000
00100000
00001000
00010000
00000010
00000100
00000001
00000010
,
00000100
00001000
00000100
00000010
00000001
00001000
00000010
00000100
,
00000001
00000000
00010000
00001000
00010000
00001000
00010000
00000000
,
00001000
00000000
00010000
00000000
00001000
00000000
00000000
00010000
00000000
00000000
00001000
00000000
01000000
00000000
00100000
00000000
,
10000000
00010000
10000000
00010000
00100000
00010000
01000000
00100000
,
10000000
00000000
00010000
00000000
00100000
00001000
00100000
00001000
00100000
00000000
00000000
00000000
00M11M00
00000000
00000000
00000000
,
00000010
00001000
00000001
00001000
00000001
00000001
00000010
00000100
,
00001000
00000010
00000100
00000001
00000100
00000010
00010000
00001000
,
01000000
00100000
10000000
00010000
00100000
10000000
00100000
00010000
,
01000000
00100000
10000000
00010000
10000000
00010000
00100000
01000000
,
10000000
00000000
00100000
00100000
01000000
00010000
00100000
00001000
,
00100000
00001000
00010000
00000010
00000100
00000000
00000001
00001000
,
00000001
00000000
00000100
00000010
00010000
00000010
00010000
00001000
,
01000000
00000000
00000000
00000000
00100000
10000000
00100000
10000000
00100000
00000000
00000000
00000000
1MM10000
00000000
00000000
00000000
,
00001000
00000000
00100000
00001000
00100000
00001000
00010000
00001000
,
00010000
00000010
00010000
00000010
00000100
00000001
00001000
00000001
,
00000100
00000100
00000010
00000010
00001000
00000001
00000010
00000100
,
00001000
00000100
00000010
00000001
00001000
00000010
00001000
00000010
,
00000100
00000000
00010000
00001000
00010000
00001000
01000000
00000000
,
00001000
00000000
01000000
00000000
00010000
00000000
00000000
00100000
00000000
00000000
00010000
00000000
10000000
00000000
00100000
00000000
,
01000000
00010000
00100000
00001000
00100000
00001000
00010000
00000010
,
00001000
00000000
00000010
00000000
00000100
00000001
00001000
00000001
00001000
00000000
00000000
00000000
0000M11M
00000000
00000000
00000000
,
00001000
00000100
00010000
00001000
00010000
00001000
01000000
00100000
,
10000000
00010000
00100000
01000000
00100000
00010000
10000000
00100000
,
01000000
00000000
00000000
00010000
00000000
00000000
00100000
00000000
00000000
00001000
00000000
00000000
00010000
00000000
00000000
00000000
00011000
00000000
00000000
00000000
00001100
00000000
00000000
00000000
,
00000020
00000000
00000000
00000030
,
00011000
00101000
00010010
01001000
,
00020000
00000000
00000000
00000000
00031000
01000000
00001000
01000000
,
00100000
10000000
00010000
00100000
00010000
00100000
00001000
00010000
,
00000020
000M0000
00000000
00000000
00001030
00000001
00001000
00000001
,
00000010
00001000
00000010
00000001
00001000
00000010
00010000
00001000
,
00020000
0000M000
00000000
00000000
00031000
01000000
00001000
01000000
,
00100000
10000000
00010000
00100000
10000000
00100000
00010000
01000000
,
00200000
0M000000
00000000
00000000
01300000
00010000
01000000
00010000
,
10000000
00010000
10000000
00000000
00100000
00000000
01000000
00000000
00010000
00100000
00010000
00000000
00100000
00000000
00001000
00000000
,
00010000
00001000
00010000
00000000
00000010
00000000
00000100
00000000
00000001
00000000
00000010
00000000
00000100
00000000
00001000
00000000
,
00022000
00000000
00000000
00000000
,
00000000
00000000
00000000
00000000
,
00033000
00000000
00000000
00000000
;

//---------------dance-double - Blank----------------
#NOTES:
     dance-double:
     Blank:
     Easy:
     7:
     0.542,0.536,0.257,0.180,0.014:
00000000
00000000
00000000
00000000
,
01000000
10100000
01000000
00010000
,
00100000
00011000
00100000
00000100
,
00001000
00001001
00000010
00000100
,
00000001
00001100
00000010
00000100
,
00000M01
00000100
00000001
00000100
00000001
00000100
00000001
00000000
,
00001000
00000100
00001000
00000100
00010000
00000100
00010000
00000100
,
00010000
00001000
00010000
00001000
00010000
00001000
00010000
00000000
,
00001000
00000000
00000000
00100000
00000000
00000000
00010000
00000000
00000000
01000000
00000000
00000000
0M100000
00000000
10000000
00000000
,
00010000
00100000
00010000
10000000
00010000
00000000
00100000
00000000
,
00001000
00010000
00000010
00000100
,
00000001
00001000
00000001
00001000
00000010
00000000
00000100
00000000
,
00000001
00000000
00000010
00000000
00000100
00000000
00001000
00000100
,
00000010
00000001
00001000
00000010
,
00000100
00000000
00010000
00000000
00001000
01000000
00001000
01000000
,
00100000
10000000
00010000
00100000
,
11000000
00000000
00100000
01000000
00020000
00000000
00230000
00000000
,
00302000
00010000
00100000
01003000
,
0M020000
00001000
00000100
00030010
,
000010M0
00000020
00000000
00000000
00001030
00000001
00001000
00000000
,
00000100
00000000
00010000
00001000
00010000
00001000
01000000
00000000
,
00020000
10000000
01000000
00130000
,
00M01000
00020000
00000100
00000010
,
00030001
00000000
00001000
00000100
00000010
00000000
00000001
00000100
,
00000010
00000000
00001000
00000001
00001000
00000100
00001000
00000100
,
00010000
00001000
01000000
00100000
,
10000000
00000000
00010000
00000000
00100000
00010000
10000000
00010000
,
10000000
00100000
01000000
00010000
,
00100000
00000000
00001000
00000000
00010000
00000000
00000100
00010000
,
00000100
00001000
00000010
00000100
,
00000001
00000010
00000011
00001001
,
00001100
00000100
00010000
00001000
,
01000000
00000000
00100000
00000000
10000000
00000000
00010000
00100000
,
00010000
00100000
00001000
00010000
00000010
00000100
00000001
00000000
,
00000101
00001100
00001010
00001000
,
00020000
00000000
00031000
01000000
,
00100000
10000000
00100000
10000000
00100000
00000000
01000000
00000000
,
00020000
00000000
00130000
00001000
,
00010000
00000010
00010000
00000010
00001000
00000000
00000010
00000000
,
00000200
00000000
00000301
00001000
,
00000001
00000010
00000100
00000010
00000001
00000000
00001000
00000000
,
00000200
00000000
00001300
00010000
,
00000100
00001000
00000010
00001000
00000001
00000000
00000100
00000000
,
00000020
00000000
00010030
00001000
,
01000000
00100000
01000000
00100000
10000000
00000000
00010000
00000000
,
00200000
00000000
00310000
01000000
,
00001000
00010000
00001000
00010000
00001000
00000000
00010000
00000000
,
00000020
00000000
00000130
00000001
,
00001000
00000100
00000010
00000100
00001000
00000000
00000010
00000000
,
00000200
00000000
00000301
00001000
,
00000100
00010000
00000100
00010000
00001000
00000000
01000000
00000000
,
00200000
00000000
10300000
00010000
,
01000000
00010000
10000000
00010000
01000000
00000000
00010000
00000000
,
00200000
00000000
00301000
00010000
,
00000010
00000100
00000001
00000100
00000010
00000000
00001000
00000000
,
00000200
00000000
00000310
00000001
,
00001000
00000010
00000100
00000001
00001000
00000000
00000100
00000000
,
00020000
00000000
00031000
01000000
,
00100000
10000000
00010000
10000000
00100000
01000000
00010000
00100000
,
00001000
00000000
00011000
00000000
00000000
00001000
00010000
00000000
,
00000100
00000000
00001010
00000000
00000000
00000100
00000001
00000000
,
00001000
00000000
00010100
00000000
00000000
00001000
01000000
00000000
,
00100000
00000000
10000000
00100000
10000000
00100000
M1000000
00000000
,
00010000
00000000
00101000
00000000
00000000
00010000
00000100
00000000
,
00001000
00000000
00010010
00000000
00000000
00000001
00000010
00000000
,
00000100
00001000
00000100
00001000
00000001
00001000
00000001
00001000
,
00000100
00010000
00000100
00010000
00001000
01000000
00100000
10000000
,
00010000
00000000
00110000
00000000
00000000
01000000
00010000
00000000
,
00100000
00000000
00011000
00000000
00000000
00010000
00000010
00000000
,
00000100
00000000
00001001
00000000
00000000
00000010
00000001
00000000
,
00000100
00000000
00000010
00001000
00000001
00000010
0000100M
00000000
,
00000010
00000000
00001001
00000000
00000000
00000001
00000100
00000000
,
00000010
00000000
00011000
00000000
00000000
00000100
00010000
00000000
,
00001000
00000000
01010000
00000000
00000000
00100000
10000000
00000000
,
00010000
00100000
00001000
00100000
00001000
00010000
00000010
00010000
,
00001000
00000000
00000110
00000000
00000000
00000001
00001000
00000000
,
00000100
00000000
00101000
00000000
00000000
00010000
01000000
00000000
,
00100000
00000000
10010000
00000000
00000000
01000000
00010000
00000000
,
00100000
00000000
00001000
00010000
00001000
00010000
0000M010
00000000
,
00000100
00000000
00001001
00000000
00000000
00000010
00000001
00000000
,
00000100
00000000
00011000
00000000
00000000
00000100
00010000
00000000
,
00001000
00000000
01100000
00000000
00000000
00010000
10000000
00000000
,
00010000
00100000
01000000
10000000
00010000
00100000
01000000
10000000
,
00010000
00000000
00101000
00000000
00000000
00010000
00000010
00000000
,
00000100
00000000
00001001
00000000
00000000
00000010
00000001
00000000
,
00000100
00000000
00011000
00000000
00000000
00000100
00010000
00000000
,
00001000
00000000
01000000
00100000
00010000
00100000
010M0000
00000000
,
00010000
00000000
00101000
00000000
00000000
00010000
00000100
00000000
,
00001000
00000000
00000011
00000000
00000000
00000100
00000010
00000000
,
00001000
00000000
00000000
00000001
00000000
00000000
00001000
00000000
00000000
00000001
00000000
00000000
00000101
00000000
00000000
00000000
00001001
00000000
00000000
00000000
00001100
00000000
00000000
00000000
,
0000M020
00000000
00000000
00000030
,
00001000
00000100
00010000
00001000
,
02000000
00000000
03100000
10000000
,
00010000
00100000
00010000
00100000
00001000
00000000
00010000
00000000
,
00000020
00000000
00000130
00000001
,
00001000
00000001
00001000
00000001
00000010
00000000
00000100
00000000
,
00002000
00000000
00003100
00010000
,
00001000
01000000
00100000
01000000
00010000
00000000
10000000
00000000
,
00200000
00000000
01300000
00010000
,
00100000
00001000
00100000
00001000
00010000
00000010
00010000
00000010
,
00010000
00001000
01000000
00001000
00010000
00000010
00001000
00000100
,
00022000
00000000
00000000
00000000
,
00000000
00000000
00000000
00000000
,
00033000
00000000
00000000
00000000
;
