#TITLE:Blood Sugar;
#SUBTITLE:;
#ARTIST:Pendulum;
#TITLETRANSLIT:;
#SUBTITLETRANSLIT:;
#ARTISTTRANSLIT:;
#GENRE:;
#CREDIT:;
#BANNER:;
#BACKGROUND:;
#LYRICSPATH:;
#CDTITLE:;
#MUSIC:blood sugar.ogg;
#OFFSET:-0.346;
#SAMPLESTART:27.226;
#SAMPLELENGTH:12.000;
#SELECTABLE:YES;
#BPMS:0.000=175.954,285.979=179.954,287.979=162.954,289.979=155.954,292.979=149.954,294.000=138.954,295.979=125.954,298.000=114.954,299.000=109.954,300.000=101.954,301.000=95.954;
#STOPS:74.979=0.320
,163.979=0.009
;
#BGCHANGES:;
#KEYSOUNDS:;

//---------------dance-single - Blank----------------
#NOTES:
     dance-single:
     Blank:
     Challenge:
     10:
     0.773,0.912,0.505,0.216,0.257:
0000
0000
0000
0000
,
0000
0000
0000
0000
,
0000
0000
0000
0000
,
0000
0000
0110
2002
,
0000
3003
0011
2020
,
0000
3030
0011
1010
,
0101
0000
1100
0000
0011
0000
0100
1000
,
0001
0000
0010
0000
0100
0000
1000
0000
0010
0000
0100
0000
0001
1000
0001
1000
,
0010
0000
0100
0100
0001
0000
1000
1000
,
0010
0000
0001
0000
0010
0000
1000
0000
1MM1
0000
0000
0000
M10M
0010
0100
0010
,
1000
0010
0100
0000
0101
0000
0010
0010
,
0001
0000
0010
0000
1000
0000
0000
0000
M1M1
0000
0000
0000
1M0M
0010
0100
0010
,
1000
0000
0001
0001
0010
0000
1000
1000
,
0010
0000
0001
0000
0010
0000
1000
0000
11MM
0000
0000
0000
MM10
1000
0001
1000
,
0001
0010
0100
0000
1001
0000
1000
1000
,
0010
0001
0010
1000
1MM1
0000
M11M
0010
,
0010
0100
0010
0010
1000
0010
0100
0010
,
0010
0100
0010
0010
0100
0001
0001
0100
,
0100
0000
0000
0000
0000
0000
0000
0000
0000
0000
0000
0000
0000
0000
0000
0000
0000
0000
0000
0000
0000
0000
0000
0000
0010
0000
0000
0000
0000
0000
0000
0000
0000
0000
0000
0000
0000
0000
0000
0000
0000
0000
0000
0000
0000
0000
0000
0000
0100
0000
0000
0000
0000
0000
0000
0000
0000
0000
0000
0000
0000
0000
0000
0000
0000
0000
0000
0000
0000
0000
0000
0000
0100
0000
0000
0000
0000
0000
0000
0000
0000
0000
0000
0000
0000
0000
0000
0000
0000
0000
0000
0000
0000
0000
0000
0000
0001
0000
0000
0000
0000
0000
0000
0000
0000
0000
0000
0000
0000
0000
0000
0000
0000
0000
0000
0000
0000
0000
0000
0000
0100
0000
0000
0000
0000
0000
0000
0000
0000
0000
0000
0000
0000
0000
0000
0000
0000
0000
0000
0000
0000
0000
0220
0000
0000
0000
0000
0000
0000
0000
0000
0000
0000
0000
0000
0000
0000
0000
0000
0000
0000
0000
0000
0000
0000
0000
0000
0000
0000
0000
0000
0000
0000
0000
0000
0000
0000
0000
0000
0000
0000
0000
0000
0000
0000
0000
0000
0000
0000
0000
0000
0000
,
0000
0000
0000
0000
0330
0000
0000
0000
1000
0010
0100
0001
1000
0000
0000
0000
,
0001
0001
1000
0000
0001
0010
1000
0010
,
0001
0100
M1M1
0000
1MM1
1000
0010
0100
,
0010
0000
1001
0000
0011
0001
0100
0010
,
1000
0000
0001
0000
1MM1
0000
0000
0000
1MM0
0100
1000
0001
0100
0000
0000
0000
,
0010
0010
1000
0000
0001
0010
1000
0010
,
0001
0100
M11M
0000
11MM
1000
0100
0001
,
0100
0000
1010
0000
0010
0010
0100
0001
,
1000
0000
0001
0000
0010
0000
0000
0000
0100
1000
0001
1000
0100
0000
0000
0000
,
0010
0010
0001
0000
1000
1000
0010
0001
,
0010
1000
1MM1
0000
MM11
0001
0100
0010
,
1000
0000
1001
0000
0100
0100
0001
0100
,
1000
0000
0010
0000
M11M
0000
0000
0000
M10M
0001
1000
0001
1000
0000
0000
0000
,
0010
1000
1100
0000
0010
0001
1001
0000
,
0010
0100
1001
0000
1100
0000
0101
0000
,
1010
0000
0000
0000
0011
0000
0000
0000
0001
0100
0010
1000
0001
1000
0100
1000
,
0010
0100
0001
1000
0002
0000
0000
0000
0103
0000
0200
0000
0000
0000
0000
0000
,
0000
0000
0000
0000
,
0000
0000
0000
0000
0310
0010
1000
0010
,
0010
0100
0000
0001
1000
0001
0010
0001
,
0100
0010
1000
0001
0010
0010
0100
0010
,
0010
0001
0000
1000
0010
0100
0001
1000
,
0001
0000
0100
0000
0010
0000
1000
0000
0100
0000
0010
0001
1000
0000
0010
1000
,
0001
0000
1000
0010
0100
0000
0001
1000
0100
0010
0001
0010
0001
1000
0010
0100
,
0001
0100
0001
1000
2200
0000
3300
0000
0010
0000
0010
0000
1000
0000
0010
0000
,
0010
0100
0001
1000
0001
0010
0100
1000
,
0010
1000
0010
0000
0100
0000
0001
0000
1000
0000
0001
0000
0010
0000
0100
0000
,
1000
0010
0100
0001
1000
0100
0010
0100
,
1000
0001
0100
0000
0010
0000
1000
0000
0010
0000
0100
0000
0001
0000
0010
0000
,
0100
1000
0010
0001
0010
1000
0010
0100
,
0001
1000
0100
0000
1000
0000
0010
0000
0100
0000
0001
0000
1000
0000
0001
0000
,
0010
0100
1000
0010
0001
0010
0011
0000
,
1010
0000
1100
0000
0010
0001
1000
0010
,
0100
0001
0010
0100
1000
0010
0001
0010
,
1000
0100
1000
0000
0010
0000
0100
0000
0001
0000
1000
0000
0001
0000
0010
0000
,
1000
0010
0001
0100
0010
1000
0001
1000
,
0100
0010
0001
0000
0010
0000
1000
0000
0010
0000
0001
0000
0100
0000
0010
0000
,
1000
0010
0100
0001
0010
1000
0010
0001
,
1000
0001
1000
0000
0010
0000
0100
0000
0001
0000
1000
0000
0100
0000
0001
0000
,
0100
0000
1000
0000
0010
0000
0100
0000
0001
1000
0010
0100
0001
0100
0010
1000
,
0001
0010
0001
1000
1010
0000
0000
0000
0100
0010
1000
0010
0100
0000
0000
0000
,
0001
0001
0100
0000
1000
1000
0010
0001
,
0010
1000
0100
0000
11MM
0000
0000
0000
M1M1
0000
0001
0000
1000
0000
0010
0000
,
0100
0010
1010
0000
1001
0001
0010
0001
,
1000
0001
0010
0000
11MM
0000
0000
0000
M01M
1000
0001
1000
0010
0000
0000
0000
,
0100
0100
0001
0000
1000
1000
0010
0001
,
0010
1000
0100
0000
1MM1
0000
0000
0000
MM11
0000
0010
0000
0100
0000
1000
0000
,
0001
0100
0110
0000
1001
1000
0010
0100
,
0001
0010
0100
0000
11MM
0000
0000
0000
M01M
1000
0001
1000
0001
0000
0000
0000
,
0100
0100
1000
0000
0100
0100
0010
0001
,
0010
1000
1MM1
0000
MM11
0001
1000
0010
,
0100
0001
1001
0000
0110
0010
1000
0001
,
0010
0000
0100
0000
11MM
0000
0000
0000
1M0M
0001
0100
0001
1000
0000
0000
0000
,
0020
2030
32M0
M302
,
0203
230M
3M20
M032
,
20M3
3002
M023
203M
,
32M0
0020
0001
000M
,
0000
0000
0000
0000
,
0000
0000
0330
0MM0
;

//---------------dance-single - Blank----------------
#NOTES:
     dance-single:
     Blank:
     Hard:
     8:
     0.615,0.594,0.622,0.063,0.000:
0000
0000
0000
0000
,
0000
0000
0000
0000
,
0000
0000
0000
0000
,
0000
0000
1001
0202
,
0000
0303
1001
2200
,
0000
3300
1001
0101
,
1001
0000
1010
0000
1001
0000
0100
0010
,
1000
0001
0100
0010
1000
0010
0100
0001
,
1000
0000
0010
0000
0100
0000
1000
1000
,
0010
0001
0010
0000
1100
0000
0101
0000
,
0010
0001
1000
0000
0010
0000
0100
0100
,
0001
1000
0010
0000
0110
0000
1000
0001
,
0010
0000
0100
0000
1000
0000
0010
0010
,
0001
0010
1000
0000
1001
0000
0101
0000
,
0100
0010
1000
0000
0001
0000
0010
0010
,
0100
1000
0001
0000
1001
0000
0010
0000
,
0100
0010
0000
1000
0001
0100
0010
0000
,
0100
0010
0000
0001
1000
0010
0100
0001
,
0100
1000
0100
0001
0100
0010
MMMM
0000
,
0000
0000
0000
0000
1000
0010
0100
0000
,
0001
0000
0010
0000
0100
0100
1000
0100
,
0001
0000
0101
0000
1010
0000
1000
0001
,
0010
0000
0100
0000
0010
0010
1000
0001
,
0010
0000
1100
0000
1000
0010
0100
0000
,
0001
0000
1000
0000
0010
0010
1000
0001
,
0010
0000
1100
0000
1001
0000
0010
0100
,
0001
0000
1000
0000
0001
0001
0010
1000
,
0010
0001
1000
0000
0010
1000
0001
0000
,
0100
0000
0010
0000
1000
1000
0100
0001
,
0100
0000
1100
0000
1010
0000
0100
0001
,
1000
0000
0010
0000
0100
0100
0001
1000
,
0010
0000
1001
0000
0010
1000
0001
0000
,
0011
1010
0101
1100
,
1001
0110
1001
0011
,
1001
0000
1010
0000
1000
0010
0100
0001
,
1000
0001
0011
0000
0100
0200
0000
0000
,
0000
0000
0000
0000
,
0000
0000
0000
0000
0301
1000
0000
0100
,
0000
1000
0000
0010
0100
0001
1000
0001
,
0010
0000
0100
1000
0001
0100
0000
0010
,
0000
1000
0000
0001
1000
0010
1000
0001
,
0010
0000
0100
1000
0001
0100
0000
0010
,
0000
1000
0100
0001
0100
1000
0010
0100
,
0001
1000
0001
0000
0100
0010
1000
0001
,
0010
0001
1000
0010
0001
0010
1000
0001
,
1000
0000
0110
0000
0001
0100
1000
0100
,
0001
1000
0010
1000
0100
0010
0100
1000
,
0001
0000
0110
0000
0001
0100
1000
0100
,
0001
1000
0001
1000
0100
0010
0100
1000
,
0010
0000
0110
0000
1000
0001
0100
0010
,
0100
0001
0010
0001
1000
0010
0100
0000
,
0101
0000
1001
0000
0010
1000
0001
0010
,
1000
0010
0001
1000
0010
0100
0001
1000
,
0010
0000
1100
0000
0100
0010
0001
1000
,
0001
0100
0010
1000
0001
0010
0100
1000
,
0010
0000
1001
0000
1000
0010
0001
0010
,
1000
0001
1000
0100
0001
0100
1000
0010
,
0100
0000
1001
0000
0010
0001
0010
1000
,
0010
0100
0001
1000
0001
0010
0100
0000
,
1100
0000
1001
0000
0010
1000
0001
0000
,
0100
0000
1000
0000
0100
0001
1000
0001
,
0010
0000
1100
0000
1001
0000
0100
0010
,
1000
0000
0001
0000
0010
0100
1000
0001
,
0100
0000
0110
0000
0010
1000
0001
0000
,
0010
0000
0100
0000
1000
1000
0010
0001
,
0010
0000
1010
0000
1001
0000
0001
0010
,
0100
0000
1000
0000
0010
0100
0001
1000
,
0001
0000
1100
0000
0010
1000
0001
0000
,
0010
0000
0100
0000
1000
1000
0010
0001
,
0010
0000
1001
0000
1100
0000
0100
0010
,
0001
0000
1000
0000
0010
0100
0001
1000
,
0001
0010
1001
0101
,
1001
1100
1001
0011
,
1001
1010
0110
1001
,
1100
0101
0011
1010
,
1001
0010
0110
0000
2002
0000
0000
0000
,
0000
0000
0000
0000
,
0000
0000
3003
0000
;

//---------------dance-single - Blank----------------
#NOTES:
     dance-single:
     Blank:
     Medium:
     7:
     0.568,0.559,0.262,0.604,0.000:
0000
0000
0000
0000
,
0000
0000
0000
0000
,
0000
0000
0000
0000
,
0000
0000
0100
0020
,
0000
0030
0001
2000
,
0000
3000
1001
0110
,
1001
0000
0110
0000
1001
0000
0100
0010
,
0100
0010
0100
0010
0100
0010
2000
0000
,
3002
0000
0023
0000
0230
0000
1300
0100
,
0010
0001
1000
0000
0110
0000
1001
0000
,
1000
0010
0100
0000
0001
0000
0010
0001
,
0010
0001
1000
0000
1010
0000
0020
0000
,
0230
0000
0302
0000
2003
0000
3010
0100
,
0001
1000
0100
0000
1100
0000
1001
0000
,
0010
0001
0010
0000
0001
0000
1000
0010
,
1000
0010
0100
0000
1001
0000
0010
0000
,
0000
0001
0000
0000
1000
0000
0010
0000
,
0000
0100
0000
0000
0001
0000
1000
0001
,
1000
0001
1000
0001
1000
0001
0000
0000
,
0000
0000
2000
3200
,
0320
0000
0032
0000
1003
0010
0100
0001
,
1000
0000
1001
0000
1010
0000
0010
0100
,
0001
0000
1000
0000
0100
0010
0001
0010
,
0100
1100
2000
3002
,
0203
0000
0320
0000
1030
0010
0100
0001
,
1000
0000
0011
0000
1001
0000
0010
1000
,
0001
0000
0100
0000
1000
0100
0010
0100
,
1000
1001
0200
0320
,
2030
0000
3002
0000
0013
0100
0010
0001
,
1000
0000
1010
0000
0110
0000
0100
0001
,
1000
0000
0010
0000
1000
0100
0010
0001
,
0100
0110
0002
0203
,
0320
2030
3200
0302
,
0203
2300
3020
0230
,
0320
0000
0230
0000
0310
0100
0010
0100
,
0010
0100
0010
0000
1000
1000
0000
0000
,
0000
0000
0000
0000
,
0000
0000
0000
0000
0100
0100
0000
1000
,
0000
0001
0000
0100
0000
0010
0100
0000
,
0001
0000
1000
0000
0010
0010
0000
1000
,
0000
0001
0000
0010
0000
0100
1000
0000
,
0010
0000
0100
0000
0001
1000
0001
1000
,
0010
0100
0010
0100
0002
0000
0023
0000
,
0230
2300
3100
0010
,
1000
0000
0001
0000
0010
0000
0100
1000
,
0001
0100
0010
1000
,
0010
0000
0001
0000
0010
0000
1000
0001
,
0010
0100
1000
0001
,
0100
0000
0010
0000
1000
0000
0001
0010
,
0100
0001
1000
0010
,
0100
0000
0001
1000
0001
1000
0010
0100
,
0001
0100
0010
0000
1000
0000
0100
0000
,
0010
0000
0001
0000
1000
0000
0010
0100
,
0001
1000
0100
0001
,
0100
0000
1000
0000
0010
0000
0100
0001
,
1000
0001
0010
1000
,
0001
0000
0100
0000
0010
0000
1000
0010
,
0100
0001
1000
0100
,
0010
0000
0001
1000
0010
1000
0001
0010
,
0001
1000
0010
0000
0002
0000
0023
0000
,
0230
0000
2300
0000
3010
0100
0001
0100
,
0001
0000
1001
0000
1010
0000
0100
0010
,
1000
0000
0001
0000
0010
0100
1000
0100
,
0010
0011
2000
3020
,
0230
0000
0302
0000
1003
0100
0010
0001
,
0100
0000
0110
0000
1010
0000
0001
1000
,
0001
0000
0100
0000
0010
1000
0001
0010
,
0001
0100
2000
3020
,
0230
0000
0302
0000
1003
0100
0010
0001
,
0010
0000
0011
0000
1001
0000
1000
0010
,
0100
0000
0001
0000
1000
0100
0010
0001
,
1000
1010
0002
0203
,
0320
2030
3002
0023
,
0230
2300
3020
0230
,
0302
2003
3020
0230
,
0302
1003
2002
0000
,
0000
0000
0000
0000
,
0000
0000
3003
0000
;

//---------------dance-single - Blank----------------
#NOTES:
     dance-single:
     Blank:
     Easy:
     4:
     0.371,0.419,0.225,0.234,0.000:
0000
0000
0000
0000
,
0000
0000
0000
0000
,
0000
0000
0000
0000
,
0000
0000
0100
0020
,
0000
0030
1000
0002
,
0000
0003
0100
0010
,
1000
0001
0100
0220
,
0000
0000
0330
0001
,
1000
0010
0000
0001
,
0010
2000
0000
3100
,
0001
1001
0000
0010
,
1000
0110
0000
0001
,
1000
0010
0000
1000
,
0010
0200
0000
1300
,
0100
0101
0000
0010
,
0001
1010
0000
1000
,
0001
1000
0001
0100
,
0010
0100
0010
1000
,
0100
0001
0010
0000
,
0000
0000
1000
0010
,
0100
0001
0010
1000
,
0002
0000
1003
0010
,
1100
0000
0001
0100
,
1001
0000
0001
1000
,
0010
0001
0100
0010
,
2000
0000
3001
1000
,
1100
0000
0100
0010
,
0011
1001
0100
1000
,
0001
0010
1000
0010
,
0200
0000
1300
0100
,
0101
0000
0010
0001
,
1010
0000
0001
0100
,
0010
1000
0100
0001
,
0010
1000
0001
0010
,
1000
0100
0001
1000
,
0001
1001
0010
0000
,
0000
0000
0000
0000
,
0000
0000
0100
0100
,
0001
1000
0001
0010
,
1000
0001
0010
0010
,
0001
1000
0100
0001
,
0010
1000
0100
0100
,
0001
1000
0010
0001
,
1001
0110
1000
1000
,
0001
0010
1000
0001
,
0100
0010
0001
0001
,
1000
0010
0100
0001
,
1000
0100
1000
1000
,
0010
0001
1000
0010
,
0100
0001
0010
0010
,
0001
1000
0200
0320
,
0032
2003
3010
0010
,
0001
1000
0100
0001
,
0010
0100
0001
0001
,
1000
0010
0001
1000
,
0100
0010
0100
0100
,
0001
0010
1000
0001
,
0100
0010
1000
1000
,
0100
0001
1001
0110
,
1001
0100
0020
0000
,
0000
0030
1000
0001
,
0200
0000
0310
1000
,
1001
0000
0010
0001
,
1001
0000
0100
0010
,
1000
0001
0010
0100
,
2000
0000
3010
0100
,
1001
0000
0100
0010
,
0011
0000
0001
1000
,
0010
0100
0001
0010
,
0200
0000
1300
0010
,
1001
0000
0100
0010
,
1100
0000
0002
0000
,
2003
0000
3020
0000
,
0230
0000
0302
0000
,
0023
0000
0230
0000
,
1300
0001
2002
0000
,
0000
0000
0000
0000
,
0000
0000
3003
0000
;

//---------------dance-single - Blank----------------
#NOTES:
     dance-single:
     Blank:
     Beginner:
     1:
     0.100,0.102,0.072,0.000,0.000:
0000
0000
0000
0000
,
0000
0000
0000
0000
,
0000
0000
0000
0000
,
0000
0000
0000
0100
,
0000
0000
0000
0010
,
0000
0000
0000
0100
,
0000
0100
0000
0100
,
0000
0000
0000
1000
,
0000
0000
0000
0000
,
0000
0000
0000
0001
,
0000
0000
0000
0010
,
0000
0000
0000
0100
,
0000
0000
0000
0000
,
0000
0000
0000
1000
,
0000
0000
0000
0010
,
0000
0000
0000
0001
,
0000
0000
0000
1000
,
0000
0000
0000
1001
,
0000
0000
0000
0000
,
0000
0000
1000
0000
,
0000
0000
0000
0000
,
0000
0000
0010
0000
,
0000
0000
0001
0000
,
0000
0000
1001
0000
,
0000
0000
0000
0000
,
0000
0000
0010
0000
,
0000
0000
0100
0000
,
0000
0000
0110
0000
,
0000
0000
0000
0000
,
0000
0000
1000
0000
,
0000
0000
0010
0000
,
0000
0000
1001
0000
,
0000
0000
0100
0000
,
0000
0000
0001
0000
,
0001
0000
0001
0000
,
0000
0000
1000
0000
,
0000
0000
0000
0000
,
0000
0000
0001
0000
,
0000
0000
0000
0000
,
0000
0000
0100
0000
,
0000
0000
0000
0000
,
0000
0000
0010
0000
,
0000
0000
0000
0000
,
0000
0000
1000
0000
,
1000
0000
1000
0000
,
0000
0000
0001
0000
,
0001
0000
0001
0000
,
0000
0000
0100
0000
,
0100
0000
0100
0000
,
0000
0000
0010
0000
,
0010
0000
0010
0000
,
0000
0000
1000
0000
,
0001
0000
1000
0000
,
0000
0000
0001
0000
,
1000
0000
0001
0000
,
0000
0000
0100
0000
,
0010
0000
0100
0000
,
0000
0000
0010
0000
,
0100
0000
0010
0000
,
0000
0000
1000
0000
,
0000
0000
0000
0000
,
0000
0000
0010
0000
,
0000
0000
0001
0000
,
0000
0000
1001
0000
,
0000
0000
0000
0000
,
0000
0000
0100
0000
,
0000
0000
1000
0000
,
0000
0000
1001
0000
,
0000
0000
0000
0000
,
0000
0000
0010
0000
,
0000
0000
0100
0000
,
0000
0000
0110
0000
,
0000
0000
1000
0000
,
0000
0000
0001
0000
,
0000
0000
1000
0000
,
0000
0000
0110
0000
;

//---------------dance-double - Blank----------------
#NOTES:
     dance-double:
     Blank:
     Challenge:
     10:
     0.691,0.836,0.370,0.189,0.167:
00000000
00000000
00000000
00000000
,
00000000
00000000
00000000
00000000
,
00000000
00000000
00000000
00000000
,
00000000
00000000
10100000
00220000
,
00000000
00330000
01001000
00200020
,
00000000
00300030
00010100
00101000
,
00010010
00000000
01001000
00000000
00011000
00000000
00010000
00001000
,
00100000
00000000
10000000
00000000
00100000
00000000
00001000
00000000
00010000
00000000
00000010
00000000
00000100
00000001
00001000
00000001
,
00001000
00000000
00000100
00000100
00000010
00000000
00001000
00000010
,
00000001
00000010
00001000
00000000
00001001
00000000
00001100
00000100
,
00010000
00001000
01000000
00000000
00100000
00000000
10000000
01000000
,
00010000
00000000
01000000
00000000
10000000
00000000
00000000
00000000
10100000
00000000
00000000
00000000
00010000
01000000
00100000
01000000
,
00100000
00000000
00010000
10000000
01000000
00000000
10000000
01000000
,
00001000
01000000
10000000
00000000
01010000
00000000
00101000
00001000
,
00010000
00000010
00000001
00000000
00000010
00000000
00001000
00000001
,
00000010
00000100
00000010
00000000
00001100
00000000
00001001
00000001
,
00001000
00000001
00001000
00001000
00000010
00001000
00000001
00001000
,
00001000
00000100
00010000
00010000
00001000
01000000
00100000
10000000
,
00010000
00100000
00001000
00010000
00000010
00000001
00000000
00000000
,
00000000
00000000
00000000
00000000
00110000
00000000
00000000
00000000
10000000
00100000
01000000
00010000
00100000
00000000
00000000
00000000
,
00001000
00010000
00000010
00000000
00001000
00000100
00000001
00000100
,
00001000
00000000
00001010
00000000
00010010
00010000
00001000
01000000
,
00100000
00000000
00010000
00000000
10000000
01000000
00100000
00000010
,
00000100
00000000
00000000
00000000
00000001
00000000
00000000
00000000
00001000
00000010
00000100
00000010
00001000
00000000
00000000
00000000
,
00000001
00000010
00001000
00000000
00000010
00000001
00001000
00000100
,
01000000
00000000
10010000
00000000
00101000
00001000
00010000
00000010
,
00000100
00000000
00000001
00000000
00000010
00001000
00000001
00000100
,
00001000
00000000
00000010
00000000
00001000
00000000
00000000
00000000
00000010
00010000
00000010
00010000
00000010
00000000
00000000
00000000
,
00000100
00010000
00001000
00000000
01000000
00010000
01000000
10000000
,
01000000
00000000
01010000
00000000
00110000
00100000
00001000
00010000
,
00000010
00000000
00000100
00000000
00000001
00000010
00000100
00001000
,
00000010
00000000
00000000
00000000
00000100
00000000
00000000
00000000
00001000
00000100
00000010
00000001
00010000
00000000
00000000
00000000
,
00000001
01000000
00000100
10000000
,
00001000
00100000
00000010
00010001
,
01000100
00000000
00000000
00000000
10001000
00000000
00000000
00000000
00100000
00000010
00010000
00000000
00001000
00100000
00010000
00000000
,
01000000
00010000
10000000
00000000
10100000
00000000
00000000
00000000
01000000
00000000
02000000
00000000
00000000
00000000
00000000
00000000
,
00000000
00000000
00000000
00000000
,
00000000
00000000
00000000
00000000
03010000
00010000
00100000
00001000
,
00010000
00000010
00000100
00000001
00000010
00000100
00001000
00000010
,
00000200
00000000
00000301
00001000
00000010
00000010
00000100
00000001
,
00000010
00000100
00001000
00000100
00010000
00001000
01000000
00100000
,
20000000
00000000
00000000
00000000
30010000
00000000
00100000
00000000
01000000
00000000
10000000
00010000
10000000
00000000
00010000
00100000
,
00010000
00000000
00100000
00001000
00010000
00000000
00001000
00010000
00000010
00000100
00000001
00001000
00000100
00001000
00000001
00000100
,
00000010
00001000
00000001
00000010
00000200
00000000
00000000
00000000
00000301
00000000
00000001
00000000
00001000
00000000
00000010
00000000
,
00000100
00000001
00000100
00001000
00000100
00000001
00000010
00000001
,
00002000
00000000
00003100
00010000
00001000
00001000
01000000
00100000
,
10000000
00100000
00010000
00100000
10000000
00010000
00100000
00001000
,
00020000
00000000
00031000
00010000
00000010
00000010
00000100
00000001
,
00000010
00001000
00000010
00000001
00000100
00000010
00010000
00001000
,
02000000
00000000
03100000
10000000
00010000
00010000
00100000
00001000
,
00010000
00000010
00000100
00000001
00001000
00000001
00001100
00000000
,
00010100
00000000
01001000
00000000
01000000
01000000
00100000
10000000
,
00010000
00100000
00001000
00010000
00000010
00001000
00000001
00000010
,
00000200
00000000
00001300
00000010
00000100
00000100
00000001
00010000
,
00001000
00100000
00010000
01000000
00100000
10000000
00010000
00100000
,
00020000
00000000
01030000
00100000
10000000
10000000
00100000
00010000
,
00100000
10000000
00010000
00100000
00000010
00001000
00000010
00000100
,
00000002
00000000
00000013
00000100
00001000
00001000
00000100
00010000
,
00001000
00000000
01000000
00000000
00100000
00000000
00010000
00000000
00100000
01000000
10000000
00010000
00100000
01000000
10000000
00010000
,
01000000
00100000
10000000
00010000
00200000
00000000
00000000
00000000
01300000
10000000
00010000
01000000
00100000
00000000
00000000
00000000
,
01000000
00001000
00100000
00000000
00001000
00010000
00000010
00000100
,
00000001
00000000
00000011
00000000
00010010
00010000
00001000
01000000
,
00100000
00000000
10000000
00000000
00010000
00100000
10000000
00100000
,
00010000
00000000
00000000
00000000
01000000
00000000
00000000
00000000
00010000
00100000
00001000
00010000
00001000
00000000
00000000
00000000
,
00010000
00000010
00000100
00000000
00000001
00000010
00001000
00000010
,
00000001
00000000
00001001
00000000
00001010
00000010
00000100
00000001
,
00001000
00000000
00000100
00000000
00010000
00001000
01000000
00100000
,
10000000
00000000
00000000
00000000
00100000
00000000
00000000
00000000
01000000
00010000
00100000
00001000
00010000
00000000
00000000
00000000
,
00000010
00001000
00000001
00000000
00000010
00000100
00001000
00000001
,
00000100
00000000
00001100
00000000
00011000
00001000
01000000
10000000
,
01000000
00000000
00010000
00000000
00100000
10000000
00010000
01000000
,
00100000
10000000
01000000
00000100
,
00010000
00000001
00100000
00000010
,
10000000
00001000
01000100
00010001
,
00100010
10001000
00200000
00320000
,
00032000
00003002
00000220
00000000
,
00000000
00000000
00000000
00000000
,
00000000
00000333
00000000
00000000
;

//---------------dance-double - Blank----------------
#NOTES:
     dance-double:
     Blank:
     Hard:
     8:
     0.638,0.627,0.460,0.640,0.000:
00000000
00000000
00000000
00000000
,
00000000
00000000
00000000
00000000
,
00000000
00000000
00000000
00000000
,
00000000
00000000
10010000
02020000
,
00000000
03030000
00110000
00202000
,
00000000
00303000
00011000
00010100
,
00001100
00001010
00000110
00002002
,
00000000
00000000
00003003
00000002
,
00000203
00000000
00000320
00000000
00002030
00000000
00003001
00000010
,
00000100
00001000
00000001
00000000
00000101
00000000
00001100
00000000
,
00000010
00001000
00000001
00000000
00000100
00000000
00001000
00000100
,
00000010
00000001
00001000
00000000
00011000
00000000
02000000
00000000
,
03200000
00000000
20300000
00000000
30020000
00000000
00130000
00010000
,
01000000
00100000
10000000
00000000
10010000
00000000
00110000
00000000
,
00100000
00001000
00010000
00000000
00000010
00000000
00000100
00000001
,
00001000
00000001
00000010
00000000
00001100
00000000
00001001
00000000
,
00000001
00000100
00000000
00000010
00001000
00000010
00001000
00000000
,
00000100
00010000
00000000
00001000
01000000
00001000
01000000
00000000
,
00100000
10000000
00000000
00010000
10000000
00010000
00000000
00000000
,
00000000
00000000
20200000
30300000
02000000
00000000
03020000
00000000
,
20030000
00000000
30200000
00000000
01300000
00010000
00100000
00001000
,
00010000
00000000
00011000
00000000
00010010
00000000
00000100
00000001
,
00001000
00000000
00000010
00000000
00000001
00000010
00000100
00001000
,
00000010
00001010
00002000
00003200
,
00020300
00000000
00032000
00000000
01003000
00010000
10000000
00100000
,
01000000
00000000
01010000
00000000
00110000
00000000
00100000
00001000
,
00010000
00000000
00000010
00000000
00000100
00000001
00001000
00000001
,
00000010
00000100
00001000
00000010
00000200
00000000
00000302
00000000
,
00002003
00000000
00003200
00000000
00010300
00001000
01000000
00100000
,
10000000
00000000
10010000
00000000
00110000
00000000
00100000
00010000
,
10000000
00000000
00100000
00000000
01000000
00010000
00100000
00001000
,
00010000
00011000
00020000
00030020
,
00000230
00000302
00000023
00002030
,
00003020
00000032
00000203
00000320
,
00002030
00000000
00003200
00000000
00010300
00001000
01000000
00100000
,
10000000
00010000
00100000
10000000
10010000
20020000
00000000
00000000
,
00000000
00000000
00000000
00000000
,
00000000
00000000
30030000
00000000
00010000
00100000
00000000
00001000
,
00000000
00010000
00000000
00000010
00000000
00000100
00000001
00001000
,
00000001
00000000
00000010
00000100
00001000
00000001
00000000
00000100
,
00000000
00000010
00000000
00001000
00000000
00000100
00010000
00001000
,
01000000
00000000
00100000
10000000
00010000
00100000
00000000
01000000
,
00000000
10000000
00000000
00010000
01000000
00100000
10000000
00010000
,
00100000
00001000
00010000
00000010
00000100
00000001
00000100
00000001
,
00000000
00001001
00000000
00001100
00000000
00001000
00000100
00010000
,
00001000
00000000
01000000
00100000
10000000
00010000
00100000
00001000
,
00000000
00011000
00000000
00010010
00000000
00000010
00000100
00000001
,
00001000
00000000
00000001
00000010
00000100
00001000
00000010
00000100
,
00000000
00000101
00000000
00001100
00000000
00000100
00010000
00001000
,
01000000
00000000
00100000
10000000
00010000
00100000
00001000
00010000
,
00000000
00010010
00000000
00000010
00000100
00000001
00000010
00000100
,
00001000
00000010
00000100
00000001
00001000
00000100
00010000
00001000
,
00000000
00011000
00000000
01010000
00000000
01000000
00100000
10000000
,
00010000
00000000
00100000
01000000
10000000
00010000
01000000
00100000
,
00000000
01100000
00000000
01001000
00000000
00001000
00010000
00000010
,
00000100
00000000
00000001
00000010
00000100
00001000
00000001
00000100
,
00000000
00000110
00000000
00001100
00000000
00001000
00010000
00100000
,
01000000
00000000
00100000
10000000
00010000
00100000
00000000
00110000
,
00000000
00101000
00000000
00001000
00010000
00000010
00000100
00000001
,
00000010
00001000
00000010
00000001
00000200
00000000
00000320
00000000
,
00002030
00000000
00003002
00000000
00000013
00000100
00001000
00000001
,
00000100
00000000
00000101
00000000
00001100
00000000
00001000
00000100
,
00010000
00000000
00001000
00000000
01000000
00100000
10000000
00010000
,
00100000
11000000
20000000
30200000
,
02300000
00000000
03002000
00000000
00013000
00000100
00001000
00000010
,
00000100
00000000
00000011
00000000
00001010
00000000
00000001
00001000
,
00000100
00000000
00001000
00000000
00000100
00010000
00001000
01000000
,
00100000
11000000
20000000
30200000
,
02300000
00000000
03020000
00000000
00130000
00001000
00010000
00000010
,
00000100
00000000
00000101
00000000
00001100
00000000
00001000
00000001
,
00000010
00000000
00000100
00000000
00000010
00000001
00001000
00000100
,
00010000
00001000
01000000
00000000
02000000
00000000
03200000
00000000
,
20300000
30020000
00230000
00302000
,
00023000
00032000
00003020
00000032
,
00000023
00002030
00023000
02030000
,
23000000
30200000
02000000
00000000
,
00000000
00000000
00000000
00000000
,
00000000
03300000
00000000
00000000
;

//---------------dance-double - Blank----------------
#NOTES:
     dance-double:
     Blank:
     Medium:
     6:
     0.383,0.383,0.009,0.262,0.000:
00000000
00000000
00000000
00000000
,
00000000
00000000
00000000
00000000
,
00000000
00000000
00000000
00000000
,
00000000
00000000
00100000
02000000
,
00000000
00000000
03010000
00200000
,
00000000
00000000
00301000
00010000
,
00000010
00000100
00000001
00002002
,
00000000
00000000
00003003
00000001
,
00000100
00000010
00001000
00000001
,
00000010
00000001
00002000
00000000
00003000
00000000
00000100
00000000
,
00001000
00000010
00002000
00000000
00003000
00000000
00000100
00000000
,
00010000
00001000
00020000
00000000
00030000
00000000
00001000
00000000
,
01000000
00100000
10000000
00010000
,
00100000
00010000
20000000
00000000
30000000
00000000
00100000
00000000
,
01000000
00010000
02000000
00000000
03000000
00000000
00010000
00000000
,
00100000
00001000
00200000
00000000
00300000
00000000
00001000
00000000
,
00010000
00000010
00000100
00000001
,
00000010
00001000
00000100
00010000
,
00001000
01000000
00100000
00000000
,
00000000
00000000
00010000
00100000
,
00001000
00000000
00010000
00000000
00000010
00000000
00000100
00000001
,
00000200
00000000
00000300
00000000
00000001
00000000
00000010
00000100
,
00000020
00000000
00000030
00000000
00000001
00000000
00001000
00000010
,
00002000
00003000
00000100
00010000
,
00001000
00000000
01000000
00000000
00100000
00000000
10000000
00010000
,
20000000
00000000
30000000
00000000
00100000
00000000
01000000
00010000
,
02000000
00000000
03000000
00000000
00010000
00100000
00010000
00100000
,
00001000
00100000
00001000
00000000
00010000
00000000
00000010
00000000
,
00000100
00000000
00000001
00000000
00000010
00000000
00000100
00001000
,
00000200
00000000
00000300
00000000
00000010
00000000
00000001
00001000
,
00000020
00000000
00000030
00000000
00000100
00000000
00000001
00001000
,
00000200
00000300
00010000
00001000
,
01000000
00100000
10000000
00010000
,
00100000
10000000
00010000
01000000
,
00100000
00000000
10000000
00000000
00010000
00000000
00100000
00001000
,
00100000
00001000
00100000
00001000
00200000
00000000
00000000
00000000
,
00000000
00000000
00000000
00000000
,
00000000
00000000
00300000
00000000
00010000
00000000
00000000
00001000
,
00000000
00010000
00000000
00000010
00000000
00000000
00000100
00000000
,
00000001
00000000
00001000
00000000
00000010
00000000
00000000
00001000
,
00000000
00000100
00000000
00010000
00000000
00000000
00001000
00000000
,
01000000
00000000
00100000
00000000
10000000
00000000
00000000
00010000
,
00000000
00100000
00000000
00010000
00000000
00000000
00100000
00000000
,
00001000
00000000
00010000
00000000
00000010
00000000
00000000
00000100
,
00000000
00000001
00000000
00000100
00000000
00000000
00001000
00000000
,
00000100
00000000
00000010
00000000
00000001
00000000
00000000
00000100
,
00000000
00000010
00000000
00010000
00000000
00000000
00001000
00000000
,
01000000
00000000
00100000
00000000
10000000
00000000
00000000
00100000
,
00000000
01000000
00000000
00001000
00000000
00000000
00010000
00000000
,
00000010
00000000
00000100
00000000
00000001
00000000
00000000
00000010
,
00000000
00000100
00000000
00000000
00001000
00000000
00000100
00000000
,
00010000
00000000
00001000
00000000
01000000
00000000
00000000
00100000
,
00000000
10000000
00000000
00010000
00000000
00000000
00100000
00000000
,
00001000
00000000
00010000
00000000
00000010
00000000
00000000
00000100
,
00000000
00000001
00000000
00001000
00000000
00000000
00000001
00000000
,
00000010
00000000
00000100
00000000
00001000
00000000
00000000
00010000
,
00000000
00001000
00000000
01000000
00000000
00000000
00100000
00000000
,
10000000
00000000
00010000
00000000
00100000
00000000
00000000
00001000
,
00000000
00010000
00000000
00000000
00000010
00000000
00000100
00000000
,
00000001
00001000
00000001
00000010
,
00000100
00000000
00001000
00000000
00000010
00000000
00000100
00000001
,
00002000
00000000
00003000
00000000
00000010
00000000
00010000
00001000
,
00020000
00000000
00030000
00000000
00001000
00000000
01000000
00100000
,
02000000
03000000
00010000
10000000
,
00100000
00000000
01000000
00000000
00010000
00000000
00100000
00001000
,
00200000
00000000
00300000
00000000
00001000
00000000
00010000
00000010
,
00002000
00000000
00003000
00000000
00000100
00000000
00000001
00001000
,
00000002
00000003
00000010
00000100
,
00001000
00000000
00000100
00000000
00010000
00000000
00001000
01000000
,
00002000
00000000
00003000
00000000
01000000
00000000
00100000
10000000
,
00020000
00000000
00030000
00000000
00100000
00000000
01000000
10000000
,
00200000
00300000
00100000
10000000
,
00010000
00100000
00001000
00010000
,
00000010
00000001
00000010
00001000
,
00000001
00000100
00010000
00001000
,
01000000
00010000
00200000
00000000
,
00000000
00000000
00000000
00000000
,
00000000
00300000
00000000
00000000
;

//---------------dance-double - Blank----------------
#NOTES:
     dance-double:
     Blank:
     Easy:
     5:
     0.341,0.348,0.225,0.072,0.000:
00000000
00000000
00000000
00000000
,
00000000
00000000
00000000
00000000
,
00000000
00000000
00000000
00000000
,
00000000
00000000
00100000
01100000
,
00000000
00000000
00010000
00110000
,
00000000
00000000
00001000
00010000
,
00000010
00000100
00000001
00002000
,
00000000
00000000
00003000
00000001
,
00001000
00000100
00010000
00001000
,
01000000
00100000
00000000
10000000
,
00100000
00110000
00000000
00100000
,
00001000
00011000
00000000
00000001
,
00000010
00001000
00000001
00000100
,
00000010
00001000
00000000
00000001
,
00000100
00001100
00000000
00010000
,
00001000
01010000
00000000
10000000
,
00000000
00010000
00000000
00000000
10000000
00000000
10000000
00000000
,
00000000
00010000
00000000
00000000
00100000
00000000
00100000
00000000
,
00000000
00001000
00000000
00000000
00010000
00000000
00000000
00000000
,
00000000
00000000
00001000
00000010
,
00000100
00000001
00000010
00001000
,
00010000
00000000
00000100
00010000
,
00011000
00000000
01000000
00010000
,
10010000
00000000
00010000
00100000
,
10000000
00010000
00100000
00001000
,
00010000
00000000
00000100
00001000
,
00001001
00000000
00000010
00000001
,
00000100
00000001
00000100
00000000
00000010
00000000
00001000
00000000
,
00000100
00001000
00010000
01000000
,
00100000
00000000
10000000
00010000
,
01010000
00000000
00010000
00100000
,
00101000
00000000
00001000
00010000
,
00000010
00000100
00000001
00000010
,
00000100
00001000
00000010
00000100
,
00000010
00010000
00001000
01000000
,
00100000
10000000
00020000
00000000
,
00000000
00000000
00000000
00000000
,
00000000
00000000
00030000
00000000
01000000
02000000
00000000
00000000
,
00000000
00000000
00000000
00000000
,
00000000
00000000
03000000
00000000
00001000
00002000
00000000
00000000
,
00000000
00000000
00000000
00000000
,
00000000
00000000
00003000
00000000
00000010
00000010
00000000
00000100
,
00000000
00000001
00000000
00000000
00001000
00000000
00000010
00000000
,
00000100
00010000
00100000
10000000
,
00010000
00100000
00001000
00010000
,
00000010
00000110
00000001
00000010
,
00000100
00001000
00000100
00010000
,
00001000
01001000
01000000
00100000
,
10000000
00010000
00100000
00001000
,
00010000
00010010
00000010
00000100
,
00000001
00000010
00000100
00000100
,
00000100
00000100
00000010
00001000
,
00000100
00010000
00001000
01000000
,
00100000
10100000
10000000
00010000
,
00100000
00001000
00010000
00000010
,
00000100
00000101
00000001
00000010
,
00001000
00000100
00010000
00001000
,
01000000
01100000
00100000
10000000
,
00010000
00100000
00001000
00001000
,
00001000
00001000
00022000
00000000
,
00000000
00033000
00010000
00000010
,
00000100
00000000
00000001
00001000
,
00001100
00000000
00000100
00010000
,
00011000
00000000
01000000
00010000
,
10000000
00100000
00010000
00100000
,
00001000
00000000
00010000
00000010
,
00000110
00000000
00000001
00000100
,
00001100
00000000
00001000
00000100
,
00010000
00001000
01000000
00100000
,
10000000
00000000
00010000
00100000
,
00101000
00000000
00010000
00000010
,
00000110
00000000
00000001
00001000
,
00000100
00010000
00001000
01000000
,
00100000
10000000
00010000
00100000
,
00001000
00010000
00000010
00000001
,
00000100
00001000
00022000
00000000
,
00000000
00000000
00000000
00000000
,
00000000
00033000
00000000
00000000
;
