#TITLE:Beast and The Harlot;
#SUBTITLE:;
#ARTIST:Avenged Sevenfold;
#TITLETRANSLIT:;
#SUBTITLETRANSLIT:;
#ARTISTTRANSLIT:;
#GENRE:metal;
#CREDIT:;
#BANNER:;
#BACKGROUND:;
#LYRICSPATH:;
#CDTITLE:;
#MUSIC:bath.mp3;
#OFFSET:-0.212;
#SAMPLESTART:55.613;
#SAMPLELENGTH:12.000;
#SELECTABLE:YES;
#BPMS:0.000=310.217;
#STOPS:240.000=-0.009
,279.833=-0.022
,407.583=-0.078
,535.979=-0.006
;
#BGCHANGES:;
#KEYSOUNDS:;

//---------------dance-single - Blank----------------
#NOTES:
     dance-single:
     Blank:
     Challenge:
     12:
     1.000,1.000,0.270,0.375,0.105:
0000
0000
0000
0000
,
0000
0000
0000
0000
,
0000
0000
0000
0000
,
0000
0000
0000
0000
,
0010
1000
0010
1000
00M1
1000
0100
1000
,
0100
1000
0100
1000
0M01
1000
0010
1000
,
0010
1000
0010
1000
00M1
1000
0010
0100
,
0010
0100
0010
0100
00M1
0100
0010
0100
,
0010
0100
0010
0100
10M0
0100
0010
0100
,
0010
0100
0010
0100
00M1
0100
0010
1000
,
0001
0010
0000
0010
0100
0000
0100
1000
,
0000
1000
0010
0000
0010
0100
0010
0100
,
0001
0100
0010
1000
0010
0000
1000
0001
,
1000
0001
0100
0000
0010
1000
0M10
1000
,
0001
0000
0010
0001
0010
0001
1000
0000
,
001M
0100
0010
0100
0020
0000
0M30
0000
,
1000
0010
1000
0010
0100
0000
M001
1000
,
0001
1000
0001
0000
0010
0001
1000
0001
,
1000
0000
0010
0100
M001
0100
0010
0000
,
1000
0100
0010
0001
1000
0010
1M00
0001
,
0010
0100
0010
0100
1000
0000
0010
0100
,
M010
0100
0001
0000
1000
0001
1000
0001
,
M010
0000
0001
1000
0001
1000
0010
0000
,
0100
0010
0100
0010
1000
0000
1100
0000
,
M010
0001
1000
0001
1000
0000
0010
0100
,
0010
0100
0001
0000
1000
0001
1000
0000
,
0001
0010
0001
1000
0001
0000
1000
0010
,
1000
0010
0100
0000
0010
0000
0010
0000
,
10M0
0001
1000
0010
1000
0000
0010
0100
,
0010
0100
0001
0000
1000
0001
1000
0001
,
0010
0000
0100
1000
0100
1000
0001
0000
,
1000
0010
1000
0010
0200
0000
0302
0000
,
0013
0001
0010
0001
1000
0000
0010
0100
,
0010
0100
0010
0000
1000
0001
1000
0000
,
M001
0010
0001
0010
0100
0000
1000
0010
,
1000
0010
1000
0000
0001
0100
0001
0000
,
100M
0100
1000
0100
0010
0000
0100
0010
,
0001
0010
0001
0000
1000
0001
1000
0010
,
1000
0000
0010
0100
0010
0100
0001
0000
,
1000
0100
1000
0100
0020
0000
0032
0000
,
1003
0001
1000
0001
0100
0000
0010
1000
,
0010
1000
0010
0000
0100
0001
0100
0000
,
0M01
0010
0001
0010
0001
0000
1000
0010
,
1000
0010
0100
0000
0001
1000
0001
0000
,
0210
00M0
0010
00M0
,
0310
0000
0000
1000
0001
1000
0001
0000
0000
0000
0000
0000
,
0110
0000
1001
0000
,
0001
0010
0100
1000
0020
0000
0030
0000
,
1000
0010
1000
0010
0100
0000
0001
1000
,
0001
1000
0001
0000
0010
0001
1000
0001
,
1000
0000
0010
0100
0001
0100
0010
0000
,
1000
0001
0010
0001
2MM0
0000
3M2M
0000
,
0130
0001
0100
0001
1000
0000
0010
0100
,
0010
1000
0010
0000
1000
0001
1000
0000
,
0001
0010
0001
0010
0100
0000
1000
0001
,
1000
0001
0100
0000
0001
0010
0001
0000
,
1000
0010
0100
0010
0100
0000
0001
1000
,
0001
1000
0010
0000
0100
0001
1000
0001
,
1000
0000
0001
0010
0100
0010
0100
0000
,
1000
0010
0100
0010
M20M
0000
M32M
0000
,
1M3M
0010
0100
0001
0100
0000
0001
1000
,
0001
0010
0001
0000
1000
0010
1000
0000
,
0001
1000
0001
1000
0010
0000
0100
0001
,
0100
0001
0100
0000
0010
0000
1000
0000
,
2001
0000
0001
0000
,
3010
0000
0000
0100
0010
0100
0020
0000
0000
0030
0000
0000
,
2002
3003
0022
0033
,
2020
3030
2002
3003
,
0001
0010
0100
1000
0001
0010
0100
1000
,
0001
0010
0100
1000
0M2M
0000
0030
0000
,
1000
0000
1001
0000
1000
0010
1000
0000
,
0010
0000
0100
0001
0000
0001
0100
0000
,
0010
0000
0110
0000
0100
0001
1000
0000
,
0001
0000
0010
0100
0000
0100
1000
0000
,
0010
0000
1010
0000
1000
0001
1000
0000
,
0010
0000
0100
0001
0000
0001
1000
0000
,
0001
0000
0011
0000
0010
0001
1000
0000
,
0010
0000
0100
0010
0000
0010
1000
0000
,
0101
0000
1001
0000
1000
0100
1000
0000
,
0010
0000
0100
0001
0000
0001
1000
0000
,
0010
0000
1010
0000
0100
0001
0100
0000
,
0001
0000
1000
0010
0000
0010
0100
0000
,
0001
0000
1001
0000
0010
0001
0010
0000
,
0100
0000
1000
0010
0000
0010
1000
0000
,
0010
0000
0110
0000
0100
0001
0100
0000
,
1001
1001
M11M
0110
,
1MM0
0000
1010
0000
0010
1000
0001
0000
,
0100
0000
0001
0010
0000
0010
0001
0000
,
0100
0000
1010
0000
1000
0001
1000
0000
,
0010
0000
0100
0001
0000
0001
1000
0000
,
0010
0000
0101
0000
0001
1000
0001
0000
,
0100
0000
0010
1000
0000
1000
0001
0000
,
0100
0000
0110
0000
1000
0010
1000
0000
,
0010
0000
0100
0001
0000
0001
0010
0000
,
0001
0000
1000
0000
0001
1000
0010
0000
,
1000
0000
0001
0000
1000
0001
0010
0000
,
0001
0000
0100
0000
0001
0100
0010
0000
,
1000
0000
0010
0000
1000
0010
0100
0000
,
0101
0000
0001
0000
1000
0001
0010
0000
,
0001
0000
1000
0000
0001
1000
0010
0000
,
0100
0000
0001
0000
1000
0001
1000
0000
,
0010
1000
0001
0100
0010
0100
0001
1000
,
MMMM
0000
0000
MMMM
,
0010
0000
0000
1000
0001
1000
0001
0000
0000
0000
0000
0000
,
0220
0330
2002
3003
,
0022
0033
2020
3030
,
0100
0001
1000
0001
0100
0001
0010
0001
,
1000
0010
1000
0010
0100
0001
1000
0001
,
0020
0000
0000
0000
0000
1030
0001
1000
,
0010
0100
0001
1000
0001
0010
0001
1000
,
0010
0100
0001
0100
0010
1000
0001
0010
,
0100
1000
0001
1000
0100
0010
0001
1000
,
0020
0000
0100
0000
0130
0000
0001
1000
,
0020
0000
1000
0000
1030
0000
0100
0001
,
0200
0000
0010
0000
0310
0000
0001
0100
,
0010
1000
0001
1000
0100
0010
0001
1000
,
0020
0100
0100
0030
,
2000
3001
0200
0310
,
0002
1003
0020
0030
,
0100
0001
2000
3000
,
0010
0100
1000
0100
,
0001
0100
1000
0100
,
0020
0000
0100
0000
,
0100
0000
1030
0000
,
0010
1000
0001
1000
0001
0010
0001
1000
,
0010
0000
1000
0000
0001
0000
1000
0000
0000
0010
0000
0000
0100
0000
0000
0001
0000
0000
0100
0000
0000
0001
0000
0000
,
0010
0001
0010
0100
1000
0010
1000
0010
,
0100
0000
0000
0001
0000
0000
1000
0000
0001
0000
0100
0000
0001
0000
1000
0000
0001
0000
1000
0000
0010
0000
1000
0000
,
0010
0100
0001
1000
0001
0010
0001
0010
,
0100
0000
0000
1000
0000
0000
0010
0000
0000
1000
0000
0000
0001
0000
1000
0000
0010
0000
1000
0000
0000
0010
0000
0000
,
0100
0001
1000
0001
1000
0010
0100
0001
0100
0010
1000
0001
,
2000
0000
0000
0000
,
3001
0010
0100
1000
0001
0010
0100
1000
,
0001
0100
0010
1000
0001
0100
0010
1000
,
0100
0010
0001
1000
0100
0010
0001
1000
,
0010
0100
0001
1000
0010
0100
0001
1000
,
0001
0010
0100
1000
0001
1000
0100
0010
,
0001
1000
0010
0100
0001
0100
0010
1000
,
0001
0010
0100
1000
0001
1000
0010
0100
,
0001
1000
0001
1000
0001
1000
0001
1000
,
0020
0000
0000
M000
,
0000
0M00
0000
000M
,
0000
M000
0000
0M00
,
0000
000M
0000
M000
,
0000
0M00
0000
000M
,
0000
M000
0000
0M00
,
0000
000M
0000
M000
,
0000
0M00
0000
000M
,
0030
00M0
0000
0000
;

//---------------dance-single - Blank----------------
#NOTES:
     dance-single:
     Blank:
     Hard:
     9:
     0.698,0.774,0.279,0.218,0.000:
0000
0000
0000
0000
,
0000
0000
0000
0000
,
0000
0000
0000
0000
,
0000
0000
0000
0000
,
1000
1000
0001
1000
,
0010
0010
0100
0001
,
1000
1000
0001
0010
,
0001
0001
0100
0010
,
1000
1000
0010
0100
,
0001
0001
1000
0001
,
0010
0100
0000
0100
1000
0000
1000
0001
,
0000
1000
0001
0000
0100
0000
0001
0000
,
1000
1000
0010
0100
,
0100
0001
1000
1000
,
0001
0010
0010
0001
,
0100
0100
0020
0000
,
0130
0100
0001
1000
,
1000
0010
0100
0100
,
0001
0010
0010
0100
,
1000
0000
0100
0000
0010
0001
0010
0000
,
0100
0000
1001
0000
,
1000
0010
0100
0001
,
0010
0001
1000
0010
,
0100
0001
1001
0010
,
1000
0001
1001
0100
,
0010
1000
0001
0010
,
0001
1000
1001
1000
,
0010
0100
0001
1000
,
0010
0000
1001
0000
,
0100
0001
1000
0001
,
0010
0100
1000
0010
,
0100
0001
1001
1000
,
0010
0100
0101
0001
,
1000
0010
0100
0001
,
1000
0001
0011
0001
,
1000
0010
0100
0001
,
1000
0000
1001
0000
,
0010
1000
0001
0010
,
0001
1000
0010
0100
,
0001
1000
1001
0010
,
0001
1000
1001
1000
,
0010
0100
0001
1000
,
0001
0010
0001
0010
0001
0000
1000
0001
,
1000
0001
1000
0000
0010
0000
0010
0000
,
2000
0000
0000
0000
,
0000
0000
0000
0000
,
3010
0000
0001
0000
,
1000
0001
1000
0001
,
0100
0000
1010
0000
,
1000
0001
0010
0001
,
1000
0010
0100
0001
,
1000
0010
1010
1000
,
0001
0010
0011
0001
,
1000
0001
1000
0100
,
1000
0010
0100
0001
,
1000
0001
0010
0001
,
1000
0000
1001
0000
,
0010
0001
1000
0010
,
0100
0001
0100
0010
,
1000
0001
1001
1000
,
0010
0100
0101
0001
,
1000
0001
0010
0100
,
1000
0100
1000
0100
1000
0000
0001
1000
,
0001
1000
0001
0000
0100
0000
0100
0000
,
0020
0000
0000
0000
,
0000
0000
0030
0000
,
1001
0000
0101
0000
,
1001
0000
1100
0000
,
0001
0000
0010
0000
,
0100
0000
1000
0000
,
0001
0000
0100
0000
0001
0100
0001
0000
,
1000
0000
0001
0000
1000
0001
1000
0000
,
0010
0000
1000
0000
0010
1000
0010
0000
,
0100
0000
0001
0000
0100
0001
0100
0000
,
0001
0000
1000
0000
0001
1000
0001
0000
,
1000
0000
0010
0000
1000
0010
1000
0000
,
0001
1000
0001
0001
,
0100
0010
1000
0000
,
0010
0000
0001
0000
0010
0001
0010
0000
,
0001
0000
1000
0000
0001
1000
0001
0000
,
1000
0000
0010
0000
1000
0010
1000
0000
,
0010
0000
0100
0000
0001
0100
0001
0000
,
1000
0000
0001
0000
1000
0001
1000
0000
,
0001
0000
0010
0000
0001
0010
0001
0000
,
0100
0001
1000
0010
,
0110
0110
0101
0101
,
0001
0000
1000
0000
0001
1000
0001
0000
,
1000
0000
0010
0000
1000
0010
1000
0000
,
0010
0000
0100
0000
0010
0100
0010
0000
,
1000
0000
0001
0000
1000
0001
1000
0000
,
0001
0000
0010
0000
0001
0010
0001
0000
,
0010
0000
0100
0000
0010
0100
0010
0000
,
0100
0000
1000
0000
0001
1000
0001
0000
,
1000
0000
0001
0000
0100
0001
0100
0000
,
0010
1000
0002
0000
,
0013
0001
2000
0000
,
3010
0100
0020
0000
,
1030
0100
0020
0000
,
0031
1000
0002
0000
,
0103
0010
2000
0000
,
3010
1000
0002
0000
,
0013
0100
0001
0000
,
0000
0000
0000
0000
,
0000
0000
0101
0000
,
0020
0030
2000
3000
,
0002
0003
0020
0030
,
0100
1000
0001
1000
,
0010
0100
0001
1000
,
0002
0000
0000
0013
,
0100
1000
0001
1000
,
0010
0100
0001
0100
,
0001
0010
0100
1000
,
0020
0000
0030
1000
,
0002
0000
0003
0010
,
0200
0000
0300
1000
,
0010
0100
0001
1000
,
2001
0000
3001
0000
,
0101
0000
1010
0000
,
2001
0000
3010
0000
,
0210
0000
0301
0000
,
0001
0010
0100
1000
,
0001
0010
0100
1000
,
0020
0000
0000
0000
,
0030
0000
0000
0000
,
0010
1000
0001
0010
,
0001
1000
0001
0000
0100
0000
0010
0000
,
1000
0000
0001
0000
0100
0010
0100
0000
,
0001
0000
1000
0001
1000
0001
1000
0000
,
0010
0100
0001
1000
,
0001
0000
0010
0000
0001
1000
0001
1000
,
0001
0000
1000
0010
1000
0001
1000
0001
,
2000
0000
0000
0000
,
3001
0010
0100
1000
,
0001
0010
0100
1000
,
0001
0100
0010
1000
,
0001
0100
0010
1000
,
0100
0010
0001
1000
,
0100
0010
0001
1000
,
0001
0100
0010
1000
,
0001
0010
0100
1000
,
2002
0000
0000
0000
,
0000
0000
0000
0000
,
0000
0000
0000
0000
,
0000
0000
0000
0000
,
0000
0000
0000
0000
,
0000
0000
0000
0000
,
0000
0000
0000
0000
,
0000
0000
0000
0000
,
3003
0000
0000
0000
;

//---------------dance-single - Blank----------------
#NOTES:
     dance-single:
     Blank:
     Medium:
     7:
     0.528,0.516,0.096,0.261,0.000:
0000
0000
0000
0000
,
0000
0000
0000
0000
,
0000
0000
0000
0000
,
0000
0000
0000
0000
,
1000
0000
1010
0000
,
0010
0000
0110
0000
,
0100
0000
0101
0000
,
0001
0000
1001
0000
,
0010
0000
1001
0000
,
0100
0000
1001
0000
,
0010
0000
0000
0010
0000
0000
1000
0000
,
0000
1000
0000
0000
0001
0000
0000
0000
,
0100
0010
1000
0000
,
0001
1000
0000
0001
,
0010
0000
0001
1000
,
0000
0010
0100
0000
,
0010
1000
0010
0000
,
0100
0001
0000
1000
,
0001
0000
0010
0001
,
1000
0010
0100
0001
,
1000
0001
1000
0000
,
0010
0100
0000
0001
,
1000
0000
0001
0010
,
0000
0001
1000
0000
,
0010
1000
0010
0000
,
0100
0001
1000
0001
,
0010
0100
1000
0000
,
0010
0100
0001
1000
,
0001
1000
0010
0000
,
0100
0001
0000
1000
,
0100
0000
0010
0001
,
0000
1000
0010
0000
,
0100
0001
0100
0000
,
0001
1000
0001
0010
,
0001
1000
0010
0000
,
0100
0001
1000
0001
,
0100
0010
1000
0000
,
0001
1000
0000
0010
,
0100
0000
0001
0010
,
0000
0001
1000
0010
,
1000
0010
0100
0000
,
0001
1000
0001
1000
,
0000
0001
0010
0000
,
0100
1000
0100
1000
,
0002
0000
0000
0000
,
0000
0000
0003
0000
,
2000
3000
0020
0030
,
0200
0300
0002
0003
,
1000
0010
1000
0000
,
0001
1000
0000
0001
,
0010
0000
0001
1000
,
0000
0010
0100
0000
,
0001
1000
0010
0000
,
0100
0010
1000
0001
,
1000
0001
0010
0000
,
0001
1000
0010
0100
,
0001
1000
0100
0000
,
1000
0010
0000
0100
,
0010
0000
0100
0001
,
0000
1000
0001
0000
,
0010
0100
0001
0000
,
1000
0001
0010
0001
,
1000
0001
0100
0000
,
0010
1000
0001
1000
,
0200
0000
0000
0000
,
0000
0000
0300
0000
,
2000
3000
0200
0300
,
0020
0030
0002
0003
,
2000
3000
0020
0030
,
0200
0300
0002
0003
,
1000
0100
0010
0001
,
1000
0100
0010
0001
,
1000
0010
0100
0001
,
1000
0010
0100
0001
,
1000
0001
0100
0010
,
1000
0001
0100
0010
,
1000
0100
0010
0001
,
0010
0100
1000
0000
,
0001
0010
0100
1000
,
0001
0010
0100
1000
,
0001
0100
0010
1000
,
0001
0100
0010
1000
,
0001
1000
0010
0100
,
0001
1000
0010
0100
,
0001
0010
0100
1000
,
0100
0010
0001
0000
,
1000
0010
0100
0001
,
1000
0010
0100
0001
,
1000
0100
0010
0001
,
1000
0100
0010
0001
,
1000
0001
0100
0010
,
1000
0001
0100
0010
,
1000
0001
0010
0001
,
1000
0001
0010
0000
,
0001
0010
0100
0000
,
0010
0100
1000
0000
,
0001
1000
0001
0000
,
1000
0010
1000
0000
,
1000
0010
0100
0000
,
0010
0100
0001
0000
,
1000
0001
0010
0000
,
0200
0000
0300
0000
,
0000
0000
0000
0000
,
0000
0000
0000
0000
,
1000
0000
0010
0000
,
0100
0000
0001
0000
,
1000
0001
1000
0001
,
0100
0010
0100
0010
,
2000
0000
3000
0000
,
0010
0100
0010
0000
,
1000
0001
1000
0001
,
0010
0001
0100
0010
,
0100
0000
0000
0010
,
1000
0000
0000
1000
,
0001
0000
0000
0010
,
0001
1000
0001
1000
,
0020
0000
0000
0000
,
2030
0000
3002
0000
,
0023
0000
0000
0000
,
0230
0000
0000
0000
,
2300
0000
0000
3001
,
2000
0000
0000
3001
,
0020
0000
0000
0000
,
0000
0000
0030
0000
,
1000
0001
1000
0001
,
0100
0010
1000
0000
,
0001
0010
0001
1000
,
0010
0100
0010
0000
,
1000
0001
1000
0001
,
1000
0100
0010
0001
,
1000
0010
0100
0001
,
1000
0000
0000
0000
,
2001
0000
0010
0000
,
0100
0000
3010
0000
,
1002
0000
0100
0000
,
0010
0000
0103
0000
,
2100
0000
0010
0000
,
0001
0000
3010
0000
,
0102
0000
0010
0000
,
0100
0000
1003
0000
,
0220
0000
0000
0000
,
0000
0000
0000
0000
,
0000
0000
0000
0000
,
0000
0000
0000
0000
,
0000
0000
0000
0000
,
0000
0000
0000
0000
,
0000
0000
0000
0000
,
0000
0000
0000
0000
,
0330
0000
0000
0000
;

//---------------dance-single - Blank----------------
#NOTES:
     dance-single:
     Blank:
     Easy:
     5:
     0.353,0.516,0.052,0.357,0.000:
0000
0000
0000
0000
,
0000
0000
0000
0000
,
0000
0000
0000
0000
,
0000
0000
0000
0000
,
1000
0000
0001
0000
,
1000
0000
0010
0000
,
1000
0000
0001
0000
,
0010
0000
0001
0000
,
0100
0000
0010
0000
,
1000
0000
0001
0000
,
1000
0000
0000
0010
,
0000
0000
0100
0000
,
0001
0000
2000
0000
,
3000
0020
0000
0030
,
0200
0000
0300
0002
,
0000
0003
0020
0000
,
0130
0000
2000
0000
,
3000
0002
0000
0003
,
0200
0000
0300
0010
,
1000
0001
0010
0100
,
1000
0000
0010
0000
,
0100
0000
0010
0000
,
1000
0000
0001
0000
,
1000
0001
1000
0000
,
0010
0000
0100
0000
,
0001
0000
0100
0000
,
0010
0000
1000
0000
,
0001
0000
0010
0000
,
0100
0000
1000
0000
,
0010
0000
0100
0000
,
0001
0000
1000
0000
,
0001
0010
0001
0000
,
1000
0000
0010
0000
,
0000
0100
0000
0001
,
0000
0000
1000
0000
,
0000
0001
0000
0010
,
0100
0000
1000
0000
,
0010
0000
0100
0000
,
0001
0000
1000
0000
,
0001
1000
0001
0000
,
0010
0000
0100
0000
,
0000
0010
0000
0001
,
0000
0000
1000
0000
,
0000
0010
0000
0100
,
0002
0000
0000
0000
,
0003
0000
0000
0000
,
1000
0000
0001
0000
,
0100
0000
0010
0000
,
1000
0000
0100
0000
,
0010
0000
0001
0000
,
1000
0000
0010
0000
,
0100
0001
0100
0000
,
0010
0000
1000
0000
,
0000
0001
0000
0010
,
0000
0000
0100
0000
,
0000
1000
0000
0010
,
0100
0000
0001
0000
,
1000
0000
0001
0000
,
0010
0000
0100
0000
,
1000
0010
1000
0000
,
0010
0000
0100
0000
,
0000
0001
0000
1000
,
0000
0000
0010
0000
,
0000
0100
0000
0001
,
2002
0000
0000
0000
,
0000
0000
3003
0000
,
0100
0000
0010
0000
,
1000
0000
0001
0000
,
0020
0000
0000
0000
,
0000
0000
0000
0030
,
0100
0000
0010
0000
,
0001
0000
0100
0000
,
0010
0000
1000
0000
,
0001
0000
0010
0000
,
0100
0000
1000
0000
,
0020
0000
0000
0000
,
0030
0000
1000
0000
,
0001
0000
0100
0010
,
0100
0000
0001
0000
,
1000
0000
0001
0000
,
0010
0000
0100
0000
,
1000
0000
0010
0000
,
0100
0000
0001
0000
,
1000
0000
0010
0000
,
0100
0000
0001
0000
,
0010
0010
0100
0100
,
1000
0000
0001
0000
,
1000
0000
0100
0000
,
0010
0000
0001
0000
,
1000
0000
0010
0000
,
0100
0000
0001
0000
,
1000
0000
0001
0000
,
0020
0000
0000
0000
,
0000
0000
0000
0030
,
2000
0000
0000
3000
,
0002
0000
0000
0003
,
0200
0000
0000
0300
,
2000
0000
0000
3000
,
0020
0000
0000
0030
,
0002
0000
0000
0003
,
0200
0000
0000
0300
,
0020
0000
0000
0030
,
0000
0000
0000
0000
,
0000
0000
0000
0000
,
1000
0000
0001
0000
,
0100
0000
0010
0000
,
1000
0001
1000
0001
,
1000
0001
0100
0001
,
0200
0000
0300
0000
,
0010
0000
1000
0000
,
0001
0000
0010
0000
,
0100
0000
0001
0000
,
2000
0000
0000
3000
,
0002
0000
0000
0003
,
0200
0000
0000
0300
,
0010
1000
0001
0010
,
0200
0000
0300
0000
,
1000
0000
0001
0000
,
0020
0000
0030
0000
,
0200
0000
0300
0000
,
1000
0000
1000
0010
,
1000
0000
1000
0001
,
2000
0000
0000
0000
,
0000
0000
3000
0000
,
0001
0000
0001
0000
,
0100
0000
0100
0000
,
0010
0000
0010
0000
,
1000
0000
1000
0000
,
0001
0000
0010
0000
,
0100
0000
1000
0010
,
0010
1000
0001
1000
,
0020
0000
0030
0000
,
0202
0000
0000
0000
,
0000
0000
0303
0000
,
2002
0000
0000
0000
,
0000
0000
3003
0000
,
0220
0000
0000
0000
,
0000
0000
0330
0000
,
2200
0000
0000
0000
,
0000
0000
3300
0000
,
2002
0000
0000
0000
,
0000
0000
0000
0000
,
0000
0000
0000
0000
,
0000
0000
0000
0000
,
0000
0000
0000
0000
,
0000
0000
0000
0000
,
0000
0000
0000
0000
,
0000
0000
0000
0000
,
3003
0000
0000
0000
;

//---------------dance-single - Blank----------------
#NOTES:
     dance-single:
     Blank:
     Beginner:
     2:
     0.149,0.183,0.113,0.000,0.000:
0000
0000
0000
0000
,
0000
0000
0000
0000
,
0000
0000
0000
0000
,
0000
0000
0000
0000
,
1001
0000
0000
0000
,
0000
0000
0000
0000
,
0000
0000
0000
0000
,
0000
0000
0000
0000
,
0100
0000
0000
0000
,
0100
0000
0000
0000
,
0010
0000
0000
0000
,
0000
0000
0000
0000
,
1000
0000
0000
0000
,
1000
0000
0000
0000
,
1000
0000
0000
0000
,
0000
0000
0000
0000
,
0001
0000
0000
0000
,
0100
0000
0000
0000
,
0001
0000
0000
0000
,
1000
0000
0000
0000
,
0010
0000
0000
0000
,
0010
0000
0000
0000
,
0010
0000
0000
0000
,
0000
0000
0000
0000
,
0100
0000
0000
0000
,
0100
0000
0000
0000
,
0100
0000
0000
0000
,
0001
0000
0000
0000
,
1000
0000
0000
0000
,
1000
0000
0000
0000
,
0010
0000
0000
0000
,
0000
0000
0000
0000
,
0100
0000
0000
0000
,
0001
0000
0000
0000
,
0010
0000
0000
0000
,
0000
0000
0000
0000
,
0010
0000
0000
0000
,
1000
0000
0000
0000
,
0001
0000
0000
0000
,
1000
0000
0000
0000
,
0100
0000
0000
0000
,
0000
0000
0000
0000
,
0010
0000
0000
0000
,
0000
0000
0000
0000
,
1001
0000
0000
0000
,
0000
0000
0000
0000
,
0100
0000
0000
0000
,
0100
0000
0000
0000
,
0010
0000
0000
0000
,
1000
0000
0000
0000
,
0001
0000
0000
0000
,
0000
0000
0000
0000
,
0010
0000
0000
0000
,
0001
0000
0000
0000
,
0100
0000
0000
0000
,
0000
0000
0000
0000
,
0010
0000
0000
0000
,
1000
0000
0000
0000
,
0001
0000
0000
0000
,
0100
0000
0000
0000
,
0010
0000
0000
0000
,
0000
0000
0000
0000
,
1000
0000
0000
0000
,
0000
0000
0000
0000
,
1001
0000
0000
0000
,
0000
0000
0000
0000
,
0110
0000
0000
0000
,
0000
0000
0000
0000
,
1001
0000
0000
0000
,
0000
0000
0000
0000
,
0100
0000
0000
0000
,
0010
0000
0000
0000
,
1000
0000
0000
0000
,
0001
0000
0000
0000
,
0010
0000
0000
0000
,
1000
0000
0000
0000
,
0100
0000
0000
0000
,
0010
0000
0010
0000
,
0010
0000
0000
0000
,
0001
0000
0000
0000
,
1000
0000
0000
0000
,
0010
0000
0000
0000
,
0100
0000
0000
0000
,
0001
0000
0000
0000
,
0010
0000
0000
0000
,
1000
0000
1000
0000
,
1000
0000
0000
0000
,
0100
0000
0000
0000
,
0001
0000
0000
0000
,
0010
0000
0000
0000
,
0001
0000
0000
0000
,
1000
0000
0000
0000
,
0010
0000
0000
0000
,
0000
0000
0000
0000
,
0100
0000
0000
0000
,
0010
0000
0000
0000
,
0001
0000
0000
0000
,
1000
0000
0000
0000
,
0001
0000
0000
0000
,
0010
0000
0000
0000
,
0100
0000
0000
0000
,
0010
0000
0000
0000
,
0000
0000
0000
0000
,
0000
0000
0000
0000
,
1001
0000
0000
0000
,
0000
0000
0000
0000
,
0110
0000
0000
0000
,
0000
0000
0000
0000
,
1000
0000
0000
0000
,
0001
0000
0000
0000
,
1000
0000
0000
0000
,
0001
0000
0000
0000
,
0100
0000
0000
0000
,
0010
0000
0000
0000
,
1000
0000
0000
0000
,
0000
0000
0000
0000
,
0010
0000
0000
0000
,
1000
0000
0000
0000
,
0001
0000
0000
0000
,
0010
0000
0000
0000
,
0100
0000
0000
0000
,
0100
0000
0000
0000
,
0110
0000
0000
0000
,
0000
0000
0000
0000
,
1000
0000
0000
0000
,
0000
0000
0000
0000
,
0001
0000
0000
0000
,
0000
0000
0000
0000
,
0010
0000
0000
0000
,
0000
0000
0000
0000
,
0100
0000
0000
0000
,
0100
0000
0000
0000
,
1001
0000
0000
0000
,
0000
0000
0000
0000
,
0110
0000
0000
0000
,
0000
0000
0000
0000
,
1001
0000
0000
0000
,
0000
0000
0000
0000
,
0110
0000
0000
0000
,
0000
0000
0000
0000
,
1001
0000
0000
0000
;

//---------------dance-double - Blank----------------
#NOTES:
     dance-double:
     Blank:
     Challenge:
     12:
     0.841,1.000,0.505,0.157,0.026:
00000000
00000000
00000000
00000000
,
00000000
00000000
00000000
00000000
,
00000000
00000000
00000000
00000000
,
00000000
00000000
00000000
00000000
,
00200000
00000000
10000000
00000000
,
01000000
00000000
00310000
00M00000
,
00200000
00000000
00001000
00000000
,
00010000
00000000
00301000
00M00000
,
00002000
00000000
00000010
00000000
,
00000100
00000000
00003001
0000M000
,
00000001
00001000
00000000
00000010
00001000
00000000
00000100
00010000
,
00000000
00001000
00010000
00000000
00001000
01000000
00001000
01000000
,
00100000
01000000
00100000
01000000
00010000
00000000
10000000
00010000
,
10000000
00010000
00100000
00000000
00001000
00100000
00001000
00100000
,
00001000
00000000
00010000
00000010
00000100
00000010
00000100
00000000
,
00000001
00001000
00000100
00001000
00000020
00000000
00000000
00000030
,
00001000
00000001
00001000
00000001
00000100
00000000
00000010
00010000
,
00000010
00010000
00000100
00000000
01000000
00001000
01000000
00100000
,
01000000
00000000
00100000
10000000
00010000
10000000
00010000
00000000
,
10000000
01000000
00100000
00010000
01000000
00010000
00100000
00001000
,
00100000
00001000
00010000
00000010
,
00000100
00000001
00000010
00000100
,
00000010
00000100
00001000
00000010
,
00010000
00001000
00011000
01001000
,
0100M000
00100000
10100000
10000000
,
M0010000
00100000
00001000
00010000
,
00001000
00010000
00010010
00000010
,
000001M0
00000001
00001000
00000001
,
00000010
00000100
00001000
00000010
,
00010000
00000100
00010000
00001000
,
01000000
00100000
10000000
00100000
,
00010000
00100000
10100000
10010000
,
M0100000
00001000
00011000
00010000
,
000M0010
00000001
00000010
00001000
,
00000001
00000010
00001100
00000100
,
00010000
00001000
01000000
10000000
,
01000000
00100000
10100000
10000000
,
M0010000
00100000
00010000
00001000
,
00010000
00100000
00000010
00001000
,
00000010
00000001
00000110
00001010
,
00000001
00000010
00011000
00001000
,
0100M000
00100000
10000000
00010000
,
00100000
01000000
11000000
10000000
,
00010000
00100000
00001000
00010000
,
00000200
00000000
00000010
00000000
,
00000310
00000000
00000000
00001M00
00000001
00001000
00000001
00000000
00000000
00000000
00000000
00000000
,
00001001
00000000
00010100
00000000
,
01001000
00000000
10010000
00000000
,
00100000
10000000
10010000
00100000
,
00001000
00010000
00000100
00001000
,
00000100
00000001
00000100
00001000
,
00000010
00000100
00001001
00001100
,
00000100
0100M000
01010000
01000000
,
0M100000
00010000
00100000
10000000
,
00010000
00100000
00101000
00100000
,
00M01000
00010000
00000010
00000001
,
00000010
00001000
00001001
00001000
,
0000M100
00000010
00000001
00001000
,
00000100
00010000
01000000
10000000
,
01000000
00010000
10010000
00110000
,
001M0000
00001000
00010010
00000010
,
000001M0
00000001
00000010
00000100
,
00001000
00000100
00010100
00010000
,
00001000
01000000
10000000
01000000
,
01200000
00000000
01000000
00000000
,
01300000
00000000
00000000
10000000
00010000
10000000
00010000
00000000
00000000
00000000
00000000
00000000
,
10100000
00000000
00110000
00000000
,
00010100
00000000
00000110
00000000
,
00001001
00000000
00011000
00000000
,
01001000
00000000
10100000
00000000
,
10000000
00000000
00100000
00000000
01000000
00010000
10000000
00000000
,
00010000
00000000
00100000
00001000
00000000
00001000
00010000
00000000
,
00000100
00000000
00001000
00000000
00000001
00001000
00000001
00000000
,
00000100
00000000
00000010
00010000
00000000
00010000
00001000
00000000
,
01000000
00000000
00010000
00000000
01000000
00100000
01000000
00000000
,
00100000
00000000
10000000
00010000
00000000
00100000
00010000
00000000
,
00100000
00000000
00001000
00000000
00010000
00000010
00000100
00000000
,
00000001
00000000
00001000
00000001
00000000
00000001
00000010
00000000
,
00001100
00000000
00000010
00000000
00000100
00010000
00001000
00000000
,
01000000
00000000
00100000
10000000
00000000
10000000
00010000
00000000
,
00100000
00000000
00001000
00000000
01000000
00100000
00010000
00000000
,
00100000
00000000
10000000
00010000
00000000
00010000
00100000
00000000
,
00001000
00000000
00010000
00000000
00000010
00000100
00000010
00000000
,
00001000
00000000
00000100
00000010
00000000
00000010
00000001
00000000
,
00001000
00000000
00000010
00000000
00001000
00000100
00001000
00000000
,
00011000
00011000
01100000
01100000
,
10000000
00000000
00010000
00000000
01000000
00100000
01000000
00000000
,
00010000
00000000
00100000
00001000
00000000
00001000
00010000
00000000
,
00000100
00000000
00000001
00000000
00000100
00001000
00000001
00000000
,
00001000
00000000
00000010
00000100
00000000
00000100
00000001
00000000
,
00001000
00000000
00000100
00000000
00100000
00010000
00100000
00000000
,
00001000
00000000
01000000
00100000
00000000
00100000
10000000
00000000
,
00010000
00000000
00100000
00000000
00001000
00100000
00001000
00000000
,
00010000
00000000
00000010
00000100
00000000
00000100
00000001
00000000
,
00000100
00001000
00000100
00000001
,
00000100
00001000
00000100
00000001
,
00010000
00000100
00001000
00000100
,
00010000
00000100
00001000
00000100
,
00010000
01000000
10000000
01000000
,
00010000
01000000
10000000
01000000
,
00010000
00100000
00001000
00010000
,
00000010
00000100
00000001
MMMMMMMM
,
00000000
00000000
00000000
00000000
,
MMMMMMMM
00000000
00000000
00000010
00001000
00000010
00001000
00000000
00000000
00000000
00000000
00000000
,
00001100
00000000
00011000
00000000
,
10010000
00000000
01100000
00000000
,
10000000
00100000
01000000
00010000
10000000
00100000
01000000
00010000
,
00100000
00001000
00010000
00000010
00000100
00000010
00001000
00000001
,
00000020
00000000
00000000
00000000
00000030
00000000
00000100
00001000
,
00000001
00000000
00001000
00000010
00001000
00000010
00001000
00000000
,
00000100
00010000
01000000
00010000
,
00001000
00000000
10000000
00000000
00100000
00000000
01000000
00010000
,
10000000
00000000
00100000
00000000
10100000
00000000
00100000
01000000
,
00100000
00000000
01000000
00000000
01100000
00000000
01000000
00010000
,
01000000
00010000
01010000
00100000
,
00001000
00010000
00000010
00000100
,
00000202
00000000
00000303
00000000
,
00001100
00000000
01001000
00000000
,
02200000
00000000
03300000
00000000
,
20020000
00000000
30030000
00000000
,
10000000
00010000
00100000
00000000
00010000
00100000
00010000
00000000
,
00100000
00001000
00100000
00000000
00001000
00010000
00001000
00000000
,
00020020
00000000
00000000
00000000
,
00000000
00000000
00030030
00000000
,
00000001
00001000
00000010
00001000
00000001
00000010
00000100
00000010
,
00000100
00001000
00000010
00001000
00000100
00010000
00001000
00000000
,
00010000
00001000
01000000
00010000
01000000
00010000
01000000
00100000
,
10000000
00010000
10000000
00010000
00100000
00010000
01000000
00000000
,
00010000
10000000
00010000
10000000
00010000
00100000
00010000
00100000
,
00001000
00100000
00001000
00100000
00001000
00010000
00000010
00000100
,
00000001
00000100
00000010
00001000
00000001
00000010
00000100
00001000
,
00000020
00000000
00000030
00000000
,
00000001
00001000
00000001
00001000
00000010
00001000
00000010
00001000
,
00000100
00001000
00000100
00001000
00000001
00001000
00000001
00000000
,
00000100
00000010
00000100
00000010
00010000
00000010
00010000
00000010
,
00010000
00001000
00010000
00001000
01000000
00001000
01000000
00000000
,
00010000
00000000
10010000
00000000
10000000
00100000
01000000
00000000
,
00010000
00000000
01010000
00000000
01000000
00001000
01000000
00000000
,
00001000
00000000
00011000
00000000
00010000
00000010
00000100
00000000
,
00000001
00001000
00000001
00001000
00000001
00001000
00000001
00001000
,
00020002
00000000
00000000
00000000
,
00000000
00000000
00000000
00000000
,
00000000
00000000
00000000
00000000
,
00000000
00000000
00000000
00000000
,
00000000
00000000
00000000
00000000
,
00000000
00000000
00000000
00000000
,
00000000
00000000
00000000
00000000
,
00000000
00000000
00000000
00000000
,
00030003
00000000
00000000
00000000
;

//---------------dance-double - Blank----------------
#NOTES:
     dance-double:
     Blank:
     Hard:
     9:
     0.638,0.774,0.174,0.296,0.000:
00000000
00000000
00000000
00000000
,
00000000
00000000
00000000
00000000
,
00000000
00000000
00000000
00000000
,
00000000
00000000
00000000
00000000
,
10000000
00100000
10000000
00100000
,
01000000
00001000
01000000
00001000
,
00010000
00001000
00010000
00000010
,
00000100
00000010
00001000
00000001
,
00000100
00000010
00001000
00000001
,
00001000
00000100
00010000
00001000
,
00010000
00001000
00000000
00001000
01000000
00000000
01000000
00100000
,
00000000
00100000
10000000
00000000
10000000
00000000
00010000
00000000
,
00100000
00100000
00001000
00010000
,
00010000
00000010
00000100
00000100
,
00000001
00001000
00001000
00000001
,
00000010
00000010
00002200
00003300
,
00000010
00000010
00010000
00001000
,
00001000
01000000
00100000
00100000
,
10000000
00010000
00010000
00100000
,
01000000
10000000
01000000
00000000
00100000
00010000
00100000
00000000
,
00010000
00000000
10010000
00000000
,
00100000
00010000
01000000
00010000
,
00100000
00001000
00100000
00001000
,
00010000
00000010
00000100
00000100
,
00000001
00001000
00000010
00000000
,
00001000
00000001
00001000
00000100
,
00010000
00001000
01000000
00000000
,
00100000
10000000
00010000
10000000
,
00100000
00000000
01010000
00000000
,
00100000
00010000
00100000
00001000
,
00010000
00000010
00000100
00000001
,
00000010
00000100
00000010
00000010
,
00000001
00001000
00000010
00000000
,
00001000
00000100
00001000
00000100
,
00010000
00001000
01000000
00000000
,
00100000
10000000
00010000
10000000
,
01000000
00000000
00110000
00000000
,
00100000
00001000
01000000
00100000
,
10000000
00010000
00100000
00010000
,
00100000
00001000
00010000
00010000
,
00000010
00000100
00000001
00000000
,
00001000
00000100
00000010
00000001
,
00001000
00000010
00001000
00000000
,
00000100
00010000
00001000
01000000
,
02200000
00000000
00000000
00000000
,
03300000
10000000
00000000
00000000
,
02000000
03000000
00200000
00300000
,
00020000
00030000
00002000
00003000
,
00000010
00000000
00001001
00000000
,
00000010
00001000
00000001
00001000
,
00000100
00000010
00000100
00001000
,
00000100
00010000
00001000
00001000
,
01000000
00100000
01000000
00000000
,
00010000
10000000
00010000
00100000
,
00001000
00100000
00010000
00000000
,
01000000
00010000
00100000
00001000
,
00010000
00000000
00001010
00000000
,
00000010
00000100
00000001
00001000
,
00000001
00000010
00000100
00001000
,
00000100
00010000
00001000
00001000
,
01000000
00100000
10000000
00000000
,
00010000
10000000
01000000
10000000
,
00010000
01000000
00010000
00000000
,
00100000
00010000
00100000
00001000
,
00020000
00000000
00000000
00000000
,
00030000
00001000
00000000
00000000
,
00020000
00030000
00000200
00000300
,
00002000
00003000
00000002
00000003
,
00000200
00000300
00000020
00000030
,
00001000
00000001
00001000
00000001
00002000
00000000
00003000
00000000
,
00001000
00000100
00000010
00000001
,
00001000
00000010
00000100
00000001
,
00001000
00000100
00000010
00000100
,
00001000
00000100
00010000
00001000
,
01000000
10000000
01000000
00010000
,
10000000
00010000
00100000
01000000
,
10000000
00100000
01000000
00010000
,
10000000
00010000
10000000
00000000
00010000
01000000
00010000
00000000
,
01001000
00001000
00010000
00001000
,
00010000
00000010
00000100
00000001
,
00000100
00001000
00000100
00000001
,
00001000
00000100
00010000
00001000
,
01000000
00100000
10000000
00100000
,
00010000
00100000
10000000
00010000
,
00100000
00001000
00010000
00001000
,
00010100
00010100
00000110
00000110
,
00000100
00000001
00001000
00000001
,
00000010
00000100
00001000
00000100
,
00000010
00001000
00000010
00000001
,
00010000
00000100
00001000
00010000
,
00001000
00000100
01000000
00010000
,
01000000
10000000
01000000
00010000
,
10000000
00010000
00100000
01000000
,
10000000
01000000
10000000
00000000
00100000
00000000
00010000
00000000
,
01000000
00010000
01010000
00000000
,
00001000
00010000
00011000
00000000
,
00001000
00000010
00001010
00000000
,
00000001
00001000
00001001
00000000
,
00000110
00000100
00000010
00000000
,
00000100
00001000
00001100
00000000
,
00000100
00010000
00001000
00000000
,
00100000
00010000
00100000
00010000
00100000
01000000
10000000
00000000
,
00000000
00000000
00000000
00000000
,
00000000
10000000
00000000
00000000
,
20000000
30000000
00200000
00300000
,
02000000
03000000
00020000
00030000
,
00100000
00001000
00010000
00000010
,
00000100
00000000
00000001
00000000
00001000
00000100
00000010
00000001
,
00000020
00000000
00000030
00000100
,
00001000
00000010
00001000
00000100
,
00010000
00001000
01000000
00100000
,
10000000
00010000
10000000
00100000
,
02000000
00010000
03010000
00100000
,
00002000
00010000
00013000
00000100
,
00002000
00000010
00003010
00000100
,
00000001
00000000
00001000
00000000
00000100
00001000
00000100
00001000
,
00000200
00000000
00000300
00000000
,
00020000
00030000
00002000
00003000
,
02000000
00000000
00000000
03000000
,
00200000
00000000
00000000
00300000
,
10000000
00010000
10000000
00100000
,
10000000
00010000
10000000
00100000
,
02200000
00000000
00000000
00000000
,
00000000
00000000
03300000
00000000
,
10000000
00010000
01000000
00010000
,
00100000
00000000
00001000
00000000
00010000
00001000
00010000
00000000
,
00000010
00000100
00000001
00001000
,
00000100
00000000
00000010
00000000
00000001
00001000
00000001
00001000
,
00000010
00001000
00000100
00010000
,
00001000
01000000
00100000
10000000
,
00001000
00100000
01000000
10000000
01000000
00100000
00010000
00100000
,
00020000
00000000
00030000
00000000
,
40000000
00040000
00000000
00000000
00000000
00000000
00000000
00000000
,
00000000
00000000
30030000
00000000
,
00400000
00004000
00000000
00000000
00000000
00000000
00000000
00000000
,
00000000
00000000
00303000
00000000
,
00000400
00000040
00000000
00000000
00000000
00000000
00000000
00000000
,
00000000
00000000
00000330
00000000
,
00000004
00004000
00000000
00000000
00000000
00000000
00000000
00000000
,
00000000
00000000
00003003
00000000
,
00022000
00000000
00000000
00000000
,
00000000
00000000
00000000
00000000
,
00000000
00000000
00000000
00000000
,
00000000
00000000
00000000
00000000
,
00000000
00000000
00000000
00000000
,
00000000
00000000
00000000
00000000
,
00000000
00000000
00000000
00000000
,
00000000
00000000
00000000
00000000
,
00033000
00000000
00000000
00000000
;

//---------------dance-double - Blank----------------
#NOTES:
     dance-double:
     Blank:
     Medium:
     9:
     0.625,0.709,0.244,0.409,0.000:
00000000
00000000
00000000
00000000
,
00000000
00000000
00000000
00000000
,
00000000
00000000
00000000
00000000
,
00000000
00000000
00000000
00000000
,
10000000
00010000
01000000
00010000
,
10000000
00010000
00100000
00001000
,
00100000
00001000
00010000
00000010
,
00000100
00000001
00001000
00000001
,
00000010
00000100
00000010
00000100
,
00001000
00000010
00010000
00001000
,
00011000
00000000
00000000
01001000
00000000
00000000
01100000
00000000
,
00000000
10100000
00000000
00000000
10010000
00000000
00000000
00000000
,
10000000
10000000
00100000
01000000
,
01000000
00010000
01000000
01000000
,
00001000
00100000
00100000
00001000
,
00010000
00010000
00000200
00000300
,
00001000
00001000
00000010
00000100
,
00000100
00000010
00000100
00000100
,
00000001
00001000
00001000
00000010
,
00000100
00000001
00000010
00000100
,
00001000
00000100
00000010
00000001
,
00001000
00000010
00010000
00001000
,
01000000
00100000
10000000
00010000
,
10000000
00010000
00100000
00000000
,
01000000
10000000
01000000
00100000
,
00010000
01000000
00010000
00100000
,
00001000
00010000
00000010
00000100
,
00000001
00001000
00000001
00000000
,
00000010
00000001
00001000
00000010
,
00001000
00000100
00010000
00001000
,
01000000
00100000
10000000
00100000
,
01000000
00010000
00110000
00000000
,
00001000
00100000
00001000
00010000
,
00000010
00000100
00000001
00001000
,
00000001
00000010
00000100
00001000
,
00000010
00000100
00000101
00000000
,
00001000
00000100
00010000
00001000
,
01000000
00100000
10000000
00010000
,
00100000
01000000
10000000
00100000
,
01000000
00010000
00100000
00001000
,
00010000
00000010
00000100
00000001
,
00001000
00000001
00000010
00000100
,
00001000
00000100
00000010
00000001
,
00001000
00000010
00010000
00001000
,
02000000
00000000
00000000
00000000
,
03000000
00000000
00010000
10000000
00010000
00000000
00000000
00000000
,
20000000
30000000
02000000
03000000
,
00200000
00300000
00020000
00030000
,
00100000
00001000
00010000
00001000
,
00010000
00000010
00000100
00000001
,
00001000
00000001
00000010
00000100
,
00001000
00000100
00000110
00000000
,
00000001
00001000
00000001
00001000
,
00000010
00010000
00001000
01000000
,
00100000
10000000
00010000
00100000
,
00010000
01000000
00101000
00000000
,
00100000
00001000
00010000
00000010
,
00000100
00000001
00001000
00000001
,
00000010
00000100
00000010
00000100
,
00001000
00000010
00010100
00000000
,
00001000
01000000
00100000
01000000
,
00100000
10000000
00010000
00100000
,
00010000
00100000
00001000
01000000
,
00100000
10000000
00010000
00100000
,
00002000
00000000
00000000
00000000
,
00003000
00000000
00010000
00001000
00010000
00000000
00000000
00000000
,
00010000
00000000
00000100
00000000
,
00001000
00000000
00000010
00000000
,
00000100
00000000
00000001
00000000
,
00000010
00000000
00000100
00000000
,
00001100
00001000
00000001
00001000
,
00000100
00001000
00000001
00001000
,
00000100
00010000
00001000
00010000
,
00000100
00010000
00001000
00010000
,
00001000
01000000
00100000
01000000
,
00001000
01000000
00100000
01000000
,
00010000
10000000
01000000
00100000
,
01000000
00000000
10000000
00000000
,
10010000
00010000
01000000
00010000
,
10000000
00010000
01000000
00010000
,
00100000
00001000
00010000
00001000
,
00100000
00001000
00010000
00001000
,
00010000
00000010
00000100
00000010
,
00001000
00000010
00000100
00000010
,
00000100
00000001
00001000
00000000
,
00000110
00000110
00001001
00001001
,
00000110
00000010
00001000
00000010
,
00000100
00000010
00001000
00000010
,
00010000
00000100
00001000
00000100
,
00010000
00000100
00001000
00000100
,
00010000
00001000
01000000
00001000
,
00010000
00001000
01000000
00001000
,
01000000
00100000
10000000
00100000
,
01000000
00100000
10000000
00100000
,
01000000
00010000
20000000
30000000
,
00010000
00100000
00002000
00003000
,
00010000
00000100
00020000
00030000
,
00000010
00001000
00000002
00000003
,
00000110
00000100
00002000
00003000
,
00000100
00010000
00002000
00003000
,
00100000
00010000
20000000
30000000
,
02200000
03300000
00000000
00000000
,
00000000
00000000
00000000
00000000
,
00000000
00000000
00010000
00001000
00010000
00000000
00000000
00000000
,
00000002
00000003
00000020
00000030
,
00000200
00000300
00002000
00003000
,
00020000
00030000
00200000
00300000
,
02000000
03000000
20000000
30000000
,
00200000
00000000
00300000
10000000
,
00100000
01000000
00100000
01000000
,
00010000
00100000
00001000
00010000
,
00001000
00010000
00000010
00000100
,
00000001
00001000
00001000
00000000
,
00000010
00000100
00000100
00000000
,
00000010
00010000
00010000
00001000
,
01000000
00100000
10000000
00010000
,
00210000
00000000
00300000
00000000
,
00002000
00003000
00020000
00030000
,
00000020
00000000
00000030
00000000
,
00000200
00000000
00000300
00000000
,
00002002
00000000
00003003
00000000
,
00002002
00000000
00003003
00000000
,
00022000
00000000
00033000
00000000
,
00000000
00000000
00000000
00000000
,
10000000
00010000
01000000
00100000
,
10000000
00010000
00100000
00000000
,
00001000
00100000
00001000
00010000
,
00000010
00000100
00000001
00000000
,
00001000
00000001
00001000
00000001
,
00001000
00000100
00001000
00000100
,
00010000
00001000
01000000
00100000
,
20000000
00000000
30000000
00000000
,
02200000
00000000
00000000
00000000
,
00000000
00000000
03300000
00000000
,
00022000
00000000
00000000
00000000
,
00000000
00000000
00033000
00000000
,
00002002
00000000
00000000
00000000
,
00000000
00000000
00003003
00000000
,
00000220
00000000
00000000
00000000
,
00000000
00000000
00000330
00000000
,
00022000
00000000
00000000
00000000
,
00000000
00000000
00000000
00000000
,
00000000
00000000
00000000
00000000
,
00000000
00000000
00000000
00000000
,
00000000
00000000
00000000
00000000
,
00000000
00000000
00000000
00000000
,
00000000
00000000
00000000
00000000
,
00000000
00000000
00000000
00000000
,
00033000
00000000
00000000
00000000
;

//---------------dance-double - Blank----------------
#NOTES:
     dance-double:
     Blank:
     Easy:
     6:
     0.377,0.516,0.148,0.261,0.000:
00000000
00000000
00000000
00000000
,
00000000
00000000
00000000
00000000
,
00000000
00000000
00000000
00000000
,
00000000
00000000
00000000
00000000
,
10000000
00000000
10100000
00000000
,
01000000
00000000
10010000
00000000
,
00100000
00000000
00101000
00000000
,
00010000
00000000
00011000
00000000
,
00000010
00000000
00001010
00000000
,
00000100
00000000
00001001
00000000
,
00000100
00000000
00000000
00000010
00000000
00000000
00000100
00000000
,
00000000
00000010
00000000
00000000
00000100
00000000
00000000
00000000
,
00001000
00000000
00010000
00000000
,
00000000
10000000
00000000
00000000
,
00100000
00000000
00000000
01000000
,
00000000
00000000
00110000
00000000
,
00001000
00000000
00010000
00000000
,
00000000
00000100
00000000
00000000
,
00000001
00000000
00000000
00000010
,
00001000
00000001
00001000
00000000
,
00000100
00000000
00010000
00000000
,
00001000
00000000
01000000
00000000
,
00100000
00000000
10000000
00000000
,
00010000
10000000
00010000
00000000
,
00100000
00000000
00001000
00000000
,
00010000
00000000
00000000
00000000
,
00000010
00000000
00000001
00000000
,
00001000
00000000
00000000
00000000
,
00000100
00000000
00010000
00000000
,
00001000
00000000
01000000
00000000
,
00100000
00000000
10000000
00000000
,
00010000
00100000
00010000
00000000
,
00100000
00000000
00001000
00000000
,
00010000
00000000
00000000
00000000
,
00000010
00000000
00001000
00000000
,
00000001
00000000
00000000
00000000
,
00000010
00000000
00000100
00000000
,
00001000
00000000
00000100
00000000
,
00100000
00000000
00010000
00000000
,
01000000
00100000
01000000
00000000
,
00100000
00000000
10000000
00000000
,
00010000
00000000
00000000
00000000
,
00100000
00000000
00001000
00000000
,
00010000
00000000
00000010
00001000
,
00002020
00000000
00000000
00000000
,
00000000
00003030
00000000
00000000
,
00000001
00000000
00000010
00000000
,
00000100
00000000
00001000
00000000
,
00000100
00000000
00010000
00000000
,
00001000
00000000
01000000
00000000
,
00100000
00000000
10000000
00000000
,
00010000
10000000
00010000
00000000
,
01000000
00000000
00100000
00000000
,
01000000
00000000
00000000
00000000
,
00001000
00000000
00010000
00000000
,
00001000
00000000
00000000
00000000
,
00000001
00000000
00001000
00000000
,
00000010
00000000
00000100
00000000
,
00000010
00000000
00010000
00000000
,
00001000
01000000
00001000
00000000
,
01000000
00000000
00100000
00000000
,
10000000
00000000
00000000
00000000
,
00100000
00000000
01000000
00000000
,
00001000
00000000
00000000
00000000
,
00022000
00000000
00000000
00000000
,
00000000
00000000
00033000
00000000
,
00000010
00000000
00000010
00000000
,
00000100
00000000
00000100
00000000
,
00001000
00000000
00001000
00000000
,
00100000
00000000
00000000
00000000
,
10000000
00000000
00100000
00000000
,
01000000
00000000
00010000
00000000
,
00100000
00000000
00001000
00000000
,
00010000
00000000
00000010
00000000
,
00000200
00000000
00000300
00000000
,
00000020
00000000
00000030
00000000
,
00001000
00000000
00000100
00000000
,
00000001
00001000
00000001
00000000
,
00000100
00000000
00000010
00000000
,
00001000
00000000
00010000
00000000
,
00001000
00000000
01000000
00000000
,
00100000
00000000
10000000
00000000
,
00010000
00000000
00100000
00000000
,
01000000
00000000
10000000
00000000
,
00100000
00000000
01000000
00000000
,
00110000
00000000
00101000
00000000
,
00010000
00000000
00000010
00000000
,
00000100
00000000
00000001
00000000
,
00000010
00000000
00000100
00000000
,
00000010
00000000
00000100
00000000
,
00001000
00000000
00000010
00000000
,
00010000
00000000
00001000
00000000
,
01000000
00000000
00100000
00000000
,
20000000
00000000
30000000
00000000
,
10000000
00010000
00000000
00010000
,
01000000
00010000
00000000
00010000
,
00100000
00010000
00000000
00010000
,
01000000
00000000
00001000
00000000
,
00010000
00000010
00000000
00000010
,
00001000
00000010
00000000
00000010
,
00000100
00000010
00000000
00000010
,
00010000
00000000
00001000
00000000
,
00000000
00000000
00000000
00000000
,
00000000
00000000
00000000
00000000
,
10000000
00000000
00100000
00000000
,
01000000
00000000
00010000
00000000
,
00100000
00000000
00001000
00000000
,
00010000
00000000
00000010
00000000
,
00000200
00000000
00000300
00000000
,
00000001
00001000
00000001
00000000
,
00001000
00000100
00001000
00000000
,
00000100
00010000
00000100
00010000
,
00002000
00000000
00003000
00000000
,
02000000
00000000
03000000
00000000
,
00200000
00000000
00300000
00000000
,
10000000
00010000
01000000
00100000
,
02000000
00000000
03000000
00000000
,
00020000
00030000
00200000
00300000
,
00002000
00000000
00003000
00000000
,
00000020
00000000
00000030
00000000
,
00000002
00000000
00000003
00000000
,
00000002
00000000
00000003
00000000
,
00002002
00000000
00003003
00000000
,
00000000
00000000
00000000
00000000
,
00000001
00001000
00000001
00001000
,
00000001
00001000
00000100
00000000
,
00010000
00000100
00010000
00000100
,
00010000
00001000
01000000
00001000
,
01000000
00100000
10000000
00100000
,
01000000
00010000
01000000
00010000
,
10000000
00010000
10000000
00100000
,
10000000
00000000
00000000
00000000
,
02200000
00000000
00000000
00000000
,
03300000
00000000
00000000
00000000
,
00022000
00000000
00000000
00000000
,
00033000
00000000
00000000
00000000
,
00002002
00000000
00000000
00000000
,
00003003
00000000
00000000
00000000
,
00000220
00000000
00000000
00000000
,
00000330
00000000
00000000
00000000
,
00022000
00000000
00000000
00000000
,
00000000
00000000
00000000
00000000
,
00000000
00000000
00000000
00000000
,
00000000
00000000
00000000
00000000
,
00000000
00000000
00000000
00000000
,
00000000
00000000
00000000
00000000
,
00000000
00000000
00000000
00000000
,
00000000
00000000
00000000
00000000
,
00033000
00000000
00000000
00000000
;
