#TITLE:Alien Alien (Nhato Remix);
#SUBTITLE:;
#ARTIST:Nhato & NayutalieN;
#TITLETRANSLIT:;
#SUBTITLETRANSLIT:;
#ARTISTTRANSLIT:;
#GENRE:;
#CREDIT:;
#BANNER:alien nhato banner.png;
#BACKGROUND:alien nhato bkd.png;
#LYRICSPATH:;
#CDTITLE:;
#MUSIC:alien nhato.mp3;
#OFFSET:-0.026000;
#SAMPLESTART:58.439720;
#SAMPLELENGTH:12.000000;
#SELECTABLE:YES;
#BPMS:0.000000=152.000000
;
#STOPS:
;
#BGCHANGES:162.500=clap.png=1.000=0=0=1=====,
163.000=alien nhato bkd.png=1.000=0=0=1=====,
194.500=clap.png=1.000=0=0=1=====,
195.000=alien nhato bkd.png=1.000=0=0=1=====,
290.500=clap.png=1.000=0=0=1=====,
291.000=alien nhato bkd.png=1.000=0=0=1=====,
322.500=clap.png=1.000=0=0=1=====,
323.000=alien nhato bkd.png=1.000=0=0=1=====,
99999=-nosongbg-=1.000=0=0=0 // don't automatically add -songbackground-
;
#KEYSOUNDS:;
#ATTACKS:;

//---------------dance-single - ----------------
#NOTES:
     dance-single:
     :
     Beginner:
     1:
     0.126865,0.220065,0.027116,0.013558,0.000000,131.000000,127.000000,4.000000,2.000000,0.000000,0.000000,0.126865,0.220065,0.027116,0.013558,0.000000,131.000000,127.000000,4.000000,2.000000,0.000000,0.000000:
0000
0000
0000
0000
,
0000
0000
0000
0000
,
0000
0000
0000
0000
,
0000
0000
0000
0000
,
0000
0000
0000
0000
,
0000
0000
0000
0000
,
0000
0000
0000
0000
,
0000
0000
0000
0000
,
0000
0000
0000
0000
,
0010
0000
0000
0000
,
0100
0000
0100
0000
,
0100
0000
0000
0000
,
0001
0000
0001
0000
,
0001
0000
0000
0000
,
1000
0000
1000
0000
,
1001
0000
0000
0000
,
0000
0000
0000
0000
,
0010
0000
0010
0010
,
0010
0010
0010
0000
,
0100
0000
0100
0100
,
0100
0100
0100
0000
,
0001
0000
0001
0001
,
0001
0001
0001
0000
,
1000
0000
0000
0000
,
0000
0000
0000
0000
,
0010
0000
0000
0000
,
1000
0000
0001
0000
,
1000
0000
0000
0000
,
0010
0000
0100
0000
,
0001
0000
0000
0000
,
1000
0000
0010
0000
,
0100
0000
0000
0000
,
0000
0000
0000
0000
,
0001
0000
0000
0000
,
1000
0000
0000
0000
,
0001
0000
0001
0000
,
0001
0001
0001
0000
,
0100
0000
0000
0000
,
0010
0000
0000
0000
,
1000
0000
1000
0000
,
1000
0000
0000
0000
,
0100
0000
0000
0000
,
0001
0000
0000
0000
,
0010
0000
0000
0000
,
0000
0000
0000
0000
,
0100
0000
0000
0000
,
0001
0000
0000
0000
,
1000
0000
0001
0000
,
1000
0000
0000
0000
,
0010
0000
0010
0000
,
0100
0000
0000
0000
,
1000
0000
0001
0000
,
0000
0000
0000
0000
,
0010
0000
0010
0010
,
0010
0010
0010
0000
,
1000
0000
1000
1000
,
1000
1000
1000
0000
,
0001
0000
0001
0001
,
0001
0001
0001
0000
,
0100
0000
0000
0000
,
0000
0000
0000
0000
,
1000
0000
0000
0000
,
1001
0000
0000
0000
,
0010
0000
0000
0000
,
0110
0000
0000
0000
,
0100
0000
0000
0000
,
1001
0000
0000
0000
,
0010
0000
0000
0000
,
0100
0000
0000
0000
,
0001
0000
0000
0000
,
1000
0000
0000
0000
,
0010
0000
0100
0000
,
0010
0000
0000
0000
,
1000
0000
0000
0000
,
0001
0000
0000
0000
,
0010
0000
0000
0000
,
0000
0000
0000
0000
,
0100
0000
0000
0000
,
1000
0000
0000
0000
,
0010
0000
0100
0000
,
0001
0000
0000
0000
,
0010
0000
0000
0000
,
1000
0000
0000
0000
,
0100
0000
0000
0000
,
0000
0000
0000
0000
,
0001
0000
0001
0001
,
0001
0001
0001
0000
,
1000
0000
1000
1000
,
1000
1000
1000
0000
,
0010
0000
0010
0010
,
0010
0010
0010
0000
,
0200
0300
0000
0000
,
0000
0000
0020
0030
;

//---------------dance-single - ----------------
#NOTES:
     dance-single:
     :
     Easy:
     5:
     0.317648,0.378272,0.122023,0.332174,0.000000,328.000000,310.000000,18.000000,49.000000,0.000000,0.000000,0.317648,0.378272,0.122023,0.332174,0.000000,328.000000,310.000000,18.000000,49.000000,0.000000,0.000000:
0000
0000
0000
0000
,
0000
0000
0000
0000
,
0000
0000
0000
0000
,
0000
0000
0000
0000
,
0000
0000
0000
0000
,
0010
0000
1000
0000
,
0001
0100
1000
0100
,
0001
1000
0010
0200
,
0300
0001
1000
0100
,
0010
0011
0000
0100
,
0100
0000
0010
1000
0010
0000
0100
0000
,
0001
1001
0000
0010
,
1000
0000
0001
0010
0001
0000
0100
0000
,
0010
1010
0000
0001
,
1000
0100
0010
0001
,
2000
3000
0000
0000
,
0000
0000
0000
0000
,
1001
0000
0010
0020
0030
0020
0030
0020
,
0030
0020
0030
0020
0030
0010
0010
0000
,
1001
0000
0100
0200
0300
0200
0300
0200
,
0300
0200
0300
0200
0300
0100
0100
0000
,
0110
0000
1000
2000
3000
2000
3000
2000
,
3000
2000
3000
2000
3000
1000
1000
0000
,
0110
0000
0001
0002
0003
0002
0003
0002
,
0003
0010
0000
0010
0010
0000
0000
0000
,
1000
0000
0001
0000
,
0100
0010
1000
0001
,
0010
0000
0100
0000
,
1000
0010
0001
0100
,
1000
0000
0010
0000
,
0100
0001
1000
0001
,
0020
0230
2300
3002
,
0003
0100
0010
1000
,
0001
0001
1000
1000
,
0001
0001
1000
1000
,
0010
0100
0010
0100
,
0001
1000
0001
1000
0001
0000
0000
0000
,
0010
1000
0001
0000
,
1000
0100
0001
0000
,
1000
0010
0100
0001
,
0010
0000
0100
0000
1000
0001
0001
0000
,
0100
0010
1000
0001
,
0010
0100
1100
0000
,
1000
0010
0100
0001
,
0000
0100
0100
0000
0010
0010
0000
0000
,
1000
0010
0001
0000
,
0010
1000
0100
0000
,
0010
0001
1000
0010
,
0100
0000
0001
0000
1000
0001
0001
0000
,
0010
0100
1000
0010
,
1000
0001
2002
3003
,
0010
1000
0001
0100
,
0000
0010
0010
0000
1000
1000
0000
0001
,
0001
0000
0000
0200
0300
0020
0030
0200
,
0300
0020
0030
0200
0300
0010
0010
0000
,
1001
0000
0000
2000
3000
0002
0003
2000
,
3000
0002
0003
2000
3000
0001
0001
0000
,
1010
0000
0000
0200
0300
0002
0003
0200
,
0300
0002
0003
0200
0300
0001
0001
0000
,
0110
0000
0000
0000
,
0000
1000
1000
0000
0010
0010
0000
0000
,
0100
0000
0001
0000
,
1000
0001
1001
0000
,
0010
0000
1000
0000
,
0100
0010
0011
0001
,
1000
0000
0010
0000
,
0100
0010
1010
0000
,
0100
0100
0010
0010
,
1000
0001
1001
0000
,
0010
1000
0100
0000
,
1000
0100
0001
0000
,
0100
0100
0010
1000
,
0001
0000
0010
0000
0100
0010
0010
0000
,
0001
0100
1000
0100
,
0010
1000
0001
0000
,
1000
0100
0010
0001
,
0000
0100
0100
0000
0010
0010
0000
0000
,
0001
0010
1000
0000
,
0100
1000
0010
0000
,
0100
0001
1000
0100
,
0010
0000
0001
0000
1000
0001
0001
0000
,
0100
0010
1000
0001
,
0010
0100
2200
3300
,
0010
0100
0001
1000
,
0000
0100
0100
0000
0010
0010
0000
0000
,
0002
0003
0001
0001
,
1000
1000
0010
0000
,
0200
0300
0100
0100
,
0010
0010
1000
0000
,
0002
0003
1000
1000
,
0100
0100
0010
0000
,
2002
3003
0000
0000
,
0000
0010
0010
0000
0100
0200
0000
0000
,
0300
0000
0000
0000
;

//---------------dance-single - ----------------
#NOTES:
     dance-single:
     :
     Medium:
     6:
     0.365101,0.441317,0.142360,0.162698,0.000000,377.000000,356.000000,21.000000,24.000000,0.000000,0.000000,0.365101,0.441317,0.142360,0.162698,0.000000,377.000000,356.000000,21.000000,24.000000,0.000000,0.000000:
0000
0000
0000
0000
,
0000
0000
0000
0000
,
0000
0000
0000
0000
,
0000
0000
0000
0000
,
0000
0000
0000
0000
,
0010
0000
0000
1000
0001
0000
0000
0100
,
0010
1000
0001
1000
,
0010
0100
0001
1000
,
0000
0000
0010
0000
0001
0000
1000
0010
,
0100
0001
0000
1000
,
0001
0000
0100
0010
0100
0000
0001
0000
,
1000
0100
0000
0010
,
0001
0000
1000
0010
0100
0000
0001
0000
,
1000
0100
0000
0010
,
0001
0000
1000
0010
1000
0000
0010
0000
,
0200
0300
0000
0000
,
0000
0000
0000
0000
,
1000
0000
0010
0100
0000
1000
0000
0100
,
0000
0001
0000
0100
0000
0010
0010
0000
,
1000
0000
0001
0010
0000
0100
0000
0010
,
0000
0001
0000
1000
0010
1000
0010
0000
,
0100
0000
0001
1000
0000
0100
0000
0010
,
0000
0001
0000
0100
0000
0010
0010
0000
,
1000
0000
0001
1000
0000
0010
0000
0100
,
0000
0010
0000
0010
0020
0000
0030
0000
,
1000
0000
0001
0000
,
0100
0000
0010
0000
1000
0001
1000
0000
,
0100
0000
0010
0000
,
0001
0000
1000
0000
0010
0100
0010
0100
,
0010
0000
1000
0000
,
0100
0010
0001
1000
,
0020
0230
0302
2003
,
3000
0100
0010
0001
,
1000
0001
1000
0010
,
1000
0001
1000
0010
,
0100
0010
0100
0010
,
0100
0010
0100
0010
0200
0000
0300
0000
,
0001
0100
1100
0000
,
1000
0010
0011
0000
,
1000
0001
1000
0000
0010
0000
0100
0000
,
0001
0100
0010
1000
0010
0100
0100
0000
,
0001
0000
1000
0000
0100
0010
0001
1000
,
0001
0000
1000
0010
0200
0000
0300
0000
,
0001
0010
0100
1000
,
0000
0001
0001
0000
0100
0100
0000
0000
,
0010
1000
1001
0000
,
0100
0001
1001
0000
,
0010
0100
0001
0000
1000
0000
0100
0000
,
0010
0001
1000
0010
0100
0001
0001
0000
,
1000
0001
0010
0100
,
1001
0110
2002
3003
,
0100
0000
0010
0000
1000
0000
0001
0001
,
0000
0100
0100
0000
0010
0010
0000
0100
,
0010
0000
0010
0100
0000
1000
0000
0100
,
0000
0001
0000
0100
0000
0010
0010
0000
,
1000
0000
0001
0010
0000
1000
0000
0010
,
0000
0001
0000
0100
0010
0100
0010
0000
,
1000
0000
0001
1000
0000
0100
0000
0001
,
0000
0100
0000
1000
0000
0010
0010
0000
,
0100
0000
0000
0000
,
0000
0001
0001
0000
1000
1000
0000
0000
,
0020
0030
0200
0300
,
0001
0000
1000
0000
0010
1000
0010
0000
,
0200
0300
0002
0003
,
1000
0000
0100
0000
0010
0001
1000
0000
,
0020
0030
0200
0300
,
0001
0000
1000
0000
0010
1000
0100
0000
,
0001
0001
0001
0000
1000
1000
1000
0000
,
0010
0100
0020
0030
,
0010
1000
1100
0000
,
0100
0001
0011
0000
,
1000
0010
0100
0000
0001
0000
1000
0000
,
0001
0000
0010
0100
1000
0001
0001
0000
,
0100
0001
1000
0000
0010
0000
1000
0000
,
0001
0000
1000
0100
0010
0000
0000
0000
,
0001
0000
0100
0000
0010
0000
1000
1000
,
0000
0001
0001
0000
1000
1000
0000
0000
,
0001
0010
1100
0000
,
1000
0010
0101
0000
,
1000
0001
1000
0000
0010
0100
0001
0000
,
1000
0100
1000
0001
1000
0010
0010
0000
,
0100
0001
1000
0000
0010
0000
0100
0000
,
1001
0110
2002
3003
,
0010
1000
0001
0010
,
0000
0100
0100
0000
1000
1000
0000
0001
,
0002
0103
0100
1000
,
1000
0010
0010
0001
,
1001
0100
0100
0001
,
0001
0010
0010
1000
,
1100
0100
0001
0001
,
1000
1000
0010
0100
,
2002
3003
0000
0000
,
0000
0110
0110
0000
1001
2002
0000
0000
,
3003
0000
0000
0000
;

//---------------dance-single - ----------------
#NOTES:
     dance-single:
     :
     Hard:
     8:
     0.536514,0.598930,0.244046,0.149139,0.027116,554.000000,518.000000,36.000000,22.000000,8.000000,0.000000,0.536514,0.598930,0.244046,0.149139,0.027116,554.000000,518.000000,36.000000,22.000000,8.000000,0.000000:
// measure 0
0000
0000
0000
0000
,  // measure 1
0000
0000
0000
0000
,  // measure 2
0000
0000
0000
0000
,  // measure 3
0000
0000
0000
0000
,  // measure 4
0000
0000
0000
0000
,  // measure 5
0010
0000
0010
1000
0001
0000
0001
1000
,  // measure 6
0100
0010
0001
0100
0010
1000
0001
0010
,  // measure 7
0200
2300
3020
0032
,  // measure 8
0103
1000
0001
1000
0010
0100
0001
1000
,  // measure 9
0001
0000
0100
0010
0000
1000
0001
1000
,  // measure 10
0001
1000
0010
0100
0001
0000
1000
0000
,  // measure 11
0001
0000
0100
0010
0000
1000
0100
0010
,  // measure 12
0001
1000
0010
0100
0010
0000
1000
0000
,  // measure 13
0001
0000
1000
0100
0000
0010
0001
1000
,  // measure 14
0010
0100
0001
1000
0001
0000
0010
0000
,  // measure 15
2002
0000
0000
0000
,  // measure 16
3003
0000
0000
0000
,  // measure 17
1001
0000
1000
0100
0001
0100
1000
0100
,  // measure 18
0001
0100
1000
0100
0001
0100
1000
0000
,  // measure 19
1001
0000
0001
0100
1000
0100
0001
0100
,  // measure 20
1000
0100
0001
0100
1000
0100
0001
0000
,  // measure 21
1001
0000
0010
1000
0100
1000
0010
1000
,  // measure 22
0100
1000
0010
1000
0100
1000
0010
0000
,  // measure 23
0110
0000
0100
0001
0010
0001
0100
0010
,  // measure 24
0000
0100
0000
0010
0010
0010
0010
0000
,  // measure 25
1000
0000
1000
0001
0010
0000
0010
0001
,  // measure 26
0100
0010
1000
0100
0010
0001
0100
0010
,  // measure 27
1000
0000
1000
0001
0010
0000
0010
0100
,  // measure 28
1000
0001
0100
0010
1000
0001
0010
0001
,  // measure 29
1000
0000
1000
0010
0100
0000
0100
0001
,  // measure 30
1000
0001
0010
0100
1000
0010
0100
0010
,  // measure 31
2000
3200
0302
0023
,  // measure 32
0030
1000
0001
1000
0001
1000
0010
0100
,  // measure 33
0001
1000
0001
0100
,  // measure 34
0001
1000
0001
0100
,  // measure 35
0001
1000
0001
0100
0001
1000
0001
0100
,  // measure 36
0001
0100
0001
0100
0001
0100
0001
0100
0002
0000
0000
0000
0003
0000
0000
0000
,  // measure 37
1000
0000
0001
1000
0010
0000
0100
0000
,  // measure 38
0010
0000
0100
0001
1000
0000
0010
0000
,  // measure 39
1000
1000
0001
0001
0100
0010
0100
0000
,  // measure 40
0001
0010
0100
1000
0020
M100
M130
0000
,  // measure 41
1000
0001
1000
0000
0001
0100
0010
0000
,  // measure 42
1000
0000
0110
1000
0001
0000
0100
0000
,  // measure 43
0010
1000
0100
0010
0001
0100
0010
1000
,  // measure 44
0000
0001
0001
0000
1000
1000
0000
0000
,  // measure 45
0010
0000
0100
0001
1000
0000
0001
0010
,  // measure 46
0100
0000
1000
0010
1000
0000
0010
0000
,  // measure 47
0100
0100
0001
0001
1000
0001
1000
0010
,  // measure 48
0100
0001
0100
0010
2000
0M01
3M01
0000
,  // measure 49
1000
0100
0010
0001
1000
0000
0010
0000
,  // measure 50
1001
0110
2002
3003
,  // measure 51
0100
0010
1000
0001
0010
0001
1000
0010
,  // measure 52
0000
0100
0100
0000
0010
0010
0000
1000
,  // measure 53
1001
0000
0001
0100
1000
0100
0001
0100
,  // measure 54
1000
0100
0001
0100
1000
0100
0001
0000
,  // measure 55
1001
0000
1000
0100
0001
0100
1000
0100
,  // measure 56
0001
0100
1000
0100
0001
0100
1000
0000
,  // measure 57
0110
0000
0010
0001
0100
0001
0010
0001
,  // measure 58
0100
0001
0010
0001
0100
0001
0010
0000
,  // measure 59
0200
0300
0000
0000
,  // measure 60
0000
0010
0010
0000
0100
0100
0000
0000
,  // measure 61
1000
0000
0010
1000
0010
0000
0000
0000
0100
0000
0001
0100
0001
0000
0000
0000
,  // measure 62
1000
0001
1000
0010
0100
0010
0100
0000
,  // measure 63
0001
0000
0010
0001
0010
0000
0000
0000
0100
0000
1000
0100
1000
0000
0000
0000
,  // measure 64
0010
1000
0100
1000
0001
0100
0010
0000
,  // measure 65
1000
1000
0001
0000
0010
0010
0100
0000
,  // measure 66
1000
0010
0100
0001
1000
0001
0010
0000
,  // measure 67
0100
1000
0100
1000
0001
1000
0010
0000
,  // measure 68
0100
0001
0100
0001
1000
0000
0000
0000
,  // measure 69
0001
0000
1000
0010
0100
0000
0001
0000
,  // measure 70
1000
0000
0001
0010
0100
0000
1000
0000
,  // measure 71
0010
0010
0100
0100
0001
1000
0001
1000
,  // measure 72
0010
0100
0001
1000
0020
M100
M130
0000
,  // measure 73
0100
0001
1000
0000
0001
0010
0100
0000
,  // measure 74
1000
0000
0110
0001
1000
0000
0010
0000
,  // measure 75
0100
0001
1000
0100
0010
0001
1000
0010
,  // measure 76
0000
0100
0100
0000
0010
0010
0000
0000
,  // measure 77
1000
0000
0010
1000
0001
0000
0010
0100
,  // measure 78
1000
0000
0001
0100
0010
0000
1000
0000
,  // measure 79
0001
0001
1000
1000
0010
0100
0001
1000
,  // measure 80
0100
0010
0001
0100
0020
010M
013M
0000
,  // measure 81
1000
0001
0010
0100
1000
0010
0100
0000
,  // measure 82
1001
0110
2002
3003
,  // measure 83
1000
0001
1000
0100
0010
0001
0100
0010
,  // measure 84
0000
0100
0100
0000
0001
0001
0000
1000
,  // measure 85
1001
1001
0101
0101
,  // measure 86
1001
1001
1000
0100
,  // measure 87
1001
1001
1100
1100
,  // measure 88
1001
1001
0010
0001
,  // measure 89
0101
0101
1100
1100
,  // measure 90
0011
0011
1010
1010
,  // measure 91
0200
0300
0000
0000
,  // measure 92
0000
1000
1000
0000
0001
0002
0000
0000
,  // measure 93
0003
0000
0000
0000
;

//---------------dance-single - ----------------
#NOTES:
     dance-single:
     :
     Challenge:
     10:
     0.727297,0.914157,0.494872,0.183035,0.366069,751.000000,678.000000,73.000000,27.000000,4.000000,0.000000,0.727297,0.914157,0.494872,0.183035,0.366069,751.000000,678.000000,73.000000,27.000000,4.000000,0.000000:
// measure 0
0000
0000
0000
0000
,  // measure 1
0000
0000
0000
0000
,  // measure 2
0000
0000
0000
0000
,  // measure 3
0000
0000
0000
0000
,  // measure 4
0000
0000
0000
0000
,  // measure 5
0010
0000
0000
0010
0000
0000
0010
0000
1000
0000
0000
0000
1000
0000
0000
0000
,  // measure 6
0100
0000
0000
0100
0000
0000
0100
0000
0001
0000
0000
0000
0001
0000
0000
0000
,  // measure 7
0010
0000
0000
0010
0000
0000
0010
0000
0001
0000
0000
0000
0001
0000
0000
0000
,  // measure 8
0100
0000
0000
0100
0000
0000
0100
0000
1000
0000
0000
0000
1000
0000
0000
0000
,  // measure 9
1010
0000
0100
0001
1000
0001
0010
0100
,  // measure 10
1000
0000
0100
0010
0100
0000
1000
0000
0010
0000
0100
0000
0001
0000
1000
0000
,  // measure 11
1001
0000
1000
0001
0010
1000
0010
0100
,  // measure 12
1000
0000
0010
0100
0010
0000
0100
0000
0001
0000
1000
0000
0001
0000
0010
0000
,  // measure 13
0011
0000
1000
0010
0001
0010
1000
0001
,  // measure 14
1000
0000
0001
0010
0100
0000
0010
0000
0100
0000
1000
0000
0010
0000
0100
0000
,  // measure 15
0102
0000
0000
0100
0000
0000
0100
0000
0000
0100
0000
0000
0100
0000
0000
0100
0000
0000
0103
0000
0000
0010
0100
0010
,  // measure 16
0100
0010
0100
0010
1000
0001
0010
0001
0100
0010
1000
0001
1000
0001
1000
0000
,  // measure 17
0110
0000
0000
0000
0010
1000
0100
0000
0010
0001
0100
0000
0010
1000
0100
0000
,  // measure 18
0010
0001
0100
0000
0010
1000
0100
0000
0010
1000
0100
0000
0110
0000
0000
0000
,  // measure 19
0110
0000
0000
0000
0100
0001
0010
0000
0100
1000
0010
0000
0100
0001
0010
0000
,  // measure 20
0100
1000
0010
0000
0100
0001
0010
0000
0100
0001
0010
0000
0110
0000
0000
0000
,  // measure 21
1001
0000
0000
0000
0001
0100
1000
0000
1000
0100
0001
0000
0001
0100
1000
0000
,  // measure 22
1000
0100
0001
0000
0001
0100
1000
0000
0001
0100
1000
0000
1100
0000
0000
0000
,  // measure 23
1001
0000
0000
0000
1000
0100
0001
0000
0001
0100
1000
0000
1000
0000
0010
0000
,  // measure 24
0000
0110
0000
1001
0000
0010
0010
0010
,  // measure 25
0010
0000
0010
1000
0100
0000
0100
0010
,  // measure 26
0001
1000
0010
0100
0001
0100
0010
1000
,  // measure 27
0001
0000
0001
0010
1000
0000
1000
0010
,  // measure 28
0001
0100
0010
1000
0001
0100
0010
1000
,  // measure 29
0100
0000
0100
0010
0001
0000
0001
0100
,  // measure 30
0010
1000
0001
0010
0100
1000
0010
0100
,  // measure 31
0101
1100
1010
0012
,  // measure 32
1003
0001
1000
0001
1000
0001
0100
0010
,  // measure 33
2000
3020
2030
3200
,  // measure 34
2300
3020
2030
3200
,  // measure 35
1300
0010
1000
0100
1000
0010
1000
0100
,  // measure 36
1000
0010
1000
0100
1000
0010
1000
0100
2000
0000
0001
0000
0002
0000
3003
0000
,  // measure 37
0010
0000
0000
0010
0100
0000
1000
0000
0001
0000
01M0
0000
0100
0000
1000
0000
,  // measure 38
0010
0000
0000
0010
0100
0000
0001
0000
2000
0000
0000
0000
3010
0000
0100
0000
,  // measure 39
0001
0000
0001
0000
1000
0000
1000
0000
0010
1000
0010
0000
0100
0000
0001
0000
,  // measure 40
1000
0100
0010
0001
0200
1000
0301
0000
,  // measure 41
0010
1000
0001
0000
1000
0100
0010
0001
,  // measure 42
0200
0000
1300
0100
0002
0000
0003
0010
,  // measure 43
0100
1000
0001
0100
0010
0001
0010
1000
,  // measure 44
0000
0110
0110
0000
0101
0101
0000
0000
,  // measure 45
0100
0000
0000
0100
0010
0000
1000
0000
0M10
0000
0010
0000
0001
0000
1000
0000
,  // measure 46
0100
0000
0000
0100
0010
0000
0001
0000
1000
0000
0000
0000
0010
0000
0100
0000
,  // measure 47
0001
0001
0010
0010
0100
1000
0010
0100
,  // measure 48
0001
1000
0100
0010
0200
0001
1300
0000
,  // measure 49
1000
0010
0100
0001
1000
0000
0010
0000
,  // measure 50
1010
0000
1001
0000
0220
0000
0330
0100
,  // measure 51
0100
0001
0100
1000
0100
0001
1000
0001
,  // measure 52
0000
1010
1010
0000
0101
0101
0000
1000
,  // measure 53
1010
0000
0000
0000
0100
0001
0010
0000
0100
1000
0010
0000
0100
0001
0010
0000
,  // measure 54
0100
1000
0010
0000
0100
0001
0010
0000
0100
0001
0010
0000
0110
0000
0000
0000
,  // measure 55
0110
0000
0000
0000
0010
1000
0100
0000
0010
0001
0100
0000
0010
1000
0100
0000
,  // measure 56
0010
0001
0100
0000
0010
1000
0100
0000
0010
1000
0100
0000
0110
0000
0000
0000
,  // measure 57
1001
0000
0000
0000
1000
0100
0001
0000
0001
0100
1000
0000
1000
0100
0001
0000
,  // measure 58
0001
0100
1000
0000
1000
0100
0001
0000
1000
0100
0001
0000
0001
0000
0000
0000
,  // measure 59
1001
0000
0000
0000
0001
1000
0010
1000
0010
0100
0001
0100
0001
0100
0010
0100
,  // measure 60
0000
0011
0011
0000
1100
1100
0000
0000
,  // measure 61
1000
0010
0110
0000
0001
0010
0110
0000
,  // measure 62
1000
0010
0100
0000
0001
0010
0100
1000
0001
0000
1000
0000
1001
0000
0000
0000
,  // measure 63
0001
0100
0110
0000
1000
0100
0110
0000
,  // measure 64
0001
0010
0100
1000
0001
1000
0010
0100
0001
0100
0010
1000
0001
0000
0000
0000
,  // measure 65
0010
1000
1100
0000
0100
0001
0011
0000
,  // measure 66
0010
0100
1000
0010
0100
0001
0100
0010
1000
0001
0010
0100
1000
0000
0000
0000
,  // measure 67
0010
0000
0100
0000
0001
0000
1000
0001
1000
0000
0010
0000
0100
0000
0000
0000
,  // measure 68
0001
0001
1000
1000
0010
0000
0000
0000
,  // measure 69
1000
0000
0000
1000
0001
0000
0M10
0000
0010
0000
1000
0000
0001
0000
1000
0000
,  // measure 70
0001
0000
0000
0001
1000
0000
0010
0000
0100
0000
0000
0000
0010
0000
0100
0000
,  // measure 71
0001
0001
1000
1000
0100
0010
0001
1000
,  // measure 72
0010
0001
0010
1000
0200
0010
1300
0000
,  // measure 73
0010
0100
0001
1000
0001
0010
0100
1000
,  // measure 74
0010
0100
0010
0000
1000
0000
0001
0000
0020
0000
0000
0000
0030
0000
0100
0000
,  // measure 75
1000
0010
0100
0001
0010
1000
0010
0100
,  // measure 76
0000
0011
0011
0000
1001
1001
0000
0000
,  // measure 77
0001
0000
0000
0001
1000
0000
0M10
0000
0010
0000
0001
0000
1000
0000
0010
0000
,  // measure 78
1000
0000
0000
1000
0001
0000
0100
0000
0010
0000
0000
0000
0001
0000
1000
0000
,  // measure 79
0010
0010
0100
0100
0001
1000
0100
0001
,  // measure 80
0100
0010
0001
1000
0020
0001
0130
0000
,  // measure 81
0010
1000
0001
0010
0100
0001
0100
1000
,  // measure 82
1010
0000
0101
0000
2002
3003
0010
1000
,  // measure 83
0100
0001
0100
0010
0001
1000
0010
0100
,  // measure 84
0000
0110
0110
0000
1001
1001
0000
0010
,  // measure 85
0110
0000
0000
0000
1001
0000
0000
0000
1000
0010
0001
0000
1000
0100
0001
0000
,  // measure 86
1000
0010
0001
0000
1000
0100
0001
0000
1010
0000
0000
0000
0101
0000
0000
0000
,  // measure 87
0011
0000
0000
0000
1100
0000
0000
0000
0001
0010
1000
0000
0001
0100
1000
0000
,  // measure 88
0001
0010
1000
0000
0001
0100
1000
0000
0011
0000
0000
0000
1100
0000
0000
0000
,  // measure 89
0101
0000
0000
0000
1010
0000
0000
0000
0010
1000
0100
0000
0010
0001
0100
0000
,  // measure 90
0010
1000
0100
0000
0010
0001
0100
0000
1010
0000
0000
0000
0101
0000
0000
0000
,  // measure 91
2100
0000
0000
0000
3010
1000
0010
1000
0001
1000
0100
0010
0001
0100
0001
0100
,  // measure 92
0000
0110
0110
0000
1001
2002
0000
0000
,  // measure 93
3003
0000
0000
0000
;

//---------------dance-double - ----------------
#NOTES:
     dance-double:
     :
     Easy:
     4:
     0.274068,0.345351,0.074570,0.054233,0.000000,283.000000,272.000000,11.000000,8.000000,0.000000,0.000000,0.274068,0.345351,0.074570,0.054233,0.000000,283.000000,272.000000,11.000000,8.000000,0.000000,0.000000:
00000000
00000000
00000000
00000000
,
00000000
00000000
00000000
00000000
,
00000000
00000000
00000000
00000000
,
00000000
00000000
00000000
00000000
,
00000000
00000000
00000000
00000000
,
10000000
00000000
00100000
00000000
,
01000000
00010000
01000000
00001000
,
00010000
00010000
00001000
00001000
,
00000000
00000010
00000001
00001000
,
00001010
00000010
00000000
00001000
,
00001000
00000100
00010000
00001000
,
01001000
01000000
00000000
00100000
,
00100000
10000000
00010000
00100000
,
00101000
00001000
00000000
00000100
,
00000100
00000010
00000001
00001000
,
00001001
00000000
00000000
00000000
,
00000000
00000000
00000000
00000000
,
00011000
00000000
00000000
00000100
00000000
00000100
00000000
00000100
,
00000000
00000100
00000000
00000100
00000000
00000100
00000100
00000000
,
00011000
00000000
00000000
01000000
00000000
01000000
00000000
01000000
,
00000000
01000000
00000000
01000000
00000000
01000000
01000000
00000000
,
00011000
00000000
00000000
00000010
00000000
00000010
00000000
00000010
,
00000000
00000010
00000000
00000010
00000000
00000010
00000010
00000000
,
00011000
00000000
00000000
00100000
00000000
00100000
00000000
00100000
,
00000000
00010000
00000000
00010000
00010000
00000000
00000000
00000000
,
00001000
00000000
00000010
00000000
,
00000001
00001000
00000100
00010000
,
00001000
00000000
01000000
00000000
,
00100000
10000000
01000000
00010000
,
00001000
00000000
00000100
00000000
,
00000010
00000001
00001000
00000100
,
00010000
00010000
00001000
00001000
,
00000000
01000000
00100000
10000000
,
00020000
00030000
00002000
00003000
,
00020000
00030000
00002000
00003000
,
00010000
00001000
00010000
00001000
,
00010000
00001000
00010000
00001000
00010000
00000000
00000000
00000000
,
00000010
00001000
00000001
00000000
,
00000100
00001000
00010000
00000000
,
01000000
01000000
00100000
10000000
,
00010000
00100000
01000000
00000000
,
10000000
10000000
00100000
00010000
,
00001000
00010000
00000100
00000000
,
00000001
00001000
00000010
00000100
,
00000000
00001000
00000000
00000000
00001000
00000000
00000000
00000000
,
00010000
00100000
01000000
00000000
,
10000000
00100000
01000000
00000000
,
00010000
00100000
00001000
00001000
,
00010000
00000010
00000100
00000000
,
00000001
00000001
00001000
00001000
,
00000100
00010000
00011000
00000000
,
01000000
00100000
10000000
00010000
,
00000000
00100000
00000000
00000000
00010000
00000000
00000000
00000000
,
20020000
00000000
30030000
00000000
,
00000000
00000000
00000000
00000000
,
00100000
00000000
00000000
01000000
00000000
00010000
00000000
01000000
,
00000000
00010000
00000000
01000000
00000000
00010000
00010000
00000000
,
00100000
00000000
00000000
00001000
00000000
00010000
00000000
00001000
,
00000000
00010000
00000000
00001000
00000000
00010000
00010000
00000000
,
00000010
00000000
00000000
00000000
,
00000000
00000100
00000000
00000000
00000100
00000000
00000000
00000000
,
00001000
00000000
00000100
00000000
,
00010000
00001000
01000000
00000000
,
00100000
00000000
10000000
00000000
,
00010000
00100000
00001000
00000000
,
00010000
00000000
00000100
00000000
,
00000010
00000001
00001000
00000000
,
00000100
00000100
00010000
00010000
,
00001000
01000000
00100000
00000000
,
10000000
01000000
00010000
00000000
,
00100000
00001000
00010000
00000000
,
00000010
00000010
00000100
00000001
,
00001000
00000100
00000010
00000000
,
00001000
00000100
00010000
00001000
,
01000000
00100000
10000000
00000000
,
00100000
00100000
01000000
00010000
,
00000000
00100000
00000000
00000000
00001000
00000000
00000000
00000000
,
00000010
00001000
00000010
00000000
,
00000100
00000001
00001000
00000000
,
00000100
00000100
00010000
00001000
,
01000000
00100000
10000000
00000000
,
01000000
00100000
00010000
00100000
,
00001000
00010000
00011000
00000000
,
00010000
00000010
00000100
00000001
,
00000000
00001000
00000000
00000000
00000100
00000000
00000000
00000000
,
00000200
00000000
00000000
00000000
,
00000300
00000000
00000000
00000000
,
00000010
00000010
00010000
00010000
,
00001000
00001000
01000000
01000000
,
00100000
00100000
10000000
10000000
,
00010000
00010000
00100000
00100000
,
00200000
00300000
00000000
00000000
,
00000000
00010000
00010000
00000000
00001000
00001000
00000000
00000000
;

//---------------dance-double - ----------------
#NOTES:
     dance-double:
     :
     Medium:
     5:
     0.317648,0.472840,0.128802,0.176256,0.000000,328.000000,309.000000,19.000000,26.000000,0.000000,0.000000,0.317648,0.472840,0.128802,0.176256,0.000000,328.000000,309.000000,19.000000,26.000000,0.000000,0.000000:
00000000
00000000
00000000
00000000
,
00000000
00000000
00000000
00000000
,
00000000
00000000
00000000
00000000
,
00000000
00000000
00000000
00000000
,
00000000
00000000
00000000
00000000
,
00010000
00000000
00001000
00000000
,
00010000
00000010
00000100
00000001
,
00000020
00000230
00002300
00003002
,
00000003
00000000
00001000
00000000
00000100
00010000
00001000
00010000
,
00001000
01000000
00100000
00100000
,
10000000
00010000
00100000
00001000
,
00011000
00010000
00000010
00000100
,
00000001
00000001
00000010
00000100
,
00001100
00001000
00000100
00010000
,
00001000
01000000
00100000
00100000
,
20020000
00000000
30030000
00000000
,
00000000
00000000
00000000
00000000
,
10010000
00000000
10000000
01000000
00000000
00100000
00000000
00010000
,
00000000
00001000
00000000
00000100
00000000
00000010
00000001
00000000
,
00001001
00000000
00000001
00000100
00000000
00000010
00000000
00001000
,
00000000
00010000
00000000
00100000
00000000
01000000
10000000
00000000
,
10010000
00000000
10000000
00100000
00000000
00100000
00000000
01000000
,
00000000
01000000
00000000
00001000
00000000
00010000
00010000
00000000
,
00011000
00000000
00010000
00010000
00000000
00000010
00000000
00000100
,
00000000
00000010
00000000
00000010
00000010
00000000
00000000
00000000
,
00000001
00000000
00001000
00000000
,
00000100
00000000
00010000
00000000
00001000
00010000
00001000
00000000
,
01000000
00000000
00100000
00000000
,
10000000
00000000
00010000
00000000
00100000
00001000
00100000
00000000
,
00001000
00000000
00000010
00000000
,
00000001
00000100
00000010
00010000
,
00002000
02003000
03200000
20300000
,
30000000
00100000
01000000
00001000
,
00010000
00010000
00001000
00001000
,
00010000
00010000
00001000
00001000
,
00010000
00010000
00001000
00001000
00010000
00010000
00001000
00001000
,
00010000
00001000
00010000
00001000
00010000
00000000
00000000
00000000
,
00001000
00000100
00000001
00000000
,
00000001
00000010
00001000
00000000
,
00010000
00001000
01000000
00100000
,
10000000
00000000
00010000
00000000
02000000
00100000
03100000
00000000
,
10000000
00000000
01000000
00000000
,
00100000
00001000
00011000
00000000
,
00010000
00000010
00000100
00000010
,
00000000
00001000
00001000
00000000
00000100
00000100
00000000
00000000
,
00010000
00100000
10000000
00000000
,
10000000
01000000
00010000
00000000
,
00100000
00001000
00010000
00000010
,
00000100
00000000
00000001
00000000
00002000
00000001
00003001
00000000
,
00000100
00000010
00010000
00001000
,
01000000
00100000
01100000
00000000
,
10000000
00010000
00100000
00001000
,
00000000
00010000
00010000
00000000
00001000
00001000
00000000
00000100
,
00000200
00000000
00000300
00000000
,
00000000
00000000
00000000
00000000
,
00001001
00000000
00000000
00000010
00000000
00000010
00000000
00000100
,
00000000
00000100
00000000
00001000
00000000
00010000
00010000
00000000
,
00011000
00000000
00000000
01000000
00000000
01000000
00000000
00100000
,
00000000
00100000
00000000
10000000
00000000
10000000
10000000
00000000
,
01100000
00000000
00000000
00000000
,
00000000
00010000
00010000
00000000
00001000
00001000
00000000
00000000
,
00000002
00000003
00000200
00000300
,
00000010
00001000
00000100
00000000
,
00020000
00030000
02000000
03000000
,
10000000
00100000
01000000
00000000
,
00200000
00300000
00002000
00003000
,
00010000
00000010
00000100
00000000
,
00000001
00000001
00001000
00001000
,
00000100
00010000
00011000
00000000
,
00010000
01000000
10000000
00000000
,
10000000
00100000
00010000
00000000
,
00100000
00001000
00010000
00000010
,
00000100
00000000
00000001
00000000
00002000
00000010
00003010
00000000
,
00000100
00000100
00010000
00001000
,
01000000
00100000
10000000
00000000
,
00010000
10000000
01000000
00100000
,
00000000
00010000
00010000
00000000
00001000
00001000
00000000
00000000
,
00001000
00000100
00000001
00000000
,
00000001
00000010
00001000
00000000
,
00000100
00010000
00001000
01000000
,
00100000
00000000
10000000
00000000
00020000
10000000
10030000
00000000
,
01000000
01000000
00100000
00010000
,
00100000
00001000
00011000
00000000
,
00010000
00000010
00000100
00000001
,
00000000
00001000
00001000
00000000
00000010
00000010
00000000
00000100
,
00000200
00000000
00000000
00000000
,
00000300
00000000
00000000
00000000
,
00010000
00010000
00001000
00001000
,
01000000
01000000
00100000
00100000
,
10000000
10000000
01000000
01000000
,
00100000
00100000
00001000
00001000
,
00022000
00033000
00000000
00000000
,
00000000
00000011
00000011
00000000
00001001
00002002
00000000
00000000
,
00003003
00000000
00000000
00000000
;

//---------------dance-double - ----------------
#NOTES:
     dance-double:
     :
     Hard:
     8:
     0.496809,0.598930,0.264383,0.203372,0.013558,513.000000,474.000000,39.000000,30.000000,0.000000,0.000000,0.496809,0.598930,0.264383,0.203372,0.013558,513.000000,474.000000,39.000000,30.000000,0.000000,0.000000:
00000000
00000000
00000000
00000000
,
00000000
00000000
00000000
00000000
,
00000000
00000000
00000000
00000000
,
00000000
00000000
00000000
00000000
,
00000000
00000000
00000000
00000000
,
20000000
00000000
30000000
00010000
00200000
00000000
00300000
00000000
,
00100000
00001000
00010000
00000010
00000100
00000001
00001000
00000001
,
00000020
00000230
00020300
00032000
,
00003000
01000000
00100000
10000000
00100000
01000000
00010000
00100000
,
00101000
00000000
00010000
00000000
00000000
00010000
00010000
00010000
,
00000010
00000100
00000001
00001000
00000001
00000000
00000010
00000000
,
00001100
00000000
00010000
00000000
00000000
00001000
00001000
00001000
,
01000000
00010000
10000000
00010000
00100000
00000000
00001000
00000000
,
00011000
00000000
00010000
00000000
00000000
00000010
00000010
00000010
,
00001000
00000001
00001000
00000100
00000010
00000000
00000001
00000000
,
00002002
00003003
00000000
00000000
00000000
00000000
00000000
00000000
,
00000000
00000000
00000000
00000000
,
00011000
00000000
00000010
00010000
00001000
00010000
00000010
00010000
,
00001000
00010000
00000010
00010000
00001000
00010000
00000010
00000000
,
00011000
00000000
00100000
00001000
00010000
00001000
00100000
00001000
,
00010000
00001000
00100000
00001000
00010000
00001000
00100000
00000000
,
00011000
00000000
00000100
00010000
00001000
00010000
00000100
00010000
,
00001000
00010000
00000100
00010000
00001000
00010000
00000100
00000000
,
00011000
00000000
01000000
00001000
00010000
00001000
01000000
00010000
,
00000000
01000000
00000000
00100000
00100000
00000000
00000000
00000000
,
10000000
00000000
10000000
01000000
00100000
00000000
00100000
00010000
,
00100000
00001000
00100000
00001000
00010000
00000010
00000100
00000001
,
00001000
00000000
00001000
00000001
00000010
00000000
00000010
00000100
,
00001000
00000100
00010000
00001000
01000000
00100000
01000000
00100000
,
10000000
00000000
10000000
00010000
00100000
00000000
00100000
00001000
,
00010000
00000010
00010000
00000010
00000100
00000001
00001000
00000001
,
00000020
00000032
00020003
00032000
,
00003000
01000000
00010000
01000000
00010000
01000000
00100000
01000000
,
00100000
00100000
10000000
10000000
,
00001000
00001000
00000100
00000100
,
00000001
00001000
00000010
00001000
00000001
00001000
00000010
00001000
,
00000001
00001000
00000001
00001000
00000001
00001000
00000001
00001000
00000001
00000000
00000000
00000000
00000000
00000000
00000000
00000000
,
00001000
00000000
00000100
00000000
00010100
00000000
00010000
00001000
,
01000000
00100000
01100000
00000000
,
10000000
00010000
10000000
00010000
01000000
00000000
00100000
00000000
,
01000000
00001000
00010000
00001000
00020000
00001000
00031000
00000000
,
00010000
00000010
00000100
00000000
00000100
00000001
00001000
00000100
,
00002000
00000000
00003100
00010000
00001000
00000000
01000000
00000000
,
00100000
00000000
10000000
00000000
00010000
00000000
01000000
00001000
,
00000000
00010000
00010000
00000000
00001000
00001000
00000000
00000000
,
00001000
00000000
00000010
00000000
00000110
00000000
00000100
00000001
,
00001000
00000100
00010100
00000000
,
00010000
00000000
00001000
00000000
01000000
00100000
01000000
00000000
,
00010000
10000000
00100000
10000000
00200000
01000000
01300000
00000000
,
10000000
00010000
10000000
00010000
00100000
00000000
00001000
00000000
,
00020000
00030200
00000320
00000030
,
00000001
00001000
00000010
00001000
00000100
00001000
00000100
00010000
,
00000000
00001000
00001000
00000000
00010000
00010000
00000000
00001000
,
00022000
00000000
00000000
00033000
,
00000000
00000000
00000000
00000000
,
00011000
00000000
01000000
00001000
00010000
00001000
00100000
00001000
,
00010000
00001000
01000000
00001000
00010000
00001000
00100000
00000000
,
00011000
00000000
00000100
00010000
00001000
00010000
00000010
00010000
,
00001000
00010000
00000100
00010000
00001000
00010000
00000010
00000000
,
00010010
00000000
00000000
00000000
,
00000000
01000000
01000000
00000000
00100000
00100000
00000000
00000000
,
10000000
00010000
10000000
00000000
00100000
01000000
00010000
00000000
,
00100000
00001000
00100000
00001000
00010000
00000010
00000100
00000000
,
00000001
00001000
00000001
00000000
00001000
00000100
00000010
00000000
,
00000001
00001000
00000010
00001000
00000100
00010000
00000100
00000000
,
00010000
00001000
01000000
00000000
00100000
01000000
00100000
00000000
,
10000000
01000000
00100000
00010000
00100000
01000000
10000000
00000000
,
00100000
01000000
00100000
00100000
01000000
00010000
01000000
00000000
,
00001000
00100000
00001000
00100000
00001000
00000000
00000000
00000000
,
00010000
00000000
00000010
00000000
00000110
00000000
00000100
00000001
,
00001000
00000100
00010100
00000000
,
00010000
00000000
00001000
00000000
01000000
00100000
10000000
00010000
,
10000000
01000000
00100000
00010000
00200000
01000000
01300000
00000000
,
10000000
00100000
01000000
00000000
00010000
00100000
00001000
00100000
,
00002000
00000000
00013000
00000010
00000100
00000000
00000100
00000001
,
00001000
00000100
00010000
00001000
00010000
00000010
00000100
00000001
,
00000000
00000100
00000100
00000000
00000010
00000010
00000000
00000000
,
00000100
00000000
00010000
00000000
00011000
00000000
00001000
01000000
,
00010000
01000000
01100000
00000000
,
10000000
00100000
10000000
00000000
00100000
01000000
00010000
10000000
,
00010000
01000000
00001000
00010000
00002000
00010000
00013000
00000000
,
00010000
00000010
00000100
00000010
00001000
00000001
00000010
00000100
,
00002000
00003020
00020030
00030000
,
00001000
01000000
00100000
10000000
00010000
10000000
01000000
00100000
,
00000000
00010000
00010000
00000000
00001000
00001000
00000000
00000100
,
00000110
00000110
00000101
00000101
,
00000110
00000110
00000100
00000000
,
00011000
00011000
01001000
01001000
,
01010000
01010000
00100000
00000000
,
10010000
10010000
00110000
00110000
,
00011000
00011000
00001000
00000010
,
00002002
00003003
00000000
00000000
00000000
00000000
00000000
00000000
,
00000000
00001000
00002000
00000000
00010000
00020000
00000000
00000000
,
00033000
00000000
00000000
00000000
;

//---------------dance-double - ----------------
#NOTES:
     dance-double:
     :
     Challenge:
     9:
     0.651759,0.725021,0.650790,0.040674,0.145750,673.000000,577.000000,96.000000,6.000000,0.000000,0.000000,0.651759,0.725021,0.650790,0.040674,0.145750,673.000000,577.000000,96.000000,6.000000,0.000000,0.000000:
00000000
00000000
00000000
00000000
,
00000000
00000000
00000000
00000000
,
00000000
00000000
00000000
00000000
,
00000000
00000000
00000000
00000000
,
00000000
00000000
00000000
00000000
,
10000000
00000000
10000000
01000000
00010000
00000000
00010000
00001000
,
00000100
00000001
00000010
00000100
00000010
00000100
00001000
00000010
,
00001010
00011000
01010000
01100000
,
10000000
00010000
10000000
00100000
01000000
00001000
00010000
00001000
,
00011000
00000000
00010000
00000010
00000100
00000010
00001000
00000001
,
00000010
00000100
00001000
00000100
00010000
00000000
00001000
00000000
,
01001000
00000000
01000000
00100000
10000000
01000000
00100000
00010000
,
00100000
00001000
00000010
00000001
00000100
00000000
00000010
00000000
,
00001010
00000000
00001000
00000100
00010000
00001000
01000000
10000000
,
01000000
00010000
10000000
00100000
01000000
00000000
00010000
00000000
,
00210000
00010000
00010000
00010000
00010000
00010000
00310000
00000000
,
00000000
00000000
00000000
00000000
,
00011000
00000000
00000000
00000000
00000010
00010000
00001000
00000000
00100000
00001000
00010000
00000000
00000010
00010000
00001000
00000000
,
00100000
00001000
00010000
00000000
00000010
00010000
00001000
00000000
00000010
00010000
00001000
00000000
00001000
00000000
00000000
00000000
,
00011000
00000000
00000000
00000000
00100000
00001000
00010000
00000000
00000010
00010000
00001000
00000000
00100000
00001000
00010000
00000000
,
00000010
00010000
00001000
00000000
00100000
00001000
00010000
00000000
00100000
00001000
00010000
00000000
00010000
00000000
00000000
00000000
,
00011000
00000000
00000000
00000000
00000010
00001000
00000001
00000000
00000001
00001000
00000010
00000000
00000010
00001000
00000001
00000000
,
00000001
00001000
00000010
00000000
00000010
00001000
00000001
00000000
00000010
00001000
00000001
00000000
00000100
00000000
00000000
00000000
,
00011000
00000000
00000000
00000000
00100000
00010000
10000000
00000000
10000000
00010000
00100000
00000000
00100000
00010000
10000000
00000000
,
00000000
10010000
00000000
00011000
00011000
00000000
00000000
00000000
,
00010000
00000000
00010000
00001000
00000100
00000000
00000100
00000001
,
00000010
00000100
00001000
00000100
00010000
00001000
00100000
01000000
,
10000000
00000000
10000000
00100000
01000000
00000000
01000000
00010000
,
00001000
00010000
00001000
00000010
00000100
00000001
00000010
00000100
,
00001000
00000000
00001000
00000100
00010000
00000000
00010000
00001000
,
01000000
10000000
01000000
00010000
10000000
00010000
00100000
01000000
,
11000000
00110000
00011000
00001100
,
00000010
00000001
00001000
00000010
00000100
00000010
00001000
00000100
,
00011000
01001000
00011000
00010100
,
00011000
00101000
00011000
00010010
,
00100000
00001000
00010000
00000010
00100000
00001000
00010000
00000010
,
00010000
00001000
00010000
00001000
00010000
00001000
00010000
00001000
00020000
00000000
00000000
00000000
00030000
00000000
00000000
00000000
,
01001000
00000000
01000000
00100000
10000000
01000000
00100000
00010000
,
00100000
00000000
00001000
00010000
00001000
00000000
00010000
00000010
,
00000100
00000100
00000001
00000001
00000010
00000100
00001000
00000100
,
00010000
00001000
01000000
00100000
10000000
10010000
10010000
00000000
,
01000000
00100000
01000000
00000000
10000000
01000000
00100000
00010000
,
00001000
00000000
00000010
00000001
00000100
00000000
00000010
00000000
,
00001000
00000010
00001000
00000100
00010000
00001000
01000000
00100000
,
00000000
10100000
10100000
00000000
01010000
01010000
00000000
00000000
,
11000000
00000000
01000000
00100000
00010000
00100000
00001000
00010000
,
00000010
00000000
00000010
00001000
00000001
00000000
00000010
00000100
,
00001000
00001000
00000001
00000001
00001000
00000100
00010000
00001000
,
01000000
00100000
10000000
00010000
10000000
10100000
10100000
00000000
,
01000000
00100000
10000000
00010000
00100000
00000000
00010000
00000000
,
00101000
00010010
00000220
00000330
,
00001000
00000001
00001000
00000100
00010000
00001000
00010000
00001000
,
00000000
01001000
01001000
00000000
00011000
00011000
00000000
00000000
,
00011000
00000000
00000000
00000000
00000100
00010000
00001000
00000000
01000000
00001000
00010000
00000000
00000100
00010000
00001000
00000000
,
01000000
00001000
00010000
00000000
00000100
00010000
00001000
00000000
00000100
00010000
00001000
00000000
00001000
00000000
00000000
00000000
,
00011000
00000000
00000000
00000000
01000000
00001000
00010000
00000000
00000100
00010000
00001000
00000000
01000000
00001000
00010000
00000000
,
00000100
00010000
00001000
00000000
01000000
00001000
00010000
00000000
01000000
00001000
00010000
00000000
00010000
00000000
00000000
00000000
,
00011000
00000000
00000000
00000000
00010000
00000100
00010000
00000000
00001000
01000000
00001000
00000000
00010000
00000100
00010000
00000000
,
00001000
01000000
00001000
00000000
00010000
00000100
00010000
00000000
00010000
00000100
00010000
00000000
00010000
00000000
00000000
00000000
,
00011000
00000000
00000000
00000000
,
00000000
01100000
01100000
00000000
00011000
00011000
00000000
00000000
,
00010000
00010000
00000010
00000000
00000100
00000100
00000001
00000000
,
00001000
00000100
00000010
00000001
00001000
00000010
00001000
00000000
,
00000100
00000100
00010000
00000000
00001000
00001000
01000000
00000000
,
00100000
10000000
00010000
10000000
01000000
00100000
00010000
00000000
,
00100000
00001000
00010000
00000000
00010000
00000010
00000100
00000000
,
00000100
00000001
00001000
00000100
00000010
00000001
00001000
00000000
,
00000010
00001000
00000100
00001000
00000100
00010000
00001000
00000000
,
01000000
01000000
00100000
00100000
01000000
00000000
00000000
00000000
,
10100000
00000000
10000000
01000000
00100000
00010000
00100000
00001000
,
00010000
00000000
00010000
00000010
00000100
00000000
00000001
00001000
,
00000100
00000100
00000010
00000010
00000001
00001000
00000010
00010000
,
00001000
00010000
00001000
01000000
00100000
10100000
10100000
00000000
,
10000000
01000000
00100000
00000000
00100000
00010000
01000000
00001000
,
00010000
00000000
00010000
00000010
00000100
00000000
00000001
00001000
,
00000100
00000010
00000001
00001000
00000010
00000100
00000010
00001000
,
00000000
00011000
00011000
00000000
10010000
10010000
00000000
00000000
,
10000000
00000000
01000000
00100000
00010000
00100000
00001000
00000100
,
00000001
00000000
00000001
00000010
00000100
00000000
00001000
00000010
,
00000100
00000100
00000010
00000010
00010000
00001000
01000000
10000000
,
01000000
00010000
10000000
00010000
00100000
00110000
00110000
00000000
,
00100000
00001000
00010000
00000010
00000100
00001000
00000100
00000010
,
00001010
00000000
00001100
00000000
00011000
00000000
00010000
00100000
,
01000000
10000000
00100000
01000000
00010000
01000000
00100000
10000000
,
00000000
10010000
10010000
00000000
01100000
01100000
00000000
10000000
,
10010000
10010000
00011000
00011000
,
00001001
00001001
00000110
00000110
,
00001001
00001001
00011000
00011000
,
10010000
10010000
01100000
01100000
,
10100000
00110000
00011000
00010010
,
00000110
00001001
00001100
00010100
,
00001000
00000000
00000000
00000000
,
00000000
00110000
00110000
00000000
10010000
20020000
00000000
00000000
,
30030000
00000000
00000000
00000000
;
