#VERSION:0.83;
#TITLE:xenon;
#ARTIST:Mr.T;
#GENRE:ELECTROSHOCK;
#BANNER:xenon.png;
#BACKGROUND:xenon-bg.png;
#CDTITLE:./CDTitles/bm IIDX 8th style.png;
#MUSIC:xenon.ogg;
#SAMPLESTART:68.354;
#SAMPLELENGTH:15;
#BPMS:0=158;
#STAGE:15;

//--------------- dance-single - Fred-104 ----------------
#NOTEDATA:;
#STEPSTYPE:dance-single;
#DESCRIPTION:Fred-104;
#DIFFICULTY:Beginner;
#METER:1;
#CREDIT:Fred-104;
#NOTES:
0000
0000
0000
0000
,
0000
0000
0000
0000
,
0000
0000
0000
0000
,
0000
0000
0000
0000
,
0000
0000
0000
0000
,
1000
0000
0000
0000
,
0000
0000
0000
0000
,
0001
0000
0000
0000
,
0000
0000
0000
0000
,
1000
0000
0000
0000
,
0001
0000
0000
0000
,
1000
0000
0000
0000
,
0001
0000
0000
0000
,
1000
0000
0000
0000
,
0010
0000
0000
0000
,
1000
0000
0000
0000
,
0001
0000
0000
0000
,
1000
0000
0000
0000
,
0001
0000
0000
0000
,
0001
0000
0000
0000
,
1000
0000
0000
0000
,
1000
0000
0000
0000
,
0100
0000
0000
0000
,
0010
0000
0000
0000
,
0001
0000
0000
0000
,
1000
0000
0000
0000
,
0001
0000
0000
0000
,
0100
0000
0000
0000
,
0010
0000
0000
0000
,
1000
0000
0000
0000
,
0100
0000
0000
0000
,
1000
0000
0000
0000
,
0001
0000
0000
0000
,
1000
0000
0000
0000
,
0001
0000
0000
0000
,
0010
0000
0000
0000
,
0001
0000
0000
0000
,
1000
0000
0000
0000
,
0000
0000
0000
0000
,
0001
0000
0000
0000
,
0000
0000
0000
0000
,
1000
0000
0000
0000
,
0000
0000
0000
0000
,
0001
0000
0000
0000
,
0000
0000
0000
0000
,
1000
0000
0000
0000
,
0010
0000
0000
0000
,
1000
0000
0000
0000
,
0001
0000
0000
0000
,
1000
0000
0000
0000
,
0100
0000
0000
0000
,
0010
0000
0000
0000
,
0001
0000
0000
0000
,
1000
0000
0000
0000
,
0001
0000
0000
0000
,
0100
0000
0000
0000
,
0010
0000
0000
0000
,
1000
0000
0000
0000
,
0001
0000
0000
0000
,
1000
0000
0000
0000
,
0001
0000
0000
0000
,
1000
0000
0000
0000
,
0010
0000
0000
0000
,
1000
0000
0000
0000
,
0001
0000
0000
0000
,
1000
0000
0000
0000
,
0000
0000
0000
0000
,
0001
0000
0000
0000
,
0000
0000
0000
0000
,
2000
0000
0000
0000
0000
0000
0000
0000
0000
0000
0000
3000
0000
0000
0000
0000
;

//--------------- dance-single - Fred-104 ----------------
#NOTEDATA:;
#STEPSTYPE:dance-single;
#DESCRIPTION:Fred-104;
#DIFFICULTY:Easy;
#METER:6;
#CREDIT:Fred-104;
#NOTES:
0000
0000
0000
0000
,
0000
0000
0000
0000
,
0000
0000
0000
0000
,
0000
0000
0000
0000
,
0000
0000
0000
0000
,
1000
0100
1000
0000
,
1000
0001
0010
0000
,
0001
0100
0010
0000
,
1000
0001
1000
0000
,
0001
0100
0001
0001
,
1000
0100
0010
0010
,
0100
1000
0010
0010
,
1000
0001
1001
0000
,
0001
0100
0001
0010
,
0100
1000
0001
0000
,
1000
0100
1000
0010
,
1000
0001
0100
0000
,
0001
0010
0100
1000
,
0001
1000
0010
0000
,
1000
0100
0010
0001
,
2000
0000
0000
3000
,
0001
0000
0010
0000
,
0001
1000
0100
0010
,
0001
0000
0100
0000
,
0001
1000
0010
1000
,
0001
0000
1000
0000
,
0100
0010
0001
1000
,
0001
0000
1000
0000
,
0001
0100
1000
0100
,
0001
0000
0100
0000
,
0001
0010
0100
1000
,
0010
0000
1000
0000
,
0001
0010
1000
0010
,
0001
0000
0100
0000
,
0001
0100
0010
0100
,
0001
0000
1000
0000
,
0001
0010
1000
0100
,
0002
0000
2003
0000
,
3002
0000
0203
0000
,
0320
0000
0000
2030
,
3002
0000
0003
0000
,
2001
0000
3020
0000
,
0230
0000
0302
0000
,
0023
0000
2030
0000
,
3020
0000
0002
0033
,
0001
0100
0010
0100
,
0001
0010
0001
0000
1000
0000
0010
0000
,
1000
0100
0010
0001
,
0100
0010
0100
0000
0001
0000
1000
0000
,
0001
1000
0100
0010
,
0100
1000
0100
0000
1000
0000
0001
0000
,
1000
0001
0100
0010
,
1000
0010
1000
0000
0001
0100
0001
0000
,
1000
0000
0010
0000
,
1000
0010
0001
0100
,
1000
0000
0001
0000
,
0100
0010
0100
0000
,
0001
0000
1000
0000
,
0001
0010
1000
0100
,
0001
0000
1000
0000
,
0010
0001
0100
1000
,
0001
0000
1000
0000
,
0100
1000
0001
1000
,
0010
0000
1000
0000
,
0100
0010
0001
1000
,
0001
0000
0100
0000
,
1000
0000
0010
0000
,
0001
0000
1000
0000
,
0001
0100
0010
1000
,
2002
0000
0000
0000
0000
0000
0000
0000
0000
0000
0000
3003
0000
0000
0000
0000
;

//--------------- dance-single - Fred-104 ----------------
#NOTEDATA:;
#STEPSTYPE:dance-single;
#DESCRIPTION:Fred-104;
#DIFFICULTY:Medium;
#METER:11;
#CREDIT:Fred-104;
#NOTES:
0000
0000
0000
0000
,
0000
0000
0000
0000
,
0000
0000
0000
0000
,
0000
0000
0000
0000
,
0000
0000
0000
0000
,
1000
0100
0001
0000
,
1000
0010
0001
0000
,
0001
0100
1000
0000
,
0001
0010
1000
0000
,
0001
0100
0001
1000
0010
0100
0001
0000
,
1000
0010
0100
0010
1000
0001
1000
0000
,
0100
0010
0100
1000
0001
0100
0001
0000
,
1000
0000
0010
0000
0100
0000
0001
0000
1000
0100
1000
0100
1000
0000
0000
0000
,
1000
0000
0100
0000
1000
0000
0010
0000
0100
0000
0000
0001
0000
0000
0010
0000
,
0001
0000
1000
0000
0001
0000
0100
0000
0010
0000
0000
0100
0000
0000
0001
0000
,
1000
0000
0100
0000
0010
0000
0001
0000
1000
0000
0000
0010
0000
0000
0100
0000
,
0001
0000
0010
0000
0001
0000
1000
0000
0100
0000
0000
1000
0000
0000
0001
0000
,
0100
0000
0010
0000
0100
0000
0001
0000
1000
0000
0000
0001
0000
0000
0010
0000
,
0001
0000
0100
0000
0010
0000
1000
0000
0001
0000
0000
1000
0000
0000
0100
0000
,
0010
0000
0001
0000
1000
0000
0001
0000
0100
0000
0000
0010
0000
0000
0100
0000
,
0001
0100
1000
0100
0001
1000
0001
0000
,
1000
0000
0000
0010
0000
0010
0000
0000
1000
0000
0000
0100
0000
0000
0010
0000
,
0001
0000
0000
0100
0000
0100
0000
0000
0001
0000
0000
0010
0000
0010
0000
0000
,
0001
0100
0010
0000
1000
0010
0100
0000
,
0020
0100
1000
0130
,
0001
0000
0000
1000
0000
1000
0000
0000
0100
0000
0000
1000
0000
0000
0010
0000
,
0100
0000
0000
0010
0000
0010
0000
0000
1000
0000
0000
0100
0000
0100
0000
0000
,
1000
0000
0000
0001
0000
0001
0000
0000
0010
0000
0000
0100
0000
0100
0000
0000
,
1000
0100
1000
0001
0100
0010
1000
0000
,
0001
0000
0000
0100
0000
0100
0000
0000
0010
0000
0000
1000
0000
0000
0001
0000
,
1000
0000
0000
0001
0000
0001
0000
0000
0010
0000
0000
0100
0000
0100
0000
0000
,
1000
0010
0100
0000
0010
1000
0001
0000
,
0200
0001
0010
0301
,
1000
0000
0000
0001
0000
0001
0000
0000
0100
0000
0000
0010
0000
0000
0100
0000
,
0001
0000
0000
0010
0000
0010
0000
0000
1000
0000
0000
0010
0000
0010
0000
0000
,
0001
0000
0000
0100
0000
0100
0000
0000
1000
0000
0000
0100
0000
0100
0000
0000
,
0001
1000
0010
1000
0001
0100
0010
0000
,
2100
0000
3020
0000
,
0230
0000
0302
0000
,
0023
0000
0000
0032
,
2003
0000
0002
3003
,
2100
0000
3020
0000
,
0032
0000
0203
0000
,
2300
0000
0000
3002
,
0200
0000
0000
0303
,
0001
0010
0001
1000
0010
0100
0001
1000
,
0100
0010
0001
0100
0010
1000
0001
0000
,
1000
0100
1000
0010
0100
0001
1000
0100
,
0010
0000
0001
0000
0100
0000
0001
0000
0010
0000
0001
1000
0000
0010
1000
0000
,
0001
0010
0001
1000
0010
0100
0001
1000
,
0100
0000
0010
0000
0001
0000
0100
0000
1000
0000
0100
0001
0000
1000
0001
0000
,
1000
0010
1000
0100
0010
0100
1000
0001
,
0100
1000
0100
0010
1000
0001
1000
0000
,
0001
0000
0000
0010
0000
0100
0000
0000
1000
0000
0000
0010
0000
0000
1000
0000
,
0100
0000
0000
0010
0000
0100
0000
0000
1000
0000
0000
0010
0000
0001
0000
0000
,
0010
0000
0000
1000
0000
0000
0100
0000
0001
0000
0000
0100
0000
1000
0000
0000
,
0001
1000
0010
0000
0100
0001
0010
0000
,
0001
0000
0000
0100
0000
0010
0000
0000
0100
0000
0000
0001
0000
0000
1000
0000
,
0100
0000
0000
0010
0000
0001
0000
0000
0100
0000
0000
0010
0000
0001
0000
0000
,
0010
0000
0000
1000
0000
0001
0000
0000
1000
0000
0000
0100
0000
0010
0000
0000
,
0001
0100
1000
0001
0010
1000
0001
0000
,
1000
0000
0100
0000
1000
0000
0010
0000
1000
0000
0100
0010
0000
0010
0001
0000
,
1000
0000
0010
0000
0100
0000
0010
0000
1000
0000
0001
0010
0000
0100
0010
0000
,
0001
0000
0100
0000
0010
0000
1000
0000
0100
0000
1000
0001
0000
0001
1000
0000
,
0010
0000
0100
0000
1000
0000
0100
0000
0010
0000
1000
0001
0000
1000
0010
0000
,
1001
0010
0000
0010
,
0001
0100
0000
0100
,
1000
0010
1000
0100
,
0010
0000
0001
0000
1000
0000
0001
0000
0100
0000
0010
0000
1000
0000
0001
1000
,
0002
0000
0000
0000
0000
0000
0000
0000
0000
0000
0000
0003
0000
0000
0000
0000
;

//--------------- dance-single - Fred-104 ----------------
#NOTEDATA:;
#STEPSTYPE:dance-single;
#DESCRIPTION:Fred-104;
#DIFFICULTY:Hard;
#METER:16;
#CREDIT:Fred-104;
#NOTES:
0000
0000
0000
0000
,
0000
0000
0000
0000
,
0000
0000
0000
0000
,
0000
0000
0000
0000
,
0000
0000
0000
0000
,
1000
0100
0000
0100
,
0001
0010
0000
0010
,
1000
0001
0010
0000
0001
1000
0010
0000
,
1000
0001
0100
0000
0001
1000
0100
0000
,
1000
0000
0000
0010
0000
0000
1000
0000
0100
0000
0010
0001
0000
1000
0001
0000
,
1000
0010
0000
0100
0000
0001
1000
0000
0100
0000
0000
0001
0000
0000
0100
1000
,
0001
1000
0000
0010
0000
1000
0100
0000
1000
0000
0000
0001
0000
0010
0000
0000
,
0001
0100
0001
0000
1000
0010
1000
0001
0000
1000
0100
0010
0001
0000
1000
0100
,
1000
0010
0000
0010
0000
0100
0001
0000
0010
0000
0001
0100
0000
0010
0100
0000
,
0001
0010
0000
0100
0000
1000
0010
0000
1000
0000
0001
0100
0000
0010
0100
0000
,
0001
0010
0000
0100
0000
0010
0001
0000
1000
0000
0001
0100
0000
0010
1000
0000
,
0001
1000
0000
0010
1000
0100
1000
0001
1000
0000
0100
0010
0000
0010
0001
1000
,
0001
0100
0000
0100
0010
0100
0001
0000
1000
0000
0100
0010
0000
0001
1000
0001
,
0010
0001
0000
0001
1000
0010
0100
0010
1000
0000
0001
0010
0000
0100
1000
0100
,
1000
0010
0000
0100
0010
1000
0001
1000
0100
0000
0010
0001
0000
1000
0001
0000
,
1000
0100
0010
0000
0001
1000
0010
1000
0000
0001
0100
0001
0010
0000
0100
1000
,
0001
0000
0000
1000
0000
0010
0000
0000
0001
0000
0000
0010
0000
0000
0100
0001
,
1000
0000
0000
0100
0000
0010
0000
0000
1000
0000
0000
0010
0000
0001
0000
1000
,
0001
0000
0000
0010
0000
0000
0100
0000
1100
0000
0000
1000
0000
0010
0000
0000
,
0100
0001
0010
0001
0100
0001
0010
0001
0100
0010
1000
0010
0100
0000
0001
1000
,
0001
0000
0000
0010
0000
0100
0000
0000
1000
0000
0000
0010
0000
0000
0100
1000
,
0100
0000
0000
0001
0000
1000
0000
0000
0001
0000
0000
0100
0000
1000
0000
0100
,
0010
0000
0000
1000
0000
0001
0000
1000
0100
0000
0000
0010
0000
0001
1000
0001
,
0010
0100
1000
0000
0001
0100
0001
1000
0000
0001
0010
0001
1000
0000
0001
0010
,
0100
0000
0000
1000
0010
1000
0000
0000
0100
0000
0010
0001
0000
1000
0001
0100
,
0001
0000
0000
0010
0100
0010
0000
0000
0001
0000
1000
0100
0000
1000
0010
0100
,
0001
0000
0000
0100
0000
0000
0010
0000
1010
0000
0000
1000
0000
0100
0010
0000
,
0001
0010
0001
0010
0100
1000
0100
1000
0001
0010
0100
1000
0100
0000
1000
0001
,
0010
0000
0000
0001
0100
0001
0000
0000
0100
0000
0010
1000
0000
0010
0100
0001
,
1000
0000
0000
0100
1000
0010
0000
0000
1000
0000
0010
0100
0000
0001
1000
0001
,
0010
0000
0000
0001
1000
0010
0000
0000
0100
0000
0010
1000
0000
0001
1000
0100
,
1000
0010
0100
0000
0001
1000
0100
1000
0000
0001
0010
0100
1000
0000
0001
1000
,
0002
0000
0203
0000
,
0320
0000
0000
0000
0000
0000
0000
0000
0000
0000
0000
0000
2030
0000
0000
0000
0000
0000
0000
0000
0000
3001
0100
0001
,
0200
0000
0000
0320
,
2030
0000
0002
3003
,
1002
0000
0000
0203
,
0320
0000
0032
0000
,
0023
0000
0000
2030
,
0002
0000
0000
3003
,
1000
0010
0000
1000
0000
0100
1000
0001
0100
0001
0000
0010
0000
0100
1000
0001
,
2000
0000
3200
0000
0320
0000
2030
0000
3002
0000
0103
0010
0000
0001
1000
0000
,
0001
1000
0000
0010
0000
0100
0010
1000
0001
0010
0000
0001
0000
0100
0010
1000
,
0200
0000
0320
0000
2030
0000
3020
0000
0032
0000
1003
0100
0000
0010
0001
0000
,
1000
0001
0000
0100
0000
0010
1000
0100
0010
0001
0000
1000
0000
0001
0010
0100
,
0020
0000
0032
0000
0203
0000
0302
0000
2003
0000
3001
0100
0000
0010
1000
0000
,
0001
0010
0000
0100
0000
1000
0001
0010
0001
1000
0000
0010
0000
1000
0100
1000
,
0001
0010
0100
0000
0010
0001
1000
0001
0000
1000
0100
0010
0001
0000
1000
0001
,
1000
0000
0100
0010
0000
1000
0000
0000
0010
0000
0001
1000
0000
0100
1000
0001
,
0100
0000
0010
0001
0000
0010
0000
0000
1000
0000
0001
1000
0000
0010
0000
0100
,
0001
0000
1000
0010
0000
0001
0010
0000
0100
0000
0001
1000
0000
0100
1000
0001
,
1000
0100
1000
0010
1000
0100
1000
0001
1000
0100
0010
0001
1000
0000
1000
0000
,
0001
0000
0100
0010
0000
0001
0000
0000
0010
0000
0100
0001
0000
1000
0001
1000
,
0100
0000
0010
1000
0000
0010
0000
0000
0100
0000
1000
0001
0000
0100
0001
0010
,
0001
0000
0100
1000
0000
0100
0001
0000
1000
0000
0100
0001
0000
0100
1000
0001
,
1000
0001
0010
0000
0001
1000
0010
0100
0000
0001
1000
0100
0010
0000
0001
1000
,
0001
0010
0000
0100
0000
1000
0001
0000
1000
0000
0010
1000
0000
0100
1000
0001
,
0100
0001
0000
0010
0000
0001
1000
0000
0001
0000
0010
0100
0000
1000
0001
0100
,
0001
0010
0000
0100
1000
0100
0010
0000
0001
0000
1000
0001
0000
1000
0100
0000
,
1000
0010
1000
0010
0100
0001
0100
0001
1000
0100
0010
0001
1000
0000
0001
1000
,
0001
0010
0000
0010
,
1000
0100
0000
0100
,
0001
0010
0100
0000
1000
0001
0100
0000
,
0001
1000
0001
0000
1000
0100
0010
0001
0000
1000
0100
0010
0001
0000
1000
0001
,
0200
0000
0000
0000
0000
0000
0000
0000
0000
0000
0000
0300
0000
0000
0000
0000
;

//--------------- dance-double - Fred-104 ----------------
#NOTEDATA:;
#STEPSTYPE:dance-double;
#DESCRIPTION:Fred-104;
#DIFFICULTY:Easy;
#METER:6;
#CREDIT:Fred-104;
#NOTES:
00000000
00000000
00000000
00000000
,
00000000
00000000
00000000
00000000
,
00000000
00000000
00000000
00000000
,
00000000
00000000
00000000
00000000
,
00000000
00000000
00000000
00000000
,
00010000
00001000
00000000
00001000
,
00010000
00000100
00000000
00000100
,
00001000
00000001
00000000
00000001
,
00000100
00000010
00001000
00010000
,
00001000
00010000
00100000
10000000
,
00010000
10000000
00100000
01000000
,
00010000
10000000
01000000
00100000
,
01100000
00000000
00011000
00000000
,
00010000
00001000
00000010
00000000
,
00000001
00001000
00000001
00000100
,
00001000
00010000
00001000
00000000
,
00010000
00100000
01000000
00010000
,
10000000
00010000
00100000
00000000
,
00001000
00010000
00000100
00001000
,
00000010
00001000
00000001
00000000
,
00000110
00000000
00001001
00000000
,
00000001
00000000
00000100
00000000
,
00001000
00000010
00000001
00000000
,
00001000
00000010
00000100
00001000
,
00010000
00001000
00100000
00000000
,
00010000
00000000
00100000
00000000
,
10000000
01000000
00010000
00000000
,
00001000
00010000
00000100
00010000
,
00011000
00000000
01100000
00000000
,
10000000
00000000
01000000
00000000
,
00010000
00100000
10000000
00000000
,
00010000
10000000
00010000
01000000
,
00100000
00010000
00100000
00000000
,
00001000
00000000
00000010
00000000
,
00010000
00001000
00000100
00000000
,
00000001
00001000
00000001
00000100
,
00000110
00000000
00011000
00000000
,
01200000
00000000
20300000
00000000
,
32000000
00000000
03200000
00000000
,
00302000
00000000
00000000
00023000
,
00030020
00000000
00002030
00003000
,
00001002
00000000
00000000
00000203
,
00000320
00000000
00002030
00000000
,
00003200
00000000
00000000
00020300
,
00002000
00000000
00000000
00033000
,
00001000
00100000
00010000
10000000
,
00010000
01000000
00100000
01000000
,
00010000
10000000
01000000
00010000
,
00001000
00000010
00000001
00001000
,
00000001
00000010
00000100
00000001
,
00000100
00001000
00010000
00001000
,
00010000
00100000
10000000
00010000
,
10010000
00000000
01100000
00000000
,
00010000
00100000
00010000
00000000
,
10000000
01000000
00100000
00000000
,
00001000
00010000
00000100
00000000
,
00001000
00000100
00001000
00000000
00000001
00000100
00000001
00000000
,
00000100
00000010
00001000
00000000
,
00000001
00000010
00000100
00000000
,
00010000
00001000
00100000
00000000
,
00010000
01000000
00010000
00000000
01000000
00100000
01000000
00000000
,
00100000
10000000
01000000
00000000
,
00100000
00001000
00100000
00000000
00001000
00000000
00000000
00000000
,
00010000
00000100
00001000
00000000
,
00000010
00000100
00000010
00000000
00001000
00000000
00000000
00000000
,
00000001
00000000
00000010
00000000
,
00001000
00000000
00010000
00000000
,
00100000
00000000
10000000
00000000
,
00010000
01000000
00010000
00000000
10000000
00100000
10000000
00000000
,
20020000
00000000
00000000
00000000
00000000
00000000
00000000
00000000
00000000
00000000
00000000
30030000
00000000
00000000
00000000
00000000
;

//--------------- dance-double - Fred-104 ----------------
#NOTEDATA:;
#STEPSTYPE:dance-double;
#DESCRIPTION:Fred-104;
#DIFFICULTY:Medium;
#METER:11;
#CREDIT:Fred-104;
#NOTES:
00000000
00000000
00000000
00000000
,
00000000
00000000
00000000
00000000
,
00000000
00000000
00000000
00000000
,
00000000
00000000
00000000
00000000
,
00000000
00000000
00000000
00000000
,
00010000
01000000
10000000
00000000
,
10000000
00100000
00010000
00000000
,
00001000
00000100
00000001
00000000
,
00000001
00000010
00001000
00000000
,
00010000
00000000
00000000
00000000
00001000
00000000
00000000
00000000
00100000
00000000
00000000
01000000
00000000
00000000
00000000
00000000
,
10000000
00000000
00000000
00000000
00100000
00000000
00000000
00000000
01000000
00000000
00000000
00010000
00000000
00000000
00000000
00000000
,
00001000
00000000
00000000
00000000
00000100
00000000
00000000
00000000
00000010
00000000
00000000
00000001
00000000
00000000
00000000
00000000
,
00000100
00000000
00000010
00000000
00000100
00000000
00000001
00000000
00001000
00000001
00001000
00000001
00001000
00000000
00000000
00000000
,
00000001
00000000
00000010
00000000
00000001
00000000
00001000
00000000
00000010
00000000
00000000
00000100
00000000
00000000
00000010
00000000
,
00001000
00000000
00000001
00000000
00000100
00000000
00001000
00000000
00010000
00000000
00000000
00001000
00000000
00000000
00010000
00000000
,
01000000
00000000
10000000
00000000
00010000
00000000
10000000
00000000
00100000
00000000
00000000
01000000
00000000
00000000
00100000
00000000
,
10000000
01000000
00100000
00000000
00001000
00010000
00100000
00000000
,
10000000
00000000
00100000
00000000
10000000
00000000
01000000
00000000
00100000
00000000
00000000
00010000
00000000
00000000
00100000
00000000
,
00001000
00000000
00010000
00000000
00000100
00000000
00001000
00000000
00000100
00000000
00000000
00000010
00000000
00000000
00000001
00000000
,
00001000
00000000
00000001
00000000
00000100
00000000
00000010
00000000
00000100
00000000
00000000
00000001
00000000
00000000
00001000
00000000
,
00000010
00000100
00000001
00001000
00000100
00000010
00010000
00000000
,
00001000
00000000
00000000
00100000
00000000
00100000
00000000
00000000
00001000
00000000
00000000
00010000
00000000
00000000
00000010
00000000
,
00001000
00000000
00000000
00000100
00000000
00000100
00000000
00000000
00010000
00000000
00000000
01000000
00000000
01000000
00000000
00000000
,
00001000
00010000
00000100
00000000
00010000
00001000
00010000
00000000
,
00002000
00010000
00000010
00013000
,
00001000
00000000
00000000
00100000
00000000
00100000
00000000
00000000
00001000
00000000
00000000
00010000
00000000
00000000
00000100
00000000
,
00001000
00000000
00000000
00000100
00000000
00000100
00000000
00000000
00010000
00000000
00000000
00001000
00000000
00001000
00000000
00000000
,
01000000
00000000
00000000
00010000
00000000
00010000
00000000
00000000
00000100
00000000
00000000
00001000
00000000
00001000
00000000
00000000
,
00010000
00001000
00000100
00000010
00000001
00000100
00001000
00000000
,
00010000
00000000
00000000
01000000
00000000
00010000
00000000
00000000
00001000
00000000
00000000
00000100
00000000
00000000
00000010
00000000
,
00001000
00000000
00000000
00000010
00000000
00000001
00000000
00000000
00001000
00000000
00000000
00000001
00000000
00000100
00000000
00000000
,
00000010
00000000
00000000
00001000
00000000
00000000
00000100
00000000
00010000
00000000
00000000
00001000
00000000
00001000
00000000
00000000
,
00200000
00001000
00010000
00301000
,
00010000
00000000
00000000
00001000
00000000
00100000
00000000
00000000
00010000
00000000
00000000
10000000
00000000
00000000
01000000
00000000
,
10000000
00000000
00000000
00100000
00000000
01000000
00000000
00000000
00100000
00000000
00000000
10000000
00000000
01000000
00000000
00000000
,
00100000
00000000
00000000
00001000
00000000
00000010
00000000
00000000
00001000
00000000
00000000
00010000
00000000
00000100
00000000
00000000
,
00001000
00000010
00000100
00000010
00001000
00000001
00001000
00000000
,
00001002
00000000
00000203
00000000
,
00002300
00000000
00023000
00000000
,
00230000
00000000
00000000
20300000
,
30020000
00000000
02000000
03030000
,
01200000
00000000
00000000
20300000
,
32000000
00000000
03200000
00000000
,
00302000
00000000
00000000
00023000
,
00002000
00000000
00000000
00033000
,
00010000
00001000
00000100
00000010
00001000
00000001
00001000
00000010
,
00000100
00000001
00000010
00001000
00010000
00000000
00001000
00000000
,
00010000
00100000
01000000
00010000
10000000
00010000
01000000
00100000
,
01000000
00010000
10000000
01000000
00100000
00000000
00001000
00000000
,
00010000
00000100
00001000
00000001
00000010
00000100
00000010
00000001
,
00000100
00001000
00010000
00100000
10000000
00000000
00010000
00000000
,
01000000
00100000
10000000
00100000
00010000
00100000
10000000
00010000
,
10000000
01000000
00100000
00010000
01000000
00010000
00001000
00000000
,
00010000
00000000
00000000
00001000
00000000
00010000
00000000
00000000
00000100
00000000
00000000
00010000
00000000
00000000
00001000
00000000
,
00010000
00000000
00000000
00000100
00000000
00001000
00000000
00000000
00000001
00000000
00000000
00000100
00000000
00000010
00000000
00000000
,
00000100
00000000
00000000
00000001
00000000
00000000
00000010
00000000
00000001
00000000
00000000
00001000
00000000
00000010
00000000
00000000
,
00020000
00001000
00230000
00001000
,
00310000
00000000
00000000
00001000
00000000
01000000
00000000
00000000
00100000
00000000
00000000
01000000
00000000
00000000
00010000
00000000
,
10000000
00000000
00000000
01000000
00000000
00100000
00000000
00000000
10000000
00000000
00000000
00100000
00000000
00010000
00000000
00000000
,
01000000
00000000
00000000
00001000
00000000
00010000
00000000
00000000
00000100
00000000
00000000
00001000
00000000
00000001
00000000
00000000
,
00001000
00000010
00000100
00001000
00000001
00000010
00000100
00000000
,
00000001
00000000
00001000
00000000
00000001
00000000
00000100
00000000
00000010
00000000
00000000
00001000
00000000
00000000
00000100
00000000
,
00010000
00000000
00001000
00000000
00010000
00000000
00000100
00000000
00001000
00000000
00000000
00000010
00000000
00000000
00000100
00000000
,
00001000
00000000
00010000
00000000
00001000
00000000
00100000
00000000
00010000
00000000
00000000
10000000
00000000
00000000
00010000
00000000
,
10000000
00000000
01000000
00000000
00100000
00000000
01000000
00000000
10000000
00000000
00000000
00100000
00000000
00000000
01000000
00000000
,
00010000
00100000
00000000
10000000
,
01000000
00010000
00000000
00001000
,
00000010
00000001
00000000
00000100
,
00001000
00000010
00000100
00001000
00010000
00001000
00100000
00000000
,
20020000
00000000
00000000
00000000
00000000
00000000
00000000
00000000
00000000
00000000
00000000
30030000
00000000
00000000
00000000
00000000
;

//--------------- dance-double - Fred-104 ----------------
#NOTEDATA:;
#STEPSTYPE:dance-double;
#DESCRIPTION:Fred-104;
#DIFFICULTY:Hard;
#METER:16;
#CREDIT:Fred-104;
#NOTES:
00000000
00000000
00000000
00000000
,
00000000
00000000
00000000
00000000
,
00000000
00000000
00000000
00000000
,
00000000
00000000
00000000
00000000
,
00000000
00000000
00000000
00000000
,
00001000
00000100
00001000
00000010
,
00000100
00000001
00000010
00000100
,
00010000
00001000
01000000
00100000
,
10000000
01000000
00010000
00000000
00010000
01000000
10000000
00000000
,
00010000
00000000
00000000
01000000
00000000
00000000
01000000
00000000
00100000
00000000
00000000
10000000
00000000
00010000
00000000
00000000
,
00000000
10000000
00000000
00100000
00000000
00000000
00010000
00000000
00001000
00000000
00000000
00000100
00000000
00000000
00000001
00000000
,
00001000
00000000
00000000
00000010
00000000
00000000
00001000
00000000
00000100
00000000
00000000
00000010
00000000
00000001
00000000
00000000
,
00000100
00000010
00000100
00000000
00000001
00000100
00000001
00000100
00000000
00000010
00001000
00000100
00010000
00000000
00001000
00010000
,
00001000
00100000
00000000
00010000
01000000
00010000
01000000
00000000
00100000
00000000
10000000
01000000
00000000
00100000
01000000
00000000
,
10000000
01000000
00000000
00100000
00010000
10000000
00010000
00000000
01000000
00000000
00001000
00010000
00000000
00001000
00100000
00001000
,
00010000
00000100
00000000
00001000
00000010
00001000
00000010
00000000
00000100
00000000
00000001
00000010
00000000
00000100
00000010
00000000
,
00000001
00001000
00000000
00000010
00001000
00000001
00001000
00000100
00001000
00000000
00000100
00010000
00000000
00001000
00100000
00001000
,
00010000
00001000
00000000
00100000
00010000
10000000
00010000
00000000
10000000
00000000
01000000
00100000
00000000
00100000
00010000
10000000
,
00010000
01000000
00000000
00100000
10000000
00010000
10000000
00000000
01000000
00000000
00100000
00001000
00000000
00001000
00010000
00001000
,
01000000
00001000
00000000
00010000
00000100
00001000
00000100
00000000
00000010
00000000
00000001
00000010
00000000
00000100
00001000
00000001
,
00000000
00000010
00001000
00000000
00010000
00001000
00010000
00001000
00000000
00010000
00100000
00000000
10000000
00000000
00010000
10000000
,
00010000
00000000
00000000
01000000
00000000
10000000
00000000
00000000
01000000
00000000
00000000
00010000
00000000
00000000
00001000
00010000
,
00001000
00000000
00000000
00000100
00000000
00000001
00000000
00000000
00000100
00000000
00000000
00010000
00000000
01000000
00000000
00000000
,
10000000
00000000
00000000
00100000
00000000
00000000
01000000
00000000
00100000
00000000
00000000
10000000
00000000
01000000
00000000
00000000
,
00100000
00010000
00100000
00010000
00100000
00001000
00100000
00001000
00010000
00001000
00010000
00001000
00010000
00000000
00000010
00000000
,
00001000
00000000
00000000
00000010
00000000
00000001
00000000
00000000
00000010
00000000
00000000
00001000
00000000
00000000
00010000
00001000
,
00010000
00000000
00000000
00100000
00000000
10000000
00000000
00000000
00100000
00000000
00000000
00001000
00000000
00000010
00000000
00000000
,
00001000
00000000
00000000
00010000
00000000
00100000
00000000
00000000
00010000
00000000
00000000
00001000
00000000
00000010
00000000
00001000
,
00010000
00001000
00010000
00000000
00001000
00100000
00010000
10000000
00000000
00010000
01000000
00100000
10000000
00000000
01000000
00100000
,
00010000
00000000
10000000
00100000
00000000
01000000
00000000
00100000
10000000
00000000
01000000
00100000
00000000
00100000
00001000
00010000
,
00001000
00000000
00100000
00001000
00000000
00010000
00000000
00000100
00001000
00000000
00000100
00000010
00000000
00000010
00000001
00001000
,
00000001
00000000
00000100
00001000
00000000
00000100
00000001
00000000
00001000
00000000
00000010
00000001
00000000
00000010
00001000
00000000
,
00000001
00000100
00000001
00000100
00000010
00000100
00000010
00000100
00000001
00000100
00000001
00000100
00000001
00000000
00001000
00000000
,
00000001
00000000
00000010
00000100
00000000
00000100
00000000
00010000
00001000
00000000
00010000
00001000
00000000
00100000
01000000
00100000
,
01000000
00000000
00100000
00001000
00000000
00010000
00000000
00001000
00100000
00000000
00010000
10000000
00000000
00100000
10000000
00010000
,
10000000
00000000
01000000
00100000
00000000
00010000
00000000
01000000
00001000
00000000
00010000
00001000
00000000
00000100
00000000
00000010
,
00000001
00001000
00000001
00000000
00000100
00000010
00001000
00000010
00000000
00000100
00000001
00000010
00000100
00000000
00010000
00001000
,
00020000
00000000
00032000
00000000
,
00003020
00000000
00000000
00000000
00000000
00000000
00000000
00000000
00000000
00000000
00000000
00000000
00000230
00000000
00000000
00000000
00000000
00000000
00000000
00000000
00000000
00010300
00001000
00010000
,
00002000
00000000
00000000
00203000
,
00320000
00000000
20000000
30030000
,
12000000
00000000
00000000
03020000
,
00032000
00000000
00003200
00000000
,
00000302
00000000
00000000
00000023
,
00002000
00000000
00000000
00003030
,
00000010
00000100
00000000
00001000
00000000
00000100
00001000
00010000
00001000
00000100
00000000
00000010
00000000
00000001
00001000
00000001
,
00000200
00000000
00000320
00000000
00000230
00000000
00000302
00000000
00002003
00000000
00003001
00000100
00000000
00001000
00010000
00000000
,
00001000
00010000
00000000
00100000
00000000
00010000
00100000
01000000
00100000
00010000
00000000
10000000
00000000
00010000
10000000
00100000
,
02000000
00000000
03020000
00000000
20030000
00000000
32000000
00000000
03020000
00000000
00031000
00010000
00000000
00100000
10000000
00000000
,
00010000
00100000
00000000
00100000
00000000
00010000
10000000
01000000
00100000
00001000
00000000
00001000
00000000
00010000
00000010
00001000
,
00000200
00000000
00020300
00000000
00032000
00000000
00003200
00000000
00000320
00000000
00000031
00000100
00000000
00001000
00010000
00000000
,
00001000
00000010
00000000
00000001
00000000
00001000
00000001
00000100
00000010
00001000
00000000
00000100
00000000
00010000
00001000
00100000
,
00010000
10000000
00010000
00000000
10000000
01000000
00100000
01000000
00000000
10000000
01000000
00100000
01000000
00000000
10000000
00010000
,
10000000
00000000
01000000
00100000
00000000
00010000
00000000
01000000
00001000
00000000
00010000
00000100
00000000
00001000
00000010
00000100
,
00000010
00000000
00001000
00000100
00000000
00000010
00000000
00000001
00001000
00000000
00000001
00000010
00000000
00000100
00000010
00000001
,
00002000
00000000
00000000
00000010
00000000
00000000
00003010
00000000
00000200
00000000
00000000
00000010
00000000
00001300
00000001
00000000
,
00001000
00000010
00001000
00000010
00010000
00001000
00010000
00001000
00100000
00010000
00100000
00010000
00100000
00000000
00010000
00000000
,
10000000
00000000
00010000
00100000
00000000
10000000
00000000
00100000
01000000
00000000
10000000
00010000
00000000
10000000
01000000
00100000
,
00010000
00000000
00100000
00001000
00000000
00010000
00000000
00000100
00001000
00000000
00000100
00000010
00000000
00000001
00001000
00000001
,
00000010
00000000
00000100
00010000
00000000
00001000
00000000
00010000
00100000
00000000
10000000
00010000
00000000
01000000
00100000
00000000
,
10000000
01000000
00100000
00000000
01000000
10000000
00100000
10000000
00000000
01000000
00100000
00010000
00100000
00000000
00001000
00010000
,
00001000
00010000
00000000
00000100
00001000
00000001
00001000
00000000
00000100
00000010
00000001
00000010
00000000
00000001
00001000
00000000
,
00000001
00000100
00000000
00000010
00000100
00000010
00001000
00000000
00000100
00010000
00001000
00010000
00000000
00100000
00010000
00000000
,
10000000
00010000
00000000
00100000
01000000
10000000
01000000
00000000
10000000
00100000
01000000
00100000
00000000
10000000
01000000
00000000
,
00100000
00001000
00000000
00010000
00000100
00001000
00000010
00001000
00000000
00000100
00000010
00000001
00001000
00000000
00000001
00000010
,
00001000
00010000
00000000
01000000
,
10000000
00100000
00000000
00010000
,
00001000
00000100
00000000
00000001
,
00001000
00000001
00001000
00000000
00000001
00000100
00000010
00001000
00000000
00000100
00010000
00001000
00100000
00000000
00010000
10000000
,
02000000
00000000
00000000
00000000
00000000
00000000
00000000
00000000
00000000
00000000
00000000
03000000
00000000
00000000
00000000
00000000
;
