#TITLE:waxing and wanding;
#ARTIST:青龍;
#ARTISTTRANSLIT:Seiryu;
#GENRE:DANCE SPEED;
#BANNER:waxing and wanding.png;
#BACKGROUND:waxing and wanding-bg.png;
#CDTITLE:./CDTitles/bm IIDX 13 DistorteD.png;
#MUSIC:waxing and wanding.ogg;
#SAMPLESTART:73.816;
#SAMPLELENGTH:15;
#BPMS:0=191;
#BGSTAGE:19;

//--------------- dance-single - Fred-104 ----------------
#NOTES:
     dance-single:
     Fred-104:
     Beginner:
     5:
     :
0000
0000
0000
0000
,
0000
0000
0000
0000
,
0000
0000
0000
0000
,
0000
0000
0000
0000
,
0000
0000
0000
0000
,
1001
0000
0000
0000
,
0000
0000
0000
0000
,
1000
0000
0001
0000
,
1000
1000
0001
0001
,
1000
1000
0001
0001
,
1001
0000
0000
0000
,
1000
0000
0010
0000
,
2000
0000
3000
0000
,
0001
0000
1000
0000
,
0002
0000
0003
0000
,
1000
0000
0010
0000
,
0200
0000
0300
0000
,
0001
0000
0010
0000
,
0002
0000
0003
0000
,
1000
0000
0010
0000
,
1000
0000
0100
0100
,
0100
0000
1000
0000
,
0002
0000
0003
0000
,
1000
0000
0100
0000
,
1000
1000
1000
0000
,
0001
0000
1000
0000
,
0002
0000
0003
0000
,
1000
0000
0010
0000
,
1000
0000
0010
0000
,
0001
0000
0100
0000
,
0001
0000
0100
0000
,
1000
0000
0100
0000
,
1000
0000
0010
0000
,
0001
0000
0100
0000
,
1000
0000
0001
0001
,
0001
0000
1000
0000
,
0010
0000
1000
1000
,
1000
0000
0100
0000
,
1000
0000
0001
0001
,
0001
0000
1000
0000
,
0001
0000
0010
0010
,
0010
0000
0100
0000
,
0010
0000
0001
0001
,
0002
0000
0000
0000
,
0000
0000
0000
0000
,
0000
0000
0000
0000
,
0003
0000
0000
0000
,
2000
0000
0000
0000
,
0000
0000
0000
0000
,
0000
0000
0000
0000
,
3000
0000
0000
0000
,
0001
0000
1000
0000
,
0001
0001
0100
0000
,
0001
0000
0010
0000
,
0100
0100
1000
0000
,
0010
0000
1000
0000
,
0100
0100
0001
0000
,
0100
0000
1000
0000
,
0001
0001
1001
0000
,
1000
0000
0010
0000
,
1000
1000
0100
0000
,
1000
0000
0010
0000
,
0100
0100
0010
0000
,
0100
0000
0001
0000
,
1000
0001
1000
0000
,
0001
0000
0010
0000
,
0001
0001
0001
0000
,
1000
0000
0010
0000
,
1000
0000
0100
0000
,
1000
0000
0001
0000
,
0010
0010
0010
0000
,
0001
0000
1000
0000
,
0001
0000
0100
0000
,
0001
0000
1000
0000
,
0001
0001
0001
0000
,
1000
0000
0010
0000
,
2000
3000
0002
0003
,
1000
0000
0100
0000
,
1000
1000
2000
3000
,
0001
0000
0010
0000
,
0002
0003
2000
3000
,
0001
0000
0100
0000
,
0010
0010
0010
0010
,
0010
0000
1000
0000
,
0001
0000
1000
0000
,
0100
0000
1000
0000
,
0002
0003
2000
3000
,
0001
0000
0100
0000
,
0001
0000
1000
0000
,
0001
0000
0010
0000
,
0001
0001
2002
0000
,
0000
0000
3003
0000
;

//--------------- dance-single - Fred-104 ----------------
#NOTES:
     dance-single:
     Fred-104:
     Easy:
     8:
     :
0000
0000
0000
0000
,
0000
0000
0000
0000
,
0000
0000
0000
0000
,
0000
0000
0000
0000
,
0000
0000
0000
0000
,
1001
0000
0000
0000
,
0001
0010
0100
1000
,
1001
0000
0110
0000
,
1000
1000
0001
0001
,
1000
0000
1000
0000
0001
1000
0001
0000
,
1001
0000
0000
0000
,
2000
0000
3020
0000
,
1030
0100
0010
0001
,
2000
0000
3002
0000
,
0103
0100
0010
0010
,
0200
0000
0302
0000
,
0013
0100
1000
0001
,
0200
0000
0320
0000
,
1030
0100
0001
0100
,
1000
0000
0010
0000
,
1000
0100
1000
0000
,
0001
0100
1000
0000
,
0001
0010
1000
0000
,
0001
0000
0100
0000
,
0010
1000
0100
0000
,
1000
0010
0100
0000
,
0001
0100
1000
0100
,
0001
0010
0001
1000
,
0100
0010
0100
0000
,
1000
0001
1000
0010
,
0100
0001
0010
0000
,
0001
0100
0010
0100
,
0001
1000
0001
0000
,
1000
0100
0010
0100
,
1000
0010
1000
1000
,
1001
0000
0001
0000
,
0010
0001
1000
0001
,
0100
0001
0100
0010
,
0100
0000
0001
0000
1000
0001
1000
0000
,
0100
0000
1000
0000
,
0010
1000
0010
1000
,
0001
0100
0001
0010
,
0001
0000
1000
0000
0001
1000
0001
0000
,
2001
0000
3200
0000
,
0320
0000
0032
0000
,
0203
0000
0320
0000
,
2030
0000
3000
0000
,
0002
0000
0023
0000
,
0230
0000
2300
0000
,
3002
0000
0203
0000
,
0320
0000
2030
3001
,
0100
0000
0010
0000
,
0100
0001
0010
0000
,
0100
0000
1000
0000
,
0010
0000
1000
0000
0010
0000
1000
0001
,
1000
0000
0010
0000
,
0001
0100
1000
0000
,
0001
0100
0001
0010
,
0001
1000
2002
3003
,
1000
0010
1000
0100
,
1000
0000
0010
0000
0100
0100
0100
0000
,
0001
1000
0001
0010
,
0001
1000
1001
0000
,
0001
0010
0001
1000
,
0100
0000
0010
0000
0001
0001
0001
0000
,
0100
0001
1000
0010
,
1000
1000
1001
0000
,
0001
0100
1000
0100
,
0001
0000
0010
0000
0001
1000
0001
0000
,
0010
0100
0010
0100
,
1000
0010
1010
0000
,
1000
0100
1000
0001
,
1000
0000
0010
0000
0100
0100
0100
0000
,
0001
0010
0001
1000
,
0001
1000
1001
0000
,
0001
0010
1000
0000
,
0001
0100
1000
0000
,
0001
1000
0010
0000
,
1000
0100
0010
0001
,
1000
0010
0001
0000
,
1000
0100
0001
0000
,
1000
0010
0100
0001
,
0100
0001
1000
1001
,
0001
0100
0010
0100
,
0001
0000
0010
0100
0010
0000
0000
0000
,
0100
1000
0010
1000
,
0100
0000
1000
0001
1000
0000
0000
0000
,
0100
0010
0001
0100
,
0010
0000
1000
0000
0010
1000
0010
0000
,
1000
0100
1000
0000
0001
0100
0001
0000
,
1001
0110
2002
0000
,
0000
0000
3003
0000
;

//--------------- dance-single - Fred-104 ----------------
#NOTES:
     dance-single:
     Fred-104:
     Medium:
     12:
     :
0000
0000
0000
0000
,
0000
0000
0000
0000
,
0000
0000
0000
0000
,
0000
0000
0000
0000
,
0000
0000
0000
0000
,
0002
0000
2003
0000
,
3001
0100
0001
0000
1000
0010
1000
0000
,
1001
0000
0110
0000
,
1001
0110
1001
0110
,
1001
0000
1001
0000
1000
0001
1000
0001
,
1000
0000
0000
0000
,
0001
0010
0100
1000
,
0010
1000
0010
0000
1000
0100
1000
0000
,
0010
0100
0001
1000
,
0002
0103
2000
3010
,
0001
1000
0010
1000
,
0100
0010
0001
0000
0100
0010
1000
0000
,
0001
0010
1000
0100
,
0001
0011
1010
0101
,
1000
0010
1000
0000
0100
1000
0100
0000
,
0010
0001
0100
0010
,
0100
0001
0010
0000
0010
0100
1000
0000
,
1000
0010
0001
0000
1000
0100
0001
0000
,
1000
0001
0010
0000
0100
0010
0001
0000
,
0100
0010
1000
0100
,
1000
0100
0010
0000
0010
0001
0100
0000
,
0001
0010
1000
0000
0001
0100
1000
0000
,
0001
0000
0010
0001
1000
0000
0010
1000
,
0001
0000
0100
0010
1000
0000
0100
0010
,
0100
0000
1000
0010
0100
0000
0010
1000
,
0001
0000
1000
0100
0010
0001
0100
0010
,
1000
0000
0001
1000
0100
0000
1000
0010
,
0100
0000
0010
1000
0001
0000
1000
0100
,
0010
0000
0001
0010
0100
0000
1000
0001
,
0100
0000
0001
0010
0100
1000
0001
0100
,
0001
0010
0001
0000
0100
0001
0010
0000
,
0100
1000
0010
0000
1000
0001
0100
0000
,
0010
1000
0001
0000
1000
0100
0010
0000
,
0100
1000
0010
1000
0100
1000
0001
0000
,
0100
0001
0010
0000
0100
0010
0001
0000
,
0100
0010
1000
0000
0001
1000
0010
0000
,
1000
0001
0100
0000
0001
1000
0010
0000
,
0100
0001
0010
0100
1000
0010
0100
0000
,
0002
0000
0023
0000
,
0230
0000
2300
0000
,
3002
0000
2003
0000
,
3020
0000
0230
0000
,
0302
0000
0023
0000
,
2030
0000
3200
0000
,
0302
0000
2003
0000
,
0002
0000
0000
0000
3003
0000
1000
0010
,
1000
0100
0010
0001
,
0100
0010
0100
0010
0100
0001
0100
0000
,
0001
1000
0010
1000
,
0100
1000
0100
0010
0100
0000
1000
0001
,
1000
0010
0100
0001
,
0100
0001
0010
0000
0001
1000
0010
0000
,
0100
0001
0010
0100
,
1000
0001
1000
0001
2000
0000
0000
0000
,
3001
0000
1000
0000
0001
1000
0010
0000
,
1000
0001
0100
0001
1000
0000
0010
0000
,
0100
0001
0010
0000
0100
0000
1000
0000
,
0001
1000
0001
1000
0001
0000
0100
0000
,
0010
1000
0010
0000
0100
0000
0010
0000
,
1000
0100
1000
0000
0001
0100
0001
0000
,
0010
0100
1000
0000
0010
0000
0100
0000
,
0101
0000
0110
0000
1001
0000
0001
1000
,
0001
0010
0100
0000
1000
0010
0100
0000
,
0010
1000
0100
0000
1000
0001
0100
0000
,
0001
0010
0100
0000
0010
0001
1000
0000
,
0001
0100
0001
0100
0001
0000
1000
0010
,
0100
0010
1000
0000
0010
1000
0100
0000
,
1000
0001
0010
0000
0001
1000
0100
0000
,
1000
0001
0010
0000
0100
1000
0001
0000
,
1010
0101
2002
3003
,
1000
0010
0100
0000
0010
1000
0001
0000
,
1000
0100
0001
0000
1000
0010
0001
0000
,
1000
0001
0010
0000
0100
1000
0010
0000
,
0100
0001
0010
0000
0011
0000
1001
0000
,
0001
1000
0010
0000
1000
0001
0100
0000
,
0001
0010
1000
0000
1000
0010
0001
0000
,
1000
0010
0100
0000
0010
1000
0001
0000
,
1000
0100
0001
0000
0001
0100
1000
0000
,
0001
0100
0001
0100
0001
0010
0001
0000
,
1000
0001
0010
0001
0100
0010
1000
0000
,
0010
1000
0100
1000
0010
0100
0001
0000
,
1000
0100
0001
0010
,
1000
0001
0010
0001
0100
0010
0100
0000
,
0001
0010
0001
1000
0001
0100
0010
0000
,
1000
0100
0010
0001
0100
0010
1000
0100
,
1100
0011
2002
0000
,
0000
0000
3003
0000
;

//--------------- dance-single - Fred-104 ----------------
#NOTES:
     dance-single:
     Fred-104:
     Hard:
     15:
     :
0000
0000
0000
0000
,
0000
0000
0000
0000
,
0000
0000
0000
0000
,
0000
0000
0000
0000
,
0000
0000
0000
0000
,
1001
0000
0000
0000
,
1000
0100
0001
0000
1000
0010
0001
0000
,
1001
0000
0110
0000
,
1001
0110
1001
0110
,
1001
0000
0000
0000
1001
0000
0000
0000
1000
0000
0001
0000
1000
0001
1000
0001
,
2000
0000
0000
3000
,
0001
0000
1000
0000
0010
0000
0100
0000
0001
0000
0010
0100
0010
0000
0001
0000
,
1000
0000
1000
0100
0010
0000
0000
0000
0001
0000
0001
0100
0010
0000
0000
0000
,
1000
0000
0001
0000
0010
0000
0100
0000
0010
0000
0001
0100
0001
0000
0010
0000
,
0011
0101
1010
1100
,
1000
0000
0100
0000
1000
0000
0010
0000
0100
0000
0010
1000
0010
0000
0100
0000
,
0001
0010
0110
0000
1000
0010
0110
0000
,
0001
0000
1000
0000
0010
0000
0100
0000
0001
0000
0010
0100
0010
0000
0100
0000
,
1100
0110
0101
0110
,
1000
0100
0001
0010
0001
0100
1000
0001
,
1000
0100
0010
1000
0001
0100
0010
0001
,
1000
0000
0001
0000
0010
0000
0100
0000
1000
0000
0010
0100
0010
0000
1000
0000
,
1100
1001
0101
1001
,
1000
0100
0010
0001
0100
0010
0001
0010
,
1000
0001
0100
1000
0100
0010
1000
0001
,
1000
0000
0001
0000
0100
0000
0010
0000
0100
0000
0001
0010
0001
0000
1000
0000
,
1010
0110
0011
0110
,
1000
0100
0010
1000
0001
0100
0010
0001
,
1000
0100
1000
0010
0100
1000
0100
0001
,
1000
0100
0010
0001
0100
0010
0001
0010
,
0100
0001
1000
0100
0001
0100
1001
0000
,
1000
0001
1000
0100
0010
1000
0010
0001
,
1000
0001
0010
0100
1000
0010
0100
1000
,
0100
0010
1000
0001
1000
0010
0100
0010
,
1000
0010
0001
1000
0100
0001
1001
0000
,
0001
0100
1000
0100
0010
1000
0001
1000
,
0001
0100
0010
0001
0010
1000
0001
0100
,
0010
1000
0010
0001
0010
0100
0001
1000
,
0100
0010
0011
0000
0100
0010
1010
0000
,
1000
0000
0100
0000
0010
0001
0010
0000
0100
0000
0010
0000
0100
0000
1000
0000
,
0001
0000
0100
0000
0010
1000
0010
0000
0100
0000
0001
0000
1000
0000
0100
0000
,
1000
0000
0001
0000
0100
0010
0100
0000
0001
0000
1000
0000
0100
0010
0100
0000
,
1000
2000
0001
3002
2003
3001
1001
0000
,
2100
0000
3200
0000
,
0320
0000
0032
0000
,
0203
0000
0302
0000
,
2000
0000
0000
3003
,
0022
0033
2020
3030
,
0202
0303
2200
3300
,
0202
0303
0220
0330
,
2002
0000
0000
0000
3003
0000
0001
1000
,
0001
0010
1000
0010
0100
1000
0001
0010
,
0100
1000
0010
0100
0001
0010
0100
0010
,
0001
1000
0010
0001
0010
0100
0010
1000
,
0001
1000
0100
0010
0001
0000
1000
0001
,
1000
0100
0001
1000
0010
0001
1000
0100
,
1000
0001
0100
0010
0001
1000
0100
0001
,
1000
0100
0010
0001
1000
0010
0001
1000
,
0100
0001
1000
0001
0200
0000
0310
0010
,
0010
1000
0001
0010
0100
1000
0001
0100
,
0010
0000
1000
0000
0100
0000
0001
0000
0100
0000
1000
0010
1000
0000
0001
0000
,
0100
0001
0010
0100
1000
0010
0100
0001
,
1000
0000
0100
1000
0010
0000
0100
0000
0101
0000
0000
0000
1001
0000
1000
0000
,
0001
1000
0100
1000
0010
0100
0010
1000
,
0001
0000
0010
0000
0100
0000
1000
0000
0001
0000
0100
0001
0010
0000
0001
0000
,
1100
0100
0010
0000
0101
0100
0010
0000
,
1010
0010
0110
0100
1001
0000
0001
0100
,
0001
0000
0010
0100
1000
0000
0010
0000
0100
0000
0010
0000
1000
0000
0001
0000
,
0100
0000
0001
0010
0100
0000
0010
0000
0001
0000
0100
0000
1000
0000
0100
0000
,
0001
0000
1000
0001
0010
0000
0100
0000
0010
0000
0001
0000
1000
0000
0010
0000
,
0100
0000
0001
0000
0100
0000
0010
0000
1010
0000
0000
0000
0001
1000
0001
1000
,
0100
0000
0010
0100
1000
0000
0010
0000
0100
0000
0001
0000
1000
0000
0001
0000
,
0010
0000
0100
1000
0010
0000
0100
0000
0010
0000
1000
0000
0001
0000
0010
0000
,
0011
0000
0100
1000
0100
0000
0000
0000
1010
0000
0100
0001
0100
0000
0000
0000
,
1100
0010
0001
1000
2002
0000
3003
0000
,
0001
0010
0100
0010
0001
1000
0001
0000
,
0011
0001
0101
0000
1010
1000
1100
0000
,
0001
0100
0010
0100
0001
1000
0100
0000
,
1100
1000
1010
0000
0101
0001
0011
0000
,
0001
0000
0010
0000
0100
0000
0010
0000
0001
0000
1000
0001
1000
0000
0000
0000
,
1100
1000
1001
0000
0101
0001
1001
0000
,
0100
0000
0001
0000
0100
0000
0010
0000
1000
0000
0001
1000
0001
0000
0000
0000
,
1100
0100
0110
0000
0101
0100
0110
0000
,
1000
0010
0001
0010
0100
0010
0100
0001
,
1000
0010
0100
1000
0100
0001
1000
0001
,
0010
0100
0001
0100
0010
0001
1000
0010
,
0100
0001
1001
1000
1010
0010
0110
0000
,
1000
0000
0010
0100
0001
0000
1000
0000
0001
0000
0010
0100
1000
0000
0001
0000
,
0100
0000
0010
1000
0010
0000
0100
0000
0001
1000
0001
1000
0100
0000
0010
0000
,
0001
0000
1000
0010
0100
0000
0010
0000
1000
0000
0001
0010
0100
0000
1000
0000
,
1010
0101
2002
0000
,
0000
0000
3003
0000
;

//--------------- dance-single - Fred-104† ----------------
#NOTES:
     dance-single:
     Fred-104†:
     Challenge:
     17:
     :
0000
0000
0000
0000
,
0000
0000
0000
0000
,
0000
0000
0000
0000
,
0000
0000
0000
0000
,
0000
0000
0000
0000
,
1001
0000
0000
0000
,
0000
0000
0000
0000
,
0110
0000
0110
0000
,
1001
0110
1001
0110
,
1000
0010
1000
0000
0001
0100
0001
0000
1000
0100
0010
0001
1000
0001
1000
0001
,
1000
0000
0000
0000
,
0001
0000
0010
0100
1000
0000
0010
0000
0100
0001
1000
0000
0100
0000
0010
0000
,
0011
0000
0001
0010
0100
0000
0000
0000
1010
0000
1000
0010
0100
0000
0000
0000
,
0001
0000
1000
0001
0010
0000
0100
0000
0010
0001
1000
0000
0010
0000
0100
0000
,
0101
0100
0110
0000
1100
0100
0110
0000
,
0010
0000
0001
1000
0010
0000
1000
0000
0100
0010
0001
0000
1000
0000
0010
0000
,
0110
0100
0101
0000
0110
0100
1100
0000
,
1000
0000
0010
1000
0001
0000
1000
0000
0100
0010
0001
0000
0100
0000
0001
0000
,
0101
0100
0110
0000
1100
0100
0110
0000
,
0010
0000
0001
1000
0010
0000
0100
0000
0001
0000
1000
0100
0010
0000
0001
0000
,
1000
0000
0010
1000
0100
0000
1000
0000
0001
0000
0100
0001
0010
0000
0001
0000
,
0100
0000
0010
1000
0001
0000
0010
0000
0100
0010
0001
0000
0100
0000
0010
0000
,
1010
1000
1100
0000
0011
0001
0101
0000
,
0001
0000
0010
0100
1000
0000
0001
0000
0100
0000
0010
1000
0100
0000
0010
0000
,
0001
0000
0100
0001
0010
0000
0100
0000
0010
0000
0001
1000
0010
0000
0100
0000
,
0001
0000
1000
0100
0010
0000
0001
0000
1000
0100
0010
0000
0001
0000
0100
0000
,
0101
0001
0011
0000
1100
1000
1010
0000
,
1000
0000
0100
0010
0001
0000
1000
0000
0010
0000
0100
0001
0010
0000
0100
0000
,
0010
0000
0001
1000
0010
0000
0100
0000
0001
0000
1000
0001
0100
0000
0010
0000
,
1000
0000
0001
1000
0100
0000
0010
0000
0001
0000
0100
0001
0010
0000
0100
0000
,
0110
0100
1100
1000
1010
1000
1001
0000
,
0001
0000
1000
0001
0010
0000
0100
0000
1000
0000
0001
1000
0010
0000
0100
0000
,
0010
0000
1000
0001
0100
0000
0010
0000
1000
0000
0100
0010
0001
0000
1000
0000
,
0001
0000
0100
0001
0010
0000
1000
0000
0010
0000
0001
0100
0010
0000
1000
0000
,
0001
0000
0100
0001
0010
0000
0100
1000
0010
0000
1000
0000
1001
0000
0000
0000
,
0001
0000
0010
1000
0010
0000
0001
0000
1000
0000
0100
0001
0100
0000
1000
0000
,
0001
0000
0100
0010
1000
0000
0001
0000
0010
0000
0100
1000
0001
0000
1000
0000
,
0001
0000
0100
1000
0100
0000
0001
0000
1000
0000
0100
0001
0100
0000
1000
0000
,
0001
0100
0001
0100
0010
0000
1000
0000
1001
0000
0001
0000
1001
0000
0000
0000
,
0001
0100
0001
0100
0010
0000
1000
0000
0001
0010
0001
0010
0100
0000
1000
0000
,
0001
1000
0010
1000
0001
0000
0100
0000
0010
1000
0001
1000
0100
0000
0010
0000
,
0001
1000
0100
0010
0001
0000
0100
0000
0010
1000
0010
0100
0010
0000
0100
0000
,
0101
0001
0011
0010
0110
0100
1001
0000
,
2010
0000
3200
0000
,
0302
0000
0023
0000
,
2030
0000
3002
0000
,
2000
0000
3003
0000
,
2000
0000
3020
0000
,
0032
0000
2003
0000
,
3200
0000
0302
0000
,
2000
0000
0000
0000
3003
0000
0001
1000
,
0001
0100
0010
0001
0010
0100
0001
1000
,
0010
0100
0001
1000
0100
0010
1000
0010
,
0001
1000
0001
0100
1000
0100
0001
0010
,
0100
1000
0010
0100
2000
0000
3100
0001
,
1000
0010
0100
1000
0001
0010
1000
0100
,
0010
0001
0100
1000
0001
0010
0100
0001
,
1000
0010
0100
0001
1000
0100
0001
1000
,
0010
0001
1000
0010
0200
0000
0301
1000
,
0001
0000
0100
0001
0010
0000
0100
0000
1000
0000
0001
1000
0010
0000
0100
0000
,
0001
0000
1000
0100
0010
0000
0001
0000
1000
0010
1000
0000
0001
0100
0001
0000
,
1000
0000
0001
1000
0100
0000
0010
0000
0100
0000
1000
0010
0100
0000
0001
0000
,
1000
0100
1000
0100
0010
0000
0001
0000
0011
0000
0000
0000
0001
0000
1000
0000
,
0001
0000
0010
0001
0100
0000
0010
0000
0100
0000
0001
0010
0100
0000
1000
0000
,
0010
0000
1000
0001
0100
0000
0010
0000
1000
0100
1000
0000
0001
0010
0001
0000
,
1000
0000
0001
1000
0010
0000
0100
0000
0010
0000
1000
0001
0100
0000
0010
0000
,
1010
0000
1000
0000
1100
0000
1000
0000
1001
0000
0000
0000
0001
1000
0001
1000
,
0001
0000
0010
0001
1000
0000
0100
0000
0010
0000
0100
1000
0010
0000
0100
0000
,
0001
1000
0010
1000
0001
0000
0100
0000
0010
0000
1000
0000
0100
0000
0010
0000
,
0100
0000
1000
0001
0100
0000
0010
0000
1000
0000
0001
1000
0010
0000
0100
0000
,
0001
0010
0100
1000
0010
0000
0100
0000
0101
0000
0000
0000
0001
1000
0001
1000
,
0100
0000
0010
0001
0010
0000
0100
0000
1000
0000
0001
1000
0010
0000
0100
0000
,
0001
1000
0010
1000
0100
0000
1000
0000
0010
1000
0001
0000
0100
0001
1000
0000
,
0001
0010
0001
0010
0100
0000
0010
0000
0001
0100
0001
0100
0010
0000
1000
0000
,
1100
0100
0110
0010
0022
0000
0033
0000
,
1000
0000
0001
0100
0001
0000
1000
0000
0001
0010
0100
0000
1000
0000
0000
0000
,
1001
0000
1000
0100
0010
0000
0000
0000
1001
0000
0001
0100
0010
0000
0000
0000
,
1000
0000
0001
1000
0010
0000
0100
0000
0010
1000
0100
0000
0010
0000
0000
0000
,
0011
0001
1001
0000
1010
1000
1001
0000
,
1000
0000
0001
0100
0010
0000
1000
0000
0100
0010
0001
0000
0100
0000
0000
0000
,
0101
0001
0011
0000
1100
1000
1010
0000
,
0001
0000
1000
0010
0100
0000
0001
0000
0010
0001
1000
0000
0100
0000
0010
0000
,
0011
0001
1001
0000
0110
0000
1001
0000
,
0001
0000
0010
0100
0010
0000
0001
0000
1000
0000
0001
0100
0001
0000
1000
0000
,
0100
1000
0100
0010
0100
0000
0010
0000
0001
0000
1000
0000
0010
0000
0100
0000
,
0001
0000
1000
0001
1000
0000
0100
0000
0010
0000
0100
1000
0100
0000
0010
0000
,
0001
1000
0010
0100
0001
0000
0100
0000
0110
0000
0000
0000
0001
1000
0100
1000
,
0001
0000
0100
1000
0100
0000
0001
0000
1000
0000
0100
0001
0100
0000
1000
0000
,
0010
1000
0001
1000
0001
0000
0010
0000
0100
1000
0001
1000
0100
0000
0010
0000
,
0001
0000
0010
1000
0010
0000
0001
0000
1000
0000
0010
0001
0010
0000
1000
0000
,
1100
0100
0110
0010
2002
0000
0000
0000
,
0000
0000
3003
0000
;

//--------------- dance-double - Fred-104 ----------------
#NOTES:
     dance-double:
     Fred-104:
     Easy:
     8:
     :
00000000
00000000
00000000
00000000
,
00000000
00000000
00000000
00000000
,
00000000
00000000
00000000
00000000
,
00000000
00000000
00000000
00000000
,
00000000
00000000
00000000
00000000
,
00001001
00000000
00000000
00000000
,
00000001
00000100
00001000
00010000
,
00011000
00000000
01010000
00000000
,
01000000
01000000
10000000
10000000
,
00010000
00000000
00010000
00000000
10000000
00010000
10000000
00000000
,
10010000
00000000
00000000
00000000
,
00020000
00000000
20030000
00000000
,
31000000
00100000
00001000
00010000
,
00002000
00000000
00203000
00000000
,
00301000
00001000
00010000
00010000
,
00000020
00000000
00002030
00000000
,
00003100
00000010
00000001
00001000
,
00000002
00000000
00000203
00000000
,
00001300
00010000
00100000
10000000
,
00010000
00000000
10000000
00000000
,
01000000
00100000
01000000
00000000
,
10000000
00100000
00010000
00000000
,
00001000
00010000
01000000
00000000
,
10000000
00000000
00100000
00000000
,
00010000
00001000
00010000
00000000
,
00001000
00000010
00000001
00000000
,
00000100
00001000
00010000
00001000
,
00010000
00100000
10000000
00010000
,
10000000
00100000
01000000
00000000
,
00100000
10000000
01000000
00100000
,
00001000
00010000
00001000
00000000
,
00001000
00010000
01000000
00010000
,
00001000
00010000
00000100
00000000
,
00010000
00001000
00000010
00001000
,
00010000
00010000
00001000
00001000
,
00011000
00000000
00100000
00000000
,
00001000
00010000
00000010
00000100
,
00001000
00010000
00100000
01000000
,
00010000
00000000
01000000
00000000
00010000
10000000
00010000
00000000
,
10000000
00000000
01000000
00000000
,
00100000
00010000
01000000
00001000
,
00010000
00000100
00010000
00001000
,
00100000
00000000
00001000
00000000
00010000
00001000
00010000
00000000
,
00012000
00000000
00203000
00000000
,
00302000
00000000
00023000
00000000
,
00030020
00000000
00002030
00000000
,
00003200
00000000
00000300
00000000
,
00020000
00000000
00032000
00000000
,
02003000
00000000
03020000
00000000
,
20030000
00000000
32000000
00000000
,
03200000
00000000
00320000
01030000
,
00100000
00000000
10000000
00000000
,
01000000
00010000
00001000
00000000
,
00010000
00000000
00100000
00000000
,
00010000
00000000
00001000
00000000
00000010
00000000
00001000
00010000
,
00001000
00000000
00010000
00000000
,
01000000
00010000
00001000
00000000
,
00000100
00001000
00010000
01000000
,
00010000
00001000
00022000
00033000
,
00010000
00001000
00000010
00000001
,
00001000
00000000
00000001
00000000
00000010
00000010
00000010
00000000
,
00000001
00000100
00001000
00010000
,
00100000
01000000
10010000
00000000
,
10000000
01000000
00010000
00001000
,
00000100
00000000
00000001
00000000
00001000
00001000
00001000
00000000
,
00000100
00000010
00001000
00010000
,
00001000
00010000
00011000
00000000
,
00001000
00010000
00100000
10000000
,
00010000
00000000
10000000
00000000
01000000
00100000
00001000
00000000
,
00010000
00100000
10000000
01000000
,
00010000
00001000
00011000
00000000
,
00010000
00001000
00000010
00000001
,
00001000
00000000
00000001
00000000
00000100
00000100
00000100
00000000
,
00000001
00000010
00001000
00010000
,
00001000
00000100
00001001
00000000
,
00000001
00000100
00001000
00000000
,
00001000
00000100
00000001
00000000
,
00000001
00000010
00001000
00000000
,
00010000
00100000
10000000
00010000
,
10000000
00100000
00010000
00000000
,
00001000
00000010
00000001
00000000
,
00000001
00000100
00001000
00010000
,
01000000
10000000
00010000
10010000
,
10000000
01000000
00100000
01000000
,
10000000
00000000
00100000
00000000
01000000
01000000
01000000
00000000
,
00010000
00100000
01000000
00100000
,
00001000
00000000
00010000
00010000
00010000
00000000
00000000
00000000
,
00001000
00010000
00001000
00000100
,
00000001
00000000
00000010
00000000
00000001
00000001
00000001
00000000
,
00000100
00001000
00000100
00000000
00001000
00010000
00001000
00000000
,
00011000
00011000
00022000
00000000
,
00000000
00000000
00033000
00000000
;

//--------------- dance-double - Fred-104 ----------------
#NOTES:
     dance-double:
     Fred-104:
     Medium:
     12:
     :
00000000
00000000
00000000
00000000
,
00000000
00000000
00000000
00000000
,
00000000
00000000
00000000
00000000
,
00000000
00000000
00000000
00000000
,
00000000
00000000
00000000
00000000
,
10000000
00000000
00010000
00000000
,
10000000
01000000
00010000
00000000
00001000
00000100
00000001
00000000
,
00000101
00000000
00001001
00000000
,
00000110
00000010
00001000
00010000
,
00011000
00000000
00011000
00000000
00010000
00001000
00010000
00001000
,
00010000
00000000
00000000
00000000
,
00001000
00010000
01000000
10000000
,
00010000
10000000
00010000
00000000
10000000
00100000
10000000
00000000
,
00100000
10000000
01000000
00010000
,
00002000
00013000
02000000
03010000
,
00001000
00010000
00100000
00010000
,
00001000
00010000
00001000
00000000
00010000
00000010
00010000
00000000
,
00001000
00010000
00001000
00000010
,
00000001
00000010
00000100
00001100
,
00000001
00000100
00001000
00000000
00000001
00000010
00001000
00000000
,
00000001
00000100
00001000
00010000
,
00001000
00010000
00100000
00000000
01000000
00100000
10000000
00000000
,
00010000
01000000
10000000
00000000
00010000
00100000
10000000
00000000
,
00010000
10000000
00100000
00000000
01000000
00001000
00010000
00000000
,
00001000
00010000
01000000
00100000
,
00001000
00010000
00000010
00000000
00010000
00001000
00100000
00000000
,
00001000
00010000
01000000
00000000
00100000
00010000
10000000
00000000
,
01000000
00010000
00001000
00000000
00000100
00000001
00001000
00000000
,
00000001
00000010
00000100
00000000
00010000
00001000
00000100
00000000
,
00000001
00000100
00000010
00000000
00000100
00001000
00010000
00000000
,
00100000
01000000
00010000
10000000
01000000
00100000
00001000
00000000
,
00010000
00000010
00001000
00000000
00000010
00010000
00001000
00000000
,
01000000
00010000
10000000
00000000
01000000
00100000
00001000
00000000
,
00010000
00000100
00001000
00000000
00000100
00000010
00000001
00000000
,
00000010
00000100
00000010
00001000
00010000
01000000
00100000
00000000
,
01000000
10000000
00010000
10000000
00000000
01000000
00100000
00010000
,
00000000
00001000
00010000
00001000
00000000
01000000
00001000
00010000
,
00000000
00001000
00010000
00000010
00000000
00010000
00000100
00001000
,
00000000
00000100
00000010
00000001
00000100
00000010
00001000
00000000
,
00000100
00000010
00000100
00000010
00000000
00000001
00000010
00000100
,
00000000
00001000
00000010
00000100
00000000
00000001
00000100
00001000
,
00000000
00010000
01000000
10000000
00000000
00010000
01000000
00100000
,
00000000
10000000
01000000
00010000
01000000
10000000
00010000
00000000
,
20010000
00000000
32000000
00000000
,
03200000
00000000
00320000
00000000
,
00032000
00000000
00003200
00000000
,
00000320
00000000
00000032
00000000
,
00000203
00000000
00002300
00000000
,
00023000
00000000
00230000
00000000
,
20300000
00000000
32000000
00000000
,
03020000
00000000
00000000
00000000
00032000
00000000
00003010
00000001
,
00001000
00000001
00000100
00000010
,
00001000
00000100
00010000
00000000
00001000
01000000
00010000
00000000
,
00100000
00001000
00010000
00001000
,
00010000
00001000
00010000
00001000
00010000
00000000
00000100
00001000
,
00000001
00000010
00000100
00000001
,
00000100
00001000
00000001
00000000
00000010
00001000
00010000
00000000
,
00100000
10000000
01000000
00010000
,
00001000
00010000
00001000
00010000
00002000
00000000
00003000
00000000
,
00010000
00000000
00001000
00000000
00100000
00001000
00010000
00000000
,
00001000
01000000
00010000
01000000
00001000
00000000
00010000
00000000
,
00000100
00001000
00000010
00000000
00000100
00000001
00000010
00000000
,
00000001
00001000
00000010
00001000
00000001
00000000
00000100
00000000
,
00001000
00010000
00001000
00000000
00000100
00000000
00000001
00000000
,
00001000
00000010
00000100
00000000
00000010
00001000
00000001
00000000
,
00000100
00001000
00010000
00000000
01000000
00000000
10000000
00000000
,
10010000
00000000
01100000
00000000
10010000
00000000
00010000
10000000
,
00010000
01000000
00100000
00000000
10000000
01000000
00100000
00000000
,
00001000
00010000
00100000
00000000
10000000
01000000
00010000
00000000
,
00001000
00010000
00100000
00000000
00010000
00001000
00000010
00000000
,
00001000
00010000
00001000
00010000
00001000
00000000
00010000
00100000
,
01000000
00100000
00010000
00000000
00001000
00000010
00000100
00000000
,
00000010
00001000
00010000
00000000
01000000
00100000
01000000
00000000
,
00010000
00001000
00000100
00000000
00000010
00000100
00000001
00000000
,
00000011
00001010
00022000
00033000
,
00001000
00010000
01000000
00000000
10000000
00010000
00100000
00000000
,
00010000
01000000
00100000
00000000
00010000
00001000
00000100
00000000
,
00000010
00001000
00000001
00000000
00000010
00001000
00010000
00000000
,
00100000
10000000
00010000
00000000
01100000
00000000
10010000
00000000
,
10000000
01000000
00100000
00000000
00010000
10000000
00100000
00000000
,
10000000
01000000
00010000
00000000
00001000
00000010
00000100
00000000
,
00001000
00000001
00000010
00000000
00000100
00010000
00001000
00000000
,
00010000
00001000
00010000
00000000
00011000
00000000
00010010
00000000
,
00010000
00000100
00010000
00000100
00001000
00000100
00001000
00000000
,
00000100
00000010
00000100
00000010
00000001
00001000
00000001
00000000
,
00000100
00001000
00000100
00001000
00010000
01000000
00010000
00000000
,
01000000
10000000
00010000
10000000
,
00010000
00100000
01000000
00100000
00010000
01000000
00001000
00000000
,
00100000
00010000
00100000
00001000
00010000
00000010
00001000
00000000
,
00000100
00000010
00000001
00000100
00000010
00001000
00000001
00000100
,
00000110
00001010
00002002
00000000
,
00000000
00000000
00003003
00000000
;

//--------------- dance-double - Fred-104 ----------------
#NOTES:
     dance-double:
     Fred-104:
     Hard:
     16:
     :
00000000
00000000
00000000
00000000
,
00000000
00000000
00000000
00000000
,
00000000
00000000
00000000
00000000
,
00000000
00000000
00000000
00000000
,
00000000
00000000
00000000
00000000
,
10010000
00000000
00000000
00000000
,
10000000
01000000
00010000
00000000
00001000
00000100
00000001
00000000
,
00001001
00000000
00000110
00000000
,
00001001
00011000
10010000
00011000
,
00001001
00000000
00000000
00000000
00000110
00000000
00000000
00000000
00000001
00000000
00001000
00000000
00000001
00001000
00000001
00001000
,
00000001
00000000
00000000
00000000
,
00010000
00001000
00000100
00000001
00000100
00001000
00010000
00000000
,
00010000
00001000
00000010
00000000
00001000
00010000
00100000
00000000
,
00010000
00001000
00010000
00100000
10000000
00100000
00010000
00000000
,
00001000
00010000
01010000
00000000
00011000
00000000
00001100
00000000
,
00010000
00001000
00000010
00000001
00000100
00001000
00010000
00000000
,
00001000
00010000
00100000
00000000
00010000
00001000
00000100
00000000
,
00001000
00010000
01000000
00010000
00001000
00010000
00100000
00000000
,
10000000
00010000
00110000
00000000
00011000
00000000
00001001
00000000
,
00000001
00000010
00000001
00001000
00000001
00000100
00010000
01000000
,
10000000
01000000
00010000
00001000
00000010
00010000
00001000
00000000
,
00010000
01000000
10000000
01000000
00010000
00001000
00010000
00000000
,
00000010
00010000
00011000
00000000
00001100
00000000
00001001
00000000
,
00000001
00000010
00000100
00000010
00000001
00000100
00001000
00010000
,
01000000
10000000
00010000
00100000
01000000
00010000
00001000
00000000
,
00010000
00001000
00000010
00001000
00010000
00001000
00000100
00000000
,
00001000
00010000
00011000
00000000
01010000
00000000
10010000
00000000
,
10000000
01000000
00010000
00001000
00000100
00000010
00001000
00000001
,
00000100
00000010
00001000
00000001
00000010
00000100
00010000
01000000
,
00100000
00010000
00000010
00001000
00010000
00001000
00100000
01000000
,
10000000
01000000
00010000
00001000
00010000
00100000
10000000
00000000
,
00100000
01000000
00010000
00000100
00001000
00010000
00100000
00001000
,
00000010
00001000
00000100
00000010
00000001
00001000
00000100
00000010
,
00001000
00010000
00100000
01000000
00001000
00000100
00010000
01000000
,
00010000
00001000
00100000
01000000
00010000
00100000
01000000
00000000
,
10000000
00010000
00100000
01000000
00100000
00001000
00010000
00100000
,
10000000
01000000
00010000
00001000
00000100
00000001
00001000
00000100
,
00000010
00000001
00000100
00001000
00000100
00000001
00000010
00001000
,
00010000
01000000
10000000
00010000
00100000
01000000
00001000
00000000
,
00000100
00010000
00001000
00100000
00010000
01000000
00001000
00010000
,
00001000
00100000
10000000
00100000
00010000
01000000
00001000
00010000
,
00001000
00000010
00000001
00001000
00000001
00000010
00010000
00100000
,
01000000
10000000
00100000
00001000
00000010
00010000
00001000
00000000
,
01200000
00000000
20300000
00000000
,
32000000
00000000
03200000
00000000
,
00302000
00000000
00003020
00000000
,
00000002
00000000
00000000
00000033
,
00000002
00000000
00000203
00000000
,
00002300
00000000
00023000
00000000
,
00230000
00000000
20300000
00000000
,
30020000
00000000
00000000
00000000
10030000
00000000
00010000
01000000
,
10000000
01000000
00010000
01000000
10000000
01000000
00010000
00001000
,
00010000
01000000
00010000
00001000
00010000
00100000
00010000
00001000
,
00000010
00001000
00010000
00001000
00000100
00000001
00000100
00001000
,
00010000
00001000
00000100
00001000
00010000
00000000
01000000
00100000
,
10000000
01000000
00100000
00001000
00010000
00001000
00000100
00000001
,
00000100
00010000
00001000
00000010
00000100
00000001
00000000
00000010
,
00010000
00100000
00001000
00010000
00000100
00000010
00001000
00000010
,
00000100
00001000
00000001
00000010
00002000
00000000
00003010
00000001
,
00001000
00000001
00000100
00000010
00001000
00010000
00100000
01000000
,
00100000
00010000
00001000
00000100
00000010
00000100
00001000
00010000
,
01000000
00100000
01000000
00010000
00001000
00000010
00000100
00001000
,
00010000
00100000
01000000
00010000
00000010
00000000
00000001
00001000
,
00000010
00000100
00000010
00001000
00010000
00100000
00001000
00010000
,
01000000
00010000
00001000
01000000
00010000
00001000
00000100
00000001
,
00000100
00010000
01000000
10000000
00100000
00001000
00000010
00010000
,
00000100
00000010
00000001
00001000
00001001
00000000
00000001
00001000
,
00000001
00000100
00000010
00000100
00001000
00010000
01000000
10000000
,
00100000
00010000
00001000
00010000
00100000
00010000
00001000
00000100
,
00000010
00010000
00001000
00000010
00000001
00000100
00001000
00010000
,
01000000
10000000
01000000
00100000
00001000
00000000
00010000
00001000
,
00000100
00000001
00001000
00000100
00000001
00000100
00001000
00010000
,
00100000
01000000
00010000
00000100
00001000
00100000
00010000
00000010
,
00001000
00010000
01000000
00100000
00010000
00001000
00000100
00010000
,
01000000
00100000
00010000
00001000
00022000
00000000
00033000
00000000
,
00010000
00001000
00000010
00000001
00000100
00001000
00010000
00000000
,
00001000
00010000
01000000
00000000
00010000
00001000
00000010
00000000
,
00001000
00010000
01000000
10000000
00100000
00010000
00001000
00000000
,
00010000
00001000
00000010
00000000
00000001
00000100
00001000
00000000
,
00010000
00001000
00000010
00000001
00000010
00001000
00010000
00000000
,
00001000
00010000
01000000
00000000
00010000
00001000
00000100
00000000
,
00001000
00010000
01000000
10000000
01000000
00010000
00001000
00000000
,
00010000
00001000
00000100
00000000
00000001
00000000
00000011
00000000
,
00000001
00000100
00010000
00100000
00001000
00000010
00000100
00001000
,
00000001
00000100
00001000
00010000
00100000
10000000
00010000
00100000
,
01000000
00010000
00001000
00100000
00010000
00001000
00000100
00000010
,
00000001
00000100
00001000
00010000
01000000
00000000
00100000
00010000
,
10000000
00100000
00001000
00000010
00010000
00100000
01000000
00010000
,
00100000
01000000
00010000
00001000
00000010
00000001
00000010
00000100
,
00001000
00000001
00000100
00001000
00010000
00100000
10000000
01000000
,
01100000
00110000
20020000
00000000
,
00000000
00000000
30030000
00000000
;

//--------------- dance-double - Fred-104† ----------------
#NOTES:
     dance-double:
     Fred-104†:
     Challenge:
     17:
     :
00000000
00000000
00000000
00000000
,
00000000
00000000
00000000
00000000
,
00000000
00000000
00000000
00000000
,
00000000
00000000
00000000
00000000
,
00000000
00000000
00000000
00000000
,
00011000
00000000
00000000
00000000
,
00000000
00000000
00000000
00000000
,
00001001
00000000
00011000
00000000
,
10010000
00011000
00001001
00011000
,
00010000
10000000
00010000
00000000
10000000
00010000
10000000
00000000
00010000
10000000
00010000
10000000
00010000
10000000
00010000
10000000
,
00010000
00000000
00000000
00000000
,
01000000
00000000
00001000
00010000
00001000
00000000
00100000
00000000
00001000
00010000
00001000
00000000
01000000
00000000
00001000
00000000
,
00011000
00000000
00010000
00000100
00001000
00000000
00000000
00000000
00001100
00000000
00000100
00000010
00000001
00000000
00000000
00000000
,
00000100
00000000
00000001
00000010
00000100
00000000
00000010
00000000
00000001
00000100
00000010
00000000
00001000
00000000
00000100
00000000
,
00010100
00010000
00011000
00000000
01001000
00001000
00011000
00000000
,
00001000
00000000
00100000
00010000
00100000
00000000
01000000
00000000
10000000
00100000
01000000
00000000
00100000
00000000
10000000
00000000
,
11000000
01000000
01100000
00000000
01010000
01000000
01100000
00000000
,
10000000
00000000
00010000
00100000
01000000
00000000
00100000
00000000
00001000
00010000
00100000
00000000
00010000
00000000
00001000
00000000
,
00011000
00001000
00101000
00000000
00011000
00010000
00010010
00000000
,
00010000
00000000
00001000
00000010
00000001
00000000
00000010
00000000
00000100
00000000
00000010
00000001
00001000
00000000
00000001
00000000
,
00000100
00001000
00010000
00000100
00000010
00000001
00000100
00001000
,
00010000
00000000
00100000
01000000
00010000
00000000
10000000
00000000
00010000
10000000
01000000
00000000
00100000
00000000
00010000
00000000
,
01010000
00010000
00110000
00000000
00101000
00001000
00011000
00000000
,
00100000
00000000
00001000
00010000
00001000
00000000
01000000
00000000
00001000
00000000
00100000
00010000
01000000
00000000
00001000
00000000
,
00010000
00100000
00010000
00001000
00000010
00001000
00010000
00000100
,
00010000
00000000
00001000
00000010
00000001
00000000
00000010
00000000
00000100
00001000
00000001
00000000
00001000
00000000
00000010
00000000
,
00001010
00000010
00010010
00000000
00011000
00001000
00101000
00000000
,
00010000
00000000
00100000
01000000
00100000
00000000
00010000
00000000
00001000
00000000
00000010
00000100
00000010
00000000
00001000
00000000
,
00010000
00000000
01000000
00100000
01000000
00000000
00010000
00000000
00001000
00000000
00000100
00000010
00000100
00000000
00001000
00000000
,
00010000
00000000
01000000
00100000
01000000
00000000
00010000
00000000
00001000
00000000
00000010
00000100
00000010
00000000
00001000
00000000
,
00000001
00000002
00001000
00002003
00003002
00001003
00001001
00000000
,
00000001
00000000
00000100
00001000
00010000
00000000
00100000
00000000
10000000
00000000
00010000
10000000
00010000
00000000
10000000
00000000
,
00100000
00000000
00010000
00001000
00010000
00000000
00001000
00000000
00000100
00000000
00000001
00001000
00000001
00000000
00000010
00000000
,
00001000
00000000
00010000
00001000
00010000
00000000
01000000
00000000
10000000
00000000
00010000
10000000
00010000
00000000
01000000
00000000
,
00010000
00020000
10000000
20030000
30020000
10030000
10010000
00000000
,
10000000
00000000
00100000
10000000
00100000
00000000
00010000
00000000
00001000
00000000
00010000
00001000
00010000
00000000
00001000
00000000
,
00000100
00000000
00000001
00001000
00000001
00000000
00000010
00000000
00001000
00000000
00010000
00001000
00010000
00000000
01000000
00000000
,
10000000
00000000
00010000
10000000
00010000
00000000
01000000
00000000
00100000
00000000
00010000
00001000
00010000
00000000
00001000
00000000
,
00010000
00020000
00001000
00032000
00023000
00031000
00011000
00000000
,
00010000
00000000
00000100
00001000
00000001
00000000
00000010
00000000
00000100
00000000
00000010
00000001
00001000
00000000
00000010
00000000
,
00000100
00000000
00000001
00001000
00000100
00000000
00010000
00000000
00001000
00000000
00100000
00010000
00100000
00000000
01000000
00000000
,
10000000
00000000
00010000
10000000
00100000
00000000
01000000
00000000
00010000
00000000
10000000
01000000
00100000
00000000
00001000
00000000
,
00011000
00010000
00010100
00000100
00001100
00001000
00001001
00000000
,
00002010
00000000
00003020
00000000
,
00000032
00000000
00000203
00000000
,
00002300
00000000
00023000
00000000
,
00230000
00000000
20300000
00000000
,
32000000
00000000
03020000
00000000
,
00032000
00000000
00003020
00000000
,
00000032
00000000
00000203
00000000
,
00002300
00000000
00000000
00000000
00023000
00000000
00031000
00010000
,
00001000
00100000
00010000
00100000
01000000
10000000
00100000
01000000
,
00100000
10000000
01000000
00100000
00010000
01000000
00001000
00010000
,
00000100
00001000
00000001
00000100
00000010
00001000
00000001
00000010
,
00001000
00010000
01000000
00100000
00020000
00000000
01030000
00100000
,
10000000
00100000
01000000
00010000
00100000
00001000
00010000
00000010
,
00010000
00001000
00100000
00010000
01000000
10000000
01000000
00100000
,
00001000
00000010
00000100
00000001
00001000
00000001
00000010
00001000
,
00010000
01000000
10000000
00010000
02000000
00000000
03010000
10000000
,
00010000
10000000
01000000
00000000
00100000
00000000
00010000
00000000
01000000
00010000
00001000
00000000
00010000
00000000
01000000
00000000
,
00001000
00010000
00000010
00000000
00001000
00000000
00000100
00000000
00000010
00000001
00000010
00000001
00000010
00000000
00000001
00000000
,
00001000
00000001
00000010
00000000
00000100
00000000
00001000
00000000
00000010
00000100
00001000
00000000
00010000
00000000
00100000
00000000
,
01000000
00010000
00100000
00010000
10000000
00000000
01000000
00000000
01100000
00000000
00000000
00000000
00100000
00000000
00001000
00000000
,
00010000
00001000
00000010
00000000
00000001
00000000
00001000
00000000
00000001
00001000
00000100
00000000
00000010
00000000
00000100
00000000
,
00000001
00000100
00001000
00000000
00000001
00000000
00000100
00000000
00000010
00001000
00000100
00000000
00010000
00000000
00001000
00000000
,
01000000
00010000
00100000
00000000
00001000
00000000
00100000
00000000
00010000
01000000
00100000
00000000
10000000
00000000
01000000
00000000
,
00100000
00001000
00010000
00001000
00100000
00000000
00010000
00000000
10010000
00000000
00000000
00000000
00010000
00100000
01000000
10000000
,
00010000
00000000
10000000
01000000
00100000
00000000
00001000
00000000
00010000
00000000
00100000
01000000
00010000
00000000
00100000
00000000
,
01000000
00000000
00100000
00001000
00010000
00000000
00001000
00000000
00000010
00000000
00000001
00000000
00001000
00000000
00000100
00000000
,
00000010
00000000
00000001
00000010
00000100
00000000
00001000
00000000
00000010
00000000
00000100
00000001
00000010
00000000
00000100
00000000
,
00000010
00000001
00000010
00000001
00000100
00000000
00001000
00000000
00011000
00000000
00000000
00000000
00010000
00000000
01000000
00000000
,
10000000
00000000
00010000
10000000
00100000
00000000
01000000
00000000
00010000
10000000
00100000
00000000
01000000
00000000
00010000
00000000
,
00100000
00000000
00001000
00010000
00001000
00000000
00000100
00000000
00000001
00001000
00000001
00001000
00000010
00000000
00000100
00000000
,
00000001
00000000
00000010
00000100
00000010
00000000
00000001
00000000
00000100
00000010
00001000
00000000
00000100
00010000
00001000
00000000
,
00011000
00001000
00101000
00100000
02200000
00000000
03300000
00000000
,
10000000
00000000
00100000
00010000
00100000
00000000
10000000
00000000
01000000
00010000
01000000
00000000
10000000
00000000
00000000
00000000
,
01100000
00000000
00100000
00010000
00100000
00000000
00000000
00000000
00011000
00000000
00010000
00000010
00010000
00000000
00000000
00000000
,
00001000
00000000
00010000
00000010
00010000
00000000
00001000
00000000
00010000
00000100
00010000
00000000
00001000
00000000
00000000
00000000
,
00011000
00010000
00010010
00000000
00011000
00001000
00101000
00000000
,
00010000
00000000
00001000
00000010
00001000
00000000
00010000
00000000
00001000
00000100
00001000
00000000
00010000
00000000
00000000
00000000
,
00011000
00000000
00010000
00000010
00010000
00000000
00000000
00000000
00001010
00000000
00000010
00000100
00000010
00000000
00000000
00000000
,
00001000
00000000
00000100
00000010
00000001
00000000
00001000
00000000
00000010
00000100
00000001
00000000
00001000
00000000
00000000
00000000
,
00000101
00000100
00000110
00000000
00001010
00000000
00011000
00000000
,
00001000
00100000
00010000
00000000
10000000
00000000
00100000
00000000
01000000
00010000
00100000
00000000
01000000
00000000
00100000
00000000
,
00001000
00010000
00000100
00000000
00001000
00000000
00000001
00000010
00000100
00000000
00000010
00000000
00000001
00000000
00000100
00001000
,
00000100
00000000
00000001
00000000
00000010
00000000
00000100
00000010
00000001
00000000
00001000
00000000
00000100
00000000
00010000
00000000
,
00001000
00100000
00010000
00100000
01000000
00000000
10000000
00000000
10010000
00000000
00000000
00000000
00010000
10000000
00100000
10000000
,
00010000
00000000
10000000
00100000
01000000
00000000
00100000
00000000
10000000
00000000
01000000
00100000
00010000
00000000
00100000
00000000
,
00001000
00010000
00000100
00001000
00000001
00000000
00000100
00000000
00000001
00000010
00000100
00000000
00001000
00000100
00000010
00000000
,
00000001
00000000
00000100
00001000
00010000
00000000
00100000
00000000
01000000
00000000
00010000
10000000
01000000
00000000
10000000
00000000
,
11000000
00100000
00110000
00001000
00022000
00000000
00000000
00000000
,
00000000
00000000
00033000
00000000
;
