#TITLE:sync;
#ARTIST:OutPhase (TaQ\/dj TAKA);
#GENRE:TRANCE;
#BANNER:sync.png;
#BACKGROUND:sync-bg.png;
#CDTITLE:./CDTitles/bm IIDX 5th style.png;
#MUSIC:sync.ogg;
#SAMPLESTART:94.851;
#SAMPLELENGTH:15;
#BPMS:0=167;
#STAGE:23;

//--------------- dance-single - Fred-104 ----------------
#NOTES:
     dance-single:
     Fred-104:
     Beginner:
     3:
     :
0000
0000
0000
0000
,
0000
0000
0000
0000
,
0000
0000
0000
0000
,
0000
0000
0000
0000
,
0000
0000
0000
0000
,
0000
0000
0000
0000
,
0000
0000
0000
0000
,
0000
0000
0000
0000
,
0000
0000
0000
0000
,
0000
0000
0000
0000
,
2000
0000
0000
3000
,
0002
0000
0000
0003
,
2000
0000
0000
3000
,
0002
0000
0000
0003
,
2000
0000
0000
3000
,
0002
0000
0000
0003
,
2000
0000
0000
3000
,
1001
0000
0000
0000
,
1000
0000
0010
0000
,
1000
0000
0100
0000
,
1000
0000
0001
0000
,
1000
0000
0100
0000
,
1000
0000
0001
0000
,
0010
0000
0100
0000
,
0010
0000
0001
0000
,
1001
0000
0000
0000
,
0001
0000
0010
0000
,
0001
0000
1000
0000
,
0001
0000
0100
0000
,
0010
0000
1000
0000
,
0001
0000
1000
0000
,
0001
0000
0100
0000
,
0001
0000
1000
0000
,
0001
0000
1000
0000
,
0002
0000
0000
0003
,
2000
0000
0000
3000
,
0002
0000
0000
0003
,
2000
0000
0000
3000
,
0002
0000
0000
0003
,
2000
0000
0000
3000
,
0020
0000
0000
0030
,
0200
0000
0000
0300
,
0001
0000
1000
0000
,
0001
0000
0100
0000
,
0002
0000
0000
0003
,
2000
0000
0000
3000
,
0100
0000
1000
0000
,
0001
0000
1000
0000
,
0002
0000
0000
0003
,
2000
0000
0000
3000
,
0001
0000
0100
0000
,
0001
0000
0010
0000
,
0002
0000
0000
0003
,
0200
0000
0000
0300
,
0001
0000
0010
0000
,
0100
0000
1000
0000
,
0002
0000
0000
0003
,
2000
0000
0000
3000
,
0001
0000
1000
0000
,
0010
0000
1000
0000
,
0002
0003
2000
3000
,
0002
0003
0200
0300
,
0001
0000
1000
0000
,
0100
0000
1000
0000
,
0002
0003
2000
3000
,
0002
0000
0000
0003
,
1000
0000
0010
0000
,
0200
0000
0300
0000
,
0002
0003
2000
3000
,
0002
0003
2000
3000
,
0001
0000
0010
0000
,
0002
0000
0003
0000
,
2000
3000
0020
0030
,
1000
1000
1000
1000
,
2000
0000
3000
0000
,
0200
0000
0300
0000
,
0020
0000
0030
0000
,
0002
0000
0003
0000
,
0200
0000
0300
0000
,
0020
0000
0030
0000
,
2002
0000
0000
0000
,
0000
0000
0000
0000
,
3003
0000
0000
0000
;

//--------------- dance-single - Fred-104 ----------------
#NOTES:
     dance-single:
     Fred-104:
     Easy:
     6:
     :
0000
0000
0000
0000
,
0000
0000
0000
0000
,
0000
0000
0000
0000
,
0000
0000
0000
0000
,
0000
0000
0000
0000
,
0000
0000
0000
0000
,
0000
0000
0000
0000
,
0000
0000
0000
0000
,
0000
0000
0000
0000
,
0000
0000
0000
0000
,
1000
0010
1000
0000
,
0100
1000
0100
0000
,
1000
0001
1000
0000
,
0001
0100
0001
0010
,
0001
1000
0001
0000
,
0100
0010
0100
0000
,
0001
0010
0001
1000
,
2002
0000
0000
3003
,
0001
0100
0001
0000
,
0100
0010
1000
0000
,
0100
0010
0001
0000
,
0100
0010
0100
0001
,
1000
0010
0001
0000
,
0100
1000
0001
0000
,
1000
0100
0010
0001
,
2002
0000
0000
3003
,
0001
0100
0001
0010
,
0100
1000
0020
0030
,
1000
0100
1000
0010
,
0001
0010
2000
3000
,
0001
1000
0010
0100
,
0001
0100
2000
3000
,
0100
0001
1000
0100
,
1000
0010
0100
0001
,
2000
0000
0000
0000
,
3200
0000
0000
0000
,
0320
0000
0032
0000
,
2003
0000
3002
0000
,
0203
0000
0000
0000
,
0320
0000
0000
0000
,
2030
0000
3002
0000
,
2003
3020
0230
0302
,
1003
0000
0100
0000
0000
1000
0010
0000
,
0100
0000
0001
0000
0000
1000
0001
0000
,
1000
1000
0010
0010
,
0100
0000
0100
0000
0001
0000
1000
0001
,
1000
0000
0001
0000
0000
0010
0001
0000
,
0100
0000
0010
0000
0000
1000
0010
0000
,
0100
0100
0001
0001
,
1000
0000
0100
0000
1000
0000
0001
0010
,
0001
0100
0010
1000
,
0100
0010
0200
0300
,
1000
0100
0002
0003
,
1000
0010
0002
0003
,
1000
0001
0100
0010
,
0100
0001
0020
0030
,
0001
0100
2000
3000
,
0001
0010
2000
3000
,
0001
0100
0010
0100
,
0001
1000
0002
0003
,
1000
0100
0002
0003
,
0001
0100
2000
3000
,
0001
1000
0010
1000
,
0100
0010
0001
0000
,
2000
3000
0002
0003
,
2000
0000
0002
3003
,
1000
0010
0100
0010
,
1000
0100
0010
0001
,
2000
3000
0200
0300
,
0002
0003
0200
0300
,
1000
0001
0010
0001
,
0100
0010
0100
0000
,
0002
0003
0020
0030
,
2000
3000
0020
0030
,
0002
0000
0203
0000
,
0320
0000
2030
0000
,
3200
0000
0320
0000
,
0032
0000
2000
3003
,
0002
0003
0200
0300
,
0020
0030
2000
3000
,
2002
0000
0000
0000
,
0000
0000
0000
0000
,
3003
0000
0000
0000
;

//--------------- dance-single - Fred-104 ----------------
#NOTES:
     dance-single:
     Fred-104:
     Medium:
     10:
     :
0000
0000
0000
0000
,
0000
0000
0000
0000
,
0000
0000
0000
0000
,
0000
0000
0000
0000
,
0000
0000
0000
0000
,
0000
0000
0000
0000
,
0000
0000
0000
0000
,
0000
0000
0000
0000
,
0000
0000
0000
0000
,
0000
0000
0000
0000
,
0001
0001
0100
0100
,
0001
0001
0010
0010
,
0100
0100
1000
1000
,
0001
0000
0001
0000
1000
0000
1000
0001
,
1000
1000
0010
0010
,
0100
0100
0001
0001
,
1000
1000
0001
0001
,
2002
0000
0000
3003
,
0010
0001
0100
0000
0001
0100
1000
0000
,
1000
0100
0001
0000
0100
0001
0010
0000
,
0100
0001
0010
0000
0001
0010
1000
0000
,
1000
0010
0001
0000
0010
0001
0100
0000
,
0010
1000
0100
0000
1000
0100
0001
0000
,
0001
0100
1000
0000
0100
1000
0010
0000
,
0100
1000
0010
0000
1000
0001
1000
0000
,
2002
0000
0000
3003
,
0001
0100
0020
0030
1000
0100
0020
0030
,
0001
1000
0001
1000
0001
1000
2000
3000
,
0001
0010
0200
0300
1000
0010
0200
0300
,
0001
1000
0001
1000
0001
1000
2000
3000
,
0001
0010
0200
0300
1000
0010
0200
0300
,
0001
1000
0001
1000
0001
1000
2000
3000
,
0001
0100
0010
0000
1000
0010
0100
0000
,
0001
0100
0001
0010
0010
0100
1000
0100
,
0020
0000
0000
0000
,
0032
0000
0000
0000
,
2003
0000
3002
0000
,
0203
0000
0320
0000
,
2030
0000
0000
0000
,
3002
0000
0000
0000
,
2003
0000
3020
0000
,
2030
3200
0302
0203
,
1300
0000
0010
0000
1000
0010
0100
0000
,
0001
0000
0010
0000
0100
0010
0001
0000
,
0100
0001
0010
0001
,
0100
0000
0010
0000
0100
0001
1000
0000
,
0001
0000
0010
0000
0100
0010
0001
0000
,
1000
0000
0010
0000
0100
0001
1000
0000
,
0001
0010
0100
0000
1000
0010
0100
0000
,
0001
0100
0010
0000
1000
0010
0100
0000
,
0001
0000
0010
0000
0001
1000
0001
0000
,
0100
0000
0010
0000
1000
0010
0100
0000
,
0001
0010
1000
0000
1000
0010
0001
0000
,
0001
0100
1000
0000
1000
0100
0001
0000
,
1000
0000
0010
0000
0100
0010
1000
0000
,
0100
0000
0010
0000
0100
1000
0010
0000
,
1000
0100
0001
0000
0001
0100
1000
0000
,
1000
0010
0001
0000
0001
0010
1000
0000
,
0001
0000
0100
0000
0010
1000
0001
0000
,
0010
0000
0100
0000
1000
0001
0100
0000
,
2010
3100
0012
0103
,
2100
3010
0102
0013
,
0001
0000
0100
0000
0010
1000
0001
0000
,
0010
0000
0100
0000
1000
0001
0100
0000
,
0001
0100
0001
0000
0100
0010
1000
0000
,
0001
1000
0001
1000
0001
1000
0001
0000
,
1000
0100
1000
0000
0010
0000
0100
0000
,
0010
1000
0100
0000
0010
0000
0001
0000
,
0100
0001
0010
0000
0001
0100
0010
0000
,
0100
0001
0010
0000
0100
1000
0010
0000
,
0100
0001
1000
0000
0010
0000
0100
0000
,
0010
1000
0100
0000
0010
0000
0001
0000
,
1000
0100
0001
0000
1000
0010
0001
0000
,
1000
0100
0001
0000
1000
0010
0001
0000
,
2001
0000
3020
0000
,
0230
0000
0302
0000
,
2003
0000
3200
0000
,
0320
0000
0032
2003
,
3002
0000
0203
0000
,
2300
0000
3020
0030
,
0022
0000
0000
0000
,
0000
0000
0000
0000
,
0033
0000
0000
0000
;

//--------------- dance-single - Fred-104 ----------------
#NOTES:
     dance-single:
     Fred-104:
     Hard:
     14:
     :
0000
0000
0000
0000
,
0000
0000
0000
0000
,
0000
0000
0000
0000
,
0000
0000
0000
0000
,
0000
0000
0000
0000
,
0000
0000
0000
0000
,
0000
0000
0000
0000
,
0000
0000
0000
0000
,
0000
0000
0000
0000
,
0000
0000
0000
0000
,
1000
0100
0010
0100
,
0001
0100
0010
0100
,
1000
0100
0010
0100
,
0001
0100
0010
0100
,
1000
0010
0100
0010
,
0001
0010
0100
0010
,
1000
0010
0100
0010
,
2002
0000
0000
3003
,
1000
0010
1000
0100
1000
0001
0100
0010
,
0100
0001
0010
0100
1000
0010
0100
0001
,
1000
0001
0010
0100
0010
0001
1000
0001
,
1000
0100
0010
0001
0100
0010
0100
0001
,
1000
0100
0001
0100
1000
0010
1000
0100
,
0010
0001
0100
0010
0001
0010
1000
0001
,
0100
1000
0100
0010
1000
0100
0010
0001
,
2000
0000
0000
0000
0000
0000
0000
0000
0000
0000
0000
3001
1000
0000
1000
0000
,
0001
0000
0100
0000
0010
1000
0000
0010
1000
0000
0100
0000
0010
0001
0000
0010
,
0001
0000
1000
0000
0001
0100
0000
0010
1000
0000
0001
0000
1000
0000
0000
0000
,
1000
0000
0100
0000
0010
0001
0000
0010
0001
0000
0100
0000
0010
1000
0000
0010
,
1000
0000
0001
0000
1000
0100
0000
0010
0001
0000
1000
0000
0001
0000
0000
0000
,
0001
0000
0010
0000
0100
1000
0000
0100
1000
0000
0010
0000
0100
0001
0000
0100
,
0001
0000
1000
0000
0001
0100
0000
0010
1000
0000
0001
0000
1000
0000
0000
0000
,
1000
0000
0001
0000
0010
0000
0100
1000
0100
0000
1000
0000
0001
1000
0001
1000
,
0001
0000
0100
0000
0010
0000
1000
0010
0000
0100
0000
0001
1000
0000
0100
0000
,
0020
0000
0000
0000
,
0032
0000
2003
0000
,
3002
0203
2300
3020
,
0032
0203
2300
3020
,
0032
0000
2003
0000
,
3200
0000
0320
0000
,
0032
0023
2030
3200
,
0301
0000
0010
0000
0001
0000
1000
0000
0010
0000
0100
0000
0001
0100
0001
0000
,
1000
0000
0100
0000
0001
0100
0000
0001
0000
0000
0010
0000
1000
0000
0010
0000
,
0100
0000
0001
0000
0100
1000
0000
0010
0000
0000
1000
0000
0100
0000
0010
0000
,
0001
0100
0010
0000
1000
0100
0010
0000
,
0001
0100
0010
0000
1000
0100
0010
0001
,
0100
0000
1000
0000
0100
0001
0000
0100
0000
0000
1000
0000
0100
0000
0001
0000
,
0010
0000
1000
0000
0010
0001
0000
0100
0000
0000
1000
0000
0100
0000
0001
0000
,
0010
0100
1000
0000
0010
0100
0001
0000
,
0010
0100
1000
0000
0010
0100
0001
1000
,
0001
0000
0010
0000
0001
0100
0000
0100
0010
0000
1000
0000
0100
0000
0010
0000
,
0100
0000
1000
0000
0001
1000
0000
1000
0100
0000
1000
0000
0010
0000
0100
0000
,
0001
0010
1000
0000
0001
0100
1000
0000
,
0001
0100
1000
0000
0001
0010
1000
0001
,
1000
0000
0100
0000
1000
0010
0000
0010
0100
0000
0010
0000
1000
0000
0001
0000
,
0010
0000
0100
0000
0010
0001
0000
0001
1000
0000
0010
0000
0100
0000
0001
0000
,
1000
0100
0001
0000
1000
0010
0001
0000
,
1000
0010
0001
0000
1000
0100
0001
1000
,
0001
0000
0010
0000
0100
0010
0000
0001
0010
0000
0001
0000
1000
0000
0010
0000
,
0100
0000
0001
0000
1000
0100
0000
0010
0001
0000
1000
0000
0010
0000
0100
0000
,
0102
0013
2100
3010
,
0201
0310
1200
0310
,
1000
0000
0100
0000
1000
0010
0000
0100
0001
0000
1000
0000
0100
0000
0010
0000
,
0001
0000
0100
0000
0001
0100
0000
0010
0100
0000
0001
0000
1000
0000
0100
0000
,
1000
0100
1000
0000
0010
0000
0100
0000
0001
0100
0001
0000
0010
0000
0100
0000
,
1000
0001
1000
0001
1000
0001
1000
0001
1000
0001
1000
0001
1000
0000
0001
0000
,
1000
0100
1000
0000
0010
1000
0000
0010
0100
0000
0010
0000
1000
0000
0001
0000
,
0010
0100
0010
0000
0001
0100
0000
0001
0100
0000
0010
0000
1000
0000
0001
0000
,
1000
0100
1000
0000
0010
0000
0100
0000
0001
0100
0001
0000
0010
0000
0100
0000
,
1000
0010
1000
0000
0100
0000
0010
0000
0001
0010
0001
0000
0100
0000
0010
0000
,
1000
0010
1000
0000
0001
0010
0000
0100
0010
0000
0001
0000
0100
0000
0010
0000
,
0100
0001
0100
0000
0010
1000
0000
0010
0100
0000
0001
0000
1000
0000
0100
0000
,
1000
0100
0010
0000
0100
0000
1000
0000
0001
0100
0010
0000
0100
0000
0001
0000
,
1000
0010
0100
0000
0010
0000
1000
0000
0001
0000
0100
0010
0100
0000
0001
0000
,
2001
0000
3020
0000
,
0230
0000
0302
0000
,
2003
3100
0002
0013
,
2000
3010
0002
0103
,
2200
3300
0022
0033
,
2020
3030
0202
0303
,
2002
0000
0000
0000
,
0000
0000
0000
0000
,
3003
0000
0000
0000
;

//--------------- dance-single - Fred-104 ----------------
#NOTES:
     dance-single:
     Fred-104:
     Challenge:
     17:
     :
0000
0000
0000
0000
,
0000
0000
0000
0000
,
0000
0000
0000
0000
,
0000
0000
0000
0000
,
0000
0000
0000
0000
,
0000
0000
0000
0000
,
0000
0000
0000
0000
,
0000
0000
0000
0000
,
0000
0000
0000
0000
,
0000
0000
0000
0000
,
1000
1000
0010
0010
,
0100
0100
0001
0001
,
0010
0010
0100
0100
,
1000
0000
1000
0000
0001
0000
0100
0010
,
0100
0000
0000
0000
0100
0000
0000
0000
0001
0000
0000
0000
0001
0000
1000
0001
,
1000
0000
1000
0000
0010
0010
0010
0010
,
0100
0000
0100
0000
0001
0001
1000
1000
,
2002
0000
0000
3003
,
1000
0000
0001
0100
0001
0000
0010
0100
0010
0000
0001
1000
0001
0000
1000
0010
,
0100
0000
0010
1000
0010
0000
1000
0100
1000
0000
0001
0100
0001
0000
1000
0001
,
0010
0000
0001
0100
0001
0000
1000
0010
1000
0000
0001
0010
0001
0000
1000
0100
,
0010
0000
0001
1000
0001
0000
0100
0010
0100
0001
1000
0001
0100
0000
0010
0000
,
1000
0000
0100
0001
0100
0000
1000
0001
1000
0000
0010
0001
0010
0000
1000
0001
,
1000
0000
0010
0001
0010
0000
1000
0001
1000
0000
0100
0001
0100
0000
1000
0001
,
1000
0000
0100
0001
0100
0000
1000
0010
0100
0000
0001
0100
1000
0000
0100
0001
,
2000
0000
0000
0000
0000
0000
0000
0000
3000
0000
0000
0100
0010
0000
0001
0000
,
1000
0100
1000
0000
0001
0100
0010
0100
0001
0100
0001
0000
1000
0100
0010
0001
,
0010
0001
1000
0000
0010
1000
0100
1000
0001
1000
0100
0000
0010
0001
1000
0001
,
0100
0001
1000
0000
0001
0010
0100
1000
0100
0010
0001
0000
1000
0010
0100
0001
,
0100
0010
1000
0000
0001
0010
0100
0010
0001
0010
0100
1000
0001
0000
0100
0010
,
0100
0000
0001
1000
0010
0000
1000
0001
0100
0001
0010
0100
0010
0100
1000
0001
,
1000
0000
0001
0100
0010
0000
1000
0001
0010
0001
1000
0001
0100
0010
0100
0010
,
1000
0100
1000
0100
0010
0100
0010
0100
0010
0001
0010
0001
1000
0001
0100
0001
,
1000
0000
0100
0000
0001
0000
1000
0010
0000
0001
0000
1000
0001
1000
0100
0010
,
0002
0000
2003
0000
,
3020
0000
0032
0000
,
2003
0000
3200
0000
,
0302
0000
2003
0000
,
3002
0000
0000
0000
,
0023
0000
2030
0000
,
3002
0000
0203
0000
,
1300
0000
0000
0000
0001
0000
0000
0000
1000
0010
0100
0000
0010
1000
0001
1000
,
0001
0010
0000
0001
1000
0000
0001
0100
0000
0010
1000
0000
0001
0000
0010
0000
,
0001
0100
0000
0010
1000
0000
0100
0010
0000
0100
1000
0000
0001
0000
0010
0000
,
0001
0000
0100
1000
0100
0000
0001
0010
0001
0000
0010
1000
0010
0000
0001
0100
,
0001
0000
0010
0100
1000
0000
0010
0100
0001
0000
0100
0010
1000
0000
0100
0010
,
0001
0000
1000
0000
0100
0000
0001
0100
0000
0010
0001
0000
1000
0000
0001
0000
,
0100
0010
0001
0000
0010
0000
1000
0001
0000
1000
0100
0000
1000
0000
0010
0000
,
1000
0000
0100
0001
0100
0000
1000
0010
1000
0000
0010
0001
0010
0000
1000
0100
,
1000
0000
0010
0100
0001
0000
0010
0100
1000
0000
0100
0010
0001
0000
0100
0010
,
1000
0100
1000
0000
0001
0100
0000
0010
0100
0000
0001
0000
0100
0010
1000
0000
,
0001
0010
0100
0000
0010
0001
0000
1000
0001
0000
0100
0000
0010
1000
0010
0000
,
1000
0100
1000
0000
0001
0010
0001
0000
1000
0010
1000
0000
0001
0100
0001
0000
,
1000
0001
1000
0000
0001
0010
0100
1000
0001
0000
0010
0000
0100
0010
0001
0000
,
1000
0010
0100
0000
0010
1000
0000
0001
1000
0000
0100
0000
0010
0001
1000
0000
,
0001
1000
0100
0000
0010
0001
0000
1000
0010
0000
0100
0000
0001
1000
0001
0000
,
1000
0100
0010
0000
0001
0010
0100
0000
1000
0010
0100
0000
0001
0100
0010
0000
,
1000
0001
1000
0000
0001
0100
0010
1000
0100
0010
0100
0000
1000
0010
0100
0010
,
1000
0100
1000
0000
0010
1000
0000
0001
1000
0100
0010
0000
0001
1000
0001
0000
,
0100
0010
0100
0000
0001
0010
0000
0100
0010
0001
1000
0000
0001
0100
0001
0000
,
1000
0100
1000
0100
0010
0100
0010
0000
0001
0100
0001
0100
0010
0100
0010
0000
,
1000
0100
1000
0010
1000
0100
1000
0000
0001
0100
0001
0010
0001
0100
0001
0000
,
1000
0001
0010
0000
0001
0100
0000
0001
0010
0100
0010
0000
0001
1000
0001
0100
,
0001
0010
0100
0000
1000
0010
0000
0100
0001
1000
0100
0000
0010
0001
1000
0000
,
0001
0100
0001
0100
0010
1000
0010
1000
0001
0010
0001
0010
0100
1000
0100
1000
,
0001
0010
0100
1000
0001
0100
0010
1000
0001
1000
0001
1000
0001
0000
1000
0000
,
0001
0100
0010
0000
1000
0100
0000
0010
0001
1000
0010
0000
0100
0010
1000
0000
,
0001
0010
0100
0000
1000
0001
0000
0100
0001
0010
0100
0000
0010
0001
1000
0000
,
0001
0010
0100
1000
0100
0010
0001
0000
1000
0010
0100
0001
0100
0010
1000
0000
,
0001
0100
0010
1000
0010
0100
0001
1000
0001
0010
0100
0000
1000
0100
1000
0100
,
1000
0010
0100
0000
0010
1000
0000
0100
0010
0001
0010
0000
0001
1000
0010
0000
,
0100
0001
0010
0000
0100
0010
0000
0001
1000
0001
0100
0000
0010
1000
0001
0000
,
1000
0100
0010
0001
0010
0100
1000
0000
0001
0100
0010
1000
0010
0100
0001
0000
,
1000
0100
1000
0010
0100
0001
1000
0100
0010
0001
0100
0010
1000
0100
0010
0001
,
2000
0000
3020
0000
,
0230
0000
0302
0000
,
2003
0000
3020
0000
,
0032
0000
0000
0000
0203
0000
2300
3000
,
2200
3300
0202
0303
,
2020
3030
0022
0033
,
2002
0000
0000
0000
,
0000
0000
0000
0000
,
3003
0000
0000
0000
;

//--------------- dance-double - Fred-104 ----------------
#NOTES:
     dance-double:
     Fred-104:
     Easy:
     6:
     :
00000000
00000000
00000000
00000000
,
00000000
00000000
00000000
00000000
,
00000000
00000000
00000000
00000000
,
00000000
00000000
00000000
00000000
,
00000000
00000000
00000000
00000000
,
00000000
00000000
00000000
00000000
,
00000000
00000000
00000000
00000000
,
00000000
00000000
00000000
00000000
,
00000000
00000000
00000000
00000000
,
00000000
00000000
00000000
00000000
,
00010000
00100000
00010000
00000000
,
01000000
00100000
01000000
00000000
,
00010000
10000000
00010000
00000000
,
10000000
01000000
10000000
01000000
,
00010000
01000000
00010000
00000000
,
00001000
00010000
00001000
00000000
,
00000010
00000001
00001000
00000001
,
00002002
00000000
00000000
00003003
,
00000001
00000100
00000001
00000000
,
00000100
00000010
00001000
00000000
,
00000100
00010000
00001000
00000000
,
00010000
00001000
01000000
00001000
,
00010000
00001000
00100000
00000000
,
00001000
00010000
00000100
00000000
,
00001000
00010000
00001000
00010000
,
00022000
00000000
00000000
00033000
,
00001000
00100000
00010000
00100000
,
00010000
10000000
00020000
00030000
,
10000000
00100000
10000000
01000000
,
00100000
01000000
20000000
30000000
,
00010000
01000000
00010000
01000000
,
00001000
00010000
00002000
00003000
,
00010000
00000100
00010000
00000100
,
00001000
00000100
00001000
00000001
,
00000020
00000000
00000000
00000000
,
00000032
00000000
00000000
00000000
,
00000203
00000000
00000320
00000000
,
00002030
00000000
00003200
00000000
,
00020300
00000000
00000000
00000000
,
00032000
00000000
00000000
00000000
,
00203000
00000000
02300000
00000000
,
23000000
30020000
02030000
03200000
,
10300000
00000000
01000000
00100000
,
00010000
00000000
00001000
00010000
,
00001000
00001000
00010000
00010000
,
00000100
00000000
00000100
00000000
00001000
00000000
00000001
00000010
,
00000001
00000000
00000100
00001000
,
00010000
00000000
00100000
00010000
,
00001000
00000000
00010000
00000000
,
00001000
00000000
00001000
00000000
00010000
00000000
00001000
00010000
,
00001000
00100000
00010000
01000000
,
00010000
10000000
00020000
00030000
,
10000000
01000000
00020000
00030000
,
00001000
00010000
00200000
00300000
,
10000000
00010000
00100000
01000000
,
00100000
00001000
00020000
00030000
,
00001000
00010000
00200000
00300000
,
00010000
00001000
00000200
00000300
,
00001000
00000010
00000100
00000010
,
00001000
00000001
00000200
00000300
,
00000001
00000010
00002000
00003000
,
00010000
01000000
20000000
30000000
,
00010000
01000000
00100000
01000000
,
00010000
10000000
01000000
00000000
,
00200000
00300000
00002000
00003000
,
00020000
00000000
00002000
00033000
,
00010000
00000100
00001000
00000100
,
00010000
00000100
00001000
00000000
,
00000020
00000030
00000200
00000300
,
00000002
00000003
00002000
00003000
,
00000010
00001000
00010000
00001000
,
01000000
10000000
00010000
00000000
,
20000000
30000000
02000000
03000000
,
00200000
00300000
00002000
00003000
,
00020000
00000000
00032000
00000000
,
00023000
00000000
00030020
00000000
,
00002030
00000000
00003200
00000000
,
00020300
00000000
00002000
00033000
,
00002000
00003000
00020000
00030000
,
00200000
00300000
00020000
00030000
,
00022000
00000000
00000000
00000000
,
00000000
00000000
00000000
00000000
,
00033000
00000000
00000000
00000000
;

//--------------- dance-double - Fred-104 ----------------
#NOTES:
     dance-double:
     Fred-104:
     Medium:
     10:
     :
00000000
00000000
00000000
00000000
,
00000000
00000000
00000000
00000000
,
00000000
00000000
00000000
00000000
,
00000000
00000000
00000000
00000000
,
00000000
00000000
00000000
00000000
,
00000000
00000000
00000000
00000000
,
00000000
00000000
00000000
00000000
,
00000000
00000000
00000000
00000000
,
00000000
00000000
00000000
00000000
,
00000000
00000000
00000000
00000000
,
00000001
00000001
00000100
00000100
,
00010000
00010000
01000000
01000000
,
10000000
10000000
00100000
00100000
,
00001000
00000000
00001000
00000000
00010000
00000000
00010000
00000100
,
00001000
00001000
00000001
00000001
,
00000010
00000010
00001000
00001000
,
00010000
01000000
10000000
00010000
,
20020000
00000000
00000000
30030000
,
01000000
10000000
00100000
00000000
00010000
00000000
00001000
00000000
,
00000100
00000001
00000010
00000000
00001000
00000000
00010000
00000000
,
01000000
10000000
00100000
00000000
00010000
00000000
00001000
00000000
,
00000100
00000001
00000010
00000000
00001000
00000000
00010000
00000000
,
00100000
10000000
22000000
33000000
,
00010000
00001000
00022000
00033000
,
00000010
00000001
00000202
00000303
,
00022000
00000000
00000000
00033000
,
00100000
01000000
00010000
00000000
00100000
00001000
00010000
00000000
,
00000010
00000100
00000001
00000000
00001000
00000010
00010000
00000000
,
01010000
00000000
00001100
00000000
00000010
00000001
00000100
00000001
,
00001000
00000000
00001000
00000000
00000001
00000100
00000001
00000000
,
00000100
00000010
00001000
00000000
00000100
00010000
00001000
00000000
,
01000000
00100000
10000000
00000000
00010000
01000000
00001000
00000000
,
00010000
00001000
00000100
00000001
00000100
00001000
00010000
00100000
,
00010000
00001000
00000010
00001000
00010000
01000000
00010000
00000000
,
00012000
00000000
00000000
00000000
,
00023000
00000000
00000000
00000000
,
02030000
00000000
23000000
00000000
,
30200000
00000000
00320000
00000000
,
00032000
00000000
00000000
00000000
,
00003020
00000000
00000000
00000000
,
00000032
00000000
00000203
00000000
,
00002300
00023000
00032000
00023000
,
00031000
00000000
00100000
00000000
00010000
10000000
00010000
00000000
,
01000000
00000000
00100000
00000000
10000000
01000000
00010000
00000000
,
00001000
00010000
00100000
00010000
,
00001000
00000100
00001000
00010000
,
00001000
00000000
00000010
00000000
00000001
00001000
00000001
00000000
,
00000100
00000000
00001000
00000000
00010000
00001000
00010000
00000000
,
00001000
00010000
00100000
00010000
,
00001000
00000010
00001000
00010000
,
00001000
00000000
00000100
00000000
00001000
00010000
01000000
00000000
,
10000000
00000000
00010000
00000000
01000000
00100000
10000000
00000000
,
01000000
00100000
00010000
00000000
00100000
00001000
00010000
00000000
,
00000100
00001000
00000001
00000000
00000100
00000010
00001000
00000000
,
00000001
00000000
00000010
00000000
00001000
00000010
00000001
00000000
,
00000100
00000000
00000010
00000000
00001000
00000100
00010000
00000000
,
00001000
00010000
00100000
00000000
00010000
00001000
00000010
00000000
,
00001000
00010000
01000000
00000000
00010000
00001000
00000100
00000000
,
00001000
00000000
00010000
00000000
00001000
00100000
00010000
00000000
,
10000000
00000000
00100000
00000000
01000000
00010000
00100000
00000000
,
01000000
10000000
00100000
00000000
10000000
00100000
01000000
00000000
,
00100000
00001000
00010000
00000000
00001000
00000010
00000001
00000000
,
00001000
00000000
00000001
00000000
00000100
00000010
00001000
00000000
,
00000001
00000000
00000010
00000000
00000100
00001000
00000010
00000000
,
00010000
00001000
00100000
00000000
00001000
00010000
00000010
00000000
,
00010000
00001000
01000000
00001000
00010000
00000100
00010000
00000000
,
00001000
00010000
00000100
00000000
00001000
00000000
00000010
00000000
,
00000100
00000001
00000010
00000000
00000100
00000000
00000010
00000000
,
00000001
00000100
00001000
00000000
00010000
00100000
10000000
00000000
,
01000000
00010000
00001000
00000000
00000010
00000001
00001000
00000000
,
00000001
00000000
00000100
00000000
00000010
00001000
00000100
00000000
,
00010000
00000000
00001000
00000000
00010000
00100000
01000000
00000000
,
10000000
00100000
00010000
00000000
00001000
00000100
00000001
00000000
,
00000010
00001000
00010000
00000000
01000000
10000000
00010000
00000000
,
20010000
00000000
32000000
00000000
,
03200000
00000000
00302000
00000000
,
00023000
00000000
00030200
00000000
,
00002300
00003020
00000230
00000302
,
00000023
00000000
00002030
00000000
,
00023000
00000000
02030000
03000000
,
22000000
00000000
00000000
00000000
,
00000000
00000000
00000000
00000000
,
33000000
00000000
00000000
00000000
;

//--------------- dance-double - Fred-104 ----------------
#NOTES:
     dance-double:
     Fred-104:
     Hard:
     14:
     :
00000000
00000000
00000000
00000000
,
00000000
00000000
00000000
00000000
,
00000000
00000000
00000000
00000000
,
00000000
00000000
00000000
00000000
,
00000000
00000000
00000000
00000000
,
00000000
00000000
00000000
00000000
,
00000000
00000000
00000000
00000000
,
00000000
00000000
00000000
00000000
,
00000000
00000000
00000000
00000000
,
00000000
00000000
00000000
00000000
,
00100000
00001000
00010000
00000010
,
00010000
00010000
00001000
00001000
,
00100000
00001000
00010000
00000010
,
00100000
00000000
00000000
00000000
00001000
00000000
00000000
00000000
00010000
00000000
00000000
00000000
00000010
00000000
00010000
00001000
,
00010000
00010000
00001000
00001000
,
01000000
00001000
00010000
00000100
,
00010000
00000000
00010000
00000000
00001000
00000000
00001000
00010000
,
00022000
00000000
00000000
00033000
,
00001000
00000100
00001000
00010000
01000000
00010000
00001000
00000100
,
00000000
00000110
00000000
00000001
00000010
00001000
00000000
00001000
,
00000000
00001100
00000000
00000001
00000010
00001000
00000000
00001000
,
00000000
00010000
00000000
00100000
10000000
01000000
00000000
01010000
,
00000000
00100000
00000000
00010000
00001000
00000010
00000000
00000010
,
00000000
00000100
00000000
00010000
00001000
01000000
00000000
01000000
,
00000000
01010000
00000000
10000000
00010000
01000000
00100000
01000000
,
00200000
00000000
00000000
00000000
00000000
00000000
00000000
00000000
00000000
00000000
00000000
10300000
00100000
00000000
01000000
00000000
,
00100000
00000000
00100000
00000000
10000000
01000000
10000000
00000000
00010000
00000000
00010000
00000000
01000000
00010000
01000000
00000000
,
00010000
00000000
00010000
00000000
00100000
00001000
00100000
00000000
00001000
00000000
00010000
00000000
00000100
00000000
00000000
00000000
,
00001000
00000000
00001000
00000000
00000001
00000100
00000001
00000000
00000100
00000000
00000100
00000000
00000010
00010000
00000010
00000000
,
00010000
00000000
00010000
00000000
00001000
00010000
01000000
00000000
10000000
00000000
00100000
00000000
01000000
00000000
00000000
00000000
,
01000000
00000000
01000000
00000000
10000000
00100000
10000000
00000000
00010000
00000000
00010000
00000000
00100000
00010000
00100000
00000000
,
00010000
00000000
00010000
00000000
01000000
00001000
01000000
00000000
00001000
00000000
00010000
00000000
00000010
00000000
00000000
00000000
,
00010000
00000000
00001000
00000000
00100000
00010000
00100000
00000000
00010000
00000000
10000000
00000000
01000000
00000000
00100000
01000000
,
00100000
00000000
00010000
00000000
10000000
00000000
01000000
00100000
00000000
00001000
00000000
00010000
00000100
00000000
00000010
00000000
,
00000200
00000000
00000000
00000000
,
00002300
00000000
00000000
00000000
,
00003002
00000000
00000023
00000000
,
00002030
00023000
02030000
23000000
,
30020000
00000000
20030000
00000000
,
32000000
00000000
03020000
00000000
,
00032000
00003020
00000032
00002003
,
00003001
00000000
00000000
00000000
00000100
00000000
00000000
00000000
00001000
00010000
00001000
00000000
00010000
00000000
00000000
00000000
,
00001000
00100000
00010000
10000000
01000000
00010000
00001000
00000000
,
00001000
01000000
00010000
10000000
00100000
00010000
00001000
00000000
,
00010000
00100000
10000000
00000000
10000000
01000000
00010000
00000000
,
00001000
00000100
00000001
00000000
00000001
00000010
00001000
00000000
,
00010000
00100000
01000000
00010000
00100000
01000000
00010000
00000000
,
00001000
00000010
00000100
00001000
00000010
00000100
00001000
00000000
,
00010000
00100000
00010000
00000000
00001000
00000100
00001000
00000000
,
00010000
01000000
00010000
00000000
00001000
00000010
00001000
00000000
,
00010000
00000000
00001000
00000000
00100000
00001000
00000000
00010000
00001000
00000000
00100000
00000000
00010000
10000000
00010000
00000000
,
00100000
00000000
01000000
00000000
10000000
00100000
00000000
01000000
00100000
00000000
10000000
00000000
01000000
00100000
01000000
00000000
,
00100000
00010000
00001000
00000000
00000010
00001000
00010000
00000000
,
00001000
00000100
00001000
00000000
00010000
01000000
00010000
00000000
,
00001000
00000000
00010000
00000000
00000010
00001000
00000000
00000100
00001000
00000000
00000001
00000000
00000100
00000010
00000100
00000000
,
00000001
00000000
00000010
00000000
00000100
00000010
00000000
00000001
00001000
00000000
00000100
00000000
00010000
00001000
00010000
00000000
,
00001000
00010000
01000000
00000000
00010000
00001000
00000100
00000000
,
00001000
00010000
00100000
00000000
00010000
00001000
00000010
00001000
,
00010000
00000000
00001000
00000000
00100000
00010000
00000000
01000000
00010000
00000000
00100000
00000000
01000000
10000000
01000000
00000000
,
00100000
00000000
00010000
00000000
01000000
00001000
00000000
00010000
00001000
00000000
00100000
00000000
00001000
00010000
00001000
00000000
,
00000010
00000001
00001000
00000010
00000100
00000001
00000010
00000100
,
00001000
00000100
00010000
00001000
00100000
00010000
10000000
00010000
,
01000000
00000000
00100000
00000000
10000000
00100000
00000000
01000000
00010000
00000000
10000000
00000000
01000000
00100000
00010000
00000000
,
00100000
00000000
00001000
00000000
00010000
00001000
00000000
00000010
00000100
00000000
00000001
00000000
00000010
00000001
00001000
00000000
,
00000001
00000100
00000001
00000000
00000010
00000000
00000100
00000000
00001000
00000100
00001000
00000000
00000100
00000000
00010000
00000000
,
00001000
00010000
00001000
00010000
00001000
00010000
00001000
00010000
00001000
00010000
00001000
00010000
00001000
00000000
00100000
00000000
,
00010000
00000000
10000000
00000000
01000000
00100000
00000000
00100000
00010000
00000000
01000000
00000000
00001000
00010000
00001000
00000000
,
00100000
00000000
00001000
00000000
00010000
00000100
00000000
00000100
00001000
00000000
00000001
00000000
00000100
00000010
00000100
00000000
,
00000001
00000010
00001000
00010000
00001000
00000100
00001000
00010000
,
00100000
00010000
00001000
00010000
01000000
10000000
00010000
01000000
,
00100000
10000000
00100000
00000000
01000000
00010000
00000000
00100000
00010000
00000000
10000000
00000000
01000000
00100000
01000000
00000000
,
00100000
00001000
00100000
00000000
00001000
00010000
00000000
00010000
00000100
00000000
00001000
00000000
00000001
00000100
00000001
00000000
,
00001000
00000100
00000001
00000100
00001000
00010000
00001000
00000010
,
00001000
00010000
01000000
00010000
00001000
00010000
00100000
00010000
,
00012000
00000000
00023000
00000000
,
00030200
00000000
00002300
00000000
,
00003002
00000023
00002030
00023000
,
02030000
23000000
30200000
00300000
,
00220000
00330000
00022000
00033000
,
00002200
00003300
00000202
00000303
,
00002002
00000000
00000000
00000000
,
00000000
00000000
00000000
00000000
,
00003003
00000000
00000000
00000000
;

//--------------- dance-double - Fred-104 ----------------
#NOTES:
     dance-double:
     Fred-104:
     Challenge:
     17:
     :
00000000
00000000
00000000
00000000
,
00000000
00000000
00000000
00000000
,
00000000
00000000
00000000
00000000
,
00000000
00000000
00000000
00000000
,
00000000
00000000
00000000
00000000
,
00000000
00000000
00000000
00000000
,
00000000
00000000
00000000
00000000
,
00000000
00000000
00000000
00000000
,
00000000
00000000
00000000
00000000
,
00000000
00000000
00000000
00000000
,
00010000
01000000
10000000
00100000
,
00010000
00001000
00000100
00000001
,
00000010
00001000
00010000
01000000
,
10000000
00000000
00100000
00000000
00010000
00000000
00001000
00000100
,
00000001
00000010
00001000
00010000
,
01000000
00000000
00000000
00000000
10000000
00000000
00000000
00000000
00100000
00000000
00000000
00000000
00010000
00000000
00001000
00010000
,
00001000
00000000
00000100
00000000
00000001
00001000
00000001
00001000
,
00002002
00000000
00000000
00003003
,
00000001
00000000
00000100
00000010
00000100
00000000
00000001
00000010
00000001
00000000
00001000
00000010
00001000
00000000
00000001
00000100
,
00000001
00000000
00001000
00000100
00001000
00000000
00000100
00010000
00000100
00000000
00010000
00001000
00010000
00000000
00001000
01000000
,
00001000
00000000
00010000
00000010
00010000
00000000
00001000
00010000
00001000
00000000
00100000
00001000
00100000
00000000
00001000
00010000
,
00001000
00000000
00010000
00000100
00010000
00000000
00001000
00100000
00010000
10000000
00010000
00000000
01000000
00000000
00100000
10000000
,
00100000
00000000
01000000
00010000
01000000
00000000
00100000
10000000
00100000
00000000
10000000
01000000
10000000
00000000
00010000
00100000
,
00010000
00000000
01000000
00100000
01000000
00000000
00001000
00010000
00001000
00000000
00000010
00000100
00000010
00000000
00000001
00001000
,
00000001
00000000
00000100
00001000
00000100
00000000
00000001
00000010
00000001
00000000
00001000
00000001
00001000
00000000
00000001
00000010
,
00000002
00000000
00000000
00000000
00000000
00000000
00000000
00000000
00000000
00000000
00000000
00000103
00000010
00000000
00001000
00000000
,
00000001
00000100
00000001
00000000
00000100
00000010
00000100
00000010
00001000
00000010
00001000
00000000
00000100
00010000
00000100
00010000
,
00001000
00010000
00001000
00000000
00100000
00010000
00100000
00010000
10000000
00010000
10000000
00000000
00010000
01000000
00100000
01000000
,
00010000
01000000
00010000
00000000
10000000
01000000
10000000
01000000
00100000
00010000
00100000
00000000
00001000
00010000
00000100
00001000
,
00000100
00000010
00000001
00000000
00001000
00000010
00001000
00000010
00000100
00000001
00000100
00000001
00000100
00000000
00000001
00001000
,
00000001
00000000
00000100
00000001
00000010
00000000
00000100
00001000
00000100
00010000
00001000
00010000
00001000
00100000
00010000
01000000
,
00100000
00000000
10000000
01000000
10000000
00000000
00010000
00100000
00010000
00000000
10000000
00100000
01000000
00010000
01000000
00010000
,
00100000
00001000
00100000
00001000
00010000
00001000
00010000
00000000
00000100
00001000
00000100
00001000
00000100
00000010
00000100
00000000
,
00000010
00000000
00000001
00000000
00001000
00000000
00000001
00000010
00000000
00000100
00000000
00010000
00001000
00100000
01000000
10000000
,
00020000
00000000
20030000
00000000
,
32000000
00000000
03200000
00000000
,
00302000
00023000
00032000
00003020
,
00000032
00000203
00002300
00023000
,
02030000
00000000
23000000
00000000
,
30200000
00000000
02300000
00000000
,
03020000
00032000
00023000
00030200
,
00000301
00000000
00001000
00000000
00000010
00000000
00001000
00000000
00000001
00000000
00000100
00000000
00000010
00001000
00000001
00001000
,
00000001
00000010
00000000
00000010
00000100
00000000
00000100
00010000
00000000
00010000
00001000
00000000
00000100
00000000
00000001
00000000
,
00000010
00000001
00000000
00000001
00000100
00000000
00000100
00000010
00000000
00000010
00001000
00000000
00000100
00000000
00010000
00000000
,
00001000
00000000
00100000
00010000
00100000
00000000
00001000
00010000
00001000
00000000
00010000
00000010
00010000
00000000
00000100
00010000
,
00000100
00000000
00010000
00001000
00010000
00000000
00001000
01000000
00001000
00000000
00010000
00001000
00010000
00000000
00001000
00000000
,
00100000
00000000
00010000
00000000
10000000
00000000
01000000
00100000
00000000
00001000
00010000
00000000
00000100
00000000
00010000
00000000
,
00001000
00100000
01000000
00000000
00100000
00000000
00001000
00010000
00000000
00001000
00000010
00000000
00000100
00000000
00000010
00000000
,
00001000
00000000
00000010
00000100
00000010
00000000
00001000
00000100
00001000
00000000
00000001
00000010
00000001
00000000
00000010
00001000
,
00000010
00000000
00001000
00010000
00001000
00000000
00010000
01000000
00010000
00000000
01000000
10000000
01000000
00000000
10000000
00000000
,
00010000
01000000
00100000
00000000
10000000
00100000
00000000
00100000
01000000
00000000
00010000
00000000
10000000
01000000
00100000
00000000
,
00001000
00010000
00001000
00000000
00000100
00000001
00000000
00000001
00000010
00000000
00000100
00000000
00000010
00000001
00000010
00000000
,
00000001
00000100
00000001
00000000
00000100
00001000
00000100
00000000
00000001
00000010
00000001
00000000
00000010
00001000
00000010
00000000
,
00000001
00000100
00000010
00000000
00001000
00000100
00010000
00001000
00010000
00000000
00001000
00000000
00010000
00000010
00001000
00000000
,
00000100
00010000
00001000
00000000
00100000
00010000
00000000
00010000
01000000
00000000
00100000
00000000
01000000
00010000
10000000
00000000
,
00100000
10000000
00010000
00000000
10000000
01000000
00000000
01000000
00100000
00000000
01000000
00000000
10000000
00100000
00010000
00000000
,
00001000
00010000
00001000
00000000
00010000
00001000
00000100
00000000
00000001
00001000
00000001
00000000
00000100
00000010
00000100
00000000
,
00000001
00000010
00000001
00000000
00001000
00000010
00001000
00000000
00000001
00000100
00000001
00000000
00000100
00000010
00001000
00000010
,
00000100
00000001
00000010
00000000
00000001
00000100
00000000
00000010
00001000
00000100
00010000
00000000
00001000
00010000
00001000
00000000
,
00010000
00000100
00001000
00000000
00000010
00010000
00000000
00001000
00100000
00010000
01000000
00000000
00010000
00100000
01000000
00000000
,
10000000
00100000
01000000
00000000
00100000
10000000
01000000
00000000
00100000
00010000
01000000
00000000
00001000
00010000
00000100
00000000
,
00001000
00000010
00000100
00000000
00000001
00000010
00000100
00000000
00000010
00000001
00001000
00000001
00000100
00000001
00001000
00000000
,
00000001
00000010
00000100
00000000
00001000
00000010
00000000
00000010
00000100
00000001
00000100
00000000
00000010
00001000
00000100
00000000
,
00010000
00000010
00001000
00000000
00000100
00010000
00000000
00010000
00001000
00010000
01000000
00000000
10000000
00010000
10000000
00000000
,
00010000
01000000
00010000
01000000
00100000
10000000
00100000
00000000
10000000
01000000
10000000
01000000
00100000
01000000
00100000
00000000
,
00001000
00010000
00000100
00001000
00000001
00000100
00000010
00001000
00000100
00000010
00000100
00000010
00000100
00000000
00001000
00000000
,
00000001
00001000
00000010
00000000
00001000
00000100
00000000
00000010
00000001
00001000
00000010
00000000
00010000
00001000
00010000
00000000
,
00000100
00001000
00000010
00000000
00010000
00001000
00000000
00100000
00001000
00010000
00001000
00000000
01000000
00010000
00100000
00000000
,
01000000
10000000
01000000
10000000
01000000
00100000
01000000
00000000
00100000
00010000
00100000
01000000
00100000
00010000
00100000
00000000
,
00001000
00010000
00001000
01000000
00001000
00010000
00001000
00000000
00010000
00000100
00001000
00000000
00000001
00000100
00000010
00001000
,
00000010
00001000
00000100
00000000
00010000
00001000
00000000
00010000
00000010
00001000
00000010
00000000
00010000
00001000
00100000
00000000
,
00010000
10000000
01000000
00000000
10000000
00100000
00000000
00100000
01000000
00010000
00100000
00000000
01000000
10000000
00100000
00000000
,
01000000
00001000
00010000
00001000
01000000
00001000
00010000
00000000
00001000
00010000
00000100
00001000
00000100
00010000
00000100
00000000
,
00001000
00000010
00001000
00000010
00000100
00000001
00000100
00000001
00001000
00000001
00001000
00000001
00000010
00000100
00001000
00000100
,
00020000
00000000
00032000
00000000
,
00203000
00000000
00320000
00000000
,
02030000
23000000
30200000
00320000
,
00032000
00003020
00000032
00001003
,
00002002
00003003
00000220
00000330
,
00022000
00033000
02200000
03300000
,
20020000
00000000
00000000
00000000
,
00000000
00000000
00000000
00000000
,
30030000
00000000
00000000
00000000
;
