#TITLE:stoic;
#ARTIST:TaQ;
#GENRE:TECHNO;
#BANNER:stoic.png;
#BACKGROUND:stoic-bg.png;
#CDTITLE:./CDTitles/bm IIDX 7th style.png;
#MUSIC:stoic.ogg;
#SAMPLESTART:77.42;
#SAMPLELENGTH:15;
#DISPLAYBPM:155;
#BPMS:0=155,263.75=118.4,264=155;
#STOPS:263.75=0.454;
#BGSTAGE:15;

//--------------- dance-single - Fred-104 ----------------
#NOTES:
     dance-single:
     Fred-104:
     Beginner:
     5:
     :
0000
0000
0000
0000
,
0000
0000
0000
0000
,
0000
0000
0000
0000
,
0000
0000
0000
0000
,
0000
0000
0000
0000
,
1000
0000
0001
0000
,
1000
0000
0010
0000
,
1000
0001
1000
0001
,
2002
0000
0000
0000
0000
3003
0000
0000
,
0001
0000
0100
0000
,
0001
0001
0001
0000
,
0010
0000
0001
0000
,
1000
1000
1000
0000
,
0001
0000
1000
0000
,
0100
0100
0100
0000
,
1000
0000
0001
0000
,
1000
1000
1000
0000
,
0001
0000
1000
0000
,
0001
0001
0100
0000
,
0001
0000
0010
0000
,
0001
0001
1000
0000
,
0001
0000
1000
0000
,
0100
0100
1000
0000
,
0010
0000
1000
0000
,
0001
0001
0001
0001
,
0001
0000
1000
0000
,
0001
0000
0100
0100
,
0100
0000
0001
0000
,
0010
0000
0001
0001
,
0001
0000
1000
0000
,
0001
0000
1000
1000
,
1000
0000
0010
0000
,
0100
0000
0010
0010
,
0220
0000
0330
0000
,
1000
0000
0100
1000
,
0001
0000
0010
0001
,
0100
0000
0001
1000
,
0001
0000
0100
0010
,
0100
0000
0001
0010
,
0001
0000
0100
0001
,
0010
0000
0100
1000
,
0001
0000
1000
0000
,
1001
0000
0001
0001
,
0001
0000
0000
0000
,
1000
0000
0010
0010
,
0010
0000
0000
0000
,
0100
0000
0001
0001
,
0001
0000
1000
0000
,
0001
0000
1000
0000
,
0001
0001
0001
0001
,
0001
0000
1000
0000
,
0010
0010
0100
0100
,
0010
0000
1000
0000
,
0001
0001
1000
1000
,
0001
0000
0100
0000
,
0010
0010
0100
0100
,
0010
0000
1000
0000
,
0100
0100
1000
1000
,
0001
0000
0100
0000
,
0001
0010
0001
0010
,
0001
0000
1000
0000
,
0001
1000
0001
1000
,
0100
0000
1000
0000
,
0001
0100
0001
0010
,
0001
0000
1000
0000
,
0001
0001
0001
0001
,
1001
0000
0001
0000
,
0110
0000
0100
0000
,
1001
0000
1000
0000
,
0110
0000
0010
0000
,
0001
0000
0100
0001
,
0100
0000
0001
1000
,
0001
0000
1000
0000
0001
0000
0000
2002
,
3003
0000
0000
0000
;

//--------------- dance-single - Fred-104 ----------------
#NOTES:
     dance-single:
     Fred-104:
     Easy:
     8:
     :
0000
0000
0000
0000
,
0000
0000
0000
0000
,
0000
0000
0000
0000
,
0000
0000
0000
0000
,
0000
0000
0000
0000
,
0001
0001
0100
0100
,
1000
1000
0100
0100
,
0001
0100
1000
0000
1000
0100
0001
0000
,
1000
0000
2002
0000
0000
3003
0000
0000
,
1000
0100
1000
1000
,
0001
0100
0100
0010
,
0100
0001
0001
1000
,
0100
0010
0001
1000
,
0001
0100
0010
0010
,
0100
0001
1000
1000
,
0100
0010
0100
0100
,
1000
0001
0100
0110
,
0001
0011
0000
0001
,
1000
1010
0000
1000
,
0100
0110
0000
0100
,
0010
0011
0000
0001
,
1000
1100
0000
1000
,
0001
0101
0000
0100
,
0010
1010
0000
1000
,
0001
0010
0001
0000
1000
0100
1000
0000
,
1001
0001
0100
0000
,
0110
0010
1000
0001
,
0011
0010
0100
0000
,
1100
1000
0001
0100
,
0110
0010
1000
0000
,
1100
1000
0010
1000
,
1001
0001
0100
0000
,
0110
0010
1000
0001
,
2002
0000
3003
0000
,
1000
1100
0010
0001
,
0100
0110
0010
1000
,
0001
0011
1000
0001
,
0100
0000
0110
0000
0010
1000
0010
0000
,
1000
0000
1100
0000
0010
0000
0001
1000
,
0001
0000
0101
0000
0100
0000
0010
0100
,
0010
0000
1010
0000
1000
0000
0001
0010
,
0001
0000
0011
0000
1000
0001
1000
0000
,
1001
0000
1000
0100
,
0001
0000
0001
0100
,
1000
0000
1000
0010
,
0001
0000
0001
0010
,
1000
0000
0001
0010
,
0100
0000
1000
0010
,
0100
0100
0001
0001
,
1000
0100
0010
0001
,
1000
0010
0100
0100
,
0001
0000
0010
0000
0100
0010
0100
0000
,
1000
0001
0100
0100
,
0010
0000
1000
0000
0010
0100
0010
0000
,
1000
0001
0010
0100
,
0010
0000
0010
0000
0001
0100
0001
0000
,
0100
0010
0100
0100
,
0001
0000
1000
0000
0001
1000
0001
0000
,
1000
1100
0100
0010
,
0001
0000
0101
0000
0100
0000
0010
0010
,
1000
1001
1000
0001
,
0010
0000
0011
0000
0001
0000
1000
1000
,
0010
1010
0010
1000
,
0100
0000
0110
0000
0010
0000
0001
0001
,
1000
0100
0001
0100
,
1000
0000
0001
0000
1000
0001
1000
0001
,
0000
0001
0100
1000
,
0100
0001
0000
1000
,
0100
0001
0100
1000
,
0010
0001
0010
0000
,
1000
0000
0001
0000
0100
0100
0010
0000
,
1000
0000
0001
0000
0010
0010
0100
0000
,
1000
0000
0010
0000
0100
0000
0001
2002
,
3003
0000
0000
0000
;

//--------------- dance-single - Fred-104 ----------------
#NOTES:
     dance-single:
     Fred-104:
     Medium:
     12:
     :
0000
0000
0000
0000
,
0000
0000
0000
0000
,
0000
0000
0000
0000
,
0000
0000
0000
0000
,
0000
0000
0000
0000
,
0001
0010
0100
0000
1000
0010
0100
0000
,
0001
1000
0100
0010
0001
1000
0010
0000
,
0100
0001
1000
0100
0010
0100
1000
0001
,
0100
0000
0000
0010
0000
0000
0100
0000
0010
0000
0100
0000
0000
0000
0000
0001
0000
0000
1001
0000
0000
0000
0000
0000
,
1000
0100
0110
0000
0001
0000
1000
0000
,
0001
0100
0110
0000
1000
0000
0001
0000
,
0010
0100
1100
0000
0001
0000
0100
0000
,
0010
1000
1100
0000
0010
0001
1000
0000
,
0001
1000
1010
0000
0001
0000
0100
0000
,
0010
0100
0101
0000
0010
0000
1000
0000
,
0001
0010
0110
0000
1000
0000
0001
0000
,
0100
0000
0001
0000
1001
0000
0000
0000
1000
0001
0000
0001
0100
0000
0020
0000
,
1030
0100
0110
0000
0001
0000
0011
0000
,
0001
0100
0110
0000
0010
0000
1010
0020
,
1030
0100
1100
0000
0001
0000
0101
0000
,
0001
0010
0110
0000
1000
0000
1010
2000
,
3001
0100
0110
0000
0010
0000
1001
0000
,
1000
0100
0110
0000
0010
0000
0011
0002
,
1003
0001
0010
0100
1000
0001
0100
0010
,
0100
0100
0001
0001
1000
0001
2002
3003
,
1000
0100
0001
0100
1000
0100
0010
0000
,
0001
0100
1000
0100
0001
1000
0001
0020
,
0130
1000
0100
0001
0100
1000
0001
0000
,
0100
0010
1000
0010
0100
0001
1000
0200
,
1300
0010
0001
0010
1000
0001
0010
0000
,
0100
0010
0001
0010
1000
0010
0001
2000
,
3010
0001
0010
1000
0001
0010
0100
0000
,
1000
0000
0001
0000
0100
0000
0010
0000
0100
0000
0001
0000
1000
0000
0200
0300
,
0110
0000
0000
0000
0000
0001
0001
0001
,
1000
0000
1100
0000
0001
0100
1000
0100
,
0001
0000
1001
0000
0001
0010
1000
0010
,
0001
0000
0011
0000
0100
0010
1000
0001
,
0010
0000
0110
0000
0100
1000
0001
0100
,
0010
0000
1010
0000
1000
0100
0010
0001
,
1000
0000
1001
0000
1000
0100
0001
0100
,
0010
0000
0011
0000
0001
1000
0010
0100
,
0001
0000
1001
0000
1000
0100
0010
0002
,
1003
0000
0000
0000
1001
0000
0000
0000
0001
0000
0000
0010
0000
0000
0100
0000
,
1100
0000
0001
0000
0100
0010
0100
0020
,
0130
0000
0000
0000
0110
0000
0000
0000
0010
0000
0000
1000
0000
0000
0001
0000
,
0011
0000
1000
0000
0001
0100
1000
0100
,
0010
0000
0000
0000
0110
0000
0000
0000
0001
0000
0000
0010
0000
0000
0100
0000
,
1000
0000
1010
0000
0010
0100
0001
1000
,
0100
0010
0100
0010
0001
1000
0010
1000
,
0001
0010
0100
1000
0001
1000
0100
2000
,
3001
0100
0010
0100
0001
1000
0100
0000
,
0010
0100
1000
0010
0100
0010
1000
0000
,
0001
0010
0100
0010
0100
0010
0001
0000
,
1000
0010
0100
0010
1000
0100
0010
0001
,
1000
0001
0100
1000
0100
0010
0100
0000
,
0001
1000
0100
0010
0001
0100
0010
1000
,
0001
0100
0010
1000
0010
0100
0001
0000
,
1000
0000
0100
0000
0010
0000
0001
0000
1000
0000
0010
0000
0100
0001
0200
0000
,
0301
0000
1000
0000
0100
1000
0000
0100
1000
0000
0001
0000
0100
0000
0000
0000
,
0010
0000
1000
0000
0001
0010
0000
0001
0010
0000
0100
0000
1000
0000
0002
0000
,
0103
0000
0010
0000
1000
0010
0000
1000
0010
0000
0100
0000
0001
0000
0000
0000
,
1000
0000
0100
0000
0010
0001
0000
0010
0001
0000
1000
0000
0001
0000
0100
0000
,
0010
0000
1000
0000
0001
0010
0000
0010
0100
0000
1000
0000
0001
0000
0000
0000
,
0100
0000
0010
0000
1000
0001
0000
0001
0010
0000
0100
0000
0010
0000
0001
0000
,
1000
0100
0010
0000
0001
0100
0010
0000
,
0010
0000
1000
0000
0010
0000
0100
0000
0001
1000
0001
1000
0001
1000
0001
2000
,
3001
1000
0001
1000
,
0010
1000
0010
1000
,
0010
0100
0010
0100
,
0001
0100
0001
0100
,
0001
0100
0001
0100
1000
0100
1000
0100
,
0001
0100
1000
0100
1000
0100
0001
0100
,
1000
0010
1000
0001
0100
0010
1000
2002
,
3003
0000
0000
0000
;

//--------------- dance-single - Fred-104 ----------------
#NOTES:
     dance-single:
     Fred-104:
     Hard:
     15:
     :
0000
0000
0000
0000
,
0000
0000
0000
0000
,
0000
0000
0000
0000
,
0000
0000
0000
0000
,
0000
0000
0000
0000
,
0001
0100
0001
0000
0010
0000
0100
0000
1000
0100
1000
0000
0010
0000
0100
0000
,
0001
0010
0001
0000
1000
0010
1000
0000
0001
0100
0001
0000
1000
0100
1000
0000
,
0001
0100
0001
0100
0010
1000
0001
0000
1000
0100
1000
0100
0010
0001
1000
0000
,
0001
0000
0000
0010
0000
0000
0001
0000
0000
0010
0000
0000
0100
0000
0000
0000
1000
0000
0000
0000
0001
0000
0000
0000
0000
0000
0000
0000
0000
0000
1001
0000
0000
0000
0000
0000
1000
0000
0000
0000
0000
0000
0100
0000
0000
0010
0000
0000
,
0001
0100
0120
1030
0001
1000
1100
0000
,
1000
0010
2001
3100
1000
0010
0110
0000
,
0100
0001
0120
0031
1000
0100
1100
0000
,
0001
1000
0021
0130
0010
1000
1010
0000
,
1000
0100
1020
0130
1000
0001
0120
0130
,
1000
0010
2001
3100
0010
0001
0120
0130
,
0010
1000
1020
0130
0001
0010
1200
1300
,
0001
0000
1000
0000
0120
0000
1030
0001
1000
0001
0000
0100
0010
1000
0002
0000
,
1003
0000
0010
0100
0010
0000
1000
0000
0100
0000
0010
0000
1002
0000
0103
0000
,
0010
0000
0100
0001
0100
0000
0001
0000
1000
0000
0100
0000
0021
0000
0031
0000
,
0010
0000
0100
1000
0100
0000
1000
0000
0001
0000
0100
0000
1002
0000
1003
0000
,
0010
0000
0100
0001
0100
0000
0001
0000
0100
0000
0010
0000
2001
0000
3001
0000
,
1000
0000
0010
1000
0001
0000
0100
0000
0010
0000
1000
0100
0010
0000
0001
0000
,
0100
0000
0001
0010
0001
0000
1000
0000
0001
0000
0100
0010
1000
0000
0100
0000
,
1000
0000
0001
1000
0010
0000
0100
0000
0001
0000
1000
0100
0010
0000
0001
0000
,
1000
0100
1000
0000
0001
0010
0001
0000
1000
0010
1000
0010
0100
0001
0100
0001
,
1000
0000
0100
0000
0010
0001
0000
0010
0001
0000
1000
0000
0020
0000
0000
0000
,
0130
0000
0001
0000
1000
0100
0000
1000
0100
0000
0010
0000
0100
0000
2000
0000
,
3001
0000
0100
0000
0010
1000
0000
0010
1000
0000
0001
0000
2000
0000
0000
0000
,
3100
0000
0010
0000
0001
0100
0000
0001
0100
0000
0010
0000
0100
0000
0002
0000
,
1003
0000
0100
0000
0010
0001
0000
1000
0001
0000
0100
0000
0020
0000
0000
0000
,
0130
0000
0001
0000
1000
0010
0000
0100
0010
0000
1000
0000
0001
0000
0020
0000
,
0130
0000
1000
0000
0001
0100
0000
0010
1000
0000
0001
0000
2000
0000
0000
0000
,
3001
0000
0010
0000
0100
0010
0000
0001
0100
0000
0010
0000
1000
0001
1000
0000
,
1001
0000
0000
0000
0000
0100
0100
0100
,
0001
0000
0010
0000
0210
0000
1300
0000
0001
0000
0100
0000
1002
0000
0013
0100
,
1000
0000
0010
0000
2001
0000
3100
0000
1000
0000
0010
0000
0201
0000
0301
1000
,
0001
0000
0010
0000
0210
0000
1300
0000
0001
0000
1000
0000
1020
0000
0130
0001
,
0100
0000
0001
0000
2010
0000
3100
0000
1000
0000
0100
0000
0120
0000
0130
1000
,
0100
0000
0010
0000
0012
0000
1003
0000
0001
0000
0100
0000
1020
0000
1030
0001
,
1000
0000
0001
0000
0120
0000
0031
0000
0100
0000
0010
0000
0201
0000
0301
1000
,
0001
0000
0010
0000
1200
0000
1300
0000
0001
0000
0100
0000
0120
0000
0130
0001
,
0100
0000
0001
0000
2001
0000
3010
0000
1000
0100
1000
0100
0010
0001
0020
0031
,
1000
0000
0000
0000
1001
0000
0000
0000
0011
0000
0000
1000
0000
0000
0001
0000
,
0100
0000
0110
0000
0001
0100
1000
0020
,
0031
0000
0000
0000
1001
0000
0000
0000
1010
0000
0000
0010
0000
0000
0100
0000
,
0001
0000
0000
0000
0101
0000
0000
0000
0100
0000
0010
0000
1000
0010
0100
0000
,
0001
0000
0000
0000
0011
0000
0000
0000
0001
0000
1000
0010
0000
0100
0001
0000
,
1000
0100
0110
0000
0001
0010
0100
2000
,
3001
0100
0001
0000
0100
0010
0100
0000
0010
1000
0010
0000
1000
0100
1000
0000
,
0001
0010
0001
0000
1000
0010
1000
0000
0001
0100
0001
0000
1000
0010
0100
0001
,
1000
0100
0120
0031
1000
0010
2010
3100
,
1000
0000
0001
0000
0120
0000
0031
0000
0100
0000
0010
0000
2001
0000
3100
1000
,
0100
0010
0012
1003
0010
0100
0102
1003
,
0010
0000
0100
0000
1002
0000
1003
0000
0001
0000
0100
0000
0120
0000
1030
0001
,
1000
0100
1002
0103
1000
0010
0210
0301
,
0010
0000
0100
0000
2100
0000
3001
0000
0100
0000
0010
0000
2010
0000
3001
1000
,
0100
0010
0210
1300
0001
0100
1020
1030
,
0001
0100
0001
0000
1000
0010
1000
0000
0001
0010
0001
0000
1000
0100
1000
0000
,
0001
0100
0001
0000
0010
0100
0000
0100
1000
0000
0010
0000
0100
0000
0001
0000
,
1000
0100
0010
0000
0001
1000
0000
1000
0010
0000
0100
0000
0001
0000
1000
0010
,
0100
0010
1000
0000
0100
0010
0000
0010
0001
0000
1000
0000
0001
0000
0100
0000
,
0001
1000
0010
0000
1000
0001
0000
0001
0010
0000
0100
0000
1000
0000
0010
1000
,
0100
1000
0001
0000
1000
0100
0000
0100
0010
0000
0001
0000
0100
0000
0010
0000
,
0100
0001
0100
0000
0001
0010
0000
0010
0100
0000
1000
0000
0010
0000
0100
0001
,
0100
0010
1000
0000
0001
0010
0000
0010
0100
0000
1000
0000
0100
0000
0010
0000
,
0001
0100
0001
0100
0001
0100
0001
0100
0010
1000
0010
1000
0010
1000
0010
2000
,
3001
1000
0001
1000
,
0010
0100
0010
0100
,
0001
1000
0001
1000
,
0010
0100
0010
0100
,
0001
0100
0101
0010
1000
0001
1001
0100
,
1000
0010
1010
0100
0010
0100
0110
0001
,
1000
0000
0010
0000
0100
0000
0001
0000
1000
0001
1000
0001
1000
0000
2002
0000
,
3003
0000
0000
0000
;

//--------------- dance-single - Fred-104 ----------------
#NOTES:
     dance-single:
     Fred-104:
     Challenge:
     17:
     :
0000
0000
0000
0000
,
0000
0000
0000
0000
,
0000
0000
0000
0000
,
0000
0000
0000
0000
,
0000
0000
0000
0000
,
1000
0100
1000
0100
1000
0100
1000
0100
0010
0001
0010
0001
0010
0001
0010
0001
,
1000
0010
1000
0010
1000
0010
1000
0010
0100
0001
0100
0001
0100
0001
0100
0001
,
1000
0100
1000
0100
0010
0001
0010
0001
1000
0010
1000
0010
0100
0001
0100
0001
,
1000
0000
0000
0010
0000
0000
0100
0000
0000
0001
0000
0000
1000
0000
0000
0000
0100
0000
0000
0000
0010
0000
0000
0000
0000
0000
0000
0000
0000
0000
1001
0000
0000
0000
0000
0000
0001
0000
0000
0000
0000
0000
0100
0000
0000
0010
0000
0000
,
1000
0000
0010
0000
2001
0000
3100
0000
1000
0000
0010
0000
0100
0000
0001
1000
,
0001
0000
0010
0000
1200
0000
1300
0000
0001
0000
1000
0000
0010
1000
0010
1000
,
0001
0010
0100
0010
0100
0000
1000
0000
0001
0000
0100
0000
0120
0000
1030
0001
,
1000
0000
0001
0000
0201
0000
0301
0000
0010
0100
1000
0010
0100
0000
0001
1000
,
0001
0000
0010
0000
0021
0000
0031
0100
0010
0000
1000
0000
2100
0000
3100
0010
,
0001
0000
1000
0000
2001
0000
3001
0010
0100
0000
1000
0000
2010
0000
3010
1000
,
0001
0000
0100
0000
1002
0000
1003
0001
0010
0000
0012
0000
1003
0100
0010
0001
,
0100
0001
0100
0001
1000
0000
0001
0100
0010
1000
0000
1000
0100
0010
0002
0103
,
0001
0000
0010
0000
0012
0000
1003
0001
0100
0010
1000
0000
0100
0000
0010
0100
,
1000
0000
0001
0000
0210
0000
0301
0100
0010
1000
0001
1000
0001
0010
0200
0000
,
1300
0001
0100
0010
1000
0000
0001
1000
0010
1000
0100
0000
0021
0000
0031
1000
,
0001
0100
0010
0100
0001
0000
0100
0001
0010
0001
1000
0010
0100
0001
2000
0000
,
3001
1000
0010
1000
0100
0000
0010
0001
1000
0000
0120
0000
1030
0000
0001
1000
,
0010
0100
0001
0010
0100
0000
0010
0001
1000
0000
0010
0100
0001
1000
0002
0000
,
1003
0010
0100
0010
1000
0001
0100
0000
0001
0010
0001
0010
0100
1000
0100
0000
,
1000
0010
0100
0001
1000
0010
0100
0001
1000
0100
0010
0001
1000
0100
0020
0031
,
1000
0000
0100
0000
0010
1000
0000
0001
0100
0000
0010
0000
0002
0000
0000
0000
,
1003
0000
0001
0000
0010
0100
0000
0001
0100
0000
1000
0000
0001
0000
0200
0000
,
0301
0000
0100
0000
0010
0001
0000
0010
1000
0000
0001
0000
0200
0000
0000
0000
,
1300
0000
0100
0000
0010
1000
0000
0100
0010
0000
0001
0000
1000
0001
0020
0000
,
0031
0000
0010
0000
0100
0001
0000
1000
0010
0000
0100
0000
2000
0000
0000
0000
,
3001
0000
1000
0000
0100
0001
0000
0100
0010
0000
0001
0000
1000
0000
0020
0000
,
0130
0000
0001
0000
0100
1000
0000
0100
0010
0000
0100
0000
0002
0000
0000
0000
,
1003
0010
0100
0000
0010
1000
0000
0001
0100
0000
0001
0000
0010
0100
1000
0000
,
1001
0000
0000
0000
0000
0100
0100
0100
,
0001
0000
0010
0000
0012
0000
0103
1000
0100
0000
0010
0000
2010
0000
3100
0010
,
0001
0100
0001
0100
0001
0000
1000
0001
0010
0000
0100
0000
0120
0000
0031
1000
,
0010
1000
0100
1000
0001
0000
0010
0001
0100
0000
0001
0000
2001
0000
3100
1000
,
0001
1000
0100
0010
0001
0000
0100
0001
0010
0100
0010
0000
0012
0000
1003
0001
,
0100
1000
0100
0010
0100
0000
0010
1000
0001
0000
0100
0000
1002
0000
1003
0001
,
1000
0010
1000
0010
0001
0000
0010
0100
0001
0000
1000
0000
0012
0000
0103
0010
,
1000
0100
0001
0100
0010
0000
0001
1000
0001
0000
0100
0000
1020
0000
0130
0001
,
1000
0100
1000
0100
0010
0001
0010
0001
1000
0010
1000
0010
0100
0001
2000
3000
,
1001
0000
0000
0000
0010
0000
0000
0000
0101
0000
0001
0100
0000
0100
0010
0000
,
1000
0000
1001
0000
0001
0010
1000
0020
,
0130
0000
0000
0000
0101
0000
0000
0000
0010
1000
0010
1000
0000
1000
0001
0000
,
1000
0000
0000
0000
0110
0000
0000
0000
0001
0000
1000
0000
0001
0010
0200
0000
,
1300
0100
1000
0001
0100
0010
1000
0000
0011
0000
0000
1010
0000
0000
0011
0000
,
0001
0000
0100
0000
0110
0000
0000
0000
1000
0000
0100
1000
0000
0001
0200
0000
,
0301
1000
0001
0100
0010
1000
0010
0100
0001
1000
0100
0010
0001
0010
0100
1000
,
0001
0100
0010
0100
1000
0100
0010
1000
0001
0010
0100
0010
1000
0010
0002
1003
,
0001
0000
1000
0000
0001
0010
0000
0100
1000
0000
0001
0100
0010
1000
0001
0000
,
0010
0000
0100
0000
0010
0001
0000
1000
0010
0100
0001
0100
0010
1000
0002
0000
,
0013
0000
0100
0000
1000
0001
0000
0100
0010
0000
1000
0001
0010
0100
0010
0000
,
0001
0000
1000
0000
0010
0100
0000
0010
1000
0100
0010
0100
1000
0010
0200
0000
,
0310
1000
0001
0000
0010
0100
0000
1000
0010
0000
0100
0001
1000
0001
0010
0000
,
0100
0010
0001
0000
1000
0001
0000
0100
0001
0010
0100
1000
0010
0100
0002
0000
,
1003
0100
0010
0000
0001
1000
0000
0010
0100
0000
0010
1000
0001
0100
0010
0000
,
1000
0100
1000
0010
1000
0100
1000
0001
0100
0010
1000
0001
0010
0100
2000
3001
,
0100
0001
1000
0000
0001
0010
0000
0010
0100
0000
1000
0010
0001
0010
1000
0000
,
0001
1000
0100
0000
1000
0100
0000
0100
0010
0001
0100
0010
0001
0010
1000
0000
,
0001
0010
0100
0000
0010
0001
0000
0001
1000
0000
0100
0001
0100
0010
0001
0000
,
1000
0001
0100
0000
0001
0010
0000
0010
0001
1000
0010
0001
0010
0100
0001
0000
,
1000
0100
1000
0000
0001
0100
0010
0001
0010
0000
0100
0010
1000
0001
0010
0000
,
0001
1000
0100
0000
1000
0010
0100
1000
0100
0010
1000
0100
0010
0001
1000
0000
,
0001
0100
0001
0100
0010
1000
0001
0000
1000
0100
1000
0100
0010
0001
1000
0000
,
0001
0100
0010
0100
0001
1000
0100
0010
0001
0100
0010
0001
1000
0100
0010
2000
,
3002
0000
0010
0000
0100
0100
0103
0000
,
0020
0000
1000
0000
0100
0100
0130
0000
,
0002
0000
0010
0000
1000
1000
1003
0000
,
0200
0000
0000
0000
0010
0000
0000
0000
1000
0000
1000
0000
1300
0000
0001
1000
,
0100
0000
0010
0000
0021
0000
0031
0000
1000
0001
0100
0000
0001
0000
0010
0001
,
0100
0000
0001
0000
0021
0000
0130
0000
1000
0100
0010
0000
0001
0000
0100
0001
,
1000
0000
0001
0000
1000
0100
0010
1000
0001
0100
0010
0001
1000
0000
2002
0000
,
3003
0000
0000
0000
;

//--------------- dance-double - Fred-104 ----------------
#NOTES:
     dance-double:
     Fred-104:
     Easy:
     8:
     :
00000000
00000000
00000000
00000000
,
00000000
00000000
00000000
00000000
,
00000000
00000000
00000000
00000000
,
00000000
00000000
00000000
00000000
,
00000000
00000000
00000000
00000000
,
00001000
00000001
00000100
00000010
,
00001000
00000001
00000100
00001000
,
00010000
01000000
10000000
00000000
00010000
00100000
01000000
00000000
,
10000000
00000000
20020000
00000000
00000000
30030000
00000000
00000000
,
10000000
01000000
00100000
00100000
,
00001000
00010000
00100000
00010000
,
00001000
00010000
00010000
00000010
,
00001000
00000100
00000001
00000100
,
00001000
00000001
00000100
00000100
,
00000010
00010000
00001000
00010000
,
00000010
00010000
00001000
00001000
,
01000000
00100000
10000000
10010000
,
10000000
11000000
00000000
00100000
,
00001000
00011000
00000000
00010000
,
00000010
00001010
00000000
00000001
,
00000100
00000110
00000000
00010000
,
00001000
01001000
00000000
00010000
,
10000000
11000000
00000000
00100000
,
00001000
00011000
00000000
01000000
,
00001000
00010000
00001000
00000000
00010000
00000100
00010000
00000000
,
00011000
00010000
00000100
00000000
,
00001100
00000001
00000100
00000010
,
00010010
00001000
00010000
00000000
,
00011000
01000000
00100000
01000000
,
01010000
00010000
10000000
00000000
,
11000000
00100000
00001000
00010000
,
00011000
00000010
00010000
00000000
,
00011000
00001000
01000000
00001000
,
00022000
00000000
00033000
00000000
,
00010000
00000000
00001000
00000000
00000010
00000000
00000001
00001000
,
00000001
00000000
00001000
00000000
00000010
00000000
00010000
00001000
,
00010000
00000000
00001000
00000000
00000010
00000000
00001000
00010000
,
00001000
00000000
00010000
00000000
00100000
01000000
00100000
00000000
,
10000000
00000000
11000000
00000000
00100000
00000000
00001000
00010000
,
00001000
00000000
01001000
00000000
00001000
00000000
00010000
00000100
,
00010000
00000000
00010100
00000000
00000100
00000000
00001000
00000001
,
00000100
00000000
00000110
00000000
00010000
00001000
00010000
00000000
,
00011000
00000000
00001000
00010000
,
00100000
00000000
00010000
00001000
,
00000010
00000000
00001000
00010000
,
01000000
00000000
00010000
00001000
,
00000100
00000000
00001000
00010000
,
00100000
00000000
01000000
00010000
,
10000000
01000000
00010000
00001000
,
00000010
00000001
00000100
00001000
,
00010000
00001000
00100000
00100000
,
00010000
00000000
01000000
00000000
00100000
01000000
00100000
00000000
,
10000000
01000000
00100000
00001000
,
00010000
00000000
00100000
00000000
01000000
00100000
01000000
00000000
,
00100000
10000000
00010000
00100000
,
00001000
00000000
00010000
00000000
00000010
00001000
00000010
00000000
,
00010000
00000100
00001000
00000100
,
00000010
00000001
00000010
00000000
00000001
00001000
00000001
00000000
,
00000100
00000110
00000010
00010000
,
00001000
00000000
00011000
00000000
00001000
00000000
00100000
00100000
,
00010000
01010000
01000000
00100000
,
10000000
00000000
11000000
00000000
01000000
00000000
00100000
00100000
,
00001000
00011000
00010000
00000010
,
00010000
00000000
00010100
00000000
00010000
00000000
00001000
00001000
,
00010000
00001000
00000010
00001000
,
00010000
00000000
00000100
00000000
00001000
00000001
00001000
00000001
,
00000000
00000001
00000100
00001000
,
01000000
10000000
01000000
00010000
,
00010000
00001000
00000010
00000001
,
00000010
00001000
00000010
00000000
,
00000001
00001000
00000100
00010000
,
00001000
01000000
00010000
00000000
10000000
00000000
01000000
00000000
,
00010000
00001000
00000100
00000000
00000001
00001000
00000000
00002002
,
00003003
00000000
00000000
00000000
;

//--------------- dance-double - Fred-104 ----------------
#NOTES:
     dance-double:
     Fred-104:
     Medium:
     12:
     :
00000000
00000000
00000000
00000000
,
00000000
00000000
00000000
00000000
,
00000000
00000000
00000000
00000000
,
00000000
00000000
00000000
00000000
,
00000000
00000000
00000000
00000000
,
00001000
00010000
00100000
01000000
,
00010000
10000000
01000000
00010000
,
00001000
00000100
00000001
00000000
00001000
00000100
00000010
00000000
,
00000001
00000000
00000000
00001000
00000000
00000000
00000001
00000000
00000100
00000000
00000001
00000000
00000000
00000000
00000000
00001000
00000000
00000000
00000100
00000000
00000000
00010000
00000000
00000000
,
00001000
00000000
00011000
00000000
00001000
00010000
00100000
10000000
,
00010000
00000000
10010000
00000000
10000000
01000000
00100000
00001000
,
00010000
00000000
00101000
00000000
00001000
00010000
00000010
00001000
,
00000001
00000000
00000110
00000000
00001000
00000100
00000010
00000001
,
00001000
00000000
00000110
00000000
00000001
00000100
00001000
00010000
,
00001000
00000000
00011000
00000000
00001000
00010000
01000000
00100000
,
00010000
00000000
01100000
00000000
10000000
00010000
01000000
00100000
,
10000000
00000000
01000000
00000000
00100000
00000000
00001000
00000000
00010000
00001000
00000000
00001000
01000000
00000000
00002000
00000000
,
00013000
00001000
00010000
00000000
00010010
00000000
00000010
00001000
,
00000001
00000010
00000100
00000000
00001100
00000000
00000100
00020000
,
00031000
00010000
00100000
00000000
01100000
00000000
00010000
10000000
,
01000000
00100000
00001000
00000000
00010000
00001000
00000010
00000002
,
00000013
00000100
00001000
00000000
00000001
00000100
00001000
00010000
,
00001000
00010000
01000000
00000000
10000000
00010000
00100000
02000000
,
03100000
00001000
00010000
00001000
00000100
00000010
00001000
00000100
,
00000010
00000001
00001000
00000001
00000100
00001000
00010000
00002000
,
00013000
00001000
01000000
00000000
00001000
00010000
00000100
00000000
,
00001000
00000001
00000010
00000100
00001000
00000100
00020000
00030000
,
00001000
00010000
01000000
00000000
10000000
01000000
00100000
00000000
,
00010000
00100000
00010000
01000000
00001000
00010000
00002000
00003000
,
00010000
00001000
00000010
00000000
00000001
00000000
00001000
00000000
,
00000001
00000100
00001000
00010000
00100000
01000000
00100000
20000000
,
30010000
01000000
00100000
00000000
01000000
00000000
00001000
00000000
,
00010000
00000000
00001000
00000000
01000000
00000000
00010000
00000000
10000000
00000000
01000000
00000000
00100000
00000000
00002000
00003000
,
00011000
00000000
00000000
00000000
00000000
00001000
00100000
00010000
,
00110000
10100000
01010000
11000000
,
01010000
00011000
00001010
00000011
,
00001001
00010010
01001000
10010000
,
01100000
00000000
00011000
00000000
00000110
00000000
00000001
00000100
,
00001000
00010000
00011000
00000000
00010000
00001000
00000010
00001000
,
00010000
00001000
00011000
00000000
00001000
00010000
01000000
10000000
,
01000000
00100000
01100000
00000000
10000000
00010000
01000000
00001000
,
00010000
00001000
01000000
00001000
00010000
00000010
00001000
00000002
,
00000013
00000000
00000000
00000000
00000110
00000000
00000000
00000000
00010000
00000000
00000000
00001000
00000000
00000000
00001000
00000000
,
00100000
00000000
10010000
00000000
10000000
01000000
00010000
02000000
,
13000000
00000000
00000000
00000000
10100000
00000000
00000000
00000000
10000000
00000000
00000000
01000000
00000000
00000000
00100000
00000000
,
00001000
00000000
00011000
00000000
00010000
00001000
00000100
00000001
,
00000010
00000000
00000000
00000000
00001001
00000000
00000000
00000000
00000001
00000000
00000000
00001000
00000000
00000000
00000010
00000000
,
00010000
00000000
00011000
00000000
00001000
00010000
00100000
01000000
,
00010000
10000000
00010000
01000000
00100000
10000000
01000000
00100000
,
00001000
00010000
00100000
01000000
00001000
00010000
00100000
10000000
,
00010000
00100000
01000000
00000000
10100000
00000000
01010000
00000000
,
10000000
01000000
00100000
00001000
00010000
00001000
00000010
00000002
,
00001003
00000001
00000100
00000000
00000110
00000000
00001001
00000000
,
00000001
00000100
00000010
00000100
00001000
00010000
00100000
02000000
,
03010000
10000000
00010000
00000000
00110000
00000000
00101000
00000000
,
00001000
00010000
00000010
00001000
00000001
00000010
00000100
00000020
,
00000031
00001000
00000010
00000000
00010010
00000000
00011000
00000000
,
00001000
00010000
00100000
01000000
00010000
10000000
01000000
00200000
,
00301000
00010000
00001000
01000000
00001000
00010000
00001000
00001000
,
00010000
00001000
00000100
00000001
00001000
00000100
00000010
00000020
,
00000031
00000100
00001000
00010000
00001000
00010000
01000000
00100000
,
00010000
00010000
10000000
00100000
00010000
00001000
00020000
00030000
,
00001000
00010000
00000010
00000100
00000001
00001000
00000100
00000100
,
00000010
00000001
00001000
00000010
00000100
00001000
00010000
00002000
,
00013000
00100000
01000000
00100000
10000000
00010000
00100000
01000000
,
00100000
00000000
00010000
00000000
01000000
00000000
00100000
00000000
10000000
00010000
10000000
00010000
10000000
00010000
10000000
00020000
,
00130000
00010000
00100000
00010000
,
10000000
01000000
10000000
01000000
,
00100000
00001000
00100000
00001000
,
00010000
00000100
00010000
00000100
,
00001000
00000100
00001000
00000001
00000100
00000001
00000100
00000010
,
00001000
00000010
00001000
00000100
00010000
00000100
00010000
00000000
,
00001000
00010000
00001000
00100000
00010000
10000000
01000000
02200000
,
03300000
00000000
00000000
00000000
;

//--------------- dance-double - Fred-104 ----------------
#NOTES:
     dance-double:
     Fred-104:
     Hard:
     15:
     :
00000000
00000000
00000000
00000000
,
00000000
00000000
00000000
00000000
,
00000000
00000000
00000000
00000000
,
00000000
00000000
00000000
00000000
,
00000000
00000000
00000000
00000000
,
00010000
00001000
00010000
00000010
00001000
00000001
00000010
00000100
,
00000010
00001000
00010000
00100000
01000000
00010000
10000000
00100000
,
10000000
01000000
00010000
00001000
00000010
00000100
00001000
00000010
,
00000100
00000000
00000000
00000001
00000000
00000000
00000100
00000000
00000000
00000001
00000000
00000000
00001000
00000000
00000000
00000000
00000001
00000000
00000000
00000000
00001000
00000000
00000000
00000000
00000000
00000000
00000000
00000000
00000000
00000000
00001002
00000000
00000000
00000000
00000000
00000000
00001003
00000000
00000000
00000000
00000000
00000000
00000010
00000000
00000000
00000100
00000000
00000000
,
00000001
00000010
00001000
00010000
00100000
01000000
01010000
00000000
,
10000000
00100000
00010000
00001000
00000010
00000100
00001100
00000000
,
00000001
00000100
00001000
00010000
00100000
10000000
10010000
00000000
,
10000000
01000000
00010000
00001000
00000010
00000001
00001001
00000000
,
00000001
00000100
00000120
00001030
00000100
00000010
00000012
00001003
,
00000010
00010000
00021000
00031000
00100000
00010000
10020000
10030000
,
01000000
00100000
00120000
00130000
00001000
00010000
00010020
00010030
,
00000010
00000000
00001000
00000000
00001002
00000000
00001003
00000001
00000100
00000001
00000000
00001000
00000001
00000010
00000200
00000000
,
00000310
00000000
00000001
00000000
00001000
00000010
00001000
00000000
00000001
00000000
00000010
00000000
00000100
00000000
00010000
00001000
,
00010000
00000000
00001000
00000000
00100000
00010000
00100000
00000000
01000000
00000000
10000000
00000000
00010000
00000000
01000000
00001000
,
01000000
00000000
00001000
00000000
00010000
00000100
00010000
00000000
00000100
00000000
00001000
00000000
00000100
00000000
00000010
00000001
,
00000010
00000000
00000001
00000000
00001000
00000010
00001000
00000000
00000001
00000000
00000010
00000000
00000100
00001000
00000100
00001000
,
00000100
00000000
00000010
00000001
00000010
00000000
00000001
00000000
00001000
00000000
00000010
00010000
00000010
00000000
00010000
00001000
,
00010000
00000000
00001000
00100000
00001000
00000000
01000000
00000000
00010000
00000000
00100000
01000000
00100000
00010000
00100000
00010000
,
00100000
00000000
00001000
00010000
00001000
00000000
00000010
00000000
00000100
00000000
00001000
00000010
00001000
00000000
00000001
00000000
,
00000100
00000001
00000100
00000000
00000010
00001000
00000010
00000000
00001000
00000100
00010000
00001000
00010000
00100000
02000000
00000000
,
03010000
00000000
10000000
00000000
00100000
10000000
00000000
10000000
01000000
00000000
00100000
00000000
00002000
00000000
00000000
00000000
,
00013000
00000000
00000100
00000000
00001000
00000100
00000000
00000100
00000010
00000000
00000001
00000000
00001000
00000000
00000002
00000000
,
00000103
00000000
00000001
00000000
00001000
00000010
00000000
00000010
00000100
00000000
00000010
00000000
00002000
00000000
00000000
00000000
,
00003100
00000000
00010000
00000000
00001000
00010000
00000000
00010000
00100000
00000000
01000000
00000000
00010000
00000000
20000000
00000000
,
30100000
00000000
01000000
00000000
00010000
00100000
00000000
00100000
00001000
00000000
00010000
00000000
00002000
00000000
00000000
00000000
,
00003010
00000000
00000100
00000000
00001000
00000001
00000000
00000001
00000100
00000000
00000010
00000000
00000100
00000000
00000002
00000000
,
00001003
00000000
00000100
00000000
00000010
00000001
00000000
00000100
00001000
00000000
00010000
00000000
00200000
00000000
00000000
00000000
,
01300000
00000000
00010000
00000000
10000000
01000000
00000000
00100000
00010000
00000000
01000000
00000000
00001000
00010000
00001000
00000000
,
00011000
00000000
00000000
00000000
00000000
00010000
00001000
00000100
,
00000001
00001000
00000100
00000010
00000001
00000100
00001000
00010000
,
00100000
01000000
00010000
10000000
01000000
00100000
00001000
00010000
,
00100000
10000000
01000000
00010000
00001000
00100000
00001000
00010000
,
00001000
00000010
00010000
00100000
00001000
00000010
00010000
00100000
,
00001000
00010000
00001000
00000010
00000100
00010000
00001000
00100000
,
01000000
00010000
01000000
00100000
00001000
00010000
00001000
00000100
,
00000010
00001000
00000001
00000010
00001000
00000010
00000100
00000010
,
00001000
00000000
00010000
00000000
01000000
00000000
00100000
00000000
00010000
10000000
00010000
10000000
00100000
01000000
00010000
10000000
,
01000000
00000000
00000000
00000000
10100000
00000000
00000000
00000000
11000000
00000000
00000000
00100000
00000000
00000000
00001000
00000000
,
00010000
00000000
00011000
00000000
00010000
00001000
00000100
00000001
,
00001000
00000000
00000000
00000000
00001100
00000000
00000000
00000000
00000110
00000000
00000000
00000010
00000000
00000000
00000001
00000000
,
00001000
00000000
00000000
00000000
00001010
00000000
00000000
00000000
00001000
00000000
00000100
00000000
00010000
00001000
01000000
00000000
,
01010000
00000000
00000000
00000000
10100000
00000000
00000000
00000000
00010000
00000000
00100000
01000000
00000000
10000000
00010000
00000000
,
10000000
01000000
01100000
00000000
00001000
00010000
00001000
00000010
,
00000100
00001000
00000100
00000000
00001000
00000001
00001000
00000000
00000001
00000010
00000001
00000000
00000100
00000010
00000100
00000000
,
00000001
00000010
00000001
00000000
00001000
00000010
00001000
00000000
00000010
00010000
00000010
00000000
00010000
00001000
00010000
00000000
,
00001000
00000000
00100000
00000000
00010000
01000000
00000000
00010000
01000000
00000000
00100000
00000000
10000000
00000000
01000000
00000000
,
00100000
00000000
01000000
00000000
10000000
00100000
00000000
00010000
00001000
00000000
00000100
00000000
00000010
00001000
00000001
00000000
,
00001000
00000000
00001000
00000000
00000001
00000010
00000000
00000010
00000100
00000000
00000010
00000000
00000001
00000000
00001000
00000000
,
00000001
00000000
00000100
00000000
00000010
00000100
00000000
00000100
00000001
00000000
00001000
00000000
00000010
00010000
00001000
00000000
,
00100000
00000000
00010000
00000000
01000000
00010000
00000000
00010000
00100000
00000000
00010000
00000000
01000000
00000000
00001000
00000000
,
00010000
00000000
00001000
00000000
00000010
00000100
00000000
00000100
00001000
00000000
00000010
00000000
00010000
00001000
00010000
00000000
,
00001000
00000000
01000000
00000000
00010000
00100000
00000000
00100000
01000000
00000000
10000000
00000000
00010000
00000000
01000000
00000000
,
00001000
00010000
00001000
00000000
00010000
00000010
00010000
00000000
00000010
00001000
00000010
00000000
00010000
00000100
00020000
00000000
,
00031000
00100000
00010000
00000000
10000000
00100000
00000000
01000000
00010000
00000000
00100000
00000000
01000000
10000000
00100000
00000000
,
01000000
00010000
10000000
00000000
01000000
00100000
00000000
01000000
00100000
00000000
00010000
10000000
00010000
10000000
01000000
00000000
,
00100000
00001000
00010000
00000000
00001000
00000010
00000000
00000001
00000010
00000000
00000100
00000000
00001000
00000001
00000100
00000000
,
00000001
00001000
00000010
00000000
00000100
00000001
00000000
00000010
00000001
00000000
00001000
00000001
00000100
00000010
00001000
00000000
,
00000001
00000100
00000010
00000000
00001000
00000010
00000000
00010000
00000010
00000000
00001000
00000000
00000100
00010000
00001000
00000000
,
00100000
00010000
01000000
00000000
00001000
00010000
00000000
00000100
00001000
00000000
00000010
00001000
00000100
00010000
00001000
00000000
,
00100000
00000000
00010000
00000000
10000000
00000000
01000000
00000000
00100000
00000000
00001000
00000000
00010000
00001000
00010000
00000000
,
00001000
00010000
00001000
00010000
00001000
00010000
00001000
00010000
00000010
00001000
00000010
00001000
00000010
00001000
00000010
00002000
,
00003001
00000100
00001000
00000100
,
00000001
00000100
00001000
00010000
,
00100000
10000000
00100000
00010000
,
00100000
10000000
01000000
00010000
,
00001000
00010000
00001000
00000100
00000001
00001000
00000001
00000010
,
00000100
00001000
00000100
00001000
00000001
00000100
00001000
00010000
,
01000000
00000000
10000000
00000000
01000000
00000000
00100000
00000000
00001000
00010000
00001000
00010000
00001000
00000000
00022000
00000000
,
00033000
00000000
00000000
00000000
;

//--------------- dance-double - Fred-104 ----------------
#NOTES:
     dance-double:
     Fred-104:
     Challenge:
     18:
     :
00000000
00000000
00000000
00000000
,
00000000
00000000
00000000
00000000
,
00000000
00000000
00000000
00000000
,
00000000
00000000
00000000
00000000
,
00000000
00000000
00000000
00000000
,
10000000
01000000
10000000
00010000
01000000
00001000
00010000
00001000
00100000
00001000
00010000
00000010
00001000
00000001
00000010
00000001
,
00001000
00000010
00001000
00000001
00000010
00000100
00010000
00001000
00010000
00100000
01000000
00010000
00100000
01000000
10000000
00010000
,
10000000
01000000
00100000
00010000
01000000
00100000
00010000
00001000
00100000
00010000
00001000
00000100
00010000
00001000
00000100
00000010
,
00001000
00000000
00000000
00000000
00000000
00000000
00000000
00000000
00000000
00000000
00000000
00000000
00000100
00000000
00000000
00000000
00000000
00000000
00000000
00000000
00000000
00000000
00000000
00000000
00000010
00000000
00000000
00000000
00000000
00000000
00000000
00000000
00000000
00000000
00000000
00000000
00000001
00000000
00000000
00000000
00000000
00000000
00000000
00000000
00000000
00000000
00000000
00000000
00002000
00000000
00000000
00003000
00000000
00000000
00000000
00000000
00000000
00000000
00000000
00000000
00000000
00000000
00000000
00000000
00002000
00000000
00000000
00003000
00000000
00000000
00000000
00000000
00000000
00000000
00000000
00000000
00000000
00000000
00000000
00000000
00010000
00000000
00000000
00000000
00000000
00000000
00000000
00000000
00000000
00000000
00000000
00000000
00000000
00000000
00000000
00000000
00000000
00000000
00000000
00000000
00000000
00000000
00000000
00000000
00000000
00000000
00000000
00000000
00000000
00000000
00000000
00000000
00000000
00000000
00000000
00000000
00000000
00000000
00000000
00000000
00011000
00000000
00000000
00000000
00000000
00000000
00000000
00000000
00000000
00000000
00000000
00000000
00000000
00000000
00000000
00000000
00000000
00000000
00000000
00000000
00000000
00000000
00000000
00000000
00001000
00000000
00000000
00000000
00000000
00000000
00000000
00000000
00000000
00000000
00000000
00000000
00000000
00000000
00000000
00000000
00000000
00000000
00000000
00000000
00000000
00000000
00000000
00000000
00000010
00000000
00000000
00000000
00000000
00000000
00000000
00000000
00000000
00000000
00000000
00000000
00000001
00000000
00000000
00000000
00000000
00000000
00000000
00000000
00000000
00000000
00000000
00000000
,
00001000
00000000
00000100
00000000
00000120
00000000
00000031
00000000
00001000
00000000
00000001
00000000
00000100
00000000
00001000
00010000
,
00001000
00000000
00010000
00000000
00210000
00000000
10300000
00000000
00010000
00000000
01000000
00000000
00100000
10000000
01000000
00100000
,
00010000
00100000
00001000
00010000
00001000
00000000
00000010
00000001
00000010
00000000
00000100
00000000
00002001
00000000
00003001
00000010
,
00000100
00001000
00000100
00000000
00002100
00000000
00013000
00000000
00001000
00100000
00001000
00010000
00001000
00000000
00100000
00010000
,
10000000
00000000
01000000
00000000
01200000
00000000
00301000
00010000
00001000
00000000
00010000
00000000
00010200
00000000
00001300
00000001
,
00000010
00000000
00000001
00000000
00000201
00000000
00000310
00001000
00000100
00000000
00010000
00000000
00021000
00000000
00031000
00010000
,
00100000
00000000
01000000
00000000
02010000
00000000
03010000
10000000
01000000
00100000
00001000
00000000
00010000
00000010
00001000
00000100
,
00010000
00001000
00000100
00000001
00001000
00000000
00000100
00000010
00000001
00000010
00000000
00000010
00000001
00000100
00000020
00001030
,
00000001
00000000
00000010
00000000
00001002
00000000
00000103
00000001
00000010
00000001
00001000
00000000
00000010
00000000
00001000
00000100
,
00010000
00000000
00001000
00000000
00021000
00000000
00031000
00100000
00010000
10000000
01000000
00000000
00100000
00010000
10000000
00010000
,
10000000
01000000
00100000
00001000
00010000
00000000
00001000
00010000
00100000
10000000
00010000
00000000
20010000
00000000
30010000
00100000
,
01000000
00100000
00001000
00010000
00001000
00000000
00010000
00000010
00001000
00000100
00010000
00000000
00000010
00001000
00000100
00000010
,
00000100
00001000
00000001
00000100
00001000
00000000
00010000
01000000
10000000
00000000
10020000
00000000
01030000
00000000
00100000
10000000
,
00100000
01000000
00010000
00100000
01000000
00000000
00100000
00001000
00010000
00000000
00000010
00000000
00001020
00000000
00001030
00001000
,
00000001
00000100
00001000
00000100
00000010
00001000
00000001
00000000
00000010
00000100
00001000
00000100
00010000
00001000
00010000
00000000
,
00100000
01000000
00010000
10000000
01000000
00100000
01000000
10000000
01000000
00010000
00001000
00010000
00100000
00010000
00001000
00000010
,
00001000
00000000
00010000
00000000
00001000
00000100
00000000
00001000
00010000
00000000
01000000
00000000
20000000
00000000
00000000
00000000
,
30010000
00000000
00100000
00000000
10000000
00100000
00000000
00010000
00100000
00000000
01000000
00000000
00100000
00000000
00001000
00010000
,
00001000
00000000
00000010
00000000
00001000
00010000
00000000
00001000
00000100
00000000
00000001
00000000
00002000
00000000
00000000
00000000
,
00003100
00000000
00000010
00000000
00000001
00000100
00000000
00000001
00001000
00000000
00000100
00000000
00010000
01000000
20000000
00000000
,
30010000
00000000
01000000
00000000
00100000
00010000
00000000
00001000
00000100
00000000
00000010
00000000
00002000
00000000
00000000
00000000
,
00003001
00000000
00000100
00000000
00001000
00010000
00000000
00100000
01000000
00000000
00010000
00000000
00010000
00100000
02000000
00000000
,
03100000
00000000
00010000
00000000
10000000
01000000
00000000
00100000
10000000
00000000
00100000
00000000
02000000
00000000
00000000
00000000
,
13000000
01000000
00100000
00000000
00010000
00100000
00000000
00001000
00010000
00000000
00000100
00001000
00000100
00000010
00000001
00000000
,
00001001
00000000
00000000
00000000
00000000
00000001
00010000
00001000
,
00100000
00000000
00010000
00000000
01020000
00000000
10030000
00010000
10000000
00000000
01000000
00000000
00100000
00010000
00100000
00001000
,
00010000
00001000
00000010
00000100
00001000
00000000
00000001
00001000
00000100
00000000
00000120
00000000
00000130
00000010
00000001
00001000
,
00000001
00000010
00000100
00001000
00000100
00000000
00010000
00001000
00100000
00000000
00120000
00000000
01030000
00010000
10000000
00100000
,
10000000
01000000
00010000
01000000
10000000
00000000
10000000
00100000
00010000
00100000
10000000
00000000
12000000
00000000
03100000
00010000
,
10000000
00010000
00100000
01000000
00100000
00000000
00001000
00010000
00001000
00000000
00012000
00000000
00003100
00000010
00000001
00001000
,
00000001
00000100
00000010
00001000
00000100
00000000
00010000
00001000
00010000
00000000
00012000
00000000
00013000
00100000
01000000
00010000
,
10000000
00010000
00100000
01000000
10000000
00000000
00100000
00010000
00001000
00000000
00011000
00000000
00010000
00001000
00000100
00000010
,
00001000
00000100
00000010
00000001
00001000
00000010
00000100
00001000
00010000
00100000
01000000
00010000
10000000
01000000
00020000
00031000
,
00011000
00000000
00000000
00000000
00010000
00000000
00000000
00000000
00001000
00000010
00000000
00000001
00000010
00000000
00000100
00000000
,
00001000
00000000
00001001
00000000
00000001
00000010
00010000
00200000
,
00310000
00000000
00000000
00000000
10010000
00000000
00000000
00000000
00010000
00100000
00000000
01000000
00100000
00000000
00010000
00000000
,
01000000
00000000
00000000
00000000
10100000
00000000
00000000
00000000
10000000
00000000
01000000
00000000
00100000
00010000
00200000
00000000
,
00301000
00010000
00100000
01000000
00001000
00010000
00100000
00000000
01000000
00001000
00000000
00010000
00001000
00000000
00000010
00000000
,
00000001
00000000
00000010
00000000
00000100
00000000
00000000
00000000
00001000
00000001
00000000
00000010
00000001
00000000
00000002
00000000
,
00001003
00000001
00000010
00000100
00001000
00000010
00000100
00001000
00010000
00000100
00001000
00010000
00100000
00001000
00010000
00100000
,
01000000
00010000
10000000
01000000
00100000
01000000
00010000
00001000
00000010
00000100
00000010
00000001
00001000
00000001
00000100
00000010
,
00001000
00000001
00000010
00000000
00000100
00010000
00000000
00001000
00010000
00000000
00100000
01000000
00010000
00100000
01000000
00000000
,
10000000
01000000
00100000
00000000
00001000
00010000
00000000
00100000
01000000
00010000
00100000
01000000
00100000
00001000
00010000
00000000
,
00001000
00010000
00000010
00000000
00001000
00000100
00000000
00000010
00000001
00000000
00001000
00000010
00000100
00001000
00010000
00000000
,
00100000
01000000
00010000
00000000
10000000
01000000
00000000
00100000
00001000
00010000
00100000
01000000
00001000
00100000
01000000
00000000
,
00100000
00010000
00100000
00000000
01000000
10000000
00000000
00010000
00100000
00000000
00001000
00010000
00001000
00000100
00000010
00000000
,
00001000
00000001
00000010
00000000
00000100
00000010
00000000
00000001
00001000
00000010
00000100
00001000
00010000
00100000
01000000
00000000
,
00010000
10000000
01000000
00000000
00100000
00001000
00000000
00010000
00001000
00000000
00100000
00010000
10000000
00100000
10000000
00000000
,
00010000
01000000
10000000
01000000
00100000
10000000
01000000
00010000
00001000
00000010
00000001
00000010
00000100
00001000
00000010
00000100
,
00000001
00001000
00000001
00000000
00000100
00000001
00000000
00000001
00001000
00000000
00000001
00000010
00000001
00001000
00000010
00000000
,
00000100
00000001
00001000
00000000
00000010
00001000
00000000
00001000
00100000
00000000
00010000
00100000
01000000
10000000
00100000
01000000
,
00010000
00100000
10000000
00000000
00100000
00010000
00000000
00010000
10000000
00000000
01000000
00100000
00010000
01000000
00010000
00000000
,
00100000
00001000
00010000
00000000
00001000
00000010
00000000
00000100
00001000
00000001
00000100
00001000
00000100
00000001
00000010
00000000
,
00000001
00000100
00000010
00000000
00000100
00000001
00000010
00000100
00001000
00000000
00000100
00010000
00001000
01000000
00001000
00000000
,
00010000
00000010
00001000
00000000
00000100
00010000
00001000
00100000
00010000
00000000
00100000
00001000
00010000
00001000
00000010
00000000
,
00000001
00000010
00000100
00001000
00000001
00000100
00000001
00000010
00001000
00010000
01000000
00100000
00010000
01000000
00100000
10000000
,
00010000
00100000
01000000
00010000
00001000
00000010
00000100
00001000
00000001
00000100
00001000
00010000
00100000
01000000
00010000
20000000
,
30010000
10000000
01000000
00000000
00010000
00001000
00000100
00000001
,
00000100
00000010
00001000
00000000
00000001
00000010
00001000
00010000
,
00001000
00000010
00000100
00000000
00001000
00000100
00000010
00000001
,
00000100
00000000
00001000
00000000
00010000
00000000
00000000
00000000
01000000
00000000
00100000
00000000
00010000
00000000
01000000
00010000
,
10000000
00000000
00100000
00000000
10000000
00000000
01000000
00100000
00001000
00000000
00010000
00000000
00001000
00000000
00000010
00000100
,
00001000
00000000
00000001
00000000
00000100
00000000
00001000
00010000
00100000
00000000
01000000
00000000
00001000
00000000
00010000
00100000
,
10000000
00000000
00010000
00000000
10000000
01000000
00010000
00001000
00000010
00000001
00001000
00000100
00000010
00000000
00000022
00000000
,
00000033
00000000
00000000
00000000
;
