#VERSION:0.83;
#TITLE:robin;
#ARTIST:S-C-U;
#BANNER:robin.png;
#BACKGROUND:robin-bg.png;
#CDTITLE:./CDTitles/REFLEC BEAT.png;
#MUSIC:robin.ogg;
#SAMPLESTART:63.157;
#SAMPLELENGTH:15;
#BPMS:0=190;
#STOPS:196=0.947;
#TIMESIGNATURES:0=4=4,196=1=4,197=4=4;
#STAGE:5;

//--------------- dance-single - Fred-104 ----------------
#NOTEDATA:;
#STEPSTYPE:dance-single;
#DESCRIPTION:Fred-104;
#DIFFICULTY:Beginner;
#METER:4;
#CREDIT:Fred-104;
#NOTES:
0000
0000
0000
0000
,
0000
0000
0000
0000
,
0000
0000
0000
0000
,
0000
0000
0000
0000
,
0000
0000
0000
0000
,
1000
0000
0000
0010
,
0000
0000
1000
0000
,
0001
0000
0010
0000
,
0001
0000
0000
0000
,
1000
0000
0000
0100
,
0000
0000
0010
0000
,
0001
0000
0001
0000
,
0001
0000
0000
0000
,
0100
0000
0000
0010
,
0000
0000
1000
0000
,
0001
0000
1000
0000
,
2002
0000
0000
3003
,
1000
1000
0000
0000
,
0001
0001
0000
0000
,
1000
1000
0000
0000
,
0001
0000
1000
0000
,
0001
0001
0000
0000
,
1000
1000
0000
0000
,
0001
0000
1000
0000
,
0010
0000
0100
0000
,
0010
0010
0000
0000
,
0100
0100
0000
0000
,
0010
0010
0000
0000
,
0100
0000
0010
0000
,
1000
1000
0000
0000
,
0001
0001
0000
0000
,
2000
0000
0000
3000
,
0002
0000
0000
0003
,
1001
0000
0100
0000
,
0100
0000
0010
0000
,
0001
0000
0001
0000
,
1000
0000
0100
0000
,
0100
0000
1000
0000
,
0010
0000
1000
0000
,
0001
0000
1000
0000
,
1001
0000
0000
0000
,
1001
0000
0010
0000
,
0010
0000
1000
0000
,
0001
0000
0001
0000
,
1000
0000
0100
0000
,
0100
0000
1000
0000
,
1000
0000
0010
0000
,
1000
0000
0000
1000
,
0000
0000
1000
1000
,
0000
0000
1000
0000
,
0100
0000
0100
0000
,
0100
0000
0010
0000
,
0001
0000
1000
0000
,
0001
0000
0001
0000
,
1000
0000
1000
0000
,
1000
1000
0000
0010
,
0000
1000
0000
0001
,
0000
0000
0001
0000
,
0010
0000
0001
0000
,
0010
0000
0010
0000
,
1000
0000
1000
0000
,
0100
0000
1000
0000
,
0100
0000
0100
0000
,
0001
0000
0001
0000
,
1000
0000
1000
1000
,
0000
2002
0000
0000
,
3003
0000
0000
0000
,
0000
2002
0000
0000
,
3003
0000
0000
0000
,
0000
1000
0000
0100
,
0000
0100
0000
0010
,
0000
0001
0000
0001
,
0000
1000
0000
0001
,
0001
0001
0000
1000
,
0000
0001
0000
1000
,
0000
0100
0000
0100
,
0000
0010
0000
0000
,
0000
0001
0000
1000
,
0000
0010
0000
0100
,
0000
0001
0000
1000
,
0000
1001
0000
0000
;

//--------------- dance-single - Fred-104 ----------------
#NOTEDATA:;
#STEPSTYPE:dance-single;
#DESCRIPTION:Fred-104;
#DIFFICULTY:Easy;
#METER:7;
#CREDIT:Fred-104;
#NOTES:
0000
0000
0000
0000
,
0000
0000
0000
0000
,
0000
0000
0000
0000
,
0000
0000
0000
0000
,
0000
0000
0000
0000
,
0001
0000
0000
0010
0000
0000
0100
0000
,
0000
1000
0000
0000
0010
0000
1000
0000
,
0001
0001
0010
1000
,
0010
0010
0001
1000
,
0001
0000
0000
0100
0000
0000
0010
0000
,
0000
1000
0000
0000
0100
0000
0100
0000
,
0010
0001
0001
0010
,
0100
0100
1000
0001
,
1000
0000
0000
0100
0000
0000
0010
0000
,
0000
0001
0000
0000
0100
0000
0010
0000
,
1000
0100
0001
0100
,
2002
0000
0000
3003
,
1100
0000
1100
0000
0000
0000
0000
0001
,
0000
0100
0001
0000
0100
0000
0010
0000
,
1010
1010
1000
0001
,
0100
0010
0100
0000
,
1001
0000
1001
0000
0000
0000
0000
0100
,
0000
0100
0010
0000
0110
0000
0110
0000
,
0002
0000
0000
0023
0000
0000
0032
0000
,
0000
2003
0000
0000
3020
0000
0130
0000
,
0101
0000
0101
0000
0000
0000
1000
0010
,
0000
0010
0100
0000
0001
0000
0100
0000
,
0010
0000
1000
0000
0001
0010
0000
0000
,
0001
1000
0100
0000
,
1010
0000
1010
0000
1000
0000
0100
0010
,
0000
0010
0001
0000
1000
0000
0001
0000
,
0002
0000
0003
2000
0000
3000
0020
0000
,
0030
0200
0000
0300
0001
0000
1000
0000
,
1001
0000
0000
0100
0000
0100
0000
0010
,
0000
0000
0000
0100
0000
0010
0000
0100
,
0000
0000
0000
0010
0000
0010
0000
0100
,
0000
0000
0000
0010
0000
0010
0000
0010
,
0000
0000
0000
0100
0000
0100
0000
0010
,
0000
0000
0000
0100
0000
0100
0000
0100
,
1000
0000
0000
0010
0000
0000
1000
0000
,
0000
0001
0000
0000
0100
0000
0100
0000
,
0010
1000
0010
0010
,
1000
0100
0100
0010
,
0001
1000
0001
0001
,
0010
0100
1000
0001
,
1000
0010
0010
1000
,
0001
1000
0001
0100
,
0001
0000
0000
1000
0000
0000
0010
0000
,
0000
0100
0000
0000
2002
0000
0000
0000
,
3003
0000
1000
0000
0000
0100
0000
0100
,
0000
0100
0000
0010
0000
0010
0000
0001
,
0000
0100
0000
0010
,
0000
0001
0001
0010
,
0001
1000
0000
0010
,
0000
1000
0000
0010
,
0000
1000
0000
0100
,
0000
1000
1000
0001
,
0000
0000
1001
0000
0000
0100
0000
0100
,
0000
0010
0000
0100
0000
0100
0000
0010
,
0000
1000
0000
0010
,
0000
1000
0001
0001
,
0000
0001
0000
0100
,
0000
0010
0100
0100
,
0000
0001
0000
1000
,
0000
0001
0000
1000
,
1000
2002
0000
0000
,
3003
1000
0000
0010
,
0000
0002
0000
0000
,
0003
0001
0000
0100
,
0000
1000
0000
1010
,
0000
0001
0000
0101
,
0000
1000
0000
1100
,
0000
0001
0000
0101
,
0000
0000
0100
0000
0000
0010
0000
0000
,
0100
0001
0001
0100
,
0000
0010
0010
1000
,
0010
1000
0001
1000
,
0000
0001
0001
1000
,
1000
0010
0010
0100
,
0100
0001
0000
1000
,
0000
0000
0001
1000
0001
0000
0000
0000
;

//--------------- dance-single - Fred-104 ----------------
#NOTEDATA:;
#STEPSTYPE:dance-single;
#DESCRIPTION:Fred-104;
#DIFFICULTY:Medium;
#METER:11;
#CREDIT:Fred-104;
#NOTES:
0000
0000
0000
0000
,
0000
0000
0000
0000
,
0000
0000
0000
0000
,
0000
0000
0000
0000
,
0000
0000
0000
0000
,
0100
0000
0000
0001
0000
0000
0100
0000
,
0000
0010
0000
0000
1000
0000
0001
0000
,
1000
0000
1000
0010
0100
0000
0001
0000
,
0001
0010
0200
0000
0000
0000
0300
0000
,
1000
0000
0010
1000
0000
0001
1000
0000
,
0100
0010
0000
0001
0000
0100
0000
0010
,
0100
0000
0100
0001
0010
0000
0100
0000
,
0100
1000
0010
0000
1000
0000
0001
0000
,
1000
0000
0010
0100
0000
0010
1000
0000
,
0001
0010
0000
1000
0000
0100
0000
0010
,
0001
0100
0010
1000
,
2002
0000
0000
3003
,
1010
0000
1010
0000
0101
0000
0100
0010
,
0000
1000
0100
0000
0001
0000
0100
0000
,
1001
0000
1001
0000
0100
0010
0000
0010
,
0001
0000
1000
0010
0000
0100
0000
0000
,
0011
0000
0011
0000
0100
0000
0010
0100
,
0000
1000
0010
0000
1010
0000
1001
0000
,
0200
0000
0000
0320
0000
0000
0032
0000
,
0000
0203
0000
0000
0320
0000
1030
0000
,
1001
0000
1001
0000
0100
0000
0010
0001
,
0000
1000
0010
0000
0100
0000
0100
0000
,
1010
0000
1010
0000
0001
0100
0000
0010
,
1000
0000
0100
0010
0000
0001
0000
0000
,
0101
0000
0101
0000
0010
0000
0001
0010
,
0000
0001
1000
0000
0100
0000
0010
0000
,
0200
0000
0000
2300
0000
0000
3020
0000
,
0000
0230
0000
0000
0302
0000
1003
0000
,
1001
0000
0010
0001
0000
0100
0000
0010
,
1000
0000
0100
1000
0000
0001
0000
1000
,
0100
0000
0010
0100
0000
0001
0000
0100
,
0010
0000
0001
0010
0000
1000
0000
0010
,
0001
0000
1000
0010
0000
0100
0000
0001
,
0100
0000
1000
0100
0000
0010
0100
0010
,
0100
0000
0001
0100
0000
0010
0100
0000
,
0010
1000
0000
0001
1000
0000
0100
0000
,
0110
0000
0001
1000
0000
0010
0000
0010
,
0100
0000
0010
1000
0000
0001
0000
0001
,
0100
0000
0010
1000
0000
0100
0000
0010
,
0001
0000
1000
0001
0000
0001
0000
0100
,
0010
0000
0100
1000
0000
0100
0000
0001
,
1000
0000
0010
0100
0000
0010
1000
0010
,
1000
0010
0000
0100
0001
0000
1000
0100
,
0000
0010
0001
0000
0100
0010
0100
0010
,
0000
0000
1001
0000
1000
0010
0000
0100
,
0000
0010
0000
1000
0010
0100
0000
0001
,
0000
0010
0001
0010
0000
0001
0000
0100
,
0001
0100
0000
0100
1000
0100
0010
0000
,
0001
1000
0000
0000
1010
0000
0100
0001
,
1000
0001
0000
0100
0000
0010
0100
0010
,
0100
0000
0001
0000
1000
0010
0000
0100
,
0000
0010
0000
1000
0010
0001
0000
0100
,
0010
0000
1001
0000
0001
0010
0000
0100
,
0000
0010
0000
0001
0010
0100
0000
1000
,
0000
0010
1000
0010
0000
1000
0000
0100
,
1000
0100
0000
0100
0001
0100
0010
0000
,
1000
0001
0000
0000
0011
0000
0100
1000
,
0001
1000
0000
0100
0000
0010
0100
0010
,
0100
0000
1000
0000
0001
0010
0000
0100
,
0000
0010
0000
0100
1000
0001
0100
0000
,
0010
2002
0000
0000
,
3003
0000
0000
0000
1000
0000
0000
1000
0000
0000
1000
0000
0001
0000
0000
0001
,
0000
0001
2002
0000
0000
0000
0000
0000
,
3003
0000
0000
0000
0100
0000
0000
0100
0000
0000
0100
0000
0010
0000
0000
0010
,
0000
0010
1000
0000
0100
0000
0010
0100
,
0000
0100
0001
0000
0100
0000
0010
0001
,
0000
0001
1000
0000
0100
0000
1000
0010
,
0000
0010
1000
0000
0001
0000
0020
0000
,
0230
0000
0301
0000
0010
0001
0000
1000
,
0100
0000
0001
0100
0000
0010
0000
0001
,
0000
1000
0001
0000
1000
0100
0010
0000
,
1000
0000
0001
0100
0010
0000
1000
0000
,
0001
1000
1000
0100
,
0100
0001
0001
0010
,
0010
0000
1000
0001
1000
0001
1000
0001
,
1000
0001
1000
1000
1001
0000
0000
0000
;

//--------------- dance-single - Fred-104 ----------------
#NOTEDATA:;
#STEPSTYPE:dance-single;
#DESCRIPTION:Fred-104;
#DIFFICULTY:Hard;
#METER:14;
#CREDIT:Fred-104;
#NOTES:
0000
0000
0000
0000
,
0000
0000
0000
0000
,
0000
0000
0000
0000
,
0000
0000
0000
0000
,
0000
0000
0000
0000
,
1000
0000
0000
0010
0000
0100
0100
0000
,
0000
1000
0000
0100
0100
0000
0010
0000
,
1000
0100
0010
0001
1000
0000
0001
0100
,
0010
1000
0002
0000
0000
0000
0003
0000
,
1001
1000
0010
0100
0000
0010
0001
0000
,
0001
1000
0200
0010
0000
1000
0300
0010
,
0001
0100
1000
0100
0001
0000
1000
0100
,
0002
0100
1003
0000
0001
1000
0100
0010
,
0001
0001
1000
0010
0000
0100
0010
0000
,
0001
0100
0020
1000
0000
0100
0030
1000
,
0001
0010
2000
0010
3001
0002
1003
0010
,
0001
0010
1000
0000
0000
0000
0000
0000
,
1010
0000
0022
0000
0030
0000
1003
1100
,
0000
0001
0201
0000
0010
0000
0310
0000
,
1000
0000
0010
0000
0100
0000
0000
0000
0001
0000
1000
0000
0100
0000
1000
0010
,
0100
0001
0100
0010
1000
0100
0100
0010
,
0011
0000
2020
0000
0030
0000
3001
0101
,
0000
1000
1200
0000
0010
0000
0310
0000
,
0001
0010
0010
0100
0010
0010
0001
1000
,
1000
0100
0010
0010
0100
1000
0001
0000
,
1100
0000
0101
0000
0100
1000
0001
0100
,
0010
0010
0100
0000
0001
0100
1000
0000
,
0101
0000
0000
0000
1001
0000
0000
0000
0001
0000
0100
0000
0010
0000
1000
0010
,
0100
0010
1000
0001
0010
0100
1000
0010
,
1010
0000
0101
0000
1000
0001
0010
0001
,
1000
0100
0100
0000
0010
0100
1000
0001
,
2000
0000
3000
0020
0000
0030
0002
0000
,
0003
2000
0000
3000
0200
0000
0310
0000
,
1001
0000
1000
0100
0000
1100
0000
0001
,
1001
0000
0001
0100
0000
1100
0000
1000
,
1001
0000
1000
0010
0000
1010
0000
0001
,
1001
0000
0001
0010
0000
0011
0000
1000
,
1001
0000
1000
0100
0000
0101
0000
0010
,
1001
0000
0001
0100
0000
0001
0100
0010
,
1010
0000
1000
1100
0000
0001
0101
0000
,
1000
1010
0000
0001
0100
0010
0100
1000
,
1001
0000
0010
0100
0000
0100
1000
0010
,
1001
0000
0010
0100
0000
0100
0001
0010
,
1001
0000
0010
0100
0000
0100
1000
0100
,
1001
0000
0010
0100
0000
0100
0001
0100
,
1001
0000
1000
0010
0000
0001
0010
1000
,
1001
0000
0001
0010
0000
1000
0010
0001
,
1000
1100
0000
0001
0101
0000
1000
1010
,
0000
0001
0011
0000
1000
0100
0010
0001
,
0000
0000
0001
1000
0010
0200
0000
2300
,
0000
3002
0000
0103
0010
0002
0000
0013
,
0100
0001
1000
0100
1000
0020
0000
0130
,
0010
2000
0000
3001
0100
1000
0001
0100
,
0010
2000
0000
3100
0010
0000
0001
0100
,
1000
0200
0000
0302
0000
0013
0100
1000
,
0010
0000
0100
0010
0100
0001
0000
1001
,
0000
1010
0000
0010
0100
0001
1000
0100
,
0010
0000
1000
0010
0100
0002
0000
1003
,
0100
0002
0000
1003
0010
0200
0000
0301
,
0010
0100
0010
0001
1000
0200
0000
0310
,
0100
2000
0000
3010
1000
0001
0010
0100
,
0001
2000
0000
3001
1000
0000
0010
0100
,
0001
2000
0000
3020
0000
0130
0001
0100
,
0010
0000
1000
0010
0100
0002
0000
0013
,
1000
0010
0001
0100
1000
0100
0010
0000
,
0110
2002
0000
0000
,
3003
0000
1000
0100
1000
0000
0000
0010
0000
0000
0010
0000
0001
0000
0000
0100
,
0000
0100
2002
0000
0000
0000
0000
0000
,
3003
0000
0000
0000
0001
0000
0000
0100
0000
0000
0100
0000
1000
0000
0000
0010
,
0000
0010
0001
0000
0010
0001
0100
0110
,
0000
0000
0010
0000
1000
0000
0000
1000
0000
0000
0100
0000
0001
0000
0100
0000
,
0000
0100
0110
0000
0010
0001
0100
0101
,
0000
0000
0100
0000
0010
0000
0000
0100
0010
0000
1000
0000
0001
0000
0010
0000
,
0001
0000
1000
0001
1000
0000
0100
0000
0001
0000
0100
0000
0000
0000
0010
0000
,
0100
0000
0001
1000
0010
0100
1000
0100
,
0010
0100
0001
0100
0010
0100
0001
0000
,
1000
0100
0010
0100
1000
0000
0001
1000
,
0010
0100
0001
0010
1000
0001
0100
1000
,
0001
0100
0010
1000
0100
0010
0100
0001
,
0100
0000
1000
0000
0001
1000
0001
1000
0001
1000
0001
1000
0001
1000
0001
1000
,
0001
1000
0001
1000
0001
0000
1001
0000
1001
0000
0000
0000
0000
0000
0000
0000
;

//--------------- dance-double - Fred-104 ----------------
#NOTEDATA:;
#STEPSTYPE:dance-double;
#DESCRIPTION:Fred-104;
#DIFFICULTY:Easy;
#METER:7;
#CREDIT:Fred-104;
#NOTES:
00000000
00000000
00000000
00000000
,
00000000
00000000
00000000
00000000
,
00000000
00000000
00000000
00000000
,
00000000
00000000
00000000
00000000
,
00000000
00000000
00000000
00000000
,
00020000
00000000
00000000
00030000
,
00002000
00000000
00000000
00003000
,
00000000
00000100
00000010
00000000
,
00000001
00002000
00000000
00003000
,
00010000
00000000
00000000
00010000
00000000
00000000
00001000
00000000
,
00100000
00000000
00010000
00000000
,
10000000
01000000
00100000
00000000
,
00001000
00020000
00000000
00030000
,
00001000
00000000
00000000
00000100
00000000
00000000
00000100
00000000
,
00000010
00000001
00001000
00000010
,
00000100
00000000
00010000
00000000
,
00022000
00000000
00000000
00033000
,
00110000
00110000
00000000
00000000
,
10100000
10100000
00000000
00000000
,
00100000
00001000
00010000
00000000
,
00001000
00001000
00000100
00000010
,
00000101
00000101
00000000
00000000
,
00001100
00001100
00000000
00000000
,
00010000
00000000
00000000
00100000
00000000
00000000
10000000
00000000
,
00000000
00010000
00000000
00000000
01000000
00000000
00100000
00000000
,
10010000
10010000
01000000
00100000
,
00011000
00011000
00001000
00000100
,
00000010
00000010
00000100
00000000
,
00000001
00000010
00001000
00000000
,
00011000
00011000
00010000
01000000
,
10010000
10010000
01000000
00100000
,
00002000
00000000
00000000
00003200
00000000
00000000
00000320
00000000
,
00000000
00000032
00000000
00000000
00002003
00000000
00003010
00000000
,
00000100
00000010
00000000
00000001
,
00000010
00000010
00000000
00001000
,
00010000
00001000
00000000
00010000
,
00100000
01000000
00000000
00100000
,
00100000
00010000
00000000
10000000
,
00100000
01000000
00000000
00010000
,
00001000
00000000
00000000
00000100
00000000
00000000
00000010
00000000
,
00000000
00000001
00000000
00000000
00001000
00000000
00000010
00000000
,
00000110
00000100
00000000
00000010
,
00000001
00000100
00000000
00000100
,
00001000
00010000
00000000
00010000
,
00100000
10000000
00000000
10000000
,
01000000
00010000
00000000
00010000
,
00001000
00000100
00000000
00000010
,
00000001
00000000
00000000
00000100
00000000
00000000
00001000
00000000
,
00000000
00010000
00000000
00000000
01000000
00000000
10000000
00000000
,
00000000
10010000
00100000
00000000
,
00100000
00000000
00001000
00000000
,
00001000
00000100
00000010
00000000
,
00000010
00000000
00000100
00000100
,
00000100
00000010
00000010
00000000
,
00000001
00000000
00000100
00000000
,
00000100
00001000
00000000
00010000
,
00000000
01000000
01000000
00100000
,
00000000
00011000
00001000
00000000
,
00000100
00000000
00000010
00000000
,
00000010
00000000
00000001
00000000
,
00000100
00000000
00000100
00000100
,
00000100
00000000
00000010
00000000
,
00001000
00000000
00010000
00010000
,
00010000
00010000
00000000
00001000
,
00000000
00100000
00000000
00001000
,
00000000
00022000
00000000
00000000
,
00033000
00001000
00000000
00000001
,
00000000
00002002
00000000
00000000
,
00003003
00000010
00000000
00000100
,
00000000
00000010
00000000
00001010
,
00000000
00001000
00000000
00011000
,
00000000
00010000
00000000
00110000
,
00000000
01000000
00000000
00200000
,
02300000
03100000
00000000
10000000
,
00000000
01000000
01000000
00100000
,
00000000
00001000
00001000
00010000
,
00000000
00010000
00001000
00000100
,
00000000
00000010
00000010
00000001
,
00001000
00000010
00010000
00010000
,
00001000
00100000
00010000
10000000
,
00010000
00000000
10000000
00010000
10000000
00000000
00000000
00000000
;

//--------------- dance-double - Fred-104 ----------------
#NOTEDATA:;
#STEPSTYPE:dance-double;
#DESCRIPTION:Fred-104;
#DIFFICULTY:Medium;
#METER:11;
#CREDIT:Fred-104;
#NOTES:
00000000
00000000
00000000
00000000
,
00000000
00000000
00000000
00000000
,
00000000
00000000
00000000
00000000
,
00000000
00000000
00000000
00000000
,
00000000
00000000
00000000
00000000
,
00001000
00000000
00000000
00001000
00000000
00000000
00100000
00000000
,
00000000
00100000
00000000
00000000
00010000
00000000
01000000
00000000
,
00100000
00000000
10000000
01000000
10000000
00000000
00100000
00000000
,
01000000
00010000
02000000
00000000
00000000
00000000
03000000
00000000
,
00100000
00000000
10000000
01000000
00000000
00100000
00001000
00000000
,
00010000
00001000
00000000
00000100
00000000
00000001
00000000
00001000
,
00000010
00000000
00001000
00000010
00000100
00000000
00000010
00000000
,
00000001
00000010
00000100
00000000
00010000
00000000
00001000
00000000
,
00100000
00000000
00010000
10000000
00000000
01000000
00100000
00000000
,
00010000
00001000
00000000
00100000
00000000
00001000
00000000
00010000
,
00000010
00001000
00010000
00100000
,
00022000
00000000
00000000
00033000
,
00011000
00000000
00011000
00000000
00011000
00000000
00100000
01000000
,
00000000
00100000
10000000
00000000
01000000
00000000
00010000
00000000
,
00011000
00000000
00011000
00000000
00000100
00000010
00000000
00000010
,
00000001
00000000
00000100
00000010
00000000
00001000
00000000
00000000
,
00110000
00000000
00110000
00000000
10000000
00000000
00010000
01000000
,
00000000
10000000
01000000
00000000
01010000
00000000
00011000
00000000
,
00002000
00000000
00000000
00003200
00000000
00000000
00020300
00000000
,
00000000
00032000
00000000
00000000
02003000
00000000
03001000
00000000
,
00011000
00000000
00011000
00000000
00000100
00000000
00000001
00000100
,
00000000
00000010
00000100
00000000
00000001
00000000
00000001
00000000
,
00000011
00000000
00000011
00000000
00000100
00000010
00000000
00010000
,
00001000
00000000
00100000
01000000
00000000
00100000
00000000
00000000
,
00011000
00000000
00011000
00000000
01000000
00000000
00100000
01000000
,
00000000
01000000
10000000
00000000
00010000
00000000
00010000
00000000
,
20000000
00000000
00000000
32000000
00000000
00000000
03020000
00000000
,
00000000
00032000
00000000
00000000
00003020
00000000
00000031
00000000
,
00001001
00000000
00000100
00000010
00000000
00000001
00000000
00000100
,
00000010
00000000
00001000
00000100
00000000
00010000
00000000
00000010
,
00001000
00000000
00000100
00010000
00000000
00001000
00000000
00100000
,
00010000
00000000
01000000
00100000
00000000
10000000
00000000
00100000
,
01000000
00000000
10000000
00100000
00000000
00010000
00000000
00001000
,
00010000
00000000
00100000
10000000
00000000
00100000
01000000
00010000
,
01000000
00000000
00100000
00010000
00000000
00001000
00000010
00000000
,
00000001
00001000
00000000
00000010
00000100
00000000
00000010
00000000
,
00000011
00000000
00000001
00000100
00000000
00000010
00000000
00001000
,
00000100
00000000
00010000
01000000
00000000
00010000
00000000
00001000
,
00010000
00000000
01000000
00100000
00000000
00001000
00000000
00010000
,
00000100
00000000
00000010
00000100
00000000
00001000
00000000
00010000
,
00100000
00000000
01000000
00010000
00000000
00001000
00000000
00000100
,
00010000
00000000
00001000
01000000
00000000
00010000
00100000
01000000
,
10000000
01000000
00000000
00100000
00001000
00000000
00010000
00000100
,
00000000
00000010
00000001
00000000
00000100
00000010
00000100
00000010
,
00000000
00000000
00011000
00000000
00001000
00010000
00000000
00100000
,
00000000
10000000
00000000
00100000
01000000
00100000
00000000
10000000
,
00000000
01000000
00100000
01000000
00000000
00010000
00000000
00001000
,
00010000
00001000
00000000
00001000
00000100
00000001
00001000
00000000
,
00000001
00000100
00000000
00000000
00000110
00000000
00000010
00010000
,
00001000
00100000
00000000
00001000
00000000
00010000
00100000
01000000
,
00100000
00000000
00001000
00000000
00010000
00000100
00000000
00000010
,
00000000
00000100
00000000
00010000
00000100
00001000
00000000
00000100
,
00000010
00000000
00001001
00000000
00000001
00000010
00000000
00001000
,
00000000
00010000
00000000
00100000
00010000
00001000
00000000
00000010
,
00000000
00001000
00010000
00100000
00000000
01000000
00000000
00010000
,
00001000
00000100
00000000
00001000
00010000
01000000
10000000
00000000
,
01000000
00010000
00000000
00000000
00011000
00000000
00001000
00000100
,
00000001
00000100
00000000
00001000
00000000
00010000
00100000
10000000
,
00100000
00000000
00010000
00000000
00001000
00000010
00000000
00000001
,
00000000
00000010
00000000
00001000
00010000
01000000
10000000
00000000
,
01000000
20020000
00000000
00000000
,
30030000
00000000
00000000
00000000
10000000
00000000
00000000
01000000
00000000
00000000
01000000
00000000
00010000
00000000
00000000
00001000
,
00000000
00001000
00022000
00000000
00000000
00000000
00000000
00000000
,
00033000
00000000
00000000
00000000
00001000
00000000
00000000
00000010
00000000
00000000
00000010
00000000
00000001
00000000
00000000
00001000
,
00000000
00001000
00000001
00000000
00000100
00000000
00000010
00001000
,
00000000
00001000
00000100
00000000
00010000
00000000
00001000
00100000
,
00000000
00100000
00001000
00000000
00010000
00000000
01000000
00100000
,
00000000
00100000
01000000
00000000
10000000
00000000
02000000
00000000
,
03200000
00000000
00310000
00000000
01000000
00010000
00000000
00100000
,
00001000
00000000
00010000
00001000
00000000
00000100
00000000
00000001
,
00000000
00001000
00000001
00000000
00000100
00000010
00001000
00000000
,
00000001
00000000
00001000
00000100
00000010
00000000
00000001
00000000
,
00001000
00000001
00001000
00000001
,
00000100
00001000
00010000
00100000
,
10000000
00000000
00010000
00100000
00010000
00100000
01000000
10000000
,
01000000
10000000
00010000
10000000
10010000
00000000
00000000
00000000
;

//--------------- dance-double - Fred-104 ----------------
#NOTEDATA:;
#STEPSTYPE:dance-double;
#DESCRIPTION:Fred-104;
#DIFFICULTY:Hard;
#METER:14;
#CREDIT:Fred-104;
#NOTES:
00000000
00000000
00000000
00000000
,
00000000
00000000
00000000
00000000
,
00000000
00000000
00000000
00000000
,
00000000
00000000
00000000
00000000
,
00000000
00000000
00000000
00000000
,
00000001
00000000
00000100
00000010
00000000
00001000
00000100
00000000
,
00010000
00001000
00000000
00010000
00100000
00000000
00010000
00000000
,
10000000
01000000
00100000
00001000
00010000
00000000
00000100
00001000
,
00000100
00000010
00000002
00000000
00000000
00000000
00000003
00000000
,
00000100
00000010
00001000
00000010
00000000
00000001
00000010
00000000
,
00001000
00010000
00001000
00100000
00000000
00010000
00000000
10000000
,
00100000
10000000
01000000
00100000
01000000
00000000
00100000
00010000
,
01000000
00100000
01000000
00000000
00010000
10000000
01000000
00010000
,
00001000
00100000
00001000
00010000
00000000
00000100
00000010
00000000
,
00000001
00000100
00001000
00000100
00000001
00000010
00000100
00001000
,
00000100
00010000
00001000
00100000
00010000
10000000
00100000
00000000
,
02200000
00000000
00000000
03300000
,
11000000
00000000
01010000
00000000
00100000
00000000
00001000
00010000
,
00000000
00010000
00000100
00000000
00001100
00000000
00000101
00000000
,
00001100
00000000
00000000
00000000
00000110
00000000
00000000
00000000
00000001
00000000
00000100
00000000
00000000
00000000
00000100
00000010
,
00000100
00000001
00000100
00002000
00000000
00023000
00000000
00031000
,
00011000
00000000
00010010
00000000
00001000
00000000
00100000
00010000
,
00000000
00010000
01000000
00000000
11000000
00000000
01010000
00000000
,
10010000
00000000
01000000
00100000
00000000
00001000
00010000
00000000
,
00000100
00010000
00000000
00000100
00000010
00000000
00001001
00000000
,
00000101
00000000
00001100
00000000
00000100
00000001
00000100
00010000
,
00001000
00010000
01000000
00000000
01100000
00000000
10010000
00000000
,
10100000
00000000
00000000
00000000
01010000
00000000
00000000
00000000
00100000
00000000
00010000
00000000
00001000
00000000
00000010
00000100
,
00000010
00001000
00000010
00000100
00000001
00000010
00000100
00000010
,
00000011
00000000
00001010
00000000
00000001
00000100
00001000
00010000
,
01000000
00100000
01100000
00000000
10010000
00000000
01100000
00000000
,
20000000
00000000
00000000
32000000
00000000
00000000
03020000
00000000
,
00000000
00032000
00000000
00000000
00003020
00000000
00000031
00000000
,
00001001
00000000
00000001
00000100
00000000
00000010
00000000
00001000
,
00000100
00000000
00010000
00100000
00000000
01000000
00000000
00100000
,
00010000
00000000
10000000
01000000
00000000
00010000
00000000
01000000
,
10000000
00000000
00100000
01000000
00000000
00010000
00000000
00001000
,
00000100
00000000
00000001
00000100
00000000
00001000
00000000
00010000
,
00001000
00000000
00010000
00100000
00000000
00100000
10000000
01000000
,
00100000
00000000
10000000
00100000
00000000
00010000
00001000
00000000
,
00000010
00000001
00000000
00001000
00000010
00000100
00000001
00000010
,
00000110
00000000
00000100
00001000
00000000
00010000
00001000
00100000
,
00010000
00000000
00100000
01000000
00000000
01000000
10000000
01000000
,
00010000
00000000
00001000
00100000
00000000
00001000
00010000
00000010
,
00001000
00000000
00000010
00000001
00000000
00000010
00001000
00010000
,
00100000
00000000
01000000
00100000
00000000
01000000
10000000
01000000
,
00010000
00000000
00010000
00001000
00000100
00000001
00001000
00000100
,
00000010
00000011
00000000
00000001
00001001
00000000
00001000
00001100
,
00000000
00000100
00010100
00000000
00001000
00010000
01000000
10000000
,
00000000
00000000
00010000
10000000
01000000
00200000
00000000
00301000
,
00010000
00000020
00000000
00001030
00000100
00000020
00000000
00000031
,
00000100
00000010
00000100
00000100
00000010
00002000
00000000
00003100
,
00010000
02000000
00000000
03100000
10000000
01000000
00010000
00001000
,
00100000
00020000
00000000
00031000
00000010
00000000
00000100
00000001
,
00000010
00000002
00000000
00002003
00000000
00003010
00000001
00000010
,
00001000
00000000
00010000
00001000
00100000
00010000
00000000
10010000
,
00000000
01100000
00000000
00100000
10000000
01000000
00100000
00010000
,
01000000
00000000
00011000
00010000
00001000
00000200
00000000
00000301
,
00000100
00000020
00000000
00001030
00000100
00000020
00000000
00000130
,
00000001
00000100
00001000
00010000
00001000
00000020
00000000
00010030
,
00001000
00200000
00000000
00310000
00100000
10000000
00100000
00010000
,
00001000
00020000
00000000
01030000
01100000
00000000
00010000
00001000
,
00000010
00002000
00000000
00023000
00000000
00130000
01000000
00010000
,
00011000
00000000
00010000
00001000
00000100
00000001
00000000
00000101
,
00000000
00001100
00000000
00001000
00010000
01000000
10000000
00000000
,
00010000
20020000
00000000
00000000
,
30030000
00000000
10000000
01000000
10000000
00000000
00000000
01000000
00000000
00000000
00010000
00000000
00001000
00000000
00000000
00000100
,
00000000
00000001
00002002
00000000
00000000
00000000
00000000
00000000
,
00003003
00000000
00000000
00000000
00000001
00000000
00000000
00000010
00000000
00000000
00001000
00000000
00010000
00000000
00000000
00100000
,
00000000
10000000
10010000
00000000
01000000
00000000
00100000
10000000
,
01000000
00000000
00100000
00000000
00101000
00000000
00000000
00001000
00000000
00000000
00010000
00000000
00000100
00000000
00001000
00000000
,
00000000
00000010
00000110
00000000
00000100
00000001
00000010
00000001
,
00001000
00000000
00000000
00000000
00000110
00000000
00000000
00000100
00000010
00000000
00001000
00000000
00000100
00000000
00010000
00000000
,
00001000
00000000
01000000
00010000
01000000
00000000
00100000
00000000
01000000
00000000
00010000
00000000
00000000
00000000
10000000
00000000
,
00010000
00000000
10000000
01000000
00100000
01000000
00010000
00001000
,
00000100
00000001
00000100
00000010
00000001
00001000
00000010
00000000
,
00010000
00001000
00010000
00100000
00010000
00000000
01000000
00100000
,
10000000
00000000
00010000
10000000
01000000
00100000
00010000
00001000
,
00000100
00000010
00000001
00000100
00001000
00010000
00100000
10000000
,
01000000
00000000
00100000
00000000
00010000
00001000
00010000
00001000
00010000
00001000
00010000
00001000
00010000
00001000
00010000
00001000
,
00010000
00001000
00010000
00001000
00010000
00000000
00011000
00000000
00011000
00000000
00000000
00000000
00000000
00000000
00000000
00000000
;
