#TITLE:relegation grimoire;
#ARTIST:tsuzu;
#BANNER:relegation grimoire.png;
#BACKGROUND:relegation grimoire-bg.png;
#CDTITLE:./CDTitles/SDVX III GRAVITY WARS.png;
#MUSIC:relegation grimoire.ogg;
#SAMPLESTART:44.209;
#SAMPLELENGTH:15;
#BPMS:0=114;
#BGSTAGE:1;

//--------------- dance-single - Fred-104 ----------------
#NOTES:
     dance-single:
     Fred-104:
     Beginner:
     1:
     :
0000
0000
0000
0000
,
0000
0000
0000
0000
,
0000
0000
0000
0000
,
0000
0000
0000
0000
,
0000
0000
0000
0000
,
0001
0000
0000
0000
,
1000
0000
0000
0000
,
0001
0000
0000
0000
,
0000
0000
0000
0000
,
1000
0000
0000
0000
,
0001
0000
0000
0000
,
1000
0000
0000
0000
,
0000
0000
0000
0000
,
0001
0000
0000
0000
,
1000
0000
0000
0000
,
0001
0000
0000
0000
,
0100
0000
0000
0000
,
0001
0000
0000
0000
,
1000
0000
0000
0000
,
0100
0000
0000
0000
,
0010
0000
0000
0000
,
0001
0000
0000
0000
,
1000
0000
0000
0000
,
0010
0000
0000
0000
,
0000
0000
0000
0000
,
1000
0000
0000
0000
,
0001
0000
0000
0000
,
0010
0000
0000
0000
,
0000
0000
0000
0000
,
0001
0000
0000
0000
,
0000
0000
0000
0000
,
1000
0000
0000
0000
,
0000
0000
0000
0000
,
0001
0000
0000
0000
,
1000
0000
0000
0000
,
0001
0000
0000
0000
,
1000
0000
0000
0000
,
0100
0000
0000
0000
,
0000
0000
0000
0000
,
0010
0000
0000
0000
,
0001
0000
0000
0000
,
0001
0000
0000
0000
,
1000
0000
0000
0000
,
0001
0000
0000
0000
,
1000
0000
0000
0000
,
0010
0000
0000
0000
,
0100
0000
0000
0000
,
0001
0000
0000
0000
,
1000
0000
0000
0000
,
0001
0000
0000
0000
,
1000
0000
0000
0000
,
0100
0000
0000
0000
,
1000
0000
0000
0000
,
0001
0000
0000
0000
,
1000
0000
0000
0000
,
0001
0000
0000
0000
,
1000
0000
0000
0000
,
0002
0000
0000
0000
,
0003
0000
0000
0000
;

//--------------- dance-single - Fred-104 ----------------
#NOTES:
     dance-single:
     Fred-104:
     Easy:
     6:
     :
0000
0000
0000
0000
,
0000
0000
0000
0000
,
0000
0000
0000
0000
,
0000
0000
0000
0000
,
0000
0000
0000
0000
,
1000
0001
0200
0000
,
0301
1000
0200
0000
,
0310
0000
0001
0000
1000
0001
1000
0000
,
0001
1000
2002
3003
,
0001
0100
0020
0000
,
1030
0010
0200
0000
,
0301
0110
1000
0110
,
0001
1000
0010
1000
,
0002
0103
1000
0100
,
0001
1000
0002
0003
,
1000
0100
0001
0100
,
1000
0001
0100
0010
,
0100
0001
1000
0001
,
0010
1000
0010
0001
,
1000
0001
0100
0010
,
0100
0001
1001
0000
,
2000
3100
0001
0100
,
1000
0001
0020
0030
,
0001
0100
1000
0100
,
0001
1000
0020
0030
,
1000
1000
0100
0100
,
0001
0010
1000
0000
,
0001
0001
0100
0100
,
1000
0010
0001
1000
,
0002
0000
0000
0000
,
2003
0000
0000
0000
,
3002
0000
2003
0000
,
3100
0000
0010
0000
0001
0001
1000
1000
,
0001
0100
0110
0000
,
1000
0100
0110
0000
,
0001
0010
0011
0000
,
1000
0100
1100
0000
,
0001
0001
0010
0010
,
1000
1000
0100
0100
,
0001
1000
0001
1000
,
0001
1000
2002
3003
,
1000
0000
0100
0000
1000
1000
1000
0000
,
0001
0100
1000
0000
,
1000
0000
0100
0000
0001
1000
0001
0000
,
0100
0010
0100
0100
,
0001
0010
0100
1000
,
0001
1000
0010
0000
,
1000
0001
0010
0100
,
0010
0000
0001
0000
1000
0001
1000
0000
,
0002
2003
3100
0010
,
0001
0000
1000
0000
0001
1000
0001
0000
,
0100
0010
0100
0001
,
1000
0000
0100
0010
0100
0000
0000
0000
,
2000
3002
2003
3100
,
0010
0000
0100
1000
0100
0000
0000
0000
,
1000
0001
0100
0010
,
0100
0001
1000
0000
,
2002
0000
0000
0000
,
3003
0000
0000
0000
;

//--------------- dance-single - Fred-104 ----------------
#NOTES:
     dance-single:
     Fred-104:
     Medium:
     10:
     :
0000
0000
0000
0000
,
0000
0000
0000
0000
,
0000
0000
0000
0000
,
0000
0000
0000
0000
,
0000
0000
0000
0000
,
2000
0000
3001
1000
0020
0000
1030
0001
,
0010
0100
0010
0100
2000
0000
3001
1000
,
0001
0010
0001
1000
0001
0100
0010
1000
,
2002
3003
0220
0330
2002
0000
3003
0000
,
0002
0000
0103
1000
0200
0000
0000
0301
,
1000
0100
0010
0001
0020
0000
0031
0100
,
0010
1000
1100
0000
0010
0001
0101
0000
,
1000
0100
0110
0000
1001
0000
0001
1000
,
0002
0000
0013
0100
1000
1000
0001
0100
,
0010
0010
0100
0100
0001
1000
0001
0000
,
1001
0000
1000
0100
0001
0100
1000
0001
,
1000
0100
0010
0001
0100
0100
0010
0010
,
0110
0000
0100
0001
1000
0001
0010
0100
,
1000
0010
0001
0010
1000
0010
0001
0010
,
2000
0000
3001
0010
0100
1000
0001
0100
,
0010
0010
0100
0100
0001
1000
0001
1000
,
0020
0000
0130
0010
1000
0001
0010
0100
,
1000
0100
0001
0100
0010
0001
1000
1000
,
0001
0010
0110
0000
1000
0010
0110
0000
,
2002
3003
0220
0330
2002
0000
3003
0000
,
2000
0000
3010
1000
0200
0000
0310
0002
,
1003
0100
0001
0100
1000
0100
0001
0100
,
1000
0001
0011
0000
0001
1000
1010
0000
,
1000
0100
0001
0100
2000
0000
3001
1000
,
0002
0010
0010
0013
,
2000
0010
0010
3010
,
0002
0103
2000
3100
,
0001
0000
1000
0000
0001
0011
1000
1010
,
0001
0010
0210
1300
0001
0100
0110
0000
,
1000
0100
0120
0031
1000
0010
0110
0000
,
0001
0010
0011
0001
1000
0100
0110
0000
,
1000
0010
1010
1000
0001
0100
0110
0000
,
0001
0010
1000
0100
,
0001
0010
1000
0100
,
0001
0010
1000
0100
,
0002
0000
2003
0000
3001
0100
0010
1000
,
1001
0000
1000
0100
0100
0010
0020
0032
,
1003
0001
0100
0010
0100
0001
1000
0000
,
0001
0000
1000
0001
0100
1000
0100
0010
,
0100
0001
0100
0001
1000
0100
0010
0001
,
2000
0000
3001
0100
0001
0010
0100
0010
,
0001
0100
1000
0100
0001
1000
0001
0000
,
1001
0000
1000
0001
0100
0010
0100
0001
,
1000
0100
0010
0001
0100
0010
1000
0001
,
1000
1100
0001
0100
0001
1000
0100
0000
,
0010
0011
0001
1000
0001
0100
0010
0000
,
0100
0110
0100
0001
1000
0001
0010
0000
,
0001
1001
1000
0010
0100
0001
1000
0100
,
1000
1000
0001
0001
0100
0010
0100
0001
,
1000
1000
0001
0001
0010
0100
0010
0001
,
0100
0100
0010
0010
0100
0001
1000
0001
,
0010
0010
0100
0100
1000
0001
1000
0000
,
0001
0110
1000
2002
,
3003
0000
0000
0000
;

//--------------- dance-single - Fred-104 ----------------
#NOTES:
     dance-single:
     Fred-104:
     Hard:
     15:
     :
0000
0000
0000
0000
,
0000
0000
0000
0000
,
0000
0000
0000
0000
,
0000
0000
0000
0000
,
0000
0000
0000
0000
,
2000
0000
0000
0000
0000
0000
3001
0000
0100
0001
0000
0100
0002
0000
0000
0000
0000
0000
0000
0000
0000
1003
0000
0000
,
0001
0000
0000
0010
0000
0000
0100
0000
0000
1000
0000
0000
0002
0000
0000
0000
0000
0000
1003
0000
0000
0001
0000
1000
,
0010
0100
0001
1000
0100
0010
0001
1000
,
2020
3030
0202
0303
2002
0000
3003
0000
,
2000
0000
0000
0000
0000
0000
3001
0000
0010
0001
0000
0010
0200
0000
0000
0000
0000
0000
0000
0000
0000
1300
0000
0000
,
0010
0000
0000
0100
0000
0000
1000
0000
0000
0100
0000
0000
0020
0000
0000
0000
0000
0000
0130
0000
0000
0001
0000
0010
,
0100
1000
0110
0001
1000
0001
0110
1000
,
0001
0000
0000
1000
0000
0000
0110
0000
0000
0001
0000
0000
2000
0000
0000
0000
0000
0000
3010
0000
1000
0001
0000
1000
,
0200
0000
0000
0000
0000
0000
0310
0000
0001
1000
0000
0001
0000
0000
0100
0000
0000
0010
0200
0000
0000
0302
0000
0000
,
1003
0000
0100
1000
0000
0001
1000
0010
1000
0001
0000
0010
0100
0000
1000
0000
0000
0001
1000
0000
1000
0001
0000
1000
,
0020
0000
0000
0000
0000
0000
0130
0001
0100
0001
0000
1000
0000
0000
0001
0010
0000
0000
0100
1000
0100
1000
0000
0001
,
2000
0000
0000
0010
0000
0000
3002
0000
0000
0100
0000
0000
1003
0000
1000
0100
0000
0100
0010
0000
0010
0001
0000
0001
,
2000
0000
0000
0000
0000
0000
3001
1000
0010
1000
0000
0001
0000
0000
0010
0000
0000
0100
1000
0001
0100
0001
0000
1000
,
0002
0000
0000
0010
0000
0000
2003
0000
0000
0100
0000
0000
3001
0000
0001
0100
0000
0100
0010
0000
0010
1000
0000
1000
,
0002
0000
0000
0000
0000
0000
1003
0010
1000
0001
0000
1000
0002
0000
0000
0023
0000
0000
0230
0000
0000
0320
0000
0000
,
0031
0000
0100
0001
0000
1000
0001
1000
0100
1000
0000
0001
0100
0000
0100
0010
0000
0010
1000
0000
1000
0001
0000
0001
,
2000
0000
0000
0000
0000
0000
3100
0000
0010
0001
0000
1000
0010
0000
0000
1000
0000
0000
0001
0000
0000
2000
0000
0000
,
3001
0000
0010
0200
0000
0000
1300
0000
0010
0200
0000
0000
0301
0000
1000
0001
0000
0100
0010
0000
1000
0001
0000
0001
,
0010
0001
1002
0103
1000
0001
0201
0310
,
2200
3300
0202
0303
2002
0000
3003
0000
,
1002
0000
0000
0000
0000
0000
0103
0000
0001
1000
0000
0100
0010
0000
0000
0001
0000
0000
1000
0000
0000
0002
0000
0000
,
1003
0000
0100
0020
0000
0000
0031
0000
0100
0020
0000
0000
1030
0000
1000
0001
0000
0001
0010
0000
0010
0100
0000
1000
,
0001
0000
0000
1000
0000
0001
0100
0000
0000
0010
0000
0000
1000
0000
0000
0100
0000
0010
0001
0000
1000
0001
0000
0100
,
0010
0000
0000
1000
0000
0000
0001
0000
0000
0010
0000
0000
0220
0000
0000
0330
0000
0000
1000
0000
0001
1000
0000
0001
,
2000
3200
2300
3200
,
0302
0023
0032
0023
,
2030
3200
0302
0023
,
2030
0000
3002
0000
1003
1100
0001
0101
,
1000
0100
0120
0031
1000
0001
0201
0310
,
1000
0001
0021
0130
1000
0001
2010
3001
,
0100
0010
2001
3001
1000
0010
2100
3001
,
0100
0001
0021
0130
1000
0010
0001
0100
,
1000
0001
1000
0001
,
1000
0100
0010
0001
0000
0000
1000
0010
0100
0001
0000
0000
,
1000
0100
0001
1000
0010
0001
1000
0010
0100
0001
0000
0000
,
1001
0000
0000
0000
0000
0000
0110
0000
0000
0000
0000
0000
1100
0000
1000
0100
0000
0100
0001
0000
0001
0100
0000
0100
,
1000
0000
0000
0001
0000
0000
1000
0001
0010
0001
0000
1000
0000
0000
0010
0100
0000
0001
0020
0000
0000
0230
0000
0000
,
1300
0000
0001
1000
0000
0010
0100
0001
0100
0010
0000
1000
0001
0000
0001
0010
0000
0010
0100
0000
0100
1000
0000
1000
,
0001
0000
0000
1000
0000
0000
0001
0100
0001
1000
0000
0100
0000
0000
0010
0002
0000
0000
1003
0000
0001
0100
0000
0001
,
2000
0000
0000
3200
0000
0000
0320
0000
0000
0032
0000
0000
1003
0000
1000
0010
0000
0010
0100
0000
0100
0001
0000
0001
,
1000
0000
0000
0100
0000
0000
0010
1000
0010
1000
0000
0010
0000
0000
0100
2000
0000
0000
3001
0100
0001
1000
0000
0001
,
2000
0000
0000
3200
0000
0000
0302
0000
0000
0203
0000
0000
1300
0000
0100
1000
0000
0001
1000
0000
0010
1000
0000
0001
,
0010
0000
0000
0100
0000
0000
1000
0001
0100
0001
0000
1000
0002
0000
0000
0203
0000
0000
2300
0000
0000
3020
0000
0000
,
0031
0000
0100
0001
0000
1000
0001
0010
0100
0010
0000
0001
1000
0000
1000
0010
0000
0010
0100
0000
0100
0001
1000
0100
,
1000
0100
0010
0001
0000
0000
1000
0001
0100
0001
1000
0001
0010
0000
0010
0100
0000
0100
1000
0000
1000
0001
0000
0001
,
0200
0000
0000
0320
0000
0000
0130
0000
0001
1000
0000
0001
0010
0000
0010
0100
0000
0100
1000
0000
1000
0001
0000
0001
,
0100
0000
0000
0110
0000
0000
0010
1000
0001
1000
0000
0100
1000
0000
0001
0200
0000
0000
0301
0000
1000
0200
0000
0000
,
0310
0000
0000
1001
0000
0000
0001
0100
0010
1000
0000
0001
0010
0000
0010
1000
0000
1000
0010
0000
0010
0001
0000
1000
,
0010
0000
0000
1001
0000
0000
0001
0100
0001
0100
0000
0010
0001
0000
0010
0100
0000
0001
2000
0000
0000
3002
0000
0000
,
1003
0000
0100
1000
0000
0001
1000
0010
0100
0001
0000
1000
0100
0000
0100
0001
0000
0001
0100
0000
0100
1000
0000
0001
,
1000
0000
0000
1001
0000
0000
1000
0100
1000
0100
0000
0010
1000
0000
0010
0100
0000
1000
0001
0100
0001
1000
0000
0001
,
0010
0000
0000
0110
0000
0000
1000
0000
0001
0100
0000
0001
1000
0000
0100
0010
0000
0001
1000
0000
0010
0100
0000
0001
,
1000
0000
0000
0000
0000
0000
0110
0000
0000
0000
0000
0000
0001
0000
0000
1000
0000
0000
0100
0000
0000
0000
0000
2002
,
3003
0000
0000
0000
;

//--------------- dance-double - Fred-104 ----------------
#NOTES:
     dance-double:
     Fred-104:
     Easy:
     6:
     :
00000000
00000000
00000000
00000000
,
00000000
00000000
00000000
00000000
,
00000000
00000000
00000000
00000000
,
00000000
00000000
00000000
00000000
,
00000000
00000000
00000000
00000000
,
00010000
10000000
00020000
00000000
,
10030000
01000000
00200000
00000000
,
00310000
00100000
00001000
00010000
,
00000010
00001000
00002002
00003003
,
00000001
00000100
00002000
00000000
,
00013000
00100000
02000000
00000000
,
03010000
10000000
00100000
00010000
,
00001000
00010000
00100000
01000000
,
00020000
10030000
01000000
00100000
,
00001000
00010000
00002000
00003000
,
00010000
00001000
00000100
00000010
,
00001000
00000001
00000100
00000000
,
00000001
00001000
00000010
00010000
,
00001000
00100000
00001000
00000000
,
00100000
00010000
10000000
01000000
,
00100000
01000000
10000000
00000000
,
20000000
31000000
10000000
00010000
,
01000000
00001000
00020000
00030000
,
00010000
00001000
00000010
00000100
,
00010000
00001000
00020000
00030000
,
00001000
00010000
00100000
01000000
,
00001000
00010000
00002000
00003000
,
00010000
00001000
00010000
00100000
,
01000000
00001000
00010000
00100000
,
20000000
00000000
00000000
00000000
,
32000000
00000000
00000000
00000000
,
03200000
00000000
00302000
00000000
,
00013000
00000000
00001000
00000000
00010000
00010000
00001000
00001000
,
00010000
00001000
00000100
00000001
,
00001000
00000100
00000110
00000000
,
00000001
00000100
00001000
00010000
,
00100000
01000000
10010000
00000000
,
10000000
10000000
01000000
01000000
,
00100000
00100000
00001000
00001000
,
00010000
00010000
00000100
00000100
,
00001000
00000001
00002002
00003003
,
00000001
00000000
00001000
00000000
00000100
00000100
00000100
00000000
,
00000010
00000001
00001000
00000000
,
00000010
00000000
00010000
00000000
00001000
00010000
00001000
00000000
,
00100000
00010000
10000000
01000000
,
10000000
00100000
01000000
00010000
,
01000000
00100000
01000000
00000000
,
00010000
00100000
00010000
00100000
,
00001000
00000000
00010000
00000000
00001000
00010000
00001000
00000000
,
00020000
00030020
00010030
00001000
,
00010000
00000000
00000100
00000000
00001000
00000100
00001000
00000000
,
00000001
00000100
00001000
00010000
,
00001000
00100000
01000000
00000000
,
20000000
30200000
20300000
30010000
,
01000000
00001000
00010000
00000000
,
00010000
00001000
00000100
00000001
,
00001000
00000000
00000100
00000000
00000010
00000001
00000010
00000000
,
00002002
00000000
00000000
00000000
,
00003003
00000000
00000000
00000000
;

//--------------- dance-double - Fred-104 ----------------
#NOTES:
     dance-double:
     Fred-104:
     Medium:
     10:
     :
00000000
00000000
00000000
00000000
,
00000000
00000000
00000000
00000000
,
00000000
00000000
00000000
00000000
,
00000000
00000000
00000000
00000000
,
00000000
00000000
00000000
00000000
,
00000001
00000000
00000100
00000010
00002000
00000000
00003001
00000010
,
00001000
00010000
01000000
00100000
02000000
00000000
13000000
00010000
,
10000000
01000000
00100000
00010000
00100000
00001000
00010000
00001000
,
00022000
00033000
00202000
00303000
00022000
00000000
00033000
00000000
,
00020000
00000000
00031000
00000100
00000020
00000000
00000000
00010030
,
00001000
00000100
00000001
00001000
00000200
00000000
00000310
00000001
,
00000100
00001000
00011000
00000000
00010000
00001000
00101000
00000000
,
00001000
00010000
00010010
00000000
00011000
00000000
00001000
00010000
,
02000000
00000000
03100000
01000000
10000000
00010000
01000000
00010000
,
10000000
10000000
01000000
01000000
00100000
00001000
00010000
00000000
,
00011000
00000000
00010000
00001000
00000100
00001000
00010000
00000100
,
00010000
00001000
00000010
00000100
00001000
00001000
00000001
00000001
,
00001001
00000000
00000001
00000100
00000010
00000100
00001000
00010000
,
00100000
01000000
00100000
10000000
01000000
00100000
00010000
01000000
,
00002000
00000000
00013000
00001000
00000100
00000010
00010000
00001000
,
00000100
00000001
00000010
00000100
00001000
00000100
00010000
00001000
,
00200000
00000000
00301000
00010000
00100000
01000000
00001000
00010000
,
00100000
10000000
00010000
01000000
00100000
10000000
01000000
00100000
,
00001000
00010000
00011000
00000000
00010000
00000010
00001010
00000000
,
00022000
00033000
00020200
00030300
00002002
00000000
00003003
00000000
,
00020000
00000000
00031000
00000010
00000200
00000000
00010300
00002000
,
00013000
00001000
00000100
00001000
00010000
00001000
00000010
00001000
,
00010000
00001000
00011000
00000000
01000000
00100000
01100000
00000000
,
10000000
01000000
00010000
00001000
00020000
00000000
01030000
10000000
,
00020000
00100000
00001000
00130000
,
00002000
00010000
00000010
00013000
,
00002000
00013000
02000000
03100000
,
00001000
00000000
00010000
00000000
00001000
00101000
00010000
00010010
,
00001000
00010000
00011000
00100000
01000000
10000000
10010000
00000000
,
10000000
01000000
01100000
00010000
00100000
00001000
00011000
00000000
,
00010000
00001000
01001000
01000000
00001000
00010000
00010100
00000000
,
00010000
00001000
00011000
00010000
00000010
00000100
00000110
00000000
,
00000001
00000100
00001000
00010000
,
00100000
10000000
01000000
00010000
,
00001000
00000010
00000001
00001000
,
00000020
00000000
00020030
00000000
00031000
00010000
00100000
10000000
,
10010000
00000000
01000000
00100000
00100000
00001000
00002000
00023000
,
00031000
00000010
00000001
00000100
00001000
00010000
00001000
00000000
,
00010000
00000000
00001000
00010000
00100000
00010000
00001000
00100000
,
00001000
00010000
01000000
00010000
00001000
01000000
00001000
00010000
,
00002000
00000000
00013000
00001000
00000100
00000010
00001000
00000001
,
00000100
00000010
00000100
00001000
00010000
00001000
00010000
00000000
,
00011000
00000000
00001000
00010000
01000000
00100000
00010000
01000000
,
00001000
00100000
00010000
00100000
00001000
00010000
00100000
01000000
,
00010000
01010000
01000000
00100000
10000000
01000000
00100000
00000000
,
00100000
00110000
00010000
00100000
00001000
00010000
00000010
00000000
,
00001000
00001100
00000001
00000100
00000010
00001000
00000100
00000000
,
00010000
00011000
00001000
00010000
00100000
01000000
00010000
10000000
,
01000000
01000000
00100000
00100000
00001000
00010000
00100000
00000000
,
10000000
10000000
00010000
00010000
01000000
00001000
00010000
00000000
,
00001000
00001000
00010000
00010000
00000010
00001000
00000100
00000000
,
00001000
00001000
00000001
00000001
00000100
00001000
00010000
00001000
,
00010000
01100000
10000000
20020000
,
30030000
00000000
00000000
00000000
;

//--------------- dance-double - Fred-104 ----------------
#NOTES:
     dance-double:
     Fred-104:
     Hard:
     15:
     :
00000000
00000000
00000000
00000000
,
00000000
00000000
00000000
00000000
,
00000000
00000000
00000000
00000000
,
00000000
00000000
00000000
00000000
,
00000000
00000000
00000000
00000000
,
00002000
00000000
00000000
00000000
00000000
00000000
00013000
00000000
00000100
00010000
00000000
00000100
00020000
00000000
00000000
00000000
00000000
00000000
00000000
00000000
00000000
00031000
00000000
00000000
,
00010000
00000000
00000000
00100000
00000000
00000000
01000000
00000000
00000000
00010000
00000000
00000000
20000000
00000000
00000000
00000000
00000000
00000000
31000000
00000000
00000000
00100000
00000000
00100000
,
00010000
01000000
00001000
00000100
00000010
00001000
00000001
00000010
,
00000220
00000330
00022000
00033000
02200000
00000000
03300000
00000000
,
20000000
00000000
00000000
00000000
00000000
00000000
30100000
00000000
01000000
00010000
00000000
01000000
00002000
00000000
00000000
00000000
00000000
00000000
00000000
00000000
00003000
00010000
00000000
00000000
,
00001000
00000000
00000000
00000100
00000000
00000000
00000001
00000000
00000000
00001000
00000000
00000000
00000020
00000000
00000000
00000000
00000000
00000000
00000130
00000000
00000000
00000001
00000000
00000010
,
00000100
00001000
00000010
00000100
00001000
00010000
00100000
01000000
,
00001000
00000000
00000000
00010000
00000000
00000000
00100000
00000000
00000000
10000000
00000000
00000000
02000000
00000000
00000000
00000000
00000000
00000000
03100000
00000000
00100000
00001000
00000000
00010000
,
00002000
00000000
00000000
00000000
00000000
00000000
00013000
00000000
00000010
00001000
00000000
00000010
00000000
00000000
00000100
00000000
00000000
00000001
00002000
00000000
00000000
00003200
00000000
00000000
,
00001300
00000000
00000001
00000010
00000000
00000001
00001000
00000001
00000100
00000001
00000000
00000010
00000100
00000000
00010000
00000000
00000000
00001000
00010000
00000000
00001000
00010000
00000000
00010000
,
00002000
00000000
00000000
00000000
00000000
00000000
00103000
00010000
00100000
00010000
00000000
10000000
00000000
00000000
00100000
01000000
00000000
00000000
00010000
10000000
01000000
00100000
00000000
00001000
,
00020000
00000000
00000000
00030200
00000000
00000000
00002300
00000000
00000000
00003002
00000000
00000000
00000013
00000000
00000001
00001000
00000000
00000010
00010000
00000000
00000000
00001000
00000000
00000000
,
00020000
00000000
00000000
00000000
00000000
00000000
00031000
00010000
00001000
01000000
00000000
00010000
00000000
00000000
10000000
00000000
00000000
01000000
00100000
00010000
10000000
00010000
00000000
00100000
,
00002000
00000000
00000000
00023000
00000000
00030000
00002000
00000000
00000000
00023000
00000000
00000000
00031000
00000000
00001000
00010000
00000000
00010000
01000000
00000000
01000000
00100000
00000000
00100000
,
00020000
00000000
00000000
00000000
00000000
00000000
10030000
00010000
01000000
00010000
00000000
00010000
00200000
00000000
00000000
00302000
00000000
00000000
00023000
00000000
00000000
00030020
00000000
00000000
,
00001030
00000000
00001000
00000100
00000000
00000100
00000010
00000001
00001000
00000001
00000000
00000001
00000100
00000000
00000100
00001000
00000000
00001000
00010000
00000000
00010000
00001000
00000000
00000000
,
00021000
00000000
00000000
00000000
00000000
00000000
00031000
00000000
00100000
00010000
00000000
10000000
00010000
00000000
00000000
00100000
00000000
00000000
01000000
00000000
00000000
20000000
00000000
00000000
,
30010000
00000000
01000000
00100000
00000000
00000000
00010000
00000000
00001000
00010000
00000000
00000000
00001000
00000000
00100000
00001000
00000000
00001000
00010000
00000000
00010000
00000010
00000000
00001000
,
00000001
00000100
00010000
01000000
00010000
00100000
01000000
00100000
,
02200000
03300000
00022000
00033000
00000220
00000000
00000330
00000000
,
00002000
00000000
00000000
00000000
00000000
00000000
00003001
00000000
00000010
00000001
00000000
00000001
00001000
00000000
00000000
00000100
00000000
00000000
00010000
00000000
00000000
00002000
00000000
00000000
,
00013000
00000000
00001000
00000010
00000000
00000000
00001000
00000000
00010000
00100000
00000000
00000000
00010000
00000000
00001000
00010000
00000000
00000010
00010000
00000000
00001000
00010000
00000000
00010000
,
00001000
00000000
00000000
00010000
00000000
00000000
01000000
00000000
01000000
00100000
00000000
00100000
00010000
00000000
00000000
10000000
00000000
00000000
01000000
00000000
01000000
00010000
00000000
00010000
,
00001000
00000000
00000000
00010000
00000000
00000000
00001000
00000000
00000100
00000010
00000000
00000000
00000220
00000000
00000000
00000330
00000000
00000000
00001000
00000000
00000001
00000100
00000000
00000001
,
00002000
00003002
00000023
00002030
,
00023000
02030000
23000000
30200000
,
00320000
00032000
00003200
00000302
,
00002003
00000000
00003002
00000000
00001003
00000110
00000001
00000110
,
00001000
00000001
00000100
00001000
00010000
00100000
01000000
00001000
,
00010000
01000000
10000000
00010000
01000000
00100000
00010000
00001000
,
00000100
00000010
00010000
00001000
00000010
00000001
00000010
00001000
,
00010000
00001000
00000100
00000010
00001000
00000001
00000010
00010000
,
00200000
02300000
23000000
30020000
,
10030000
01000000
00100000
00001000
00000000
00000000
00010000
00000100
00000010
00000001
00000000
00000000
,
00001000
00000001
00000100
00001000
00010000
00100000
10000000
00000000
00000000
10010000
00000000
00000000
,
11000000
00000000
00000000
00000000
00000000
00000000
01010000
00000000
00000000
00000000
00000000
00000000
00100000
00000000
00100000
00001000
00000000
00001000
00010000
00000000
00010000
00000010
00000000
00000010
,
00001000
00000000
00000000
00000001
00000000
00000000
00001000
00000100
00001000
00000001
00000000
00000010
00000000
00000000
00000100
00010000
00000000
00001000
00020000
00000000
00000000
00230000
00000000
00000000
,
10300000
00000000
10000000
01000000
00000000
01000000
00100000
00010000
00100000
00001000
00000000
00001000
00010000
00000000
00010000
00000010
00000000
00000010
00001000
00000000
00000010
00000100
00000000
00000001
,
00000010
00000000
00000000
00000100
00000000
00000000
00010000
00001000
00010000
00001000
00000000
00010000
00000000
00000000
00100000
02000000
00000000
00000000
03100000
00000000
10000000
00010000
00000000
00100000
,
02000000
00000000
00000000
23000000
00000000
00000000
30200000
00000000
00000000
00320000
00000000
00000000
00031000
00000000
00001000
00010000
00000000
00010000
00100000
00000000
00100000
01000000
00000000
01000000
,
00010000
00000000
00000000
10000000
00000000
00000000
01000000
00100000
01000000
00100000
00000000
00001000
00000000
00000000
00010000
00002000
00000000
00000000
00013000
00001000
00010000
00000010
00000000
00001000
,
00000020
00000000
00000000
00000230
00000000
00000000
00002300
00000000
00000000
00023000
00000000
00000000
00031000
00000000
00010000
01000000
00000000
10000000
00010000
00000000
01000000
00100000
00000000
01000000
,
00010000
00000000
00000000
10000000
00000000
00000000
00100000
10000000
00010000
10000000
00000000
01000000
00200000
00000000
00000000
00302000
00000000
00000000
00003020
00000000
00000000
00000230
00000000
00000000
,
00001300
00000000
00000010
00000100
00000000
00000001
00001000
00000000
00000100
00000010
00000000
00000001
00001000
00000000
00000100
00010000
00000000
00001000
00100000
00010000
10000000
00010000
01000000
00010000
,
10000000
01000000
00100000
00010000
00000000
00000000
00100000
00001000
00010000
00001000
00000000
00000010
00000100
00000000
00000100
00001000
00000000
00001000
00000001
00000000
00000001
00000100
00000000
00000100
,
00000020
00000000
00000000
00000230
00000000
00000000
00000301
00000000
00000100
00000010
00000000
00000100
00001000
00000000
00010000
00100000
00000000
01000000
00010000
00000000
00100000
01000000
00000000
10000000
,
00010000
00000000
00000000
01000000
00000000
00001000
00010000
00001000
00100000
00001000
00000000
00010000
00000100
00000000
00001000
00000020
00000000
00000000
00000130
00000000
00000001
00000020
00000000
00000000
,
00000130
00000000
00000000
00001000
00000000
00000100
00010000
00000000
00001000
00010000
00000000
00001000
01000000
00000000
01000000
00010000
00000000
00010000
00100000
00000000
00100000
01000000
00000000
01000000
,
10000000
00000000
00000000
00100000
00000000
00100000
01000000
00010000
10000000
01000000
00000000
00100000
00001000
00000000
00010000
00001000
00000000
00000100
00000020
00000000
00000000
00020030
00000000
00000000
,
00031000
00000000
00010000
00001000
00000000
00010000
00000010
00001000
00000010
00000100
00000000
00000001
00001000
00000000
00000100
00000010
00000000
00000001
00000100
00000000
00001000
00010000
00000000
00010000
,
00001000
00000000
00000000
00101000
00000000
00000000
00100000
00010000
10000000
00010000
00000000
00100000
01000000
00000000
00010000
00002000
00000000
00000000
00003010
00000000
00000100
00001000
00000000
00000010
,
00010000
00000000
00000000
00011000
00000000
00000000
00001000
00000000
00001000
00100000
00000000
00100000
00010000
00000000
00010000
10000000
00000000
10000000
01000000
00000000
01000000
00010000
00000000
00010000
,
00002000
00000000
00000000
00000000
00000000
00000000
00010000
00000000
00000000
00000000
00000000
00000000
00000010
00000000
00000000
00000000
00000000
00000000
00013000
00000000
00000000
00000000
00000000
00022000
,
00033000
00000000
00000000
00000000
;
