#TITLE:refrain;
#ARTIST:dj TAKA feat.AiMEE;
#GENRE:TRANCE;
#BANNER:refrain.png;
#BACKGROUND:refrain-bg.png;
#CDTITLE:./CDTitles/RB groovin'!!.png;
#MUSIC:refrain.ogg;
#SAMPLESTART:63.777;
#SAMPLELENGTH:15;
#BPMS:0=158;

//--------------- dance-single - Fred-104 ----------------
#NOTES:
     dance-single:
     Fred-104:
     Beginner:
     3:
     :
0000
0000
0000
0000
,
0000
0000
0000
0000
,
0000
0000
0000
0000
,
0000
0000
0000
0000
,
0000
0000
0000
0000
,
0000
0000
0000
0000
,
1000
0000
0000
0000
,
0001
0000
0000
0000
,
1000
0000
0000
0000
,
1001
0000
0000
0000
,
1000
1000
1000
0000
,
0001
0000
1000
0000
,
0010
0000
0100
0000
,
0001
0000
1000
0000
,
0001
0001
0001
0000
,
1000
0000
0001
0000
,
1000
0000
0001
0000
,
1001
0000
0000
0000
,
0001
0001
0001
0000
,
1000
0000
0001
0000
,
0010
0000
0100
0000
,
1000
0000
0001
0000
,
1000
1000
1000
0000
,
0001
0000
1000
0000
,
0001
0000
1000
0000
,
1001
0000
0000
0000
,
1000
0000
1000
0000
,
0001
0000
0000
0000
,
1000
0000
0010
0000
,
0010
0000
0000
0000
,
1000
0000
0001
0000
,
0001
0000
0000
0000
,
0100
0000
0010
0000
,
0100
0100
0100
0000
,
0000
0010
0000
0010
,
0000
0010
0000
0010
,
0000
0100
0000
0100
,
0000
0100
0000
0001
,
0000
1000
0000
1000
,
0000
0001
0000
1000
,
0000
1000
0000
0001
,
0001
0000
0001
0000
,
2000
0000
0000
0000
,
0000
0000
3000
0000
,
0002
0000
0000
0000
,
0000
0000
0003
0000
,
2000
0000
0000
0000
,
0000
0000
3000
0000
,
0002
0000
0000
0000
,
0000
0000
0003
0000
,
1000
0000
0000
0000
,
0001
0000
0000
0000
,
0100
0000
0000
0000
,
0010
0000
0000
0000
,
1000
0000
1000
0000
,
0001
0000
0001
0000
,
0100
0100
0100
0000
,
1001
0000
0000
0000
,
1001
0000
0001
0000
,
1000
1000
1000
0000
,
0001
0000
1000
0000
,
0010
0000
0100
0000
,
0001
0000
1000
0000
,
0001
0000
0010
0000
,
0001
0000
1000
0000
,
0001
0001
0001
0000
,
1001
0000
1000
0000
,
0001
0001
0001
0000
,
0010
0000
0001
0000
,
1000
0000
0100
0000
,
1000
0000
0001
0000
,
0001
0000
1000
0000
,
0001
0000
1000
0000
,
0001
0001
1001
0000
,
2002
0000
0000
0000
,
3003
0000
0000
0000
;

//--------------- dance-single - Fred-104 ----------------
#NOTES:
     dance-single:
     Fred-104:
     Easy:
     8:
     :
0000
0000
0000
0000
,
0000
0000
0000
0000
,
0000
0000
0000
0000
,
0000
0000
0000
0000
,
0000
0000
0000
0000
,
0000
0000
0000
0000
,
1000
0000
0000
0001
0000
0000
0000
0000
,
0001
0000
0000
1000
0000
0000
0000
0000
,
2000
3002
2003
3001
,
1001
0000
0000
0000
,
0001
0000
0010
0000
,
1000
0000
0100
0001
,
1000
0000
0001
0000
,
0100
0010
0100
0000
,
0001
0010
0001
0000
1000
0100
1000
0000
,
0001
0100
0001
0000
1000
0010
1000
0000
,
0002
0000
2003
0000
,
3001
0100
0010
1000
,
1000
0000
0010
0000
,
0001
0000
0100
1000
,
0001
0000
1000
0000
,
0100
0010
0100
0000
,
1000
0010
1000
0000
0001
0100
0001
0000
,
1000
0100
1000
0000
0001
0010
0001
0000
,
2000
0000
3002
0000
,
1003
0100
0010
0001
,
0002
0010
0000
0013
,
2000
0100
0000
3100
,
0002
1000
0000
1003
,
0200
0010
0000
0310
,
0001
0010
0001
1000
,
0100
0010
0001
1000
,
0010
0100
0010
1000
,
0001
0000
0100
0000
0010
0100
0010
0000
,
1000
1001
0000
0110
,
0000
1001
0001
0100
,
0001
1001
0000
0110
,
0000
1001
1000
0010
,
1000
0001
0100
0010
,
0100
0010
0100
0001
,
1000
1000
0001
0001
,
0100
0000
0010
0000
0100
0100
0100
0000
,
2002
0000
0000
3003
,
0220
0000
0000
0330
,
2002
0000
0000
3003
,
0220
0000
0000
0330
,
2000
0000
0000
0000
,
3020
0000
0000
0000
,
0230
0000
0000
0000
,
0302
0000
0000
0003
,
1001
0000
0100
0000
,
0010
0000
0001
0000
,
1000
0000
0010
0000
,
0100
0000
0001
0000
,
1000
1000
0010
0100
,
0001
0010
0100
0010
,
0002
1003
2000
3001
,
1001
0000
0000
0000
,
0001
0001
1000
0100
,
0010
0001
1000
0010
,
0200
0310
0200
0310
,
1000
0100
0010
0001
,
2000
3002
0203
0320
,
1030
0000
0100
0000
1000
0001
1000
0000
,
0001
0010
0100
1000
,
0001
0000
0100
0000
0010
0010
0010
0000
,
1000
1000
0001
0100
,
0010
1000
0001
0010
,
0200
0310
0200
0310
,
0001
0100
0010
1000
,
0002
2003
3200
0320
,
0031
0000
0100
0000
0001
1000
0001
0000
,
1000
0010
0100
0001
,
1000
0000
0100
0000
0010
0010
0010
0000
,
2002
0000
0000
0000
,
3003
0000
0000
0000
;

//--------------- dance-single - Fred-104 ----------------
#NOTES:
     dance-single:
     Fred-104:
     Medium:
     12:
     :
0000
0000
0000
0000
,
0000
0000
0000
0000
,
0000
0000
0000
0000
,
0000
0000
0000
0000
,
0000
0000
0000
0000
,
0000
0000
0000
0000
,
1000
0000
0100
0000
1000
0000
0010
0000
0100
0010
0000
0010
0100
0000
0001
0000
,
1000
0000
0001
0000
0010
0000
0100
0000
0010
0001
0000
0001
1000
0000
0010
0000
,
0100
0000
0000
0100
0010
0000
0000
0010
1000
0000
0000
1000
0001
0000
1000
0000
,
1001
0000
0000
0000
,
1000
0000
0000
0100
0000
0000
1000
0000
0001
0000
0000
0100
0000
0000
0001
0000
,
1000
0000
0000
0010
0000
0000
1000
0000
0001
0000
0010
0000
0100
0000
1000
0000
,
0001
0100
0100
0010
0100
0100
0001
1000
,
0100
0000
1000
0000
0010
0000
0000
0100
0000
0000
0010
0000
1000
0000
0000
0000
,
0001
0000
0010
0001
0010
0000
0001
0000
1000
0000
0010
1000
0010
0000
0100
0000
,
0001
0010
0001
1000
0010
0100
0001
0000
,
1000
0100
0020
0000
1030
0010
0200
0000
,
1300
0010
0001
1000
0100
0001
2000
0000
,
3001
0000
0000
0100
0000
0000
0001
0000
1000
0000
0000
0100
0000
0000
1000
0000
,
0001
0000
0000
0010
0000
0000
0001
0000
1000
0000
0010
0000
0100
0000
0001
0000
,
1000
0100
0100
0010
0100
0100
1000
0001
,
0100
0000
0001
0000
0010
0000
0000
0100
0000
0000
0010
0000
0001
0000
0000
0000
,
1000
0000
0010
1000
0010
0000
1000
0000
0001
0000
0010
0001
0010
0000
0100
0000
,
1000
0010
1000
0001
0010
0100
1000
0000
,
0001
0100
0020
0000
0031
0010
0200
0000
,
0301
0010
1000
0001
0100
1000
0002
0000
,
1003
0000
0000
1000
0100
0000
0000
0100
0010
0000
0000
0010
0001
0000
0000
0000
,
0001
0000
0000
0001
0100
0000
0000
0100
0010
0000
0000
0010
1000
0000
0000
0000
,
0001
0000
0000
0001
0010
0000
0000
0010
0100
0000
0000
0100
1000
0000
0000
0000
,
1000
0000
0000
1000
0010
0000
0000
0010
0100
0000
0001
0000
1000
0000
0000
0000
,
0001
0010
0001
0010
0000
0100
0010
0100
,
0000
1000
0100
1000
0001
1000
0100
0010
,
0001
0000
0100
0100
0000
0001
0000
1000
,
0002
2003
3020
0230
,
0301
0101
1000
1100
,
0001
0100
0010
1000
0010
0100
0001
0000
,
1000
0100
0020
0000
1030
0010
0200
0000
,
1300
0001
0010
0100
0010
0001
0100
0000
,
0001
0010
0001
1000
0010
1000
0100
0000
,
0010
0001
1000
0010
0000
0100
0000
0100
,
0000
0010
1000
0001
0000
1000
0001
0100
,
0001
0010
0001
1000
,
2002
0000
0000
3000
,
0200
0000
0000
0003
,
0020
0000
0000
0300
,
2000
0000
0000
3030
,
0202
0000
0000
0303
,
2200
0000
0000
3300
,
0022
0000
0000
0033
,
2020
0000
0000
3030
,
0001
0000
0000
0010
0000
0000
0001
0000
,
1000
0000
0100
0100
0000
0000
0000
0000
,
1000
0000
0000
0010
0000
0000
1000
0000
,
0001
0000
0100
0100
0000
0000
0000
0000
,
0001
0000
0010
0000
0001
0000
1000
0000
0010
1000
0000
1000
0010
0000
0100
0000
,
0001
0000
1000
0000
0100
0000
0010
0000
0100
0010
0000
0010
0100
0000
1000
0000
,
0001
0000
0000
1000
0100
0000
0000
0100
0010
0000
0000
0010
0001
0000
1000
0000
,
1001
0000
0000
0000
,
0001
0010
0001
1000
0010
0100
0010
1000
,
0001
0000
0000
0001
0000
0000
0001
0000
0100
0000
0010
0000
1000
0000
0010
0000
,
1000
0100
0100
0010
0100
0100
1000
0001
,
1000
0100
0010
0001
0100
0010
1000
0001
,
0020
0032
2003
3200
,
0310
0000
0000
0100
0000
0100
0000
0000
0010
0000
0001
0000
1000
0000
0010
0000
,
0100
0000
0001
0100
0100
0010
1000
0001
,
0010
0001
0010
0000
0001
0000
1000
0000
0010
0000
0100
0000
0001
1000
0001
0000
,
1000
0010
1000
0001
0010
0100
0010
0001
,
1000
0000
0000
1000
0000
0000
1000
0000
0100
0000
0010
0000
0001
0000
0010
0000
,
0001
0100
0100
0010
0100
0100
0001
1000
,
0001
0100
0010
1000
0100
0010
0001
1000
,
0020
2030
3002
0203
,
0310
0000
0000
0100
0000
0100
0000
0000
0010
0000
1000
0000
0001
0000
0010
0000
,
0100
0000
1000
0100
0100
0010
0001
1000
,
0010
1000
0001
0010
0100
1000
0001
1000
,
2002
0000
0000
0000
,
3003
0000
0000
0000
;

//--------------- dance-single - Fred-104 ----------------
#NOTES:
     dance-single:
     Fred-104:
     Hard:
     16:
     :
0000
0000
0000
0000
,
0000
0000
0000
0000
,
0000
0000
0000
0000
,
0000
0000
0000
0000
,
0000
0000
0000
0000
,
0000
0000
0000
0000
,
1000
0000
0100
0000
1000
0001
0100
0001
1000
0010
0000
0100
0001
1000
0001
0010
,
0100
0000
0010
0000
0001
1000
0010
1000
0001
0010
0000
0100
1000
0001
0100
0010
,
1000
0000
0000
0200
0310
0000
0000
0002
0103
0000
0000
0010
1000
0001
1000
0001
,
1000
0000
0000
0000
,
1000
0100
0000
0010
0000
0100
1000
0000
0001
0100
0000
0010
0000
0100
0001
0000
,
1000
0010
0000
0100
0000
0010
1000
0000
0001
1000
0001
1000
0100
0010
0100
0010
,
0001
0100
0001
0100
0001
0000
1000
0100
1000
0100
1000
0000
0001
0010
0100
1000
,
0001
0010
0001
0010
0001
0000
1000
0100
0000
0100
0010
0000
0001
1000
0001
1000
,
0001
0000
1000
0100
0010
0000
0100
0010
0001
0000
0010
0001
1000
0000
0001
1000
,
0100
0000
0010
0000
0001
0010
0001
0000
1000
0010
1000
0010
0100
0010
0100
0010
,
1000
0000
0010
0000
1000
0000
0100
0000
0010
0001
1000
0001
0100
0010
0100
0001
,
1000
0100
0010
0000
1000
0010
0001
0000
1000
0010
0100
0000
1000
0100
0001
0000
,
1000
0010
0000
0100
0000
0010
1000
0000
0001
0100
0000
0010
0000
0100
0001
0000
,
1000
0100
0000
0010
0000
0100
1000
0000
0001
1000
0001
1000
0100
0010
0100
0010
,
0001
0100
0001
0100
0010
0000
1000
0100
0010
0100
1000
0000
0001
0010
0100
1000
,
0001
0100
0010
0100
0001
0000
1000
0100
0000
0010
0100
0000
1000
0001
1000
0001
,
1000
0000
0001
0100
0010
0000
0100
0010
1000
0000
0010
1000
0001
0000
1000
0001
,
0100
0000
0010
0000
1000
0010
1000
0000
0001
0010
0001
0010
0100
0010
0100
0010
,
0001
0000
0010
0000
0001
0000
0100
0000
0001
0100
0010
1000
0010
0100
0001
1000
,
0001
0010
0100
0000
0001
0100
1000
0000
0001
0100
0010
0000
0001
0010
1000
0000
,
1001
0000
1010
0000
0001
1000
0001
0010
,
0001
0000
0100
0001
1000
0000
0010
0000
1000
0000
0001
1000
0100
0000
0010
0000
,
0001
0000
1000
0001
0100
0000
0010
0000
0100
0000
0001
0010
0100
0000
1000
0000
,
0001
0000
0100
0010
1000
0000
0010
0100
0001
0000
0010
0000
0100
0000
0010
0000
,
0001
1000
0100
2100
0000
3001
0100
0020
,
0000
1030
0010
0100
1000
0100
0010
1000
,
0001
0010
0100
0001
1000
0010
0001
1000
,
0001
0100
1000
0000
0100
0010
0100
0000
0001
0010
1000
0000
0010
0100
0010
0000
,
0001
0000
0000
0001
0200
0000
0000
0000
1300
0000
0000
1000
0200
0000
0000
0000
,
0301
1000
0100
0010
0100
1000
0001
0200
,
0000
0301
0010
0100
0001
0100
0010
0001
,
1000
0010
0001
1000
0100
0001
1000
0000
,
0001
0000
1000
0001
0100
0000
0001
0000
1000
0000
0100
0010
0100
0000
1000
0000
,
0001
1000
0100
1100
0000
0101
0000
0110
,
0010
1000
0001
0200
0000
0310
1000
0001
,
1000
0100
0010
0000
0001
0010
0100
0000
1000
0001
0100
0000
0010
1000
0001
0000
,
2002
0000
0000
0003
,
0020
0000
0000
3000
,
0200
0000
0000
0030
,
0002
0000
0000
0303
,
0022
0000
0000
0033
,
2020
0000
0000
3030
,
0202
0000
0000
0303
,
2200
0000
0000
3300
,
0001
0010
1000
0100
0000
0001
0010
1000
,
0100
0000
0001
2000
0000
0000
3000
0000
,
1000
0010
0001
0100
0000
1000
0010
0001
,
0100
1000
0001
2000
0000
0001
3001
0100
,
0001
0000
1000
0000
0001
0100
0010
0100
0001
0010
0000
0010
0001
1000
0010
0100
,
0001
0000
1000
0000
0100
1000
0100
0010
0001
0100
0000
0100
0010
1000
0001
1000
,
0001
0000
0000
2000
3010
0000
0000
0200
0301
0000
0000
2000
3001
1000
0001
1000
,
0001
0000
0000
0000
1000
0010
0100
0000
0010
0000
1000
0000
0001
0010
0100
0000
,
1000
0000
0001
1000
0010
0000
1000
0100
1000
0001
0100
0010
1000
0001
0010
0000
,
0001
0100
0000
0010
0000
0100
0001
0000
1000
0010
0100
0001
0010
0001
1000
0001
,
1000
0100
1000
0100
0010
0000
0001
0100
0001
0100
0010
0000
1000
0100
0010
0001
,
1000
0010
0100
0010
1000
0001
0010
0100
0010
0001
1000
0010
0100
0001
0100
0010
,
2000
0000
3100
0001
0200
0000
1300
0010
2000
0000
3010
0001
0020
0000
1030
0100
,
1000
0001
0000
0100
0000
0010
0000
1000
0100
0010
0100
1000
0001
1000
0010
0100
,
0002
0000
0000
0000
0000
0000
1003
0010
0100
0001
0100
0001
1000
0100
1000
0100
,
1000
0100
0001
0000
0100
0000
0010
0000
0001
0000
0100
0000
1000
0100
0001
0000
,
1000
0000
0001
1000
0100
0000
1000
0010
1000
0001
0100
0001
1000
0010
0100
0000
,
0001
0010
0000
0100
0000
0010
0001
0000
1000
0100
0010
0001
0100
0001
1000
0001
,
1000
0010
1000
0010
0100
0000
0001
0010
0001
0010
0100
0000
1000
0010
0100
0001
,
1000
0100
0010
0100
1000
0001
0100
0010
0100
0001
1000
0100
0010
0001
0010
0100
,
2000
0000
3010
0001
0020
0000
1030
0100
2000
0000
3100
0001
0200
0000
1300
0010
,
1000
0001
0000
0010
0000
0100
0000
1000
0010
0100
0010
1000
0001
1000
0100
0010
,
0002
0000
0000
0000
0000
0000
1003
0100
0010
0001
0010
0001
1000
0010
1000
0010
,
1000
0010
0001
0000
0010
0000
0100
0000
0001
0000
0010
0000
1000
0010
0001
0000
,
2002
0000
0000
0000
,
3003
0000
0000
0000
;

//--------------- dance-double - Fred-104 ----------------
#NOTES:
     dance-double:
     Fred-104:
     Easy:
     8:
     :
00000000
00000000
00000000
00000000
,
00000000
00000000
00000000
00000000
,
00000000
00000000
00000000
00000000
,
00000000
00000000
00000000
00000000
,
00000000
00000000
00000000
00000000
,
00000000
00000000
00000000
00000000
,
00010000
00000000
00000000
00001000
00000000
00000000
00010000
00000000
,
00000100
00000000
00000000
00010000
00000000
00000000
00001000
00000000
,
01000000
00001000
00010000
00000010
,
00001010
00000000
00000000
00000000
,
00010000
00000000
00001000
00000000
,
00000010
00000000
00000001
00000000
00001000
00000010
00001000
00000000
,
00000001
00000010
00001000
00010000
,
01000000
00000000
00100000
00000000
00010000
10000000
00010000
00000000
,
01000000
00100000
01000000
00000000
00100000
10000000
00100000
00000000
,
10000000
01000000
00100000
00001000
,
00020000
00000000
00031000
00010000
,
00000010
00000000
00010000
00000000
00001000
00010000
00001000
00000000
,
00001000
00000000
00010000
00000000
,
00100000
00000000
10000000
00000000
00010000
00100000
00010000
00000000
,
10000000
00100000
00010000
00001000
,
00000100
00000000
00000010
00000000
00001000
00000001
00001000
00000000
,
00000100
00000010
00000100
00000000
00000010
00000001
00000010
00000000
,
00000001
00000100
00000010
00010000
,
00002000
00000000
00013000
00001000
,
00100000
00000000
00001000
00000000
00010000
00001000
00010000
00000000
,
00011000
00000000
00010000
00000000
,
00000100
00000000
00001000
00000000
,
00000002
00000000
00002003
00000000
,
00003200
00000000
00001300
00000001
,
00002000
00000000
00003020
00000000
,
00020030
00000000
00031000
00100000
,
00002000
00000000
02003000
00000000
,
03010000
10000000
00010000
10000000
,
10010000
00000000
01000000
00000000
,
00100000
00001000
00020000
00000000
,
00030100
00000000
00001000
00000000
,
00000001
00001000
00000200
00000000
,
00000310
00000000
00000001
00000000
,
00000100
00001000
00020000
00000000
,
00130000
00000000
01000000
00000000
,
00010000
10000000
01000000
10000000
,
20020000
00000000
00000000
00000000
,
00000000
00000000
00000000
30030000
,
02200000
00000000
00000000
00000000
,
00000000
00000000
00000000
03300000
,
00022000
00000000
00000000
00000000
,
00000000
00000000
00000000
00033000
,
00000220
00000000
00000000
00000000
,
00000000
00000000
00000000
00000330
,
00001001
00000000
00000000
00000001
00000000
00000000
00001000
00000000
,
00000100
00000000
00000000
00010000
00000000
00000000
00000000
00000000
,
00001000
00000000
00000000
01000000
00000000
00000000
00001000
00000000
,
00010000
00000000
00000000
00001000
00000000
00000000
00000000
00000000
,
00020000
00000000
00032000
00000000
,
00013000
00000000
00000000
00001000
00000000
00000000
00010000
00000000
,
00000100
00010000
00001000
01000000
,
01100000
00000000
00000000
00000000
,
00010000
10000000
00100000
01000000
,
00010000
00000000
00000000
10000000
00000000
00000000
01000000
00000000
,
00100000
00001000
00010000
00001000
,
00000100
00000010
00001000
00000001
,
00001000
00000100
00000001
00000010
,
00002000
00000000
00003002
00000000
,
00002003
00000000
00003200
00010300
,
00001000
00001000
00010000
00000010
,
00001000
00000001
00000010
00000100
,
00001000
00000000
00000000
00000001
00000000
00000000
00000100
00000000
,
00000010
00010000
00001000
00010000
,
01000000
00100000
00010000
10000000
,
00010000
01000000
10000000
00100000
,
00020000
00000000
20030000
00000000
,
30020000
00000000
02030000
03001000
,
00010000
00010000
00001000
00100000
,
20020000
00000000
00000000
00000000
,
30030000
00000000
00000000
00000000
;

//--------------- dance-double - Fred-104 ----------------
#NOTES:
     dance-double:
     Fred-104:
     Medium:
     12:
     :
00000000
00000000
00000000
00000000
,
00000000
00000000
00000000
00000000
,
00000000
00000000
00000000
00000000
,
00000000
00000000
00000000
00000000
,
00000000
00000000
00000000
00000000
,
00000000
00000000
00000000
00000000
,
00001000
00000000
00100000
00000000
00001000
00000000
00010000
00000000
00000010
00001000
00000000
00000010
00001000
00000000
00000001
00000000
,
00000010
00000000
00000100
00000000
00000010
00000000
00001000
00000000
00010000
01000000
00000000
00100000
00010000
00000000
10000000
00000000
,
00010000
00000000
00000000
00010000
10000000
00000000
00000000
10000000
00100000
00000000
00000000
01000000
00001000
00010000
00001000
00000000
,
00011000
00000000
00000000
00000000
,
00010000
00000000
00000000
00001000
00000000
00000000
00000010
00000000
00000001
00000000
00000000
00001000
00000000
00000000
00000001
00000000
,
00000100
00000000
00000000
00000010
00000000
00000000
00001000
00000000
00000001
00000000
00000100
00000000
00000010
00000000
00000100
00000000
,
00001000
00010000
00100000
01000000
00010000
01000000
00001000
00010000
,
00001000
00000000
00000010
00000000
00000100
00000000
00000000
00001000
00000000
00000000
00000010
00000000
00010000
00000000
00000000
00000000
,
00001000
00010000
01000000
00010000
00001000
00010000
01000000
00010000
,
00001000
00000000
00010000
00001000
00000100
00001000
00010000
00000000
,
00001000
00000000
00100000
00000000
00001000
00010000
00000010
00000000
,
00001000
00000001
00000100
00000010
00001000
00000100
00010000
00000000
,
00001000
00000000
00000000
00010000
00000000
00000000
00100000
00000000
10000000
00000000
00000000
00010000
00000000
00000000
10000000
00000000
,
01000000
00000000
00000000
00100000
00000000
00000000
00010000
00000000
10000000
00000000
01000000
00000000
00100000
00000000
01000000
00000000
,
00010000
00001000
00000010
00000100
00001000
00000100
00010000
00001000
,
00010000
00000000
00100000
00000000
01000000
00000000
00000000
00010000
00000000
00000000
00100000
00000000
00001000
00000000
00000000
00000000
,
00010000
00001000
00000100
00001000
00010000
00001000
00000100
00001000
,
00010000
00000000
00001000
00010000
01000000
00010000
00001000
00000000
,
00010000
00000000
00000010
00000000
00010000
00001000
00100000
00000000
,
00010000
10000000
01000000
00100000
00010000
01000000
00001000
00000000
,
00011000
00010010
00011000
00010010
,
00010000
00000000
00000000
00000010
00001000
00000000
00000000
00000100
00010000
00000000
00000000
00001000
00010000
00000000
00000000
00000000
,
00011000
01001000
00011000
00101000
,
00001000
00000000
00000000
00010000
00000100
00000000
00000000
00010000
00001000
00000000
00010000
00000000
00000010
00000000
00000000
00000000
,
00001010
00001001
00001100
00000110
,
00000001
00000000
00000000
00000100
00000001
00000000
00000000
00001000
00000001
00000000
00000000
00000100
00000010
00000000
00000000
00000000
,
00001010
00010010
00011000
00101000
,
00001000
00010000
01000000
10000000
00010000
01000000
00100000
00000000
,
20000000
31000000
00020000
01030000
,
10000000
00100000
00010000
00001000
00000100
00000010
00001000
00000000
,
00000010
00001000
00000001
00000000
00000100
00000001
00001000
00000001
,
00000000
00000010
00000100
00000010
00001000
00010000
01000000
00000000
,
00100000
00010000
10000000
00000000
00100000
10000000
01000000
00000000
,
00100000
00001000
00010000
00001000
00000000
01000000
00001000
00010000
,
00000000
00000100
00001000
00000001
00000100
00000010
00001000
00000100
,
00010000
00001000
00000010
00001000
,
00022000
00000000
00000000
00030000
,
00200000
00000000
00000000
00003000
,
00020000
00000000
00000000
00300000
,
20000000
00000000
00000000
30030000
,
22000000
00000000
00000000
33000000
,
02200000
00000000
00000000
03300000
,
00202000
00000000
00000000
00303000
,
00022000
00000000
00000000
00033000
,
00010100
00000000
00000000
00010000
00000000
00000000
00000100
00000000
,
00001000
00000000
00000000
00000001
00000000
00000000
00000100
00000000
,
00000010
00000000
00000000
00010000
00000000
00000000
00001000
00000000
,
00100000
00000000
00000000
00010000
00000000
00000000
10000000
00000000
,
00010000
00000000
10000000
00000000
00100000
00000000
00010000
00000000
00001000
00000000
00010000
00000000
00000010
00000100
00000010
00000100
,
00000001
00000000
00000010
00000000
00000100
00000000
00000010
00000000
00001000
00000000
00010000
00000000
01000000
00100000
01000000
00100000
,
00010000
00000000
00000000
10000000
00010000
00000000
00000000
01000000
00100000
00000000
00000000
00001000
00010000
00001000
00010000
00000000
,
00011000
00000000
00000000
00000000
,
00001000
00010000
00100000
01000000
00001000
00010000
00100000
01000000
,
00001000
00000000
00000000
00010000
00000000
00000000
01000000
00000000
10000000
00000000
00010000
00000000
00100000
00000000
01000000
00000000
,
00100000
00010000
10000000
01000000
00010000
00001000
00010000
00100000
,
10000000
01000000
00010000
00001000
00000010
00000100
00001000
00000000
,
00000002
00000203
00002300
00003020
,
00000031
00000000
00000000
00001000
00000000
00000010
00000000
00000000
00000100
00000000
00000001
00000000
00001000
00000000
00000000
00000000
,
00000001
00000010
00001000
00000000
00010000
01000000
10000000
00000000
,
00010000
00000000
10000000
00000000
01000000
00010000
00001000
00000000
,
00010000
00001000
00000010
00000100
00010000
00001000
00000010
00000100
,
00010000
00000000
00000000
00001000
00000000
00000000
00000100
00000000
00000001
00000000
00001000
00000000
00000010
00000000
00000100
00000000
,
00000010
00001000
00000001
00000100
00001000
00010000
00001000
00000010
,
00000001
00000100
00001000
00010000
00100000
01000000
00010000
00000000
,
20000000
32000000
03020000
00230000
,
10300000
00000000
00000000
00010000
00000000
00100000
00000000
00000000
01000000
00000000
10000000
00000000
00010000
00000000
00000000
00000000
,
10000000
00100000
00010000
00000000
00001000
00000100
00000001
00000000
,
00001000
00000000
00000001
00000000
00000100
00001000
00010000
00000000
,
00022000
00000000
00000000
00000000
,
00033000
00000000
00000000
00000000
;

//--------------- dance-double - Fred-104 ----------------
#NOTES:
     dance-double:
     Fred-104:
     Hard:
     16:
     :
00000000
00000000
00000000
00000000
,
00000000
00000000
00000000
00000000
,
00000000
00000000
00000000
00000000
,
00000000
00000000
00000000
00000000
,
00000000
00000000
00000000
00000000
,
00000000
00000000
00000000
00000000
,
00010000
00000000
00001000
00000000
00010000
00000010
00001000
00000000
00000001
00001000
00000000
00000001
00000010
00000100
00000010
00000000
,
00000001
00000000
00001000
00000000
00000010
00001000
00000001
00000000
00000010
00001000
00000000
00010000
00001000
00100000
01000000
00000000
,
10000000
00000000
00000000
00020000
01030000
00000000
00000000
00002000
00013000
00000000
00000000
00002000
00103000
00010000
10000000
00010000
,
01000000
00000000
00000000
00000000
,
00010000
10000000
00000000
01000000
00000000
00000000
00100000
00000000
00001000
00010000
00000000
00000010
00000000
00000000
00001000
00000000
,
00000100
00000010
00000000
00000001
00000000
00000000
00001000
00000000
00000001
00000100
00000010
00001000
00000010
00000100
00000001
00000000
,
00001000
00000100
00001000
00000100
00000010
00000000
00000001
00000100
00000001
00000100
00000010
00000000
00001000
00000100
00010000
00000000
,
00001000
00100000
00010000
01000000
00001000
00000000
00010000
00000010
00000000
00001000
00000100
00000000
00010000
00001000
00100000
00001000
,
00010000
00000000
00001000
00100000
00010000
00000000
01000000
00010000
00100000
00000000
00010000
10000000
00100000
00000000
01000000
00010000
,
10000000
00000000
01000000
00000000
00100000
01000000
10000000
00000000
00100000
01000000
00010000
01000000
00100000
01000000
00010000
01000000
,
00100000
00000000
10000000
00000000
01000000
00000000
00010000
00000000
00001000
00000010
00000100
00000000
00001000
00000010
00000100
00000000
,
00000001
00000100
00001000
00000000
00010000
01000000
10000000
00000000
00100000
10000000
00010000
00100000
00001000
00010000
00000010
00000000
,
00001000
00000001
00000000
00000100
00000000
00000000
00000010
00000000
00010000
00001000
00000000
00100000
00000000
00000000
00010000
00000000
,
01000000
00100000
00000000
10000000
00000000
00000000
00010000
00000000
10000000
01000000
00100000
00010000
00100000
01000000
10000000
00000000
,
00010000
01000000
00010000
01000000
00100000
00000000
10000000
01000000
10000000
01000000
00100000
00000000
00010000
01000000
00001000
00000000
,
00010000
00000010
00001000
00000100
00010000
00000000
00001000
00100000
00000000
00010000
01000000
00000000
00001000
00010000
00000010
00010000
,
00001000
00000000
00010000
00000010
00001000
00000000
00000100
00001000
00000010
00000000
00001000
00000001
00000010
00000000
00000100
00001000
,
00000001
00000000
00000100
00000000
00000010
00000100
00000001
00000000
00000010
00000100
00001000
00000100
00000010
00000100
00001000
00000100
,
00000010
00000000
00000001
00000000
00000100
00000000
00001000
00000000
00010000
00100000
01000000
00000000
00010000
00100000
01000000
00000000
,
10000000
01000000
00010000
00000000
00001000
00000100
00000001
00000000
00000010
00000001
00001000
00000010
00010000
00001000
00100000
00000000
,
00110000
00000000
00000000
00010000
10000000
00000000
00000000
10000000
00100000
00000000
01000000
00000000
00010000
00000000
10000000
00000000
,
00100000
00010000
00001000
00010000
00100000
01000000
00010000
10000000
,
01000000
00000000
00000000
00010000
00001000
00000000
00000010
00000000
00000100
00000000
00010000
00000000
00001000
00000000
00000010
00000000
,
00000100
00000000
00000000
00001000
00000010
00000000
00000000
00000100
00000010
00000000
00001000
00000000
00000001
00000000
00000100
00000000
,
00000001
00000010
00001000
00020000
00000000
01030000
00100000
00010000
,
10000000
00000000
00000000
00100000
00010000
00000000
00001000
00000000
00010000
00000000
01000000
00000000
00100000
00000000
00010000
00000000
,
10000000
01000000
00010000
00001000
00010000
00100000
01000000
00010000
,
01000000
00100000
10000000
00000000
00100000
01000000
00010000
00000000
00100000
00001000
00010000
00000000
00000010
00001000
00000100
00000000
,
00000110
00000000
00000000
00000001
00001000
00000000
00000000
00000000
00000110
00000000
00000000
00001000
00000001
00000000
00000000
00000000
,
00000001
00000100
00001000
00010000
00001000
00000010
00000001
00000200
,
00000000
00001300
00010000
00100000
01000000
00010000
10000000
00100000
,
10000000
01000000
00010000
00001000
00000010
00000100
00001100
00000000
,
00000001
00000010
00000100
00010000
00001000
00000100
00000001
00000000
,
00001000
00000001
00000010
00000100
00000010
00001000
00010000
01000000
,
00100000
00010000
01000000
00001000
00010000
00001000
00000100
00000010
,
00001000
00000001
00000100
00000000
00000010
00010000
00001000
00000000
00100000
00010000
10000000
00000000
00010000
01000000
00001000
00000000
,
00022000
00000000
00000000
00003000
,
00000020
00000000
00000000
00030000
,
00002000
00000000
00000000
00003000
,
00000200
00000000
00000000
00000330
,
00002002
00000000
00000000
00003003
,
00022000
00000000
00000000
00033000
,
20020000
00000000
00000000
30030000
,
00022000
00000000
00000000
00033000
,
00010000
00001000
00000010
00000001
00000000
00001000
00000100
00000010
,
00000001
00000100
00001000
00020000
00000000
00000000
00030000
00000000
,
00001000
00010000
00100000
10000000
00000000
00010000
01000000
00100000
,
10000000
01000000
00010000
00002000
00000000
00010000
00013000
00001000
,
00010000
00000000
00000100
00000000
00001000
00000001
00001000
00000001
00000010
00000100
00000000
00000100
00001000
00000001
00000100
00000001
,
00001000
00000000
00000010
00000000
00010000
00001000
00010000
00001000
00010000
00000100
00000000
00000100
00010000
00001000
00100000
00010000
,
10000000
00000000
00000000
00020000
00130000
00000000
00000000
02000000
13000000
00000000
00000000
00200000
01300000
00001000
00010000
00001000
,
00010000
00000000
00000000
00000000
00001000
00000010
00000001
00000000
00001000
00000010
00000100
00000000
00000001
00001000
00000001
00000000
,
00001000
00000000
00000001
00000010
00000100
00000000
00000010
00000001
00001000
00000010
00000100
00000001
00001000
00000100
00010000
00000000
,
00001000
00010000
00000000
00000010
00000000
00010000
00001000
00000000
00100000
00010000
10000000
00010000
01000000
00100000
10000000
00000000
,
00010000
00100000
01000000
00100000
01000000
00000000
10000000
00100000
01000000
00100000
01000000
00000000
00010000
10000000
01000000
10000000
,
00010000
01000000
00001000
00010000
00000100
00010000
00000100
00000000
00001000
00000010
00000100
00000001
00001000
00000100
00000010
00000000
,
00000011
00000000
00000001
00000100
00001000
00000000
00010000
00100000
01000000
00000000
00010000
10000000
00010000
00000000
10000000
00000000
,
01000000
00100000
00000000
00001000
00000000
00010000
00000000
00000100
00001000
00000001
00000100
00000010
00001000
00000010
00000100
00000001
,
00002000
00000000
00000000
00000000
00000000
00000000
00003001
00000010
00000001
00001000
00000010
00001000
00000001
00000010
00000100
00000010
,
00000001
00001000
00000001
00000000
00000100
00000000
00001000
00000000
00010000
00000000
00100000
00000000
01000000
00010000
10000000
00000000
,
00010000
00000000
10000000
00100000
01000000
00000000
00100000
10000000
00010000
00100000
01000000
10000000
00010000
01000000
00001000
00000000
,
00010000
00001000
00000000
00100000
00000000
00001000
00010000
00000000
00000010
00001000
00000001
00001000
00000100
00000010
00000001
00000000
,
00001000
00000010
00000100
00000010
00000100
00000000
00000001
00000010
00000100
00000010
00000100
00000000
00001000
00000001
00000100
00000001
,
00001000
00000100
00010000
00001000
01000000
00001000
01000000
00000000
00010000
00100000
01000000
10000000
00010000
01000000
00100000
00000000
,
10100000
00000000
10000000
01000000
00010000
00000000
00001000
00000010
00000100
00000000
00001000
00000001
00001000
00000000
00000001
00000000
,
00000100
00000010
00000000
00010000
00000000
00001000
00000000
01000000
00010000
10000000
01000000
00100000
00010000
00100000
01000000
10000000
,
00020000
00000000
00000000
00000000
00000000
00000000
10030000
00100000
10000000
00010000
00100000
00010000
10000000
00100000
01000000
00100000
,
10000000
00010000
10000000
00000000
01000000
00000000
00010000
00000000
00001000
00000000
00000010
00000000
00000100
00001000
00000001
00000000
,
00002002
00000000
00000000
00000000
,
00003003
00000000
00000000
00000000
;
