#TITLE:rainbow rainbow;
#ARTIST:Ryu☆;
#GENRE:HAPPY HARDCORE;
#BANNER:rainbow rainbow.png;
#BACKGROUND:rainbow rainbow-bg.png;
#CDTITLE:./CDTitles/bm IIDX 10th style.png;
#MUSIC:rainbow rainbow.ogg;
#SAMPLESTART:56.952;
#SAMPLELENGTH:15;
#DISPLAYBPM:177;
#BPMS:0=176.6,4=177;
#STAGE:16;

//--------------- dance-single - Fred-104 ----------------
#NOTES:
     dance-single:
     Fred-104:
     Beginner:
     3:
     :
0000
0000
0000
0000
,
0000
0000
0000
0000
,
1000
0000
0000
0000
,
1000
0000
1000
0000
,
1000
0000
0000
0000
,
0001
0000
0001
0000
,
0001
0000
0000
0000
,
1000
0000
1000
0000
,
1000
0000
0000
0000
,
2002
0000
0000
3003
,
0001
0000
1000
0000
,
0001
0000
1000
0000
,
0010
0000
0010
0000
,
0220
0000
0000
0330
,
0100
0000
0100
0000
,
0010
0000
0010
0000
,
1000
0000
0001
0000
,
1000
0000
0000
0000
,
0001
0000
0000
0000
,
1000
0000
0000
0000
,
0001
0000
0001
0000
,
1000
0000
1000
0000
,
2002
0000
0000
0000
,
0000
0000
0000
0000
,
3003
0000
0000
0000
,
0000
0000
0000
0000
,
1000
0000
0000
0000
,
0010
0000
0000
0000
,
0010
0000
0000
0000
,
0001
0000
0000
0000
,
0001
0000
0000
0000
,
0100
0000
0000
0000
,
0100
0000
0000
0000
,
1000
0000
0000
0000
,
1000
0000
0001
0000
,
1000
0000
0000
0000
,
0010
0000
0000
0000
,
0010
0000
0000
0000
,
1000
0000
0000
0000
,
1000
0000
0000
0000
,
0001
0000
0000
0000
,
0001
0000
0000
0000
,
1000
0000
0001
0000
,
1000
0000
0010
0000
,
1000
0000
1000
0000
,
0001
0000
0001
0000
,
0100
0000
0001
0000
,
0001
0000
1000
0000
,
0001
0000
1000
0000
,
2002
0000
0000
3003
,
0001
0000
0100
0000
,
0100
0000
0001
0000
,
0100
0000
0010
0000
,
2002
0000
0000
3003
,
1000
0000
0010
0000
,
1000
0000
1000
0000
,
0001
0000
0001
0000
,
1000
0000
0000
0000
,
1001
0000
0000
0000
,
0000
0000
0000
0000
,
0000
0000
0000
0000
,
1000
0000
0001
0000
,
1000
0000
0001
0000
,
1000
0000
0001
0000
,
2002
0000
0000
3003
,
0000
0000
0000
0000
,
1000
0000
0001
0000
,
0100
0000
0100
0000
,
0100
0000
0010
0000
,
0100
0000
0010
0000
,
0010
0000
1000
0000
,
0001
0000
1000
0000
,
1000
0000
0000
0000
,
1000
0000
0001
0000
,
1000
0000
0001
0000
,
0100
0000
0100
0000
,
0010
0000
1000
0000
,
2002
0000
0000
3003
,
0001
0000
0100
0000
,
0001
0000
0100
0000
,
1000
0000
0010
0000
,
1000
0000
0010
0000
,
2002
0000
0000
0000
,
3003
0000
0000
0000
;

//--------------- dance-single - Fred-104 ----------------
#NOTES:
     dance-single:
     Fred-104:
     Easy:
     7:
     :
0000
0000
0000
0000
,
0000
0000
0000
0000
,
1000
1000
0010
1000
,
0001
1000
2002
3003
,
0001
0100
0100
0010
,
2020
3030
0202
0303
,
0100
0100
0010
1000
,
0001
1000
2002
3003
,
1000
0010
1000
0001
,
1000
0001
2002
3003
,
0001
0001
0100
0010
,
1000
0100
0220
0330
,
0001
1000
0100
1000
,
0001
0000
0000
1000
0000
0000
0001
0000
0000
1000
0000
0000
0001
0000
0000
0000
,
1000
0001
0100
0100
,
0010
1000
0001
1000
,
0001
0001
0100
0010
,
1001
0000
1001
0000
,
0110
0000
0110
0000
,
1001
0000
1001
0000
,
1000
1000
0010
0010
,
0001
0001
0100
0100
,
2002
0000
0000
0000
,
0000
0000
0000
3003
,
0100
0000
0000
0000
,
0000
0000
0000
0000
,
1000
0000
0000
0000
,
0010
0000
0000
0000
,
0001
0000
0000
0000
,
0100
0000
0100
0100
,
1000
0000
0000
0000
,
0010
0000
0000
0000
,
0001
0000
0000
0000
,
0100
0000
0010
0010
,
1000
0000
0010
0000
,
1000
1000
0100
0000
,
0001
0000
0100
0000
,
0001
0100
0100
0000
,
0100
0000
0001
0000
,
0100
0010
1000
0000
,
0001
0010
0100
1000
,
0002
2000
3000
0003
,
1000
0010
0100
0100
,
0001
1000
0100
0010
,
0001
0100
0010
0100
,
0001
0001
0100
0010
,
0100
0001
1000
0001
,
1000
1000
0010
0100
,
0001
1000
0001
1000
,
0001
0001
1000
1001
,
0001
0100
0010
0010
,
1000
0010
0100
0100
,
0010
1000
0001
1000
,
0001
0000
0000
0001
0000
0000
1000
0000
0000
1000
0000
0000
1001
0000
0000
0000
,
0010
0010
1000
0010
,
0100
0100
0010
1000
,
0001
1000
0010
0100
,
0002
0000
1003
1000
,
1001
0000
0000
0000
,
1000
0000
0000
0000
,
0001
0000
0000
0000
,
0100
0000
0010
0000
,
1000
0010
0100
0001
,
0010
0100
1000
0001
,
2002
0000
0000
3003
,
0100
0000
0000
0000
,
0010
1000
0010
0010
,
1000
0001
0010
0100
,
0100
1000
0001
0100
,
0010
0100
0100
0010
,
1000
0001
0100
0001
,
1000
0100
0010
0001
,
1001
0000
0000
0001
,
1000
0001
1000
1001
,
0100
0100
0010
1000
,
0001
0001
0010
0100
,
1000
0001
0100
0010
,
1000
0000
0000
0001
0000
0000
1000
0000
0000
0001
0000
0000
1001
0000
0000
0000
,
1000
0100
0010
0001
,
1000
0010
0100
0100
,
0001
0100
0010
1000
,
0001
0010
0100
1000
,
2002
0000
0000
0003
,
3000
0000
0000
0000
;

//--------------- dance-single - Fred-104 ----------------
#NOTES:
     dance-single:
     Fred-104:
     Medium:
     12:
     :
0000
0000
0000
0000
,
0000
0000
0000
0000
,
1000
0100
0010
0100
0000
0010
0000
0010
,
0000
0001
0000
1000
2002
0000
3003
0000
,
0001
0100
0010
0100
0000
0010
0000
1000
,
2020
3030
0202
0303
,
0001
0100
0010
1000
0000
0100
0000
0100
,
0000
0010
0000
0001
2002
0000
3003
0000
,
0001
1000
0010
0100
0000
0010
0000
1000
,
1100
0101
1100
1001
,
0001
1000
0010
0100
0000
0010
0000
1000
,
0001
0000
0000
1000
0000
0000
0100
0000
0200
0000
0000
0000
0310
0000
0000
0000
,
0001
0001
0010
0001
0000
1000
0000
0010
,
0100
0000
0000
0100
0000
0000
0010
0000
0000
0010
0000
0000
0110
0000
0000
0000
,
0001
0010
0001
1000
0000
0010
0000
0100
,
0000
0100
0000
0010
0000
1000
0000
0001
,
0100
0001
0100
0010
1000
0010
1000
0000
,
2002
3003
0220
0330
,
2020
3030
0202
0303
,
2200
3300
0022
0033
,
1000
0010
1000
0010
0001
0010
0001
0010
,
1000
0100
0001
0000
0001
0100
1000
0000
,
2002
0000
0000
0000
,
0000
0000
0000
3003
,
0100
0000
0000
0000
,
0000
0000
0000
0000
,
1000
0000
0000
0001
0000
0000
0100
0000
,
0001
0000
0000
0010
0000
0000
0100
0000
,
1000
0000
0000
0010
0000
0000
0100
0000
,
0001
0000
0000
1000
0000
0010
0100
0010
,
1000
0000
0000
0010
0000
0000
1000
0000
,
0100
0000
0000
0010
0000
0000
0001
0000
,
1000
0000
0000
0010
0000
0000
0100
0000
,
0001
0100
0000
0100
0010
1000
0010
0000
,
1000
1000
0100
0100
,
0010
0000
0010
0000
0001
1000
0010
0000
,
0100
0100
0010
0010
,
1000
0000
1000
0000
0001
0010
0100
0000
,
0010
0010
0001
1000
,
0010
1000
0100
0000
0010
0001
1000
0000
,
0001
0100
0001
0100
0010
1000
0001
0010
,
0100
0000
1000
0000
2020
3030
0202
0303
,
0001
0000
0100
0000
0010
0000
0100
0000
0001
0000
0000
0100
0000
0000
0010
0000
,
1000
0010
0100
0000
0010
0100
0001
0000
,
1000
0000
0100
0000
0010
0000
0100
0000
1000
0000
0000
0100
0000
0000
0010
0000
,
0001
0100
0010
0000
1000
0001
0010
0000
,
0100
0000
0010
0000
1000
0000
0010
0000
0100
0000
0000
0001
0000
0000
1000
0000
,
0001
0000
0010
0000
0001
0000
0000
0000
1000
0000
0000
0010
0000
0000
0100
0000
,
0001
0000
0100
0000
0010
0000
0100
0000
0001
0000
0000
1000
0000
0000
0010
0000
,
0100
0000
0100
0000
0110
0000
2002
3003
,
0001
0000
0100
0000
0010
0000
0100
0000
0001
0000
0000
1000
0000
0000
0100
0000
,
0010
0001
1000
0000
0010
1000
0100
0000
,
0010
0000
0100
0000
0010
0000
0001
0000
1000
0000
0000
0001
0000
0000
0100
0000
,
0001
0000
0000
0100
0000
0000
0010
0000
0000
1000
0000
0000
1001
0000
0000
0000
,
0001
0000
0010
0000
0100
0000
1000
0000
0001
0000
0000
0100
0000
0000
0010
0000
,
0100
0000
0001
0000
1000
0000
0000
0000
0100
0000
0000
1000
0000
0000
0010
0000
,
1000
0010
0001
1000
0100
0001
1000
0000
,
0002
0000
1003
0001
,
1001
0000
0000
0000
,
0100
0000
0000
0000
,
0010
0000
0000
0000
,
0110
0000
0000
0000
1001
0000
0000
0001
,
0100
0001
0100
0010
0100
0010
1000
0010
,
1000
0010
0001
0000
0001
0010
1000
0000
,
2002
0000
0000
3003
,
0100
0000
0110
0110
,
0001
0000
1000
0000
0010
0000
0100
0000
0001
0000
0000
0010
0000
0000
0010
0000
,
0001
0100
0010
0000
0001
0010
0100
0000
,
0001
0000
0100
0000
0010
0000
1000
0000
0001
0000
0000
1000
0000
0000
0100
0000
,
1000
0100
0010
0000
1000
0010
0100
0000
,
1000
0000
0010
0000
0100
0000
0001
0000
1000
0000
0000
0100
0000
0000
0010
0000
,
0001
0100
1000
0000
0001
0010
1000
0000
,
1001
0000
0000
0001
,
0100
0000
0010
0000
1010
0000
0202
0303
,
1000
0010
0100
0010
1000
0010
0100
0010
,
1000
0001
0010
0000
0001
1000
0100
0000
,
0010
0001
1000
0001
0100
0001
0010
0100
,
1000
0000
0000
0010
0000
0000
1000
0000
0000
0001
0000
0000
1001
0000
0000
0000
,
0001
0100
0010
0100
0001
0010
0100
1000
,
0001
0100
1000
0000
0100
0001
1000
0000
,
0010
0100
0010
1000
0001
0010
0100
1000
,
0001
0010
0100
1000
0001
0100
0010
0010
,
0220
0000
0000
0030
,
0300
0000
0000
0000
;

//--------------- dance-single - Fred-104 ----------------
#NOTES:
     dance-single:
     Fred-104:
     Hard:
     15:
     :
0000
0000
0000
0000
,
0000
0000
0000
0000
,
1000
0000
0100
1000
0100
0000
0110
0000
0000
0000
1100
0000
0000
0000
0101
0000
,
0000
0110
0000
1001
2002
0000
3003
0000
,
0001
0000
1000
0001
1000
0000
1010
0000
0000
0000
0011
0000
0000
0000
1100
0000
,
2002
3003
0220
0330
,
1000
0000
0010
1000
0010
0000
0110
0000
0000
0000
1100
0000
0000
0000
0101
0000
,
0000
0110
0000
1001
2002
0000
3003
0000
,
0100
0000
1000
0001
1000
0000
1010
0000
0000
0000
0101
0000
0000
0000
1100
0000
,
1010
0011
1100
0101
,
1000
0000
0001
0100
0001
0000
0100
0000
0010
0000
0100
0000
0001
0000
1000
0000
,
0001
0000
0000
0001
0000
0000
0001
0000
0200
0000
0000
0000
1000
0000
0300
0000
,
0001
0000
1000
0001
1000
0000
0010
0000
0100
0000
0010
0000
1000
0000
0100
0000
,
1000
0000
0000
1100
0000
0000
0001
0000
0000
0101
0000
0000
1001
0000
0000
0000
,
0001
0000
0010
0100
1000
0000
0001
0000
0100
0000
0010
0000
1000
0000
0010
0000
,
0001
1000
0100
0001
1000
0010
0001
1000
,
0010
0100
0001
1000
0001
0001
1000
1000
,
2002
3003
0220
0330
,
2200
3300
0202
0303
,
2020
3030
0022
0033
,
1000
0000
0010
1000
0100
0000
0010
0001
0100
0000
0010
1000
0100
0000
0010
0001
,
0200
0320
2030
3200
0302
0203
2300
3001
,
2002
0000
0000
0000
,
0000
0000
0000
3003
,
0100
0000
0000
0000
,
0000
0000
0000
0000
,
0001
0000
1000
0000
0000
0000
0001
0000
0000
1000
0000
0000
0010
0000
0000
0100
,
0010
0000
1000
0000
0000
0000
0001
0000
0000
1000
0000
0000
0100
0000
0010
0001
,
0010
0000
0001
0000
0000
0000
1000
0000
0000
0100
0000
0000
1000
0000
0000
0010
,
0100
0001
0000
0001
0010
0100
0010
0001
,
1000
0000
0010
0000
0000
0000
0100
0000
0000
0010
0000
0000
1000
0000
0000
0100
,
0001
0000
0100
0000
0000
0000
1000
0000
0000
0010
0000
0000
0100
0000
0001
0010
,
0100
0000
0010
0000
0000
0000
0001
0000
0000
0100
0000
0000
0001
0000
0000
0010
,
0100
1000
0000
0001
0010
0001
1000
0001
,
0100
0100
0010
0010
,
1000
0010
0100
0000
0001
0010
1000
0000
,
0001
0100
1000
0001
,
1000
0100
0010
0000
0001
1000
0010
0000
,
1000
0000
0100
0000
0010
0100
1000
0000
,
0001
0100
0010
1000
0100
0010
0001
0000
,
1000
0100
0001
0100
1000
0010
0001
0010
,
1000
0010
1000
0000
0001
0100
0001
0000
0220
0000
0330
0000
2002
0000
3003
0000
,
1000
0000
0010
0000
0100
0000
0010
0000
1000
0000
0001
0010
0000
0100
1000
0100
,
1000
0000
0001
0000
0100
0010
0100
0000
0001
0000
1000
0010
1000
0000
0001
1000
,
0001
0000
0100
0000
0010
0000
1000
0000
0100
0000
0010
0001
0000
0100
0010
1000
,
0001
0000
0010
0000
0100
1000
0100
0000
1000
0000
0001
0100
0001
0000
1000
0100
,
1000
0000
0010
0000
1000
0000
0001
0000
1000
0000
0100
0010
0000
0011
0000
0001
,
1000
0000
0010
0000
0100
0000
0010
0000
1000
0000
0001
0100
0000
0110
0000
0010
,
1000
0000
0001
0000
0010
0000
0100
0000
1000
0000
0001
0100
0000
0110
0000
0010
,
1000
0000
1100
0000
0101
0000
2002
3003
,
0001
0000
0100
0000
0010
0000
1000
0000
0100
0000
0010
0001
0000
1000
0010
0100
,
0010
0000
1000
0000
0001
0010
0001
0000
1000
0000
0001
0100
0010
0000
0100
0001
,
0010
0000
0001
0000
1000
0000
0010
0000
0100
0000
0001
0010
0000
0001
0100
0010
,
1000
0000
0000
1100
0000
0000
0101
0000
0000
1100
0000
0000
1001
0000
0000
0000
,
0001
0000
1000
0000
0100
0000
1000
0000
0010
0000
0100
0010
0000
1000
0100
0010
,
0001
0000
1000
0000
0001
0000
0001
0000
0100
0000
0001
0010
0000
0100
1000
0001
,
0100
0000
0010
0000
0100
0000
0001
0000
1000
0000
0010
0100
0000
0100
0001
1000
,
0200
0000
0010
0310
,
1001
0000
0000
0000
,
0100
0000
0000
0000
,
0010
0000
0000
0000
,
1010
0000
0000
0000
0000
0000
0000
0000
0101
0000
0000
0000
0000
0000
1000
0100
,
0010
0000
0001
0100
0010
0000
1000
0010
0100
0000
0001
0010
0100
0000
1000
0001
,
2000
3020
0230
0302
0203
0320
2030
3001
,
2002
0000
0000
3003
,
0100
0000
1100
0011
,
1000
0000
0010
0000
0100
0000
0010
0000
1000
0000
0001
0100
0000
0001
0100
0010
,
0100
0000
0001
0000
1000
0100
0010
0000
0001
0000
1000
0010
0100
0000
0010
0000
,
0001
0000
0010
0000
1000
0000
0001
0000
1000
0000
0100
0010
0000
0001
0100
0001
,
0100
0000
0010
0000
1000
0010
0100
0000
0010
0000
1000
0001
0100
0000
0010
0000
,
1000
0000
0100
0000
0010
0000
0100
0000
0010
0000
0001
0100
0000
0010
0100
0001
,
0100
0000
0010
0000
1000
0000
0001
0000
0010
0000
0100
1000
0000
0001
1000
0100
,
1000
0000
0000
1010
,
0101
0000
0000
0000
1100
0000
0000
0000
0011
0000
0000
0000
2002
0000
0000
3003
,
1000
0000
0010
0000
1000
0000
0100
0000
1000
0000
0001
0100
0000
0010
1000
0100
,
0010
0000
0100
0000
0010
0001
1000
0000
0010
0000
0001
0010
0100
0000
0001
0000
,
1000
0000
0010
0000
0100
0000
0001
0000
1000
0000
0001
1000
0000
0100
0010
0100
,
1000
0000
0000
0011
0000
0000
1010
0000
0000
0101
0000
0000
1001
0000
0000
0000
,
1000
0000
0010
0000
0100
0000
0010
0000
1000
0000
0100
0010
0000
0001
0100
0010
,
0100
0000
0001
0000
0010
0000
0100
0000
0010
0000
0001
0010
0000
0100
1000
0100
,
1000
0000
0100
0000
0010
0000
0001
0000
1000
0010
1000
0010
0100
0001
0100
0001
,
1000
0000
0000
0000
0000
0000
0000
0000
0100
0000
0000
0000
0000
0000
0000
0000
0010
0000
0000
0000
0000
0000
0000
0000
0001
0000
0000
0000
0100
0000
0000
0000
0001
0000
0000
0000
0000
0000
0000
0000
1000
0000
0000
0000
0000
0000
0000
0000
0200
0300
0000
0000
0000
0000
0000
0000
0200
0300
0000
0000
0000
0000
0000
0000
,
2002
0000
0000
0003
,
3000
0000
0000
0000
;

//--------------- dance-single - Fred-104† ----------------
#NOTES:
     dance-single:
     Fred-104†:
     Challenge:
     17:
     :
0000
0000
0000
0000
,
0000
0000
0000
0000
,
1000
0000
0010
1000
0010
0000
0200
0000
0000
0000
0302
0000
0000
0000
0023
0000
,
0000
2030
0000
3200
0302
0000
0000
0000
,
1003
0000
0000
0000
0000
0000
0000
0000
0001
0000
0000
0000
0100
0000
0000
0000
0001
0000
0000
0000
0000
0000
0000
0000
0020
0000
0000
0000
0000
0000
0000
0000
0000
0000
0000
0000
0000
0000
0000
0000
2030
0000
0000
0000
0000
0000
0000
0000
0000
0000
0000
0000
0000
0000
0000
0000
3200
0000
0000
0000
0000
0000
0000
0300
,
0102
0000
1003
0000
2100
0000
3001
1000
,
0001
0000
0100
0010
0100
0000
0002
0000
0000
0000
0023
0000
0000
0000
2030
0000
,
0000
0000
0000
0000
0000
0000
0000
0000
3200
0000
0000
0000
0000
0000
0000
0000
0000
0000
0000
0000
0000
0000
0000
0000
0302
0000
0000
0000
0000
0000
0000
0003
2001
0000
0000
0000
0000
0000
0000
0000
0000
0000
0000
0000
0000
0000
0000
0000
3100
0000
0000
0000
0000
0000
0000
0000
0000
0000
0000
0000
0000
0000
0000
0000
,
1000
0000
0000
0000
0000
0000
0000
0000
0100
0000
0000
0000
0010
0000
0000
0000
0100
0000
0000
0000
0000
0000
0000
0000
2000
0000
0000
0000
0000
0000
0000
0000
0000
0000
0000
0000
0000
0000
0000
0000
3020
0000
0000
0000
0000
0000
0000
0000
0000
0000
0000
0000
0000
0000
0000
0000
0032
0000
0000
0000
0000
0000
0000
0003
,
0101
0000
1100
0000
1010
0000
0022
0033
,
1001
0000
1000
0010
0100
0000
0010
0000
1000
0000
0010
0000
0100
0000
0001
0000
,
1000
0000
0000
1000
0000
0000
1000
0000
1001
0000
0000
0000
0110
0000
0000
0000
,
1001
0000
0001
0100
0010
0000
0100
0000
0001
0000
0100
0000
0010
0000
0100
0000
,
0001
0000
1000
0100
0000
0010
0001
0000
1000
0010
0000
0100
0001
0000
0000
0000
,
1000
0000
0001
0100
0010
0000
0100
0000
0001
0000
0010
0100
1000
0000
0010
0000
,
0100
0000
0001
1000
0010
0000
0100
0000
0001
0000
1000
0100
0010
0000
0001
0000
,
1000
0000
0010
1000
0100
0000
1000
0000
0010
0000
0100
0001
0010
0000
0100
0000
,
2100
3010
0102
0013
,
1200
0310
0201
0310
,
2001
3100
1002
0013
,
1000
0000
0001
0010
0100
0000
1000
0010
0100
0000
0001
0010
1000
0000
0010
0001
,
1000
0210
0301
0120
1030
0210
0301
0120
,
1030
0001
1000
0001
1000
0001
1000
0001
1000
0001
1000
0001
1000
0001
1000
0001
,
1000
0001
1000
0001
1000
0001
1000
0001
1000
0001
1000
0001
1000
0000
0000
0000
,
1001
0000
0000
0000
,
0000
0000
0000
0000
,
1200
0000
1000
0000
0000
0000
0010
0000
0000
1000
0000
0000
0301
0000
0000
0100
,
0002
0000
0010
0000
0000
0000
0100
0000
0000
0013
0000
0000
0001
0000
1000
0001
,
2000
0000
0010
0000
0000
0000
0100
0000
0000
3010
0000
0000
1000
0000
0000
0100
,
0010
0002
0000
1003
0010
0001
1000
0100
,
0001
0000
0020
0000
0000
0000
2030
0000
0000
3200
0000
0000
0302
0000
0000
1003
,
0010
0000
0002
0000
0000
0000
0203
0000
0000
2300
0000
0000
3002
0000
0103
0010
,
1000
0000
0020
0000
0000
0000
0032
0000
0000
0203
0000
0000
2300
0000
0000
3001
,
1000
0100
0000
0100
0010
0001
1000
0001
,
0100
0000
0000
0000
0100
0000
0000
0000
0001
0000
0100
0010
0100
0000
0000
0000
,
0001
0000
0010
0000
0100
0000
1000
0000
0001
0000
1000
0100
1000
0000
0000
0000
,
0001
0000
0000
0000
0001
0000
0000
0000
0100
0000
0010
1000
0010
0000
0000
0000
,
0100
0000
0001
0000
0010
0000
0001
0000
0100
0000
0010
1000
0010
0000
0000
0000
,
1000
0000
0000
0000
0100
0000
0000
0000
1000
0000
0010
0100
0010
0000
1000
0000
,
0100
0010
0001
0100
0010
0001
0010
1000
,
0001
0100
0001
0100
0010
1000
0010
1000
0001
0100
0010
1000
0001
0100
0010
1000
,
0001
0010
0100
0000
1000
0100
0010
0000
0022
0000
0033
0000
2002
0000
3003
0000
,
1000
0000
0010
1000
0100
0000
1000
0000
0010
0000
0100
0001
0000
0010
0001
1000
,
0001
0000
0010
0000
1000
0010
0001
0000
0100
0000
1000
0100
0001
0000
1000
0000
,
0001
0000
0010
0100
1000
0000
0010
0000
0100
0000
0001
0010
0000
0001
1000
0010
,
1000
0000
0100
0000
0001
0100
1000
0000
0010
0000
0001
0010
1000
0000
0001
0000
,
0100
0000
0010
1000
0100
0000
1000
0000
0001
0000
0010
0100
0000
1000
0010
0100
,
0001
0000
1000
0100
0010
0000
0001
0000
1000
0000
0001
0100
0000
0001
0010
0001
,
0100
0000
0001
1000
0010
0000
0100
0000
0001
0000
0010
0100
0000
1000
0010
0100
,
0001
0000
0101
0000
1100
0000
2002
3003
,
1000
0000
0010
1000
0001
0000
0010
0000
0100
0000
0001
0100
0000
1000
0001
0010
,
0001
0000
0010
0000
0001
0100
0001
0000
0100
0000
1000
0100
0001
0000
0010
0000
,
0001
0000
1000
0010
0100
0000
0010
0000
0001
0000
0010
1000
0000
0001
1000
0100
,
1000
0000
0000
1010
0000
0000
0101
0000
0000
1100
0000
0000
0011
0000
0001
0000
,
1000
0000
0001
1000
0010
0000
0100
0000
0001
0000
0010
0100
0000
1000
0010
0100
,
0001
0000
1000
0100
0010
0000
0001
0000
1000
0000
0010
0100
0000
0010
1000
0001
,
0100
0000
0001
0010
0100
0000
1000
0000
0001
0000
1000
0100
1000
0010
0100
0010
,
2000
0000
0000
0000
0000
0000
0000
0000
3001
1000
0001
1000
0001
0000
1000
0000
,
1001
0000
0000
0000
,
0000
0000
0000
0000
,
0000
0000
0000
0000
,
1001
0000
0000
0000
0000
0000
0000
0000
0110
0000
0000
0000
0000
0000
0001
0100
,
0010
0000
1000
0100
0010
0000
0001
0100
1000
0000
0100
0001
0010
0000
0100
1000
,
0001
0102
1003
2100
3001
0012
1003
2010
,
3001
1000
0001
1000
0001
1000
0001
1000
0001
1000
0001
1000
0001
0000
0000
0000
,
1001
0000
0000
0000
0110
0000
2002
3003
,
1000
0000
0001
1000
0010
0000
1000
0000
0001
0000
0010
0100
1000
0010
0100
0001
,
1000
0000
0100
0000
0001
0100
1000
0000
0010
0000
0001
0010
1000
0000
0001
0000
,
1000
0000
0010
1000
0100
0000
1000
0000
0001
0000
0010
0100
1000
0001
0100
0010
,
0100
0000
0001
0000
0010
1000
0010
0000
0001
0000
0100
1000
0100
0000
0001
0000
,
1000
0000
0010
1000
0100
0000
0010
0000
0100
0000
1000
0010
0100
0010
1000
0001
,
1000
0000
0100
0001
0100
0000
1000
0000
0001
0000
0010
0100
1000
0010
0100
0001
,
1000
0000
0000
0110
,
1010
0000
0000
0000
0101
0000
0000
0000
0100
0010
0100
0010
0200
0000
0000
0000
,
0301
0000
1000
0001
0100
0000
0001
0000
1000
0100
0010
0100
1000
0010
0100
0010
,
1000
0000
0001
0010
0100
0000
1000
0000
0001
0100
0001
0100
0010
0000
1000
0000
,
0001
0000
1000
0010
0100
0000
0010
0000
1000
0010
0100
0001
1000
0100
0010
0001
,
0100
0000
0000
0110
0000
0000
0101
0000
0000
0110
0000
0000
1001
0000
1000
0000
,
0001
0000
0100
1000
0100
0000
0001
0000
0010
0100
1000
0010
0100
0001
0010
0100
,
1000
0000
0010
0100
1000
0000
0100
0000
0001
1000
0001
0100
0010
1000
0100
0010
,
0001
0000
0100
0010
0001
0000
0010
0000
1000
0001
0100
0001
0010
0100
0010
0001
,
1000
0000
0000
0000
0000
0000
0000
0000
0010
0000
0000
0000
0000
0000
0000
0000
0010
0000
0000
0000
0000
0000
0000
0000
0001
0000
0000
0000
0100
0000
0000
0000
0001
0000
0000
0000
0000
0000
0000
0000
1000
0000
0000
0000
0000
0000
0000
0000
0200
0300
0000
0000
0000
0000
0000
0000
0200
0300
0000
0000
0000
0000
0000
0000
,
2002
0000
0000
0003
,
3000
0000
0000
0000
;

//--------------- dance-double - Fred-104 ----------------
#NOTES:
     dance-double:
     Fred-104:
     Easy:
     7:
     :
00000000
00000000
00000000
00000000
,
00000000
00000000
00000000
00000000
,
00010000
00001000
00010000
00000100
,
00010000
00001000
00022000
00033000
,
00010000
01000000
10000000
01000000
,
02200000
03300000
20020000
30030000
,
10000000
10000000
01000000
00100000
,
00001000
00010000
00022000
00033000
,
00100000
00100000
00001000
00010000
,
00000010
00001000
00002002
00003003
,
00001000
00001000
00000100
00000010
,
00000001
00001000
00002002
00003003
,
00000001
00000100
00000100
00000010
,
00000200
00000000
00000000
00000310
,
00001000
00000010
00001000
00001000
,
00000100
00010000
00001000
00010000
,
00001000
00010000
00100000
10000000
,
10010000
00000000
01100000
00000000
,
01010000
00000000
00011000
00000000
,
00001100
00000000
00001001
00000000
,
00001000
00001000
00000010
00000010
,
00000001
00000001
00000100
00000100
,
00002002
00000000
00000000
00000000
,
00000000
00000000
00000000
00003003
,
00000100
00000000
00000000
00000000
,
00000000
00000000
00000000
00000000
,
00000001
00000000
00000000
00000000
,
00000100
00000000
00000000
00000000
,
00000010
00000000
00000000
00000000
,
00001000
00000000
00010000
00001000
,
00100000
00000000
00000000
00000000
,
00010000
00000000
00000000
00000000
,
10000000
00000000
00000000
00000000
,
00100000
00000000
10000000
00010000
,
10000000
00000000
00100000
00000000
,
01000000
00100000
01000000
00000000
,
00100000
00000000
10000000
00000000
,
01000000
00100000
00010000
00000000
,
00001000
00000000
00010000
00000000
,
00000100
00001000
00000100
00000000
,
00000010
00000010
00000001
00001000
,
00000020
00000200
00000030
00000300
,
00000001
00000001
00000100
00000010
,
00001000
00000100
00000010
00000000
,
00001000
00001000
00000100
00010000
,
00001000
00010000
01000000
00000000
,
00100000
00100000
10000000
01000000
,
00100000
00010000
10000000
00000000
,
00100000
00100000
01000000
00010000
,
00001000
00010000
00001000
00011000
,
00010000
00001000
00000100
00000001
,
00001000
00000100
00000010
00000000
,
00000001
00000001
00000100
00001000
,
00020000
00000000
00000000
00031000
,
00100000
00100000
10000000
00100000
,
00100000
00010000
00001000
00000010
,
00001000
00010000
00001000
00000010
,
00000002
00000000
00001003
00001000
,
00001001
00000000
00000000
00000000
,
00000100
00000000
00000000
00000000
,
00000010
00000000
00000000
00000000
,
00010000
00000000
00001000
00000000
,
00010000
00010000
00001000
00001000
,
00100000
00100000
01000000
01000000
,
02200000
00000000
00000000
03300000
,
00010000
00000000
00000000
00000000
,
10000000
01000000
01000000
00010000
,
00100000
00001000
00010000
00000000
,
00001000
00001000
00010000
00000100
,
00000010
00000100
00001000
00000000
,
00000100
00000100
00000001
00001000
,
00000100
00000010
00000001
00000000
,
00001001
00000000
00000000
00000001
,
00001000
00001000
00010000
00011000
,
00010000
00001000
00100000
00010000
,
00100000
01000000
01000000
10000000
,
00100000
01000000
00010000
10000000
,
00020000
00000000
00000000
01030000
,
01000000
10000000
01000000
00010000
,
00001000
00010000
00001000
00000100
,
00000001
00000100
00001000
00010000
,
00001000
00001000
00010000
00001000
,
00022000
00000000
00000000
00030000
,
00003000
00000000
00000000
00000000
;

//--------------- dance-double - Fred-104 ----------------
#NOTES:
     dance-double:
     Fred-104:
     Medium:
     12:
     :
00000000
00000000
00000000
00000000
,
00000000
00000000
00000000
00000000
,
10000000
01000000
10000000
01000000
00000000
00010000
00000000
00001000
,
00000000
00010000
00000000
01000000
02020000
00000000
03030000
00000000
,
00010000
00001000
00000100
00001000
00000000
00010000
00000000
00001000
,
00002200
00003300
00000202
00000303
,
00000010
00000001
00000010
00001000
00000000
00010000
00000000
00001000
,
00000000
00010000
00000000
00100000
20200000
00000000
30300000
00000000
,
00100000
10000000
00100000
00010000
00000000
00100000
00000000
00010000
,
00011000
00011000
00001010
00001010
,
00000010
00001000
00000010
00000100
00000000
00000001
00000000
00000100
,
00001000
00000000
00000000
00001000
00000000
00000000
00001000
00000000
00000001
00000000
00000000
00000000
00000100
00000000
00000000
00000000
,
00000010
00001000
00000010
00000100
00000000
00010000
00000000
00001000
,
00100000
00000000
00000000
00010000
00000000
00000000
10000000
00000000
00000000
00010000
00000000
00000000
10010000
00000000
00000000
00000000
,
00010000
01000000
10000000
01000000
00000000
00010000
00000000
00001000
,
00000000
00000100
00000000
00001000
00000000
00010000
00000000
00100000
,
00010000
00001000
00000010
00000000
00001000
00010000
00100000
00000000
,
00022000
00033000
00220000
00330000
,
20200000
30300000
00220000
00330000
,
00022000
00033000
00002020
00003030
,
00000001
00000100
00001000
00000100
00000001
00000100
00001000
00010000
,
00001000
00010000
01000000
00000000
00010000
00001000
00000100
00000000
,
00022000
00000000
00000000
00000000
,
00000000
00000000
00000000
00033000
,
01000000
00000000
00000000
00000000
,
00000000
00000000
00000000
00000000
,
00010000
00000000
00000000
01000000
00000000
00000000
00100000
00000000
,
10000000
00000000
00000000
01000000
00000000
00000000
00100000
00000000
,
00001000
00000000
00000000
00010000
00000000
00000000
00000100
00000000
,
00010000
00000000
00000000
00000010
00000000
00001000
00000100
00000000
,
00010000
00000000
00000000
00000100
00000000
00000000
00010000
00000000
,
00001000
00000000
00000000
01000000
00000000
00000000
00010000
00000000
,
00100000
00000000
00000000
00001000
00000000
00000000
00010000
00000000
,
00001000
00100000
00000000
00100000
00010000
00100000
01000000
00000000
,
00100000
00100000
10000000
10000000
,
01000000
00100000
00010000
00000000
00001000
00100000
00001000
00000000
,
00010000
00010000
00000010
00000010
,
00001000
00000100
00000001
00000000
00000100
00001000
00000010
00000000
,
00000100
00000000
00000100
00000000
00000002
00000103
00000010
00000000
,
00001000
00000100
00000010
00000000
00000001
00000100
00001000
00000000
,
00010000
00001000
00010000
00001000
00010000
00100000
10000000
00010000
,
01000000
00000000
00100000
00000000
20200000
30300000
02020000
03030000
,
00010000
01000000
00100000
10000000
01000000
00100000
01000000
00000000
,
00100000
00001000
00010000
00000000
00001000
00000100
00000010
00000000
,
00000001
00000100
00001000
00000100
00000010
00000100
00000001
00000000
,
00001000
00000010
00000100
00000000
00000001
00000010
00000100
00000000
,
00000010
00000001
00001000
00000010
00000100
00000010
00001000
00000000
,
00000100
00010000
00001000
00000000
00010000
00000100
00010000
00000000
,
00001000
00100000
00010000
00100000
01000000
10000000
00010000
01000000
,
00100000
00000000
00100000
00000000
01100000
00000000
20020000
30030000
,
00010000
01000000
00100000
10000000
01000000
00100000
00001000
00010000
,
00002000
00100000
00000010
00103000
,
00001000
00010000
00001000
00000100
00000001
00001000
00000100
00000010
,
00000001
00000000
00000000
00000100
00000000
00000000
00000010
00000000
00000000
00001000
00000000
00000000
00001100
00000000
00000000
00000000
,
00000100
00000001
00000100
00001000
00010000
00000100
00010000
00001000
,
00020000
00000100
01000000
00030100
,
00010000
00001000
00100000
00010000
00100000
10000000
00010000
01000000
,
00200000
00000000
00301000
00001000
,
00011000
00000000
00000000
00000000
,
00010000
00000000
00000000
00000000
,
10000000
00000000
00000000
00000000
,
00011000
00000000
00000000
00000000
00001001
00000000
00000000
00000100
,
00000010
00001000
00000010
00001000
00000010
00000100
00000010
00001000
,
00000001
00000100
00001000
00000000
00010000
01000000
10000000
00000000
,
20020000
00000000
00000000
30030000
,
00100000
00000000
01100000
01100000
,
00100000
00000000
10000000
00000000
01000000
00000000
00100000
00000000
00010000
00000000
00000000
01000000
00000000
00000000
10000000
00000000
,
02000000
00000000
00010000
00000000
13000000
01000000
00010000
00000000
,
01000000
00000000
10000000
00000000
00100000
00000000
01000000
00000000
00010000
00000000
00000000
00000100
00000000
00000000
00001000
00000000
,
00000200
00000000
00001000
00000000
00000310
00000100
00000001
00000000
,
00001000
00000000
00000100
00000000
00000010
00000000
00000001
00000000
00001000
00000000
00000000
00000010
00000000
00000000
00000100
00000000
,
00000001
00000000
00000010
00000000
00000100
00000000
00001000
00000000
00000100
00000000
00000000
00010000
00000000
00000000
00001000
00000000
,
00011000
00000000
00000000
00101000
,
00110000
10100000
01100000
10010000
,
00010000
01000000
00100000
10000000
01000000
00100000
01000000
00100000
,
00010000
00001000
00100000
00001000
00010000
00000100
00010000
00000000
,
00001000
00010000
00000100
00001000
00000100
00001000
00000001
00000100
,
00000010
00000000
00000000
00000100
00000000
00000000
00000001
00000000
00000000
00001000
00000000
00000000
00001001
00000000
00000000
00000000
,
00000100
00000010
00000001
00001000
00000010
00000100
00000010
00000100
,
00001000
00010000
00001000
00010000
00100000
10000000
00010000
01000000
,
00100000
01000000
00100000
10000000
00100000
01000000
00010000
10000000
,
01000000
00010000
00001000
00000100
,
00000220
00000000
00000000
00000030
,
00000300
00000000
00000000
00000000
;

//--------------- dance-double - Fred-104 ----------------
#NOTES:
     dance-double:
     Fred-104:
     Hard:
     15:
     :
00000000
00000000
00000000
00000000
,
00000000
00000000
00000000
00000000
,
00000001
00000000
00001000
00000010
00000100
00000000
00000010
00000000
00000000
00000000
00001010
00000000
00000000
00000000
00010000
00000000
,
00000000
00011000
00000000
00100000
20020000
00000000
30030000
00000000
,
00100000
00000000
10000000
00100000
01000000
00000000
00100000
00000000
00000000
00000000
10100000
00000000
00000000
00000000
00100000
00000000
,
00220000
00330000
00022000
00033000
,
00001000
00000000
00010000
00000100
00001000
00000000
00001100
00000000
00000000
00000000
00000010
00000000
00000000
00000000
00000101
00000000
,
00000000
00000010
00000000
00001000
00002002
00000000
00003003
00000000
,
00000001
00000000
00000100
00000010
00001000
00000000
00000010
00000000
00000000
00000000
00010010
00000000
00000000
00000000
00001000
00000000
,
00011000
00101000
00010010
00011000
,
00001000
00000000
00010000
00001000
00100000
00000000
00010000
00000000
00100000
00000000
10000000
00000000
00100000
00000000
00010000
00000000
,
10000000
00000000
00000000
10000000
00000000
00000000
10000000
00000000
00200000
00000000
00000000
00000000
01000000
00000000
01300000
00000000
,
00001000
00000000
00010000
00001000
00010000
00000000
00001000
00000000
00000100
00000000
00000001
00000000
00001000
00000000
00000100
00000000
,
00000010
00000000
00000000
00000001
00000000
00000000
00000100
00000000
00000000
00001000
00000000
00000000
00011000
00000000
00000000
00000000
,
00010000
00000000
00001000
00010000
00001000
00000000
00010000
00000000
00100000
00000000
10000000
00000000
00010000
00000000
01000000
00000000
,
10000000
00100000
01000000
00010000
00100000
00001000
00000010
00001000
,
00010000
00000100
00001000
00000010
00000100
00000100
00000001
00001000
,
00002002
00003003
00000220
00000330
,
00002020
00003030
00000202
00000303
,
00002200
00003300
00022000
00033000
,
00010000
00000000
00001000
00010000
00001000
00000000
00100000
00010000
00100000
00000000
00010000
10000000
00010000
00000000
10000000
01000000
,
20000000
32000000
03200000
00302000
00023000
00030200
00000320
00000031
,
00002002
00000000
00000000
00000000
,
00000000
00000000
00000000
00003003
,
00000010
00000000
00000000
00000000
,
00000000
00000000
00000000
00000000
,
00010000
00000000
00001000
00000000
00000000
00000000
00010000
00000000
00000000
00000010
00000000
00000000
00001000
00000000
00000000
00000100
,
00010000
00000000
00001000
00000000
00000000
00000000
00100000
00000000
00000000
00001000
00000000
00000000
01000000
00000000
00010000
00100000
,
00010000
00000000
01000000
00000000
00000000
00000000
00001000
00000000
00000000
00100000
00000000
00000000
00010000
00000000
00000000
01000000
,
00100000
01000000
00000000
00100000
00010000
00001000
00000100
00000010
,
00010000
00000000
00000100
00000000
00000000
00000000
00001000
00000000
00000000
00000010
00000000
00000000
00010000
00000000
00000000
00000100
,
00001000
00000000
00000010
00000000
00000000
00000000
00010000
00000000
00000000
00000010
00000000
00000000
00001000
00000000
00000100
00001000
,
00000100
00000000
00010000
00000000
00000000
00000000
00001000
00000000
00000000
00100000
00000000
00000000
00010000
00000000
00000000
01000000
,
00100000
01000000
00000000
00100000
00010000
00001000
00000100
00000010
,
00001000
00001000
00000001
00000001
,
00000010
00001000
00010000
00000000
00001000
00010000
00100000
00000000
,
10000000
10000000
00010000
01000000
,
00100000
10000000
01000000
00000000
00100000
00010000
01000000
00000000
,
00010000
00000000
00010000
00000000
00100000
00001000
00010000
00000000
,
00000100
00001000
00000100
00000010
00000001
00001000
00000001
00000000
,
00000100
00000010
00000001
00001000
00000010
00000100
00001000
00010000
,
00001000
00010000
00001000
00000000
00100000
00001000
00100000
00000000
00202000
00000000
00303000
00000000
00022000
00000000
00033000
00000000
,
00010000
00000000
00001000
00000000
00000100
00000000
00000001
00000000
00001000
00000000
00000100
00000010
00000000
00000010
00000001
00000010
,
00000001
00000000
00000100
00000000
00000010
00001000
00000010
00000000
00001000
00000000
00000001
00000100
00000001
00000000
00000100
00000000
,
00000010
00000000
00000100
00000000
00001000
00000000
00010000
00000000
00001000
00000000
00010000
00000100
00000000
00001000
00000100
00001000
,
00000100
00000000
00000010
00000000
00000001
00000100
00000001
00000000
00001000
00000000
00000010
00010000
00000010
00000000
00010000
00001000
,
00010000
00000000
00001000
00000000
00100000
00000000
00010000
00000000
01000000
00000000
00100000
10000000
00000000
10000000
00000000
10000000
,
01000000
00000000
00100000
00000000
00001000
00000000
00010000
00000000
00001000
00000000
00100000
00001000
00000000
00001000
00000000
00001000
,
00000010
00000000
00000100
00000000
00001000
00000000
00010000
00000000
01000000
00000000
00010000
01000000
00000000
00010000
00000000
00010000
,
00001000
00000000
00010010
00000000
00101000
00000000
00022000
00033000
,
00001000
00000000
00010000
00000000
01000000
00000000
10000000
00000000
00010000
00000000
01000000
00100000
00000000
10000000
00100000
01000000
,
00010000
00000000
10000000
00000000
01000000
00100000
00010000
00000000
10000000
00000000
00100000
01000000
00010000
00000000
01000000
00000000
,
00100000
00000000
10000000
00000000
01000000
00000000
00100000
00000000
01000000
00000000
00010000
01000000
00000000
00010000
01000000
00100000
,
01000000
00000000
00000000
01010000
00000000
00000000
00011000
00000000
00000000
00001100
00000000
00000000
00001001
00000000
00000000
00000000
,
00000010
00000000
00000010
00000000
00000100
00000000
00000010
00000000
00001000
00000000
00000001
00000100
00000000
00000100
00000010
00001000
,
00000100
00000000
00010000
00000000
00001000
00000000
00010000
00000000
00000100
00000000
00010000
00001000
00000000
00000100
00000000
00000100
,
00000010
00000000
00001000
00000000
00000100
00000000
00010000
00000000
00001000
00000000
00100000
00010000
00000000
00100000
00000000
00100000
,
02000000
00000000
00100000
03100000
,
10010000
00000000
00000000
00000000
,
00010000
00000000
00000000
00000000
,
00001000
00000000
00000000
00000000
,
00000001
00000000
00000000
00000000
00000000
00000000
00000000
00000000
00001001
00000000
00000000
00000000
00000000
00000000
00000001
00000100
,
00000010
00000000
00001000
00000100
00010000
00000000
00001000
00100000
00010000
00000000
01000000
00100000
10000000
00000000
00010000
00100000
,
02000000
23000000
30020000
00230000
00302000
00023000
00030020
00001030
,
00002002
00000000
00000000
00003003
,
00000010
00000000
00010100
00011000
,
00010000
00000000
00001000
00000000
00100000
00000000
00010000
00000000
00100000
00000000
01000000
10000000
00000000
01000000
10000000
01000000
,
00010000
00000000
01000000
00000000
00100000
00010000
10000000
00000000
01000000
00000000
00100000
00001000
00010000
00000000
00001000
00000000
,
00100000
00000000
00001000
00000000
00010000
00000000
00001000
00000000
00000100
00000000
00000010
00000100
00000000
00000010
00000001
00001000
,
00000001
00000000
00000100
00000000
00001000
00000100
00000010
00000000
00000100
00000000
00000001
00000100
00000010
00000000
00001000
00000000
,
00000100
00000000
00010000
00000000
00001000
00000000
00100000
00000000
00001000
00000000
00010000
00001000
00000000
00010000
00100000
00010000
,
00100000
00000000
01000000
00000000
00100000
00000000
00010000
00000000
10000000
00000000
01000000
00010000
00000000
01000000
00010000
01000000
,
00100000
00000000
00000000
11000000
,
01010000
00000000
00000000
00000000
00011000
00000000
00000000
00000000
00001100
00000000
00000000
00000000
00000202
00000000
00000000
00000303
,
00000100
00000000
00000010
00000000
00001000
00000000
00000001
00000000
00000010
00000000
00000100
00000010
00000000
00000010
00000001
00000010
,
00001000
00000000
00000010
00000000
00000100
00000001
00000100
00000000
00000001
00000000
00000100
00001000
00010000
00000000
00001000
00000000
,
00010000
00000000
00001000
00000000
00100000
00000000
00010000
00000000
01000000
00000000
00100000
10000000
00000000
01000000
10000000
01000000
,
00100000
00000000
00000000
00110000
00000000
00000000
10100000
00000000
00000000
00110000
00000000
00000000
00011000
00000000
00000000
00000000
,
00010000
00000000
00001000
00000000
00100000
00000000
00001000
00000000
00010000
00000000
00000100
00001000
00000000
00010000
00000000
00001000
,
00010000
00000000
01000000
00000000
00001000
00000000
00010000
00000000
00001000
00000000
00100000
00001000
00000000
00010000
00000000
00001000
,
00000010
00000000
00000100
00000000
00000010
00000000
00001000
00000000
00000001
00000100
00000001
00000100
00000010
00001000
00000010
00001000
,
00000001
00000000
00000000
00000000
00000000
00000000
00000000
00000000
00000100
00000000
00000000
00000000
00000000
00000000
00000000
00000000
00000010
00000000
00000000
00000000
00000000
00000000
00000000
00000000
00001000
00000000
00000000
00000000
00000001
00000000
00000000
00000000
00000010
00000000
00000000
00000000
00000000
00000000
00000000
00000000
00000100
00000000
00000000
00000000
00000000
00000000
00000000
00000000
00020000
00030000
00000000
00000000
00000000
00000000
00000000
00000000
00002000
00003000
00000000
00000000
00000000
00000000
00000000
00000000
,
00022000
00000000
00000000
00003000
,
00030000
00000000
00000000
00000000
;

//--------------- dance-double - Fred-104† ----------------
#NOTES:
     dance-double:
     Fred-104†:
     Challenge:
     17:
     :
00000000
00000000
00000000
00000000
,
00000000
00000000
00000000
00000000
,
00011000
00000000
00010000
00000100
00001000
00000000
00000010
00000000
00000100
00000000
00000010
00000000
00001000
00000000
00000100
00000000
,
00000010
00000001
00000100
00001000
00020000
00000000
00230000
00000000
,
10300000
00000000
00010000
10000000
00100000
00000000
01000000
00000000
00010000
00000000
00100000
00000000
01000000
00000000
00100000
00000000
,
00210000
00000000
00301000
00000000
00010020
00000000
00001030
00001000
,
00000010
00000000
00000100
00000001
00000010
00000000
00000100
00000000
00000010
00000000
00000001
00000000
00000100
00000000
00000001
00000000
,
00000010
00000100
00001000
00010000
00100000
00000000
11000000
00000000
,
10000000
00000000
00010000
10000000
00100000
00000000
01000000
00000000
00100000
00000000
10000000
00000000
01000000
00000000
00100000
00000000
,
00101000
00000000
00010010
00000000
01001000
00000000
00020200
00030300
,
00011000
00000000
00010000
00001000
00000100
00000000
00000001
00000000
00001000
00000000
00000001
00000000
00000100
00000000
00000010
00000000
,
00001000
00000000
00000000
00001000
00000000
00000000
00001000
00000000
00001010
00000000
00000000
00000000
00000101
00000000
00000000
00000000
,
00001000
00000000
00000001
00000100
00000001
00000000
00000010
00000000
00000100
00000000
00000010
00000000
00000001
00000000
00000100
00000000
,
00000001
00000000
00000000
00000010
00000000
00000000
00001000
00000000
00000000
00010000
00000000
00000000
01000000
00000000
00000000
00000000
,
10000000
00000000
00100000
10000000
00010000
00000000
01000000
00000000
00100000
00000000
10000000
00000000
01000000
00000000
00100000
00000000
,
01000000
10000000
00100000
00010000
00001000
00000100
00000001
00001000
,
00000001
00000010
00000100
00001000
00000010
00000100
00001000
00010000
,
00012000
00003010
00021000
00130000
,
00012000
00003100
00021000
01030000
,
20010000
31000000
10020000
00130000
,
10000000
00000000
00010000
00100000
01000000
00000000
10000000
00100000
01000000
00000000
00100000
10000000
01000000
00000000
00100000
00001000
,
00010000
00021000
00030100
00000210
00000301
00000102
00001003
00002010
,
00003001
00001000
00000001
00001000
00000001
00001000
00000001
00001000
00000001
00001000
00000001
00001000
00000001
00001000
00000001
00001000
,
00000001
00001000
00000001
00001000
00000001
00001000
00000001
00001000
00000001
00001000
00000001
00001000
00000001
00000000
00000000
00000000
,
00001001
00000000
00000000
00000000
,
00000000
00000000
00000000
00000000
,
00012000
00000000
00010000
00000000
00000000
00000000
00000010
00000000
00000000
00013000
00000000
00000000
00001000
00000000
00000000
00100000
,
00020000
00000000
01000000
00000000
00000000
00000000
00100000
00000000
00000000
01030000
00000000
00000000
00010000
00000000
10000000
00010000
,
02000000
00000000
00100000
00000000
00000000
00000000
10000000
00000000
00000000
00100000
00000000
00000000
13000000
00000000
00000000
00010000
,
01000000
00100000
00000000
10000000
01000000
00010000
00001000
00000010
,
00000001
00000000
00002000
00000000
00000000
00000000
00003200
00000000
00000000
00000320
00000000
00000000
00000230
00000000
00000000
00001300
,
00000001
00000000
00000200
00000000
00000000
00000000
00000320
00000000
00000000
00002030
00000000
00000000
00003200
00000000
00010300
00001000
,
00010000
00000000
00002000
00000000
00000000
00000000
00203000
00000000
00000000
00320000
00000000
00000000
20030000
00000000
00000000
30010000
,
10000000
00000000
01000000
00000000
00000000
00000000
00010000
00000000
00001000
00000000
00000010
00000001
00000010
00000000
00000000
00000000
,
00000001
00000000
00000000
00000000
00000001
00000000
00000000
00000000
00000100
00000000
00000010
00000100
00000010
00000000
00000000
00000000
,
00001000
00000100
00000001
00001000
00000010
00000001
00001000
00000000
,
00000010
00000000
00000000
00000000
00000010
00000000
00000000
00000000
00010000
00000000
00001000
00010000
00001000
00000000
00000000
00000000
,
00100000
00010000
10000000
01000000
00010000
01000000
00100000
00000000
,
00010000
10000000
00100000
01000000
00100000
10000000
01000000
00100000
,
00001000
00010000
00001000
00000010
00000001
00001000
00000001
00000100
,
00000001
00000010
00000001
00000010
00000100
00001000
00000100
00001000
00000100
00010000
00001000
00100000
00001000
00100000
00010000
00100000
,
00010000
10000000
00100000
00000000
10000000
00010000
01000000
00000000
02200000
00000000
03300000
00000000
20020000
00000000
30030000
00000000
,
00010000
00000000
01000000
00100000
01000000
00000000
00010000
00000000
10000000
00000000
01000000
00100000
00000000
00100000
00010000
01000000
,
00010000
00000000
00100000
00000000
01000000
00100000
01000000
00000000
00001000
00000000
00010000
00000100
00010000
00000000
00001000
00000000
,
00000100
00000000
00000010
00000100
00000010
00000000
00000001
00000000
00001000
00000000
00000001
00000100
00000000
00000100
00000010
00001000
,
00000001
00000000
00001000
00000000
00000100
00000010
00000100
00000000
00010000
00000000
00001000
00100000
00001000
00000000
00010000
00000000
,
00001000
00000000
01000000
00010000
01000000
00000000
00001000
00000000
00100000
00000000
00010000
10000000
00000000
00010000
01000000
00100000
,
10000000
00000000
01000000
00100000
01000000
00000000
10000000
00000000
00100000
00000000
10000000
01000000
00000000
00100000
00001000
00010000
,
00001000
00000000
01000000
00001000
00010000
00000000
00001000
00000000
00000100
00000000
00000010
00000001
00000000
00001000
00000001
00000100
,
00000010
00000000
00010010
00000000
00011000
00000000
00202000
00303000
,
00001000
00000000
00100000
00010000
01000000
00000000
00010000
00000000
00100000
00000000
01000000
10000000
00000000
00010000
01000000
00100000
,
10000000
00000000
01000000
00000000
00010000
01000000
10000000
00000000
00100000
00000000
00010000
00100000
10000000
00000000
00010000
00000000
,
01000000
00000000
00100000
01000000
00010000
00000000
00100000
00000000
00001000
00000000
00010000
00000100
00000000
00001000
00000001
00000100
,
00000010
00000000
00000000
00001010
00000000
00000000
00000101
00000000
00000000
00001100
00000000
00000000
00000011
00000000
00000000
00000000
,
00001000
00000000
00000001
00000100
00000001
00000000
00000010
00000000
00000100
00000000
00000010
00000001
00000000
00001000
00000001
00000100
,
00000010
00000000
00001000
00000100
00010000
00000000
00000010
00000000
00010000
00000000
00001000
00100000
00000000
00010000
01000000
00010000
,
00100000
00000000
01000000
10000000
00010000
00000000
01000000
00000000
00100000
00000000
10000000
01000000
00000000
01000000
00100000
00001000
,
00020000
00000000
00000000
00000000
00000000
00000000
00000000
00000000
00031000
00010000
00001000
00010000
00001000
00000000
00010000
00000000
,
00011000
00000000
00000000
00000000
,
00000000
00000000
00000000
00000000
,
00000000
00000000
00000000
00000000
,
00001001
00000000
00000000
00000000
00000000
00000000
00000000
00000000
00011000
00000000
00000000
00000000
00000000
00000000
00010000
01000000
,
00100000
00000000
01000000
00010000
00100000
00000000
01000000
10000000
00100000
00000000
10000000
00100000
01000000
00000000
00100000
10000000
,
01000000
02100000
03100000
00201000
00301000
00012000
00013000
00020100
,
00030100
00001000
00000100
00001000
00000100
00001000
00000100
00001000
00000100
00001000
00000100
00001000
00000100
00000000
00000000
00000000
,
00000110
00000000
00000000
00000000
00000011
00000000
00002002
00003003
,
00001000
00000000
00000001
00000100
00000001
00000000
00000010
00000000
00000100
00000000
00001000
00000010
00000000
00000100
00000001
00001000
,
00000001
00000000
00000010
00000000
00001000
00000010
00000001
00000000
00000100
00000000
00001000
00000100
00000001
00000000
00001000
00000000
,
00000001
00000000
00000010
00000100
00000010
00000000
00000001
00000000
00001000
00000000
00000010
00010000
00000000
00001000
00010000
00000100
,
00010000
00000000
00001000
00000000
00100000
00010000
10000000
00000000
00010000
00000000
01000000
00100000
01000000
00000000
00010000
00000000
,
10000000
00000000
01000000
00100000
00010000
00000000
10000000
00000000
00010000
00000000
01000000
00100000
10000000
00100000
01000000
00100000
,
10000000
00000000
01000000
00100000
00001000
00000000
00010000
00000000
00000100
00000000
00001000
00000010
00000100
00000010
00001000
00000010
,
00000100
00000000
00000110
00001001
,
00000101
00000000
00000000
00000000
00001100
00000000
00000000
00000000
00001000
00010000
00001000
00010000
00002000
00000000
00000000
00000000
,
00013000
00000000
01000000
10000000
01000000
00000000
10000000
00000000
00010000
00000000
01000000
00100000
10000000
00100000
01000000
00010000
,
10000000
00000000
00010000
00000000
01000000
10000000
01000000
00000000
00100000
00000000
10000000
01000000
00100000
00000000
00010000
00000000
,
01000000
00000000
00001000
00010000
00000100
00000000
00001000
00000000
00000010
00000000
00000100
00000010
00001000
00000001
00000010
00000001
,
00000100
00000000
00000000
00000110
00000000
00000000
00001010
00000000
00000000
00000101
00000000
00000000
00001001
00000000
00000001
00000000
,
00000100
00000000
00000010
00001000
00000100
00000000
00001000
00000000
00000010
00001000
00000100
00010000
00001000
00010000
00000100
00010000
,
00001000
00000000
00100000
00010000
10000000
00000000
00010000
00000000
10000000
01000000
00100000
01000000
10000000
00100000
01000000
00100000
,
10000000
00000000
01000000
00100000
01000000
00000000
00100000
00000000
00001000
00010000
00001000
00010000
00000010
00001000
00000010
00001000
,
00000100
00000000
00000000
00000000
00000000
00000000
00000000
00000000
00000010
00000000
00000000
00000000
00000000
00000000
00000000
00000000
00000001
00000000
00000000
00000000
00000000
00000000
00000000
00000000
00000100
00000000
00000000
00000000
00001000
00000000
00000000
00000000
00010000
00000000
00000000
00000000
00000000
00000000
00000000
00000000
00100000
00000000
00000000
00000000
00000000
00000000
00000000
00000000
20000000
30000000
00000000
00000000
00000000
00000000
00000000
00000000
00020000
00030000
00000000
00000000
00000000
00000000
00000000
00000000
,
20020000
00000000
00000000
00030000
,
30000000
00000000
00000000
00000000
;
