#VERSION:0.83;
#TITLE:rainbow flyer;
#ARTIST:dj TAKA;
#GENRE:TRANCE;
#BANNER:rainbow flyer.png;
#BACKGROUND:rainbow flyer-bg.png;
#CDTITLE:./CDTitles/bm IIDX 8th style.png;
#MUSIC:rainbow flyer.ogg;
#SAMPLESTART:48.65;
#SAMPLELENGTH:15;
#BPMS:0=148;
#STAGE:22;

//--------------- dance-single - Fred-104 ----------------
#NOTEDATA:;
#STEPSTYPE:dance-single;
#DESCRIPTION:Fred-104;
#DIFFICULTY:Beginner;
#METER:2;
#CREDIT:Fred-104;
#NOTES:
0000
0000
0000
0000
,
0000
0000
0000
0000
,
0000
0000
0000
0000
,
0000
0000
0000
0000
,
0000
0000
0000
0000
,
0000
0000
0000
0000
,
0000
0000
0000
0000
,
0000
0000
0000
0000
,
0000
0000
0000
0000
,
0000
0000
0000
0000
,
1000
0000
0000
0000
,
0001
0000
0000
0000
,
1000
0000
0000
0000
,
0001
0000
0000
0000
,
0100
0000
0000
0000
,
0010
0000
0000
0000
,
0100
0000
0000
0000
,
0200
0000
0300
0000
,
0000
0001
0000
0001
,
0000
1000
0000
1000
,
0000
0001
0000
1000
,
0000
0001
0000
1000
,
0000
0010
0000
0100
,
0000
0100
0000
0001
,
0001
0000
1000
0000
,
0001
0000
1000
0000
,
1001
0000
0000
0000
,
0000
0000
0000
0000
,
0001
0000
1000
0000
,
1001
0000
0000
0000
,
0001
0000
1000
0000
,
0010
0000
0000
0000
,
1000
0000
0001
0000
,
1000
0000
0000
0000
,
0001
0000
0100
0000
,
0001
0000
0000
0000
,
1000
0000
0100
0000
,
2000
0000
3000
0000
,
0001
0000
0010
0000
,
0001
0000
0000
0000
,
0010
0000
0001
0000
,
1000
0000
0000
0000
,
0001
0000
1000
0000
,
0001
0000
0000
0000
,
1000
0000
0001
0000
,
2000
0000
3000
0000
,
1001
0000
0000
0000
,
0000
0000
0000
0000
,
0000
0000
0000
0000
,
0000
0000
0000
0000
,
2000
0000
3000
0000
,
0002
0000
0003
0000
,
2000
0000
3000
0000
,
0002
0000
0003
0000
,
2000
0000
3000
0000
,
0002
0000
0003
0000
,
2000
0000
3000
0000
,
2002
0000
3003
0000
,
0001
0000
0001
0000
,
1000
0000
1000
0000
,
0010
0000
0010
0000
,
0100
0000
0100
0000
,
0001
0000
1000
0000
,
0001
0000
1000
0000
,
0002
0000
0000
0003
,
2002
0000
3003
0000
,
0000
1000
0000
1000
,
0000
0010
0000
1000
,
0000
0001
0000
0100
,
0000
0001
0000
0100
,
0000
0100
0000
0001
,
0000
0100
0000
0001
,
0001
0000
1000
0000
,
0001
0000
1000
0000
,
2002
0000
0000
0000
,
3003
0000
0000
0000
;

//--------------- dance-single - Fred-104 ----------------
#NOTEDATA:;
#STEPSTYPE:dance-single;
#DESCRIPTION:Fred-104;
#DIFFICULTY:Easy;
#METER:5;
#CREDIT:Fred-104;
#NOTES:
0000
0000
0000
0000
,
0000
0000
0000
0000
,
0000
0000
0000
0000
,
0000
0000
0000
0000
,
0000
0000
0000
0000
,
0000
0000
0000
0000
,
0000
0000
0000
0000
,
0000
0000
0000
0000
,
0000
0000
0000
0000
,
0000
0000
0000
0000
,
1000
1000
0000
0010
,
0000
1000
0000
0001
,
0000
0100
0000
0010
,
0000
0100
0000
0001
,
1000
0001
0000
0100
,
0000
0010
0000
0100
,
0000
0001
0000
1000
,
0002
0000
2000
3003
,
0001
0000
0100
0000
,
0010
0100
0010
0000
,
1000
0000
0001
0000
,
1000
0100
1000
0000
,
1001
0000
0000
0000
,
1001
0000
0000
0000
,
0001
0000
0100
0000
,
0010
1000
0001
1000
,
1001
0000
0000
0000
,
0000
0000
0000
0000
,
1000
0000
0010
0000
,
0100
0001
1000
0001
,
1000
0000
0010
1000
,
0100
0000
0010
0001
,
1000
0000
0001
0100
,
0001
0000
0100
0010
,
0100
0000
0001
0010
,
0100
0000
1000
0010
,
0100
0000
0001
1000
,
0002
0000
2000
3003
,
0001
0001
0100
0010
,
0100
0000
0001
1000
,
0010
0010
1000
0001
,
1000
0000
0001
1000
,
1001
0000
0001
0100
,
0110
0000
1000
0100
,
0110
0000
0100
0000
,
0001
0100
0010
1000
,
1001
0000
0000
0000
,
0000
0000
0000
0000
,
0000
0000
0000
0000
,
0000
0000
0000
0000
,
2000
0000
3002
0000
,
2003
0000
3002
0000
,
2003
0000
3200
0000
,
0320
0000
0032
0000
,
2003
0000
3020
0000
,
0230
0000
0302
0000
,
2003
0000
3002
0000
,
2000
0000
3003
0000
,
0002
0000
0203
0000
,
0310
1000
0001
1000
,
0200
0000
0320
0000
,
0031
0100
0010
1000
,
0001
0100
0010
1000
,
0001
0010
0100
1000
,
0002
0203
0320
2030
,
0002
0000
3003
0000
,
1000
0100
1000
0010
,
0100
0001
1000
0001
,
1000
0100
0010
0001
,
0100
0010
0100
0100
,
0001
0010
0100
1000
,
0001
0100
0010
1000
,
0001
0001
1000
1000
,
0010
0100
0010
0100
,
2002
0000
0000
0000
,
3003
0000
0000
0000
;

//--------------- dance-single - Fred-104 ----------------
#NOTEDATA:;
#STEPSTYPE:dance-single;
#DESCRIPTION:Fred-104;
#DIFFICULTY:Medium;
#METER:8;
#CREDIT:Fred-104;
#NOTES:
0000
0000
0000
0000
,
0000
0000
0000
0000
,
0000
0000
0000
0000
,
0000
0000
0000
0000
,
0000
0000
0000
0000
,
0000
0000
0000
0000
,
0000
0000
0000
0000
,
0000
0000
0000
0000
,
0000
0000
0000
0000
,
0000
0000
0000
0000
,
0001
0100
0000
0100
,
1000
0100
0000
0100
,
0001
0100
0000
0100
,
1000
0100
0000
0100
,
0001
0010
0000
0010
,
1000
0010
0000
0010
,
0001
0010
0000
0010
,
0002
0000
2000
3003
,
0001
0000
0100
0000
0010
0100
0010
0000
,
1000
0000
0100
0000
0010
0001
0010
0000
,
0001
0000
1000
0000
0001
0100
0001
0000
,
1000
0000
0100
0000
1000
0001
1000
0000
,
1100
0000
0000
0000
0010
0100
0010
0000
,
0101
0000
0000
0000
0010
0100
0010
0000
,
1000
0100
0010
0000
0001
0100
0010
0000
,
1000
0100
1000
0000
0001
0100
0001
0000
,
1001
0000
0000
0000
,
0000
0000
0000
0000
,
0001
0200
0310
0200
,
0301
0100
0010
1000
0002
0000
0203
0000
,
0301
0000
0100
0000
0010
0000
1000
0100
,
1000
0000
0100
0000
0010
0000
0001
1000
,
0010
0000
0100
0000
0001
0000
1000
0001
,
0100
0010
0100
0100
,
0001
0000
0010
0000
0100
0000
1000
0010
,
0100
0000
0010
0000
1000
0000
0100
0010
,
0001
1000
0001
0100
,
0020
0000
0200
0330
,
0100
0000
0001
0000
1000
0000
0100
0010
,
0001
0000
1000
0000
0001
0000
0100
0010
,
0100
0000
0001
0000
0010
0000
0100
1000
,
0001
0000
1000
0000
0001
1000
0001
0100
,
0110
0000
0000
0000
0100
0000
0010
0001
,
0101
0000
0000
0000
0001
0000
0010
1000
,
0010
0001
1000
1000
,
0001
0100
0001
0100
0010
1000
0001
1000
,
1001
0000
0000
0000
,
1000
0000
0000
0000
,
0100
0000
0000
0000
,
0010
0000
0000
0000
,
0002
0000
0203
0000
,
0320
0000
2030
0000
,
3200
0000
0320
0000
,
0032
0000
2003
0000
,
3002
0000
0203
0000
,
0320
0000
2030
0000
,
3200
0000
0320
0000
,
0032
0000
2000
3003
,
1000
0100
1000
0000
0001
0100
0001
0000
,
0100
0010
1000
0010
0100
0001
1000
0000
,
0001
0010
0001
0000
1000
0010
1000
0000
,
0001
0010
0100
1000
0100
0010
0001
0000
,
1200
0310
0201
0310
,
2100
3010
0102
0013
,
1000
0100
1000
0000
0001
0100
0001
0000
,
2000
0000
0002
3003
,
1000
0100
1000
0000
0010
0100
0010
0000
,
1000
0000
0100
0000
0010
0001
1000
0000
,
0001
0100
0001
0000
0100
0010
0100
0000
,
0001
0100
1000
0010
,
0001
0100
0001
0000
1000
0010
1000
0000
,
0001
0010
1000
0100
,
0001
0100
0001
0000
0100
0010
1000
0000
,
0001
0100
0001
0010
0100
0010
0100
1000
,
2002
0000
0000
0000
,
3003
0000
0000
0000
;

//--------------- dance-single - Fred-104 ----------------
#NOTEDATA:;
#STEPSTYPE:dance-single;
#DESCRIPTION:Fred-104;
#DIFFICULTY:Hard;
#METER:14;
#CREDIT:Fred-104;
#NOTES:
0000
0000
0000
0000
,
0000
0000
0000
0000
,
0000
0000
0000
0000
,
0000
0000
0000
0000
,
0000
0000
0000
0000
,
0000
0000
0000
0000
,
0000
0000
0000
0000
,
0000
0000
0000
0000
,
0000
0000
0000
0000
,
0000
0000
0000
0000
,
1001
0010
0000
0010
,
0001
0010
0000
0010
,
1000
0100
0000
0100
,
0001
0100
0000
0100
,
1000
0010
0100
0001
,
0001
0010
0100
1000
,
0001
0100
0010
0100
,
0001
1000
2002
3003
,
1000
0100
0010
0001
1000
0010
0100
0010
,
1000
0100
0001
0100
1000
0010
0100
0001
,
1000
0100
0010
1000
0010
0001
1000
0010
,
0100
1000
0100
0010
1000
0001
0100
0010
,
1010
0000
1000
0100
0010
0001
0100
0010
,
0110
0000
0100
0001
1000
0001
0010
0001
,
1000
0000
1000
0000
0001
0100
0000
0100
0010
0000
1000
0000
0100
0010
0000
0010
,
0001
0100
0001
0100
0010
1000
0010
1000
0001
0000
0010
0000
0100
0000
1000
0000
,
1001
0000
0000
0000
,
0000
0000
0000
0000
,
1000
0000
0000
0010
0000
0000
0100
0000
0001
0000
0000
0001
0010
0000
0000
0001
0000
0000
1000
0000
0010
0000
0000
0010
,
0100
0000
0000
0000
0001
0000
1000
0000
0000
0000
0001
0000
0100
0000
0000
0000
0010
0000
0100
0000
0000
0000
0001
0000
2000
0000
0000
0000
0000
0000
0000
0000
0000
0000
0000
0000
3001
0000
0000
1000
0000
0000
0001
0000
0000
0000
0000
0000
,
1000
0000
0100
0000
0010
0000
1000
0000
0010
0000
0001
0000
1000
0001
1000
0001
,
1000
0000
0100
0000
0001
0000
0100
0000
1000
0000
0010
0000
0100
0001
0100
0001
,
0100
0000
0001
0000
0010
0000
0100
0000
0001
0000
0100
0000
1000
0100
1000
0100
,
1000
0010
0100
0001
0010
1000
0100
0001
,
0101
0000
0000
0000
0000
0000
0000
0000
0100
0000
0000
0000
0000
0000
0000
0000
0010
0000
0000
0000
0000
0000
0000
0000
1000
0000
0000
0000
0000
0000
0000
0000
0200
0300
0000
0000
0000
0000
0000
0000
0200
0300
0000
0000
0000
0000
0000
0000
0001
0000
0000
0000
0010
0000
0000
0000
0100
0000
0000
0000
1000
0000
0000
0000
,
0100
0000
0000
0000
0000
0000
0000
0000
1000
0000
0000
0000
0000
0000
0000
0000
0001
0000
0000
0000
0000
0000
0000
0000
1000
0000
0000
0000
0000
0000
0000
0000
0020
0030
0000
0000
0000
0000
0000
0000
0020
0030
0000
0000
0000
0000
0000
0000
0001
0000
0000
0000
0100
0000
0000
0000
0010
0000
0000
0000
1000
0000
0000
0000
,
0001
0000
0000
0000
0000
0000
0000
0000
0200
0300
0000
0000
0000
0000
0000
0000
0200
0300
0000
0000
0000
0000
0000
0000
1000
0000
0000
0000
0000
0000
0000
0000
0010
0000
0000
0000
0000
0000
0000
0000
1000
0000
0000
0000
0000
0000
0000
0000
0100
0000
0000
0000
1000
0000
0000
0000
0010
0000
0000
0000
0100
0000
0000
0000
,
0002
0010
1003
1001
,
0001
0000
0100
0010
0200
0000
0302
0000
1003
0000
0100
0010
0200
0000
2300
0000
,
3001
0000
0010
0001
2000
0000
3200
0000
0310
0000
0100
1000
0020
0000
0230
0000
,
0301
0000
1000
0001
0200
0000
0320
0000
1030
0000
0100
0010
0002
0000
2003
0000
,
3001
0100
0001
0000
0100
0010
0100
0000
0010
1000
0010
0000
1000
0100
1000
0000
,
0001
0000
0000
0000
0100
0000
0000
0000
0010
0000
0000
0000
0000
0000
0000
0000
0200
0300
0000
0000
0000
0000
0000
0000
0200
0300
0000
0000
0000
0000
0000
0000
1000
0000
0000
0000
0000
0000
0000
0000
0010
0000
0000
0000
0000
0000
0000
0000
0100
0000
0000
0000
0001
0000
0000
0000
0100
0000
0000
0000
0001
0000
0000
0000
,
1000
0000
0000
0000
0001
0000
0000
0000
1000
0000
0000
0000
0000
0000
0000
0000
0020
0030
0000
0000
0000
0000
0000
0000
0020
0030
0000
0000
0001
0000
0000
0000
0100
0000
0000
0000
0000
0000
0000
0000
0010
0000
0000
0000
0100
0000
0000
0000
0010
0000
0000
0000
0100
0000
0000
0000
0010
0000
0000
0000
0000
0000
0000
0000
,
1000
0000
0010
0000
0100
0001
0000
0001
0010
0000
0100
0000
1000
0001
0000
0001
,
0010
0001
0010
0001
0010
0100
1000
0100
1000
0000
0010
0000
0100
0000
0001
0000
,
1001
0000
0000
0000
,
0001
0000
0000
0000
,
0100
0000
0000
0000
,
0010
0000
0000
0000
,
2000
0000
3200
0000
,
0320
0000
0032
0000
,
0203
0000
0320
0000
,
2030
0000
3002
0000
,
0023
0000
0230
0000
,
2300
0000
3002
0000
,
0203
0000
0320
0000
,
2030
0000
0002
3003
,
1000
0100
1000
0100
1000
0000
0000
0000
0001
0100
0001
0100
0001
0000
0000
0000
,
0100
0010
0100
0010
0100
0000
0000
0000
0001
0010
0001
0010
0001
0000
0000
0000
,
1000
0010
1000
0010
1000
0000
0000
0000
0001
0100
0001
0100
0001
0000
0000
0000
,
1000
0001
1000
0001
1000
0000
0000
0000
0010
0100
0010
0100
0010
0000
0000
0000
,
1000
0000
0100
1000
0000
0000
0100
0000
0000
0010
0000
0000
0001
0000
0100
0001
0000
0000
0010
0000
0000
0001
0000
0000
,
1000
0000
0100
1000
0000
0100
1000
0000
0000
0001
0000
0000
0100
0000
0010
0100
0000
0010
0100
0000
0000
0001
0000
0000
,
2000
3020
0032
0203
,
2300
0000
0002
3003
,
1000
0000
0100
0000
1000
0010
0100
0000
0001
0100
0000
0001
0100
0000
0001
0000
,
1000
0000
0001
0100
0010
0000
1000
0000
0100
0000
0010
0001
0010
0000
0001
0000
,
1000
0000
0010
1000
0100
0000
0010
0000
0001
0100
0001
0000
0100
0000
0010
0000
,
0100
0000
0001
0010
0100
0000
1000
0001
0100
0000
0010
0000
0100
0000
0100
0000
,
0001
0010
0001
0000
0100
0001
0100
0000
0010
1000
0000
1000
0100
0000
1000
0000
,
0001
0000
0000
0000
0000
0000
0000
0000
1000
0000
0000
0000
0100
0000
0000
0000
1000
0000
0000
0000
0000
0000
0000
0000
0010
0000
0000
0000
0100
0000
0000
0000
0001
0000
0000
0000
0000
0000
0000
0000
1000
0000
0000
0000
0000
0000
0000
0000
0200
0300
0000
0000
0000
0000
0000
0000
0200
0300
0000
0000
0000
0000
0000
0000
,
0001
0000
0100
0000
0010
1000
0000
0010
1000
0000
0100
0000
0010
0001
0000
1000
,
0001
0100
0001
0100
0010
0100
0010
0100
0010
1000
0010
1000
0001
1000
0001
0000
,
2002
0000
0000
0000
,
3003
0000
0000
0000
;

//--------------- dance-double - Fred-104 ----------------
#NOTEDATA:;
#STEPSTYPE:dance-double;
#DESCRIPTION:Fred-104;
#DIFFICULTY:Easy;
#METER:5;
#CREDIT:Fred-104;
#NOTES:
00000000
00000000
00000000
00000000
,
00000000
00000000
00000000
00000000
,
00000000
00000000
00000000
00000000
,
00000000
00000000
00000000
00000000
,
00000000
00000000
00000000
00000000
,
00000000
00000000
00000000
00000000
,
00000000
00000000
00000000
00000000
,
00000000
00000000
00000000
00000000
,
00000000
00000000
00000000
00000000
,
00000000
00000000
00000000
00000000
,
00000001
00000001
00000000
00000100
,
00000000
00000100
00000000
00001000
,
00000000
00001000
00000000
00010000
,
00000000
00010000
00000000
01000000
,
10000000
01000000
00000000
01000000
,
00000000
00010000
00000000
00010000
,
00000000
00001000
00000000
00001000
,
00020000
00000000
00002000
00033000
,
00010000
00000000
00000100
00000000
,
00000010
00000100
00000010
00000000
,
00000001
00000000
00000100
00000000
,
00010000
00001000
00010000
00000000
,
00011000
00000000
00000000
00000000
,
10010000
00000000
00000000
00000000
,
10000000
00000000
01000000
00000000
,
00100000
00001000
00010000
00001000
,
00011000
00000000
00000000
00000000
,
00000000
00000000
00000000
00000000
,
00000010
00000000
00000100
00000000
,
00000001
00000001
00001000
00001000
,
00000001
00000000
00000001
00000010
,
00001000
00000000
00010000
01000000
,
10000000
00000000
10000000
00100000
,
00010000
00000000
00001000
00000100
,
00000001
00000000
00000001
00000010
,
00001000
00000000
00010000
01000000
,
10000000
00000000
10000000
00100000
,
00020000
00000000
00002000
00033000
,
00010000
00010000
00000100
00001000
,
00000100
00000000
00000010
00000001
,
00000100
00000010
00000100
00000001
,
00000001
00000000
00000100
00000010
,
00000110
00000000
00010000
00001000
,
00011000
00000000
01000000
00100000
,
01100000
00000000
00010000
00000000
,
01000000
01000000
00010000
10000000
,
10010000
00000000
00000000
00000000
,
00000000
00000000
00000000
00000000
,
00000000
00000000
00000000
00000000
,
00000000
00000000
00000000
00000000
,
20000000
00000000
32000000
00000000
,
03200000
00000000
00320000
00000000
,
00032000
00000000
00003200
00000000
,
00000320
00000000
00000032
00000000
,
00000203
00000000
00000320
00000000
,
00002030
00000000
00003200
00000000
,
00020300
00000000
00032000
00000000
,
00020000
00000000
00033000
00000000
,
00002000
00000000
00023000
00000000
,
00130000
01000000
10000000
00010000
,
02000000
00000000
03200000
00000000
,
10300000
01000000
00100000
00001000
,
00010000
00010000
00001000
00000100
,
00000001
00001000
00000100
00000010
,
00000002
00000203
00000320
00000230
,
00000002
00000000
00000303
00000000
,
00000001
00000010
00000100
00001000
,
00000010
00010000
00001000
00100000
,
00001000
00010000
00001000
01000000
,
00010000
01000000
00100000
00100000
,
10000000
01000000
00100000
01000000
,
00100000
00001000
00010000
00001000
,
00010000
00010000
00000100
00000100
,
00000010
00000001
00001000
00000001
,
00002002
00000000
00000000
00000000
,
00003003
00000000
00000000
00000000
;

//--------------- dance-double - Fred-104 ----------------
#NOTEDATA:;
#STEPSTYPE:dance-double;
#DESCRIPTION:Fred-104;
#DIFFICULTY:Medium;
#METER:8;
#CREDIT:Fred-104;
#NOTES:
00000000
00000000
00000000
00000000
,
00000000
00000000
00000000
00000000
,
00000000
00000000
00000000
00000000
,
00000000
00000000
00000000
00000000
,
00000000
00000000
00000000
00000000
,
00000000
00000000
00000000
00000000
,
00000000
00000000
00000000
00000000
,
00000000
00000000
00000000
00000000
,
00000000
00000000
00000000
00000000
,
00000000
00000000
00000000
00000000
,
00001000
00010000
00000000
00010000
,
00000000
01000000
00000000
01000000
,
00000000
10000000
00000000
10000000
,
00000000
00100000
00000000
00100000
,
00010000
00001000
00000000
00000010
,
00000000
00000010
00000000
00000001
,
00000000
00000001
00000000
00000100
,
00002000
00000000
00020000
00033000
,
00010000
00000000
01000000
00000000
00100000
00000000
10000000
01000000
,
00100000
00000000
00010000
00000000
01000000
00000000
00100000
10000000
,
01000000
00000000
00100000
00000000
00001000
00000000
00010000
00000010
,
00001000
00000000
00000001
00000000
00000100
00000000
00000010
00000100
,
00000001
00000000
00000010
00000000
00000100
00000000
00010000
00001000
,
00010000
00000000
00001000
00000000
00100000
00000000
00010000
10000000
,
00010000
01000000
00100000
01000000
,
00010000
10000000
01000000
00000000
00010000
00001000
00000100
00000000
,
00000110
00000000
00000000
00000000
,
00000000
00000000
00000000
00000000
,
00000001
00000100
00001000
00000000
00010000
01000000
10000000
00000000
,
00020000
02030000
03200000
20300000
,
30010000
00000000
01000000
00000000
00100000
10000000
00100000
10000000
,
01000000
00000000
00100000
00000000
00001000
00010000
00001000
00100000
,
00001000
00000000
00010000
00000000
00000100
00001000
00000010
00000100
,
00000002
00000010
00001003
00001001
,
00000001
00000000
00000100
00000000
00001000
00010000
01000000
00000000
,
10000000
00000000
00100000
00000000
00010000
00001000
00000010
00000000
,
00000001
00000000
00000100
00000000
00001000
00010000
01000000
00000000
,
20000000
00000000
00020000
30030000
,
00010000
01000000
00100000
00000000
10000000
00100000
01000000
00000000
,
00010000
00100000
01000000
00000000
00001000
00010000
00100000
00000000
,
00001000
00010000
00000010
00000000
00001000
00000100
00010000
00000000
,
00000010
00001000
00000100
00000000
00010000
00001000
00000100
00000000
,
00000110
00000000
00000001
00000000
00001000
00000000
00000010
00010000
,
00011000
00000000
00001000
00000000
00100000
00000000
00010000
10000000
,
10010000
01000000
00100000
00010000
,
10000000
01000000
00010000
00000000
00001000
00000010
00000001
00000000
,
00001001
00000000
00000000
00000000
,
00000010
00000000
00000000
00000000
,
00010000
00000000
00000000
00000000
,
00001000
00000000
00000000
00000000
,
00200000
00000000
00320000
00000000
,
20030000
00000000
32000000
00000000
,
03200000
00000000
00302000
00000000
,
00023000
00000000
00030200
00000000
,
00002300
00000000
00003002
00000000
,
00000203
00000000
00000320
00000000
,
00002030
00000000
00003002
00000000
,
00000203
00000000
00000020
00000330
,
00000001
00000100
00000001
00000000
00000100
00001000
00000100
00000000
,
00001000
00010000
00001000
00000000
00010000
01000000
00010000
00000000
,
01000000
10000000
01000000
00000000
10000000
00100000
10000000
00000000
,
00100000
00010000
00100000
00000000
00010000
00001000
00010000
00000000
,
00001000
00000010
00001000
00000000
00000010
00000001
00000010
00000000
,
00000001
00001000
00000001
00000000
00000100
00000010
00001000
00000000
,
00000001
00000010
00001000
00000000
00010000
00100000
10000000
00000000
,
00020000
00000000
20000000
30030000
,
00010000
01000000
00100000
00000000
10000000
01000000
00100000
00000000
,
00010000
01000000
00100000
01000000
00010000
01000000
00100000
00000000
,
00001000
00010000
00001000
00000000
00010000
00000100
00001000
00000000
,
00000010
00000100
00000001
00000100
00000010
00000100
00000001
00000000
,
00001000
00000100
00000010
00000000
00000001
00000010
00001000
00000000
,
00001000
00010000
00100000
10000000
00010000
10000000
00100000
00000000
,
01100000
00100000
00011000
00001000
,
00000010
00010000
00001000
00100000
00010000
10000000
00100000
01000000
,
02200000
00000000
00000000
00000000
,
03300000
00000000
00000000
00000000
;

//--------------- dance-double - Fred-104 ----------------
#NOTEDATA:;
#STEPSTYPE:dance-double;
#DESCRIPTION:Fred-104;
#DIFFICULTY:Hard;
#METER:14;
#CREDIT:Fred-104;
#NOTES:
00000000
00000000
00000000
00000000
,
00000000
00000000
00000000
00000000
,
00000000
00000000
00000000
00000000
,
00000000
00000000
00000000
00000000
,
00000000
00000000
00000000
00000000
,
00000000
00000000
00000000
00000000
,
00000000
00000000
00000000
00000000
,
00000000
00000000
00000000
00000000
,
00000000
00000000
00000000
00000000
,
00000000
00000000
00000000
00000000
,
10000000
01000000
00000000
01000000
,
00010000
00001000
00000000
00001000
,
00000100
00000001
00000000
00000001
,
00000010
00001000
00000000
00001000
,
00011000
00010000
00000000
00100000
,
10000000
01000000
00000000
00100000
,
00001000
00010000
00000000
00000010
,
00002000
00000000
00000002
00003003
,
00000001
00000010
00001000
00010000
00100000
10000000
00010000
00000000
,
01000000
00100000
10000000
01000000
00010000
00001000
00000100
00000000
,
00010000
00000100
00000010
00000001
00001000
00000100
00000010
00000000
,
00000001
00000100
00000010
00000100
00001000
00000100
00000010
00000000
,
00001001
00000001
00000100
00000000
00000010
00000000
00010000
00001000
,
00011000
00001000
00100000
00000000
00010000
00000000
10000000
01000000
,
01100000
00000000
00100000
00000000
00001000
00010000
00000000
00010000
00100000
00000000
01000000
00000000
00100000
00001000
00000000
00001000
,
00010000
00001000
00010000
00001000
00100000
00010000
00100000
00010000
10000000
00000000
00100000
00000000
01000000
00000000
00010000
00000000
,
10010000
00000000
00000000
00000000
,
00000000
00000000
00000000
00000000
,
00001000
00000000
00000000
00010000
00000000
00000000
00001000
00000000
01000000
00000000
00000000
00010000
00100000
00000000
00000000
00001000
00000000
00000000
00010000
00000000
00000100
00000000
00000000
00001000
,
00000010
00000000
00000000
00000000
00001000
00000000
00000010
00000000
00000000
00000000
00001000
00000000
00000100
00000000
00000000
00000000
00010000
00000000
00001000
00000000
00000000
00000000
00010000
00000000
00002000
00000000
00000000
00000000
00000000
00000000
00000000
00000000
00000000
00000000
00000000
00000000
00013000
00000000
00000000
00001000
00000000
00000000
00010000
00000000
00000000
00000000
00000000
00000000
,
00001000
00000000
00100000
00000000
00010000
00000000
10000000
00000000
01000000
00000000
00100000
00000000
00001000
00010000
00001000
00010000
,
00001000
00000000
00100000
00000000
01000000
00000000
00010000
00000000
00001000
00000000
00000100
00000000
00000010
00000100
00000010
00000100
,
00000010
00000000
00000001
00000000
00001000
00000000
00000001
00000000
00000100
00000000
00000010
00000000
00001000
00000001
00001000
00000001
,
00001000
00000001
00000100
00001000
00010000
01000000
10000000
00000000
,
10010000
00000000
00010000
00000000
01000000
00000000
00100000
00000000
10000000
00000000
01000000
00000000
00100000
00010000
00100000
00010000
,
00100000
00000000
00001000
00000000
00010000
00000000
01000000
00000000
00001000
00000000
00010000
00000000
00000100
00001000
00000100
00001000
,
00000100
00000000
00000010
00000000
00000001
00000000
00000100
00000000
00001000
00000000
00000100
00000000
00000001
00000100
00000001
00000100
,
00000020
00000000
00000200
00000330
,
00001000
00000000
00100000
01000000
00200000
00000000
00302000
00000000
00013000
00000000
00000010
00000100
00000020
00000000
00020030
00000000
,
00031000
00000000
01000000
00100000
02000000
00000000
03002000
00000000
00013000
00000000
00000100
00000010
00000200
00000000
00020300
00000000
,
00031000
00000000
00100000
01000000
00200000
00000000
00302000
00000000
00013000
00000000
00000100
00000010
00000200
00000000
00020300
00000000
,
00031000
00010000
00001000
00000000
00100000
00010000
00100000
00000000
00010000
10000000
00010000
00000000
01000000
00100000
01000000
00000000
,
00010000
10000000
01000000
00000000
00100000
00000000
00001000
00000000
00010000
00000000
00000100
00000000
00010000
00000100
00010000
00000100
,
00001000
00000100
00000010
00000000
00000001
00000000
00000100
00000010
00000100
00000000
00000001
00000100
00000010
00001000
00000001
00000000
,
00000100
00000000
00000100
00000000
00000001
00000010
00000000
00000010
00000100
00000000
00000100
00000000
00001000
00000010
00000000
00000010
,
00000100
00000001
00000100
00000010
00001000
00000100
00010000
00001000
00010000
00000000
00001000
00000000
00100000
00000000
00001000
00000000
,
00011000
00000000
00100000
00000000
,
10000000
00000000
01000000
00000000
,
00001000
00000000
00000010
00000000
,
00000001
00000000
00000100
00000000
,
00021000
00000000
02030000
00000000
,
23000000
00000000
30200000
00000000
,
00320000
00000000
00032000
00000000
,
00003020
00000000
00000032
00000000
,
00000203
00000000
00002300
00000000
,
00023000
00000000
02030000
00000000
,
23000000
00000000
00200000
30000000
,
00320000
00000000
00002000
00033000
,
00010000
00001000
00010000
00001000
00010000
00000000
00000000
00000000
00000010
00001000
00000010
00001000
00000010
00000000
00000000
00000000
,
00001000
00000100
00001000
00000100
00001000
00000000
00000000
00000000
00000001
00000100
00000001
00000100
00000001
00000000
00000000
00000000
,
00000100
00000010
00000100
00000010
00000100
00000000
00000000
00000000
00001000
00010000
00001000
00010000
00001000
00000000
00000000
00000000
,
00100000
01000000
00100000
01000000
00100000
00000000
00000000
00000000
10000000
00010000
10000000
00010000
10000000
00000000
00000000
00000000
,
00010000
00000000
00100000
00010000
00000000
00000000
10000000
00000000
00000000
01000000
00000000
00000000
00100000
00000000
01000000
00100000
00000000
00000000
00001000
00000000
00000000
00010000
00000000
00000000
,
00000010
00000000
00000100
00000010
00000000
00000100
00000010
00000000
00000000
00001000
00000000
00000000
00000001
00000000
00000100
00000001
00000000
00000100
00000010
00000000
00000000
00001000
00000000
00000000
,
00000002
00000203
00002300
00023000
,
02030000
00000000
00200000
03300000
,
00010000
00000000
00100000
00000000
01000000
10000000
00100000
00000000
01000000
00010000
00000000
00010000
00100000
00000000
01000000
00000000
,
10000000
00000000
00100000
01000000
00100000
00000000
01000000
00001000
01000000
00000000
00001000
00000000
00010000
00000000
00000100
00000000
,
00001000
00000000
00000100
00000010
00000100
00000000
00000001
00000000
00000100
00000010
00000100
00000000
00001000
00000000
00000001
00000000
,
00000100
00000000
00000001
00000010
00000100
00000000
00001000
00000010
00000100
00000000
00000001
00000000
00000010
00000000
00000100
00000000
,
00001000
00000001
00001000
00000000
00000010
00010000
00000010
00000000
00010000
00001000
00000000
00100000
00001000
00000000
00010000
00000000
,
00001000
00000000
00100000
00010000
00100000
00000000
00010000
10000000
00010000
00000000
01000000
00000000
00100000
00000000
10000000
00000000
,
01000000
00000000
01000000
00000000
00100000
00001000
00000000
00001000
00010000
00000000
00000100
00000000
00001000
00000010
00000000
00000010
,
00000100
00000001
00000100
00000001
00000100
00000010
00000100
00000010
00001000
00000100
00001000
00000100
00010000
00001000
00010000
00000000
,
00022000
00000000
00000000
00000000
,
00033000
00000000
00000000
00000000
;
