#TITLE:rainbow flyer -gratitude remix-;
#ARTIST:PHQUASE;
#BANNER:rainbow flyer -gratitude remix-.png;
#BACKGROUND:rainbow flyer -gratitude remix--bg.png;
#CDTITLE:./CDTitles/SDVX BOOTH.png;
#MUSIC:rainbow flyer -gratitude remix-.ogg;
#SAMPLESTART:40.465;
#SAMPLELENGTH:15;
#DISPLAYBPM:86:172;
#BPMS:0=172,72=129,75=86,78.5=172,79=86,86=172,86.5=86,91.5=172,91.75=86,91.875=43,92=86,94=172,174=86,190=172,221=344,222=172,257=86,257.5=172,260.5=86,261=172,264=86,264.5=172,266.5=86,267=172;
#STOPS:78.5=0.175,86=0.174,93=0.698,221=0.174;
#TIMESIGNATURES:0=4=4,72=3=4,75=2=4,79=4=4,91=3=4,94=4=4,254=3=4,257=4=4,261=3=4,264=4=4;
#STAGE:30;

//--------------- dance-single - Fred-104 ----------------
#NOTES:
     dance-single:
     Fred-104:
     Beginner:
     5:
     :
0000
0000
0000
0000
,
0000
0000
0000
0000
,
0000
0000
0000
0000
,
0000
0000
0000
0000
,
0000
0000
0000
0000
,
0000
0000
0000
0000
,
0000
0000
0000
0000
,
0000
0000
0000
0000
,
0000
0000
0000
0000
,
1000
0000
0010
0000
,
1000
0000
0001
0000
,
1000
0000
0100
0000
,
0010
0000
0001
0001
,
0001
0000
0100
0000
,
0010
0000
1000
0000
,
0001
0000
1000
0000
,
0001
0001
0001
0001
,
2002
0000
0000
0000
,
0000
0000
0000
0000
,
0000
3003
0000
1000
,
0020
0030
0000
0100
,
0002
0003
0000
1000
,
0200
0300
0000
0010
,
0002
0003
1000
0000
,
0010
0000
1000
0000
,
0100
0000
1000
0000
,
0001
0000
0100
0000
,
0001
0001
0001
0000
,
1000
0000
0001
0000
,
0100
0000
0001
0000
,
1000
0000
0001
0000
,
1000
1000
1000
0000
,
0010
0000
1000
0000
,
0100
0000
1000
0000
,
0010
0000
0100
0000
,
0001
0001
0001
0000
,
1000
0000
0001
0000
,
0100
0000
0010
0000
,
1000
0000
0001
0001
,
0001
0001
2002
0000
,
0000
0000
0000
0000
,
0000
0000
3003
0000
,
0000
0000
0000
0000
,
0000
0000
1000
0010
,
0100
0000
0001
0010
,
0001
0000
1000
0001
,
0100
0000
0001
0010
,
0100
1000
0001
0000
,
1000
0000
0001
0000
,
0100
0100
0100
0000
,
0010
0000
1000
0000
,
0001
0001
0001
0000
,
1000
0000
0010
0000
,
1000
1000
1000
0000
,
0100
0000
1000
0000
,
0002
0003
1000
0000
,
0010
0000
1000
1000
,
0001
0001
0001
0000
,
0100
0000
0010
0010
,
1000
1000
1000
0000
,
0100
0000
1000
1000
,
0001
0001
0001
0000
,
0100
0000
0001
0001
,
0001
0001
1000
0000
,
0002
0000
0003
1000
0000
0000
0000
0020
,
0000
0030
0100
0000
0000
0000
0002
0000
,
0003
1000
0000
0000
0000
0002
0003
0000
,
1000
0000
0010
0000
,
0001
0000
0100
0000
,
1000
1000
1000
1000
,
0001
0001
0001
0001
,
2002
0000
0000
0000
,
0000
0000
0000
0000
,
3003
0000
0000
0000
;

//--------------- dance-single - Fred-104 ----------------
#NOTES:
     dance-single:
     Fred-104:
     Easy:
     9:
     :
0000
0000
0000
0000
,
0000
0000
0000
0000
,
0000
0000
0000
0000
,
0000
0000
0000
0000
,
0000
0000
0000
0000
,
0000
0000
0000
0000
,
0000
0000
0000
0000
,
0000
0000
0000
0000
,
0000
0000
0000
0000
,
0001
0000
0100
0001
,
0010
0001
1000
0010
,
0100
0000
0001
1000
,
0001
0100
1000
0100
,
0001
0100
0001
0000
0100
0000
1000
0000
,
1000
0100
1000
0000
0100
0000
0001
0000
,
0001
0010
0001
0000
0010
0000
1000
0000
,
1000
0010
1000
0000
0010
0000
0001
0000
,
2002
0000
0000
0000
,
0000
0000
0000
0000
,
0000
0000
3003
0000
0000
0000
1000
0100
,
2100
0000
3010
1000
0100
0010
0001
0100
,
0201
0000
0310
1000
1001
0001
0100
0010
,
2010
0000
3001
1000
0100
0010
0012
0000
,
0103
0010
1001
0000
1000
0000
1000
0000
,
0100
0010
0001
0001
,
0100
0000
0010
0100
0010
0000
0010
0000
,
1000
0001
0100
0100
,
0001
0000
1000
0001
1000
0000
1000
0000
,
0100
0010
0001
0001
,
0100
0000
0010
0100
0010
0000
0010
0000
,
1000
0001
0110
0000
,
0000
0000
0100
0100
,
0100
0100
1001
0100
,
1001
0000
0000
1000
0010
0000
0010
0000
,
0010
0010
1001
0010
,
1001
0000
0000
0001
0100
0000
0100
0000
,
0100
0100
1001
0100
,
1001
0000
0000
1000
0020
0000
0030
0000
,
2002
3003
0001
0001
,
1000
1000
0220
0000
,
0000
0000
0000
0000
,
0000
0000
0330
0000
,
0000
0000
0000
0000
,
0000
0000
2000
3020
,
0230
0001
0320
0032
,
2003
0010
3200
0320
,
2030
0001
3020
0032
,
0103
0010
1000
0001
1000
0000
0100
0000
,
0010
0001
0100
0010
,
0100
0100
0100
0000
0001
0000
0010
0000
,
0001
1000
0001
0100
,
0010
0010
0010
0000
0100
0000
0001
0000
,
1000
0100
1000
0010
,
1000
1000
1000
0000
0001
0000
0010
0000
,
0100
0010
0001
1000
,
0001
1001
1000
0100
,
1000
0001
1000
0100
,
0010
0100
0010
0000
0001
0000
0100
0000
,
0001
0010
0001
0100
,
1000
0100
0001
0010
,
0100
1000
0010
0100
,
0010
1000
0010
0000
0100
0000
0001
0000
,
1000
0001
0010
1000
,
0010
0001
1000
0010
,
0200
0000
0300
0001
0000
0010
0000
0002
,
0000
0003
0100
0000
0010
0000
2000
0000
,
3000
0001
0000
0010
0000
2000
3010
0000
,
0001
0100
0001
0000
0100
0000
1000
0000
,
0100
1000
0100
0000
0001
0000
1000
0000
,
0001
0010
0001
0000
0010
1000
0010
0000
,
0001
0100
0010
0000
1000
0100
0010
0000
,
2002
0000
0000
0000
,
0000
0000
0000
0000
,
3003
0000
0000
0000
;

//--------------- dance-single - Fred-104 ----------------
#NOTES:
     dance-single:
     Fred-104:
     Medium:
     12:
     :
0000
0000
0000
0000
,
0000
0000
0000
0000
,
0000
0000
0000
0000
,
0000
0000
0000
0000
,
0000
0000
0000
0000
,
0000
0000
0000
0000
,
0000
0000
0000
0000
,
0000
0000
0000
0000
,
0000
0000
0000
0000
,
2000
0000
0000
0000
0000
3020
0000
0230
,
0000
0000
0302
0000
,
0003
0000
1001
0000
2000
3002
0000
0023
,
0000
0000
0000
0000
0031
1000
1001
0000
,
0001
0100
0001
0000
0100
0010
1000
0000
,
0010
1000
0010
0000
1000
0100
0010
0000
,
0001
0100
0001
0100
0010
1000
0010
0000
,
1000
0100
0001
0000
0100
1000
0010
0000
,
2002
0000
0000
3003
,
0220
0000
0000
0000
0000
0000
0000
0000
0000
0330
0000
0000
2002
0000
0000
0000
,
0000
0000
3003
0000
1000
0100
0010
0000
0001
0100
0010
0000
1001
0000
0100
0000
,
0120
0000
0000
0000
2030
0000
3010
1000
0002
0000
0103
0001
0010
0000
0100
1000
,
1002
0000
0000
0000
1003
0000
0010
0000
0110
0000
0200
0300
0101
0000
0100
0000
,
1200
0000
0000
0000
0302
0000
0013
1000
0002
0000
0103
1000
0002
0000
0000
0000
,
0103
0100
0010
0010
1000
0000
1002
0000
0013
0000
0001
0000
0100
0000
0010
0000
,
1000
0000
0100
0000
1000
0000
0000
0100
1000
0000
0010
0000
0100
0000
0001
0000
,
0010
0000
0001
0000
0100
0000
0000
0001
0010
0000
0001
0000
0100
0000
0010
0000
,
1000
0000
0100
0000
1000
0000
0000
0100
1000
0000
0100
0000
0010
0000
0001
0000
,
1000
0100
0010
0001
0010
0001
0100
0010
,
1000
0000
0100
0000
1000
0000
0000
0100
1000
0000
0010
0000
0100
0000
0001
0000
,
0010
0000
0001
0000
0100
0000
0000
0001
0010
0000
0001
0000
0100
0000
0010
0000
,
1000
0000
0100
0000
1000
0000
0000
0100
2000
0000
0000
0000
0000
0000
0000
0000
,
0000
0000
3000
0000
0100
1000
0002
0000
,
0103
0001
0020
0000
0130
1000
0020
0000
,
0130
0001
2000
0000
3010
1000
0200
0000
,
0310
0001
0100
0000
0110
0000
0011
0000
,
1100
0000
1001
0000
1000
0001
0100
0000
,
1100
0000
1001
0000
1000
0001
0100
0000
,
1100
0000
0000
0000
1001
0000
0000
0000
0010
0000
1000
0000
0001
0000
0000
0010
,
0001
0000
1000
0000
0001
0000
0000
1000
0001
0000
1000
0000
0010
0000
1000
0000
,
0100
0010
0001
0100
2002
0000
0000
0000
,
0000
0000
0000
0000
,
0000
0000
3003
0000
1000
0100
0001
0000
,
1000
0010
0001
0000
1000
0001
0100
0001
,
0010
0000
0100
0000
1000
0000
0000
0000
1200
0000
0000
0000
0000
1000
0000
0320
,
0000
0000
0000
0000
0230
0000
0000
0000
0302
0000
0000
0000
0000
2003
0000
3020
,
0000
0230
0000
0302
1003
0000
0100
0000
0020
0000
0000
0000
0000
0001
0000
2030
,
0000
0000
0000
0000
3002
0000
0103
0000
0020
0000
0000
0000
0000
0100
0000
1000
,
0000
0130
0000
0010
1000
0000
0001
0000
1000
0000
0200
0000
0010
0000
0300
0000
,
1000
0100
0010
0000
1000
0020
0100
0030
,
1000
0010
0100
0000
0001
0200
0010
0300
,
0001
0100
0010
0000
0001
0020
0100
0030
,
0001
0010
0100
0000
1000
0100
1000
0010
,
1000
0100
0010
0000
0001
0100
0001
0010
,
0001
0100
0010
0000
1000
0100
0010
0001
,
1000
0010
0100
0010
1000
0100
0010
0000
,
0001
0000
1001
0000
1000
0001
0100
0000
,
0001
1000
0100
0000
1000
0010
0100
0010
,
1000
0001
0010
0000
0001
1000
0010
0000
,
1000
0001
0100
0000
0001
0010
0100
0010
,
0100
1000
0010
0000
1000
0010
0100
0000
,
0010
1000
0001
0000
1000
0100
0010
0100
,
0010
0001
1000
0000
0001
1000
0010
0000
,
0100
0001
0010
0000
0001
0100
0010
1000
,
0001
0000
1000
0000
0001
0100
0010
0000
,
1000
0200
0000
0310
0001
1000
0000
0001
,
0020
0000
0031
1000
0010
0000
0100
0002
,
0000
1003
0100
0010
0001
2000
3002
0000
,
1003
0100
0010
0000
1000
0010
0100
0000
,
1000
0100
0001
0000
0100
1000
0010
0000
,
0100
0001
0100
0001
0010
0100
0010
0100
,
1000
0010
1000
0100
0010
0001
1000
0000
,
2002
0000
0000
0000
,
0000
0000
0000
0000
,
3003
0000
0000
0000
;

//--------------- dance-single - Fred-104 ----------------
#NOTES:
     dance-single:
     Fred-104:
     Hard:
     15:
     :
0000
0000
0000
0000
,
0000
0000
0000
0000
,
0000
0000
0000
0000
,
0000
0000
0000
0000
,
0000
0000
0000
0000
,
0000
0000
0000
0000
,
0000
0000
0000
0000
,
0000
0000
0000
0000
,
0000
0000
0000
0000
,
1000
0100
1000
0010
1000
0100
0010
0001
,
0100
0001
0010
0100
1000
0010
0100
0010
,
1000
0010
0100
0010
1000
0100
0010
0001
,
1000
0001
0100
0010
1000
0100
0110
0000
,
0010
0001
0100
0001
0010
0001
0100
0001
,
0010
0100
1000
0100
0010
0100
1000
0010
,
0100
0001
0100
0000
0001
0010
0001
0000
0100
0010
0100
0000
0010
1000
0010
0000
,
1000
0010
0100
0000
0001
0010
0100
0000
1000
0001
0100
0010
1000
0000
0000
0000
,
2200
0000
0000
3300
,
0022
0000
0000
0000
0000
0000
0000
0000
0000
0033
0000
0000
2002
0000
0000
0000
,
0000
0000
0000
0000
0000
0000
0000
0000
3003
0000
0000
0000
0000
0000
0000
0000
1000
0000
0000
0000
0010
0000
0000
0000
0100
0000
0010
0000
0000
0000
1000
0000
0001
0000
0000
0000
0100
0000
0010
0000
0200
0300
0000
0000
0000
0000
0000
0000
0101
0000
0000
0000
0000
0000
0000
0000
0001
0000
0000
0000
0010
0000
0000
0000
,
2000
0000
0000
0000
0000
0000
0000
0000
0000
0000
0000
0000
3010
0000
0001
0000
1000
0000
0001
0000
0000
0100
0000
0000
0010
0000
1000
0000
0100
0000
0001
0000
0000
0100
0000
0000
1000
0000
0000
0000
0000
0000
0010
0000
0000
0100
0000
0000
,
0102
0000
0000
0000
0000
0000
0000
0000
0000
0000
0000
0000
0000
0000
0000
0000
1003
0000
0000
0000
0000
0000
1001
0000
0000
0000
0000
0000
0000
0000
0000
0000
0220
0330
0000
0000
0000
0000
0000
0000
1001
0000
0000
0000
0000
0000
0000
0000
0101
0000
0000
0000
0000
0000
0000
0000
0010
0000
0000
0000
1000
0000
0000
0000
,
1200
0000
0000
0000
0000
0000
0000
0000
0000
0000
0000
0000
0310
0000
0001
0000
1000
0000
0001
0000
0000
0100
0000
0000
0010
0000
1000
0000
0001
0000
0010
0000
0000
0100
0000
0000
1000
0000
0000
0000
0100
0000
0002
0000
0000
0000
0000
0000
,
0103
1000
0001
0100
0010
0000
1001
0000
1000
0000
0100
0000
0010
0000
1000
0000
,
0010
0100
1000
0010
0100
0001
0010
0100
,
0001
0100
0010
0001
1000
0001
0100
1000
,
0100
0010
1000
0001
0010
1000
0010
0100
,
1000
0001
0100
0000
0001
1000
0010
0100
,
1000
0100
0001
1000
0001
0010
0100
0001
,
0100
1000
0001
0100
0010
1000
0100
0010
,
1000
0000
0010
0000
0100
0000
1000
0000
0001
0000
0000
0011
0000
0000
1010
0000
,
0000
0101
0000
0000
1100
0000
1000
0000
0010
0100
0010
0000
1000
0010
1000
0000
,
0010
0100
0001
0000
0010
0001
1000
0000
0001
0100
0001
0000
0100
0010
0100
0000
,
0010
1000
0100
0000
1000
0010
0100
0000
0010
1000
0010
0000
0100
0001
0100
0000
,
0001
0010
0100
0000
1000
0010
0100
0000
0010
1000
0010
0000
0100
0001
0100
0000
,
0001
1000
0100
0000
0010
0001
1000
0000
0001
0100
0010
0000
1000
0100
0000
0010
,
0000
0001
0000
0100
0010
0000
0100
0000
0010
1000
0100
0000
1000
0010
0000
0100
,
0000
0001
0010
0000
0001
0010
0000
0010
0100
0000
1000
0010
0000
0100
0000
0010
,
1000
0000
0100
0010
0000
0010
0001
1000
0001
0000
0100
0000
0010
0000
1000
0010
,
1000
0010
0100
0000
0010
0000
1000
0000
2002
0000
0000
0000
0000
0000
0000
0000
,
0000
0000
0000
0000
,
0000
0000
0000
0000
3003
0000
0000
0000
1000
0000
0100
0000
0010
0001
0000
0010
,
0001
0000
0100
0000
0010
1000
0000
1000
0001
0000
0100
0000
0010
0000
0100
0000
,
0001
0000
1000
0000
0010
0000
0100
0000
0101
0000
0001
0000
0010
0100
0000
0010
,
0000
0001
0100
0010
1000
0000
0010
0000
1000
0000
0100
0000
0010
1000
0000
0010
,
0000
0001
0000
0100
0010
0000
1000
0001
0010
0000
0001
0000
0010
0100
0000
1000
,
0000
0010
0000
0100
1000
0000
0100
0000
0001
0000
1000
0000
0100
0010
0000
0001
,
0000
0100
0000
0010
0001
0010
1000
0000
0001
0000
0010
0000
0100
0000
1000
0000
,
0010
1000
0100
0010
0001
0100
0010
0100
,
0001
0010
0100
1000
0010
0100
0010
1000
,
0100
0010
0001
1000
0001
0010
0100
0001
,
0100
0010
0001
1000
0001
0100
0010
0100
,
0001
0100
0010
1000
0100
0010
0001
1000
,
0001
0100
1000
0100
0010
1000
0001
0010
,
0100
1000
0001
0100
0010
1000
0100
0010
,
0001
0000
0000
0000
0000
0000
0000
0000
1000
0000
0000
0000
0000
0000
0000
0000
2002
3003
0000
0000
0000
0000
0000
0000
0000
0000
0000
0000
0000
0000
0000
0000
0001
0000
0000
0000
0100
0000
0000
0000
0001
0000
0000
0000
0000
0000
0000
0000
1000
0000
0000
0000
0100
0000
0000
0000
1000
0000
0000
0000
0000
0000
0000
0000
,
0001
0010
0001
0000
1000
0010
1000
0000
0001
0000
0010
0000
0100
0000
0010
0000
,
0001
0000
0100
0000
0010
0000
1000
0000
0100
1000
0100
0000
0010
0001
0010
0000
,
0001
0100
0001
0000
1000
0010
1000
0000
0010
0000
1000
0000
0100
0000
1000
0000
,
0010
0000
0100
0000
0001
0000
1000
0000
0001
0100
0001
0000
1000
0010
1000
0000
,
0001
0010
0001
0000
1000
0100
1000
0000
0001
0000
0010
0000
0100
0000
0001
0000
,
1000
0000
0010
0000
0100
0000
1000
0000
0001
0010
0001
0000
1000
0100
1000
0000
,
0001
0100
0001
0000
1000
0010
1000
0000
0001
0000
0100
0000
0010
0000
1000
0000
,
0100
0010
0001
1000
0001
0100
0010
1000
,
0001
0000
0000
0000
0200
0000
0000
0000
0310
0100
0010
0100
0001
0000
0000
0000
0010
0000
0000
0000
0100
0000
0000
0000
0010
0000
0000
0000
0001
0000
0000
0000
,
2000
0000
0000
0000
3010
1000
0010
1000
0100
0000
0000
0000
1000
0000
0000
0000
0010
0000
0000
0000
0100
0000
0000
0000
0010
0000
0000
0000
2000
0000
0000
0000
,
3001
1000
0001
1000
0010
0000
0000
0000
0100
0000
0000
0000
0001
0000
0000
0000
0020
0000
0000
0000
0031
0010
0001
0010
0200
0000
0000
0000
2300
0000
0000
0000
,
3001
0010
1000
0001
0100
1000
0001
0010
,
1000
0001
0100
1000
0001
0100
0010
1000
,
0001
0010
0100
1000
0010
1000
0100
1000
,
0100
1000
0100
0000
0010
0001
0010
0000
0001
1000
0010
0100
0001
1000
0001
0000
,
2002
0000
0000
0000
,
0000
0000
0000
0000
,
3003
0000
0000
0000
;

//--------------- dance-single - Fred-104 ----------------
#NOTES:
     dance-single:
     Fred-104:
     Challenge:
     17:
     :
0000
0000
0000
0000
,
0000
0000
0000
0000
,
0000
0000
0000
0000
,
0000
0000
0000
0000
,
0000
0000
0000
0000
,
2020
0000
0000
0000
0000
3030
0000
2002
,
0000
0000
0000
0000
,
3003
0000
0002
0000
0203
2300
0000
3200
,
0000
0310
1000
0200
0000
0310
0011
0000
,
0001
0000
0001
0000
0100
0001
0010
0001
,
0000
1000
0010
0000
1000
0001
0100
0100
,
1000
0000
1001
0000
0001
0010
0100
0010
,
0001
0100
1000
0001
0010
1000
1001
0000
,
0001
0100
0001
0000
0010
0100
1000
0000
1000
0010
0100
0000
0001
0010
0100
0000
,
1000
0000
0001
0100
0010
0000
1000
0100
0010
0000
0001
0100
0010
0000
1000
0000
,
0001
0100
0001
0100
0010
1000
0010
0000
1000
0100
1000
0100
0010
0001
0010
0000
,
0001
0100
0001
0100
0010
1000
0010
1000
0001
0100
0010
1000
0001
0000
1000
0000
,
2002
0000
0000
3003
,
0220
0000
0000
0000
0000
0000
0000
0000
0000
0330
0000
0000
2002
0000
0000
0000
,
0000
0000
0000
0000
0000
0000
0000
0000
3003
0000
0000
0000
0000
0000
0000
0000
1000
0000
0000
0000
0100
0000
0010
0000
0100
0000
1000
0000
0000
0000
0001
0000
0100
0000
0010
0000
1000
0000
0001
0000
2000
3000
0000
0000
0000
0000
0000
0000
1001
0000
0000
0000
0000
0000
0000
0000
0001
0000
0000
0000
1000
0000
0000
0000
,
1020
0000
0000
0000
0000
0000
0000
0000
0000
0000
0000
0000
0000
0000
0000
0000
0000
0000
0000
0000
0000
0000
0000
0000
1030
0000
0000
0000
0010
0000
0000
0000
1000
0000
0000
0000
0100
0000
0000
0010
0000
0000
0100
0000
0000
0010
0000
0000
0001
0000
0000
0000
1000
0000
0000
0000
0100
0000
0000
0000
1000
0000
0000
0010
0000
0000
0100
0000
0000
0001
0000
0000
2000
0000
0000
0000
0000
0000
0000
0000
0000
0000
0000
0000
3100
0000
0000
0000
0000
0000
0001
0000
0000
0000
0000
0000
,
0201
0000
0000
0000
0000
0000
0000
0000
0000
0000
0000
0000
0000
0000
0000
0000
0000
0000
0000
0000
0000
0000
0000
0000
1300
0000
0000
0000
0100
0000
0000
0000
0010
0000
0000
0000
0001
0000
0000
0000
0100
0000
0000
0000
0010
0000
0000
0000
2000
0000
0000
0000
0000
0000
0000
0000
0000
0000
0000
0000
3001
0000
0000
1000
0000
0000
0001
0000
0000
1000
0000
0000
0100
0000
0000
0000
0000
0000
0000
0000
0000
0000
0000
0000
1000
0000
0000
0000
0000
0000
0010
0000
0000
0000
0000
0000
,
0210
0000
0000
0000
0000
0000
0000
0000
0000
0000
0000
0000
0000
0000
0000
0000
0000
0000
0000
0000
0000
0000
0000
0000
0301
0000
0000
0000
0010
0000
0000
0000
0100
0000
0000
0000
1000
0000
0000
0100
0000
0000
0010
0000
0000
0001
0000
0000
1000
0000
0000
0000
0010
0000
0000
0000
0100
0000
0000
0000
0001
0000
0000
0100
0000
0000
0010
0000
0000
1000
0000
0000
0001
0000
0000
0000
0000
0000
0000
0000
0100
0000
0000
0000
0020
0000
0000
0000
0000
0000
0000
0000
0000
0000
0000
0000
,
1030
0000
1100
0000
0001
0100
0010
0100
0001
0000
0000
0000
1000
0001
0010
0100
1000
0000
0010
0000
1000
0000
0100
0000
1000
0000
0010
0000
0000
0000
0100
0000
,
0000
0001
0100
0001
0010
0000
0001
0000
1000
0001
0010
0001
0100
0001
0000
0100
,
0000
0010
1000
0000
0100
1000
0000
1000
0010
0000
1000
0100
0010
0001
0000
1000
,
0001
0000
0100
0001
0000
0010
0001
0100
0001
1000
0010
0000
0100
0001
0000
0010
,
0000
0001
1000
0001
0010
0000
0001
0000
1000
0010
1000
0100
0010
0100
0000
1000
,
0000
0001
0010
0100
1000
0000
0001
0000
0100
0010
1000
0010
0100
0001
0000
0010
,
0000
0100
1000
0000
0001
0100
0000
0010
1000
0000
0001
1000
0100
0010
0000
0001
,
0100
0000
0001
0010
0000
0001
1000
0001
1000
0000
0000
1010
0000
0000
0101
0000
,
0000
1100
0000
0000
0011
0000
1002
0000
0103
0010
1000
0000
0100
0010
0001
0010
,
0100
0010
0001
0000
1000
0001
0100
0001
0010
0100
1000
0000
0010
1000
0100
1000
,
0010
0100
0001
0000
1000
0100
0010
0001
0010
0100
1000
0000
0100
1000
0100
1000
,
0010
0100
0001
0000
0100
0001
0010
0001
0100
0001
0100
0000
0001
0010
0100
1000
,
0001
0010
0100
1000
0001
0000
1000
0000
0010
1000
0100
0010
0001
0010
0000
0100
,
0000
1000
0010
0100
0001
0000
0010
0000
0001
0100
0010
0100
0001
1000
0000
0010
,
0000
0100
0001
0000
1000
0100
0000
0001
0100
0000
1000
0100
0010
0001
0000
0100
,
0001
0000
0100
0010
0000
0001
0010
1000
0001
0000
0100
0000
0010
0000
1000
0001
,
0100
0001
1000
0000
0001
0000
0100
0000
0220
0000
0000
0000
0000
0000
0000
0000
,
0000
0000
0000
0000
,
0000
0000
0000
0000
0330
0000
0000
0000
0001
0000
0010
0000
0100
1000
0000
1000
,
0010
0000
0100
0000
0001
0100
0000
0100
0001
0010
0001
1000
0010
1000
0100
0010
,
0001
0100
0010
1000
0001
0000
1000
0000
1002
0000
0000
0000
0000
0203
0000
2300
,
0000
0000
0000
0000
3020
0000
0030
0000
0012
0000
0000
0000
0000
2003
0000
3002
,
0000
0203
0000
0000
0310
0000
1000
0000
2100
0000
0000
0000
3200
0320
0000
2030
,
0000
0000
0000
0000
3020
0000
0031
0000
2001
0000
0000
0000
3002
0203
0000
0320
,
0000
0000
0032
0000
0000
0000
0023
0000
1030
0000
0001
0100
0001
0100
0010
0000
1000
0000
0000
0000
0010
0000
0000
0000
0100
0000
0000
0000
1000
0000
0000
0000
,
0100
0010
1000
0001
0100
0010
0001
0010
,
0100
0001
0100
0001
1000
0000
0000
0000
0001
0000
0100
0000
1000
0000
0100
0000
,
0010
1000
0001
0010
0100
1000
0010
0100
,
1000
0100
1000
0100
0001
0000
0000
0000
1000
0000
0010
0000
0001
0000
0010
0000
,
0100
0010
1000
0001
0010
0100
0001
0100
,
1000
0001
0010
0001
0010
0000
0000
0000
0001
0000
0010
0000
0100
0000
0001
0000
,
0100
0000
0010
0000
0001
0000
1000
0000
0001
1000
0001
0000
0100
0010
0100
0000
,
0010
0000
0000
0000
0000
0000
0000
0000
1000
0000
0000
0000
0000
0000
0000
0000
2002
3003
0000
0000
0000
0000
0000
0000
0000
0000
0000
0000
0000
0000
0000
0000
1000
0000
0000
0000
0010
0000
0000
0000
1000
0000
0000
0000
0000
0000
0000
0000
0010
0000
0000
0000
0100
0000
0000
0000
0010
0000
0000
0000
0000
0000
0000
0000
,
1000
0100
1000
0000
0001
0100
0001
0000
1000
0100
1000
0100
0010
0100
0010
0100
,
1000
0001
1000
0001
0010
0000
0100
0000
0010
0001
0010
0000
0001
0100
0001
0000
,
1000
0010
1000
0000
0001
0100
0001
0000
0100
0010
1000
0010
0100
0010
1000
0000
,
0001
0010
0100
0010
0001
0010
0100
0000
1000
0010
1000
0000
0010
0100
0010
0000
,
0100
0001
0100
0000
0001
0010
0001
0000
0100
0001
0010
0001
0100
0001
0010
0100
,
1000
0010
1000
0100
1000
0000
0010
0000
0100
0001
0100
0000
0001
0010
0001
0000
,
1000
0100
1000
0000
0010
1000
0010
0000
1000
0010
1000
0010
0100
0001
0100
0001
,
1000
0010
0100
0001
1000
0000
0001
0000
1000
0000
0100
0000
0010
0000
0001
0000
,
1000
0000
0010
0000
0200
0000
0000
0000
0301
0100
0010
0100
0001
0000
0000
0000
1000
0000
0000
0000
0001
0000
0000
0000
0100
0000
0000
0000
0010
0000
0100
0000
,
0002
0000
0000
0000
0013
0001
0100
0001
0100
0000
0000
0000
0001
0000
0000
0000
0010
0000
0000
0000
0001
0000
0000
0000
1000
0000
0010
0000
0200
0000
0000
0000
,
0310
1000
0001
1000
0100
0000
0000
0000
0010
0000
0000
0000
0001
0000
0000
0000
2000
0000
0000
0000
3001
0100
0010
0100
0002
0000
2003
0000
3002
0000
2003
0000
,
3001
0010
1000
0010
0001
0010
1000
0010
,
0001
0100
1000
0100
0001
0100
1000
0100
,
0001
0000
0010
0000
0100
0000
1000
0000
0001
0000
0100
0000
0010
1000
0100
1000
,
0010
0100
0010
0100
0001
1000
0001
1000
0100
0010
0100
0010
0001
1000
0001
0000
,
2002
0000
0000
0000
,
0000
0000
0000
0000
,
3003
0000
0000
0000
;

//--------------- dance-double - Fred-104 ----------------
#NOTES:
     dance-double:
     Fred-104:
     Easy:
     9:
     :
00000000
00000000
00000000
00000000
,
00000000
00000000
00000000
00000000
,
00000000
00000000
00000000
00000000
,
00000000
00000000
00000000
00000000
,
00000000
00000000
00000000
00000000
,
00000000
00000000
00000000
00000000
,
00000000
00000000
00000000
00000000
,
00000000
00000000
00000000
00000000
,
00000000
00000000
00000000
00000000
,
00001000
00000000
00010000
00000000
,
00001000
00000000
00100000
00010000
,
10000000
00100000
01000000
00100000
,
10000000
00000000
01000000
00000000
00010000
00001000
00010000
00000000
,
00001000
00000100
00000001
00001000
,
00000001
00000100
00001000
00010000
,
00001000
00010000
00100000
00000000
01000000
00100000
01000000
00000000
,
10000000
00100000
01000000
00000000
00100000
10000000
00010000
00000000
,
02020000
00000000
00000000
03030000
,
00022000
00000000
00000000
00000000
00000000
00000000
00000000
00000000
00000000
00033000
00000000
00000000
00002020
00000000
00000000
00000000
,
00000000
00003030
00000001
00000000
00001000
00001000
00000001
00000000
,
00000200
00000000
00001300
00001000
00010000
00010000
00011000
00000000
,
00200000
00000000
01300000
10000000
00020000
00000000
10030000
00000000
,
10200000
00000000
01300000
00001000
00010000
00001000
00020000
00000000
,
00031000
00010000
00011000
00000000
10010000
00000000
10000000
00000000
,
01000000
00010000
00001000
00010000
,
00001000
00000100
00001001
00000001
,
00000100
00001000
00010000
00001000
,
00010000
01000000
10010000
10000000
,
00100000
00010000
00001000
00010000
,
00001000
00000010
00001001
00000001
,
00000010
00001000
00011000
00000000
,
00000000
00000000
00000000
00000000
00010000
01000000
10000000
00000000
,
00000000
00000000
10010000
00000000
10000000
01000000
00010000
00000000
,
00000000
00000000
00011000
00000000
00001000
00000100
00000001
00000000
,
00000000
00000000
00001001
00000000
00000001
00000100
00001000
00000000
,
00000000
00000000
00011000
00000000
00010000
00001000
00010000
00000000
,
00010000
00000000
01000000
00000000
10000000
01000000
10000000
00000000
,
01000000
00000000
00100000
00000000
00010000
10000000
00010000
00000000
,
10000000
01000000
10000000
00000000
01000000
00000000
00010000
00000000
,
00001000
00000100
00002001
00000000
,
00000000
00000000
00000000
00000000
,
00000000
00000000
00003000
00000000
,
00000000
00000000
00000000
00000000
,
00000000
00000000
00000002
00002003
,
00003002
00000100
00000023
00000230
,
00000301
00000100
00001000
00000000
00012000
00000000
01000000
00000000
,
00003100
00020000
00032000
00203000
,
00310000
10000000
00010000
01000000
00100000
00000000
00100000
00000000
,
10000000
10000000
01000000
00100000
,
00001000
00010000
00000100
00000100
,
00001000
00001000
00000001
00000100
,
00001000
00000100
00000001
00000001
,
00000010
00000010
00001000
00010000
,
00100000
10000000
00010000
01000000
,
00100000
00000000
10000000
00000000
01000000
00100000
00001000
00000000
,
00010000
00011000
00010000
00000100
,
00001000
00000001
00000100
00000010
,
00000100
00000001
00000010
00001000
,
00010000
01000000
10000000
00010000
,
01000000
00100000
01000000
00000000
00010000
00000000
00100000
00000000
,
01000000
10000000
00100000
10000000
,
00010000
01000000
00100000
01000000
,
00001000
00010000
00000100
00001000
,
00000001
00000100
00000010
00000000
00000100
00000000
00000100
00000000
,
00000001
00002000
00000000
00003010
00000000
00000010
00000000
00010000
,
00002000
00000000
00103000
00000000
00100000
00000000
00010000
20000000
,
00000000
31000000
00000000
01000000
00000000
00200000
00000000
00000000
,
00301000
00001000
00010000
00010000
,
00000010
00000010
00001000
00001000
,
00000001
00000100
00000001
00000000
00000100
00001000
00000100
00000000
,
00001000
00010000
00001000
00000000
00010000
01000000
00010000
00000000
,
20020000
00000000
00000000
00000000
,
00000000
00000000
00000000
00000000
,
30030000
00000000
00000000
00000000
;

//--------------- dance-double - Fred-104 ----------------
#NOTES:
     dance-double:
     Fred-104:
     Medium:
     12:
     :
00000000
00000000
00000000
00000000
,
00000000
00000000
00000000
00000000
,
00000000
00000000
00000000
00000000
,
00000000
00000000
00000000
00000000
,
00000000
00000000
00000000
00000000
,
00000000
00000000
00000000
00000000
,
00000000
00000000
00000000
00000000
,
00000000
00000000
00000000
00000000
,
00000000
00000000
00000000
00000000
,
00020000
00000000
00000000
00000000
00000000
00032000
00000000
00203000
,
00000000
00000000
00320000
00000000
,
00030000
00000000
10010000
00000000
10000000
01000000
00000000
00200000
,
00000000
00000000
00000000
00302000
00000000
00000000
00013000
00000000
,
00001000
00001000
00010000
00010000
,
00000010
00000010
00001000
00001000
,
00000001
00000100
00001000
00000000
00010000
01000000
10000000
00000000
,
00010000
10000000
00100000
10000000
00010000
00100000
00001000
00000000
,
00022000
00000000
00000000
00033000
,
00000220
00000000
00000000
00000000
00000000
00000000
00000000
00000000
00000000
00000330
00000000
00000000
00002002
00000000
00000000
00000000
,
00000000
00000000
00003003
00000000
00000001
00000100
00000001
00000000
00000100
00001000
00010000
00000000
00001000
00000000
00100000
00000000
,
00120000
00000000
00000000
00000000
02030000
00000000
03010000
10000000
02000000
00000000
13000000
00010000
01000000
00000000
00100000
00000000
,
20100000
00000000
31000000
00100000
00011000
00002000
00013000
00000100
,
00000120
00000000
00000000
00000000
00000230
00000000
00000301
00000010
00000200
00000000
00001300
00000010
00000200
00000000
00000000
00000000
,
00000310
00010000
00011000
20010000
31000000
00010000
01000000
00010000
,
00001000
00000010
00000001
00000000
00001000
00000010
00001000
00000010
,
00010000
00001000
00000100
00000000
00000001
00001000
00000001
00001000
,
00000010
00000100
00001000
00000000
00010000
00001000
00010000
00001000
,
00100000
00010000
01000000
10000000
01000000
00100000
01000000
00100000
,
10000000
01000000
00100000
00000000
00001000
00010000
00001000
00010000
,
00000100
00001000
00000010
00000000
00000100
00000001
00000010
00000000
,
00000001
00000100
00001000
00000000
00000110
00000000
00000000
00000000
,
00000000
00000000
00000000
00000000
00000001
00001000
00000100
00000000
,
00010000
00001000
00010000
00000000
00001000
01000000
00010000
00000000
,
10000000
00100000
10000000
00000000
10000000
00010000
01000000
00000000
,
00001000
00010000
00001000
00000000
00010000
00000100
00001000
00000000
,
00000001
00001000
00000100
00000000
00000001
00000100
00000001
00000000
,
00000101
00000000
00001100
00000000
00010000
00001000
00010000
00000000
,
00011000
00000000
00101000
00000000
00010000
00100000
01000000
00000000
,
10000000
01000000
00100000
00000000
10000000
01000000
00010000
01000000
,
00010000
00001000
00000100
00000001
00002002
00000000
00000000
00000000
,
00000000
00000000
00000000
00000000
,
00000000
00000000
00003003
00000000
00000001
00000010
00001000
00000000
,
00010000
00100000
10000000
00000000
00010000
10000000
00010000
01000000
,
00100000
00000000
10000000
00000000
00010000
00000000
00000000
00000000
20010000
00000000
00000000
00000000
00000000
00100000
00000000
30200000
,
00000000
00000000
00000000
00000000
02300000
00000000
00000000
00000000
03002000
00000000
00000000
00000000
00000000
00010000
00000000
00023000
,
00000000
00001000
00000000
00031000
00010000
00001000
00010000
00000000
00000200
00000000
00000000
00000000
00000000
00001000
00000000
00002300
,
00000000
00000000
00000000
00000000
00003001
00000000
00000100
00000000
00000020
00000000
00000000
00000000
00000000
00010000
00000000
00020030
,
00000000
00001000
00000000
00031000
00010000
00100000
10000000
00000000
10000000
00000000
01000000
00000000
00010000
00000000
00000000
00000000
,
00001000
00000100
00000001
00000000
00000001
00000010
00001000
00000000
,
00010000
00100000
10000000
00000000
10000000
00100000
00010000
00000000
,
00001000
00000010
00000001
00000000
00000001
00000100
00001000
00000000
,
00010000
01000000
10000000
00000000
00010000
10000000
01000000
10000000
,
01000000
00010000
00001000
00000000
00010000
00001000
00010000
00001000
,
00000100
00000001
00000100
00000000
00000001
00000010
00000001
00000010
,
00001000
00010000
00001000
00000000
00010000
00100000
00010000
00100000
,
10000000
00010000
10000000
00000000
00010000
10000000
01000000
00000000
,
00100000
00010000
00100000
00000000
01000000
00001000
00010000
00000000
,
00001000
00010000
00000100
00000000
00001000
00000001
00000010
00000000
,
00000100
00001000
00000010
00000000
00000100
00000001
00000010
00000000
,
00000100
00010000
00001000
00000000
00100000
00010000
10000000
00000000
,
00010000
01000000
00100000
00000000
10000000
01000000
00100000
00000000
,
00001000
00010000
00001000
00000000
01000000
00001000
00010000
00000000
,
00000100
00001000
00000001
00000000
00000100
00000010
00001000
00000001
,
00000100
00000010
00001000
00000000
00000001
00000100
00000001
00000100
,
00001000
00010000
00000000
00001000
00010000
00001000
00010000
01000000
,
10000000
00000000
10000000
00100000
10000000
00100000
00010000
00001000
,
00000000
00010000
00001000
00010000
00001000
00000010
00000001
00000000
,
00001000
00000001
00000100
00000001
00001000
00000001
00000100
00000000
,
00000001
00000010
00000100
00001000
00000100
00010000
00001000
00000000
,
00100000
00010000
10000000
00010000
01000000
00100000
10000000
00000000
,
00010000
01000000
10000000
01000000
00010000
00001000
00010000
00000000
,
00022000
00000000
00000000
00000000
,
00000000
00000000
00000000
00000000
,
00033000
00000000
00000000
00000000
;

//--------------- dance-double - Fred-104 ----------------
#NOTES:
     dance-double:
     Fred-104:
     Hard:
     16:
     :
00000000
00000000
00000000
00000000
,
00000000
00000000
00000000
00000000
,
00000000
00000000
00000000
00000000
,
00000000
00000000
00000000
00000000
,
00000000
00000000
00000000
00000000
,
00000000
00000000
00000000
00000000
,
00000000
00000000
00000000
00000000
,
00000000
00000000
00000000
00000000
,
00000000
00000000
00000000
00000000
,
00000001
00000100
00000010
00001000
00000010
00000100
00000010
00002000
,
00000000
00003001
00000010
00001000
00010000
00100000
10000000
00010000
,
00000000
01000000
01100000
00000000
00100000
10000000
01000000
00100000
,
00000000
00001000
00010000
00000100
00000010
00000001
00001001
00000000
,
00000100
00000001
00000100
00000001
00000010
00001000
00010000
00100000
,
10000000
01000000
10000000
01000000
10000000
00100000
00010000
00001000
,
00010000
00001000
00010000
00000000
00000100
00001000
00000100
00000000
00010000
00000010
00010000
00000000
00000010
00001000
00000010
00000000
,
00001000
00000100
00001000
00000000
00000001
00000100
00000001
00000000
00000100
00000010
00000100
00000010
00000100
00000000
00000000
00000000
,
00000220
00000000
00000000
00000330
,
00022000
00000000
00000000
00000000
00000000
00000000
00000000
00000000
00000000
00033000
00000000
00000000
02200000
00000000
00000000
00000000
,
00000000
00000000
00000000
00000000
00000000
00000000
00000000
00000000
03300000
00000000
00000000
00000000
00000000
00000000
00000000
00000000
01000000
00000000
00000000
00000000
00100000
00000000
00000000
00000000
10000000
00000000
01000000
00000000
00000000
00000000
01000000
00000000
00100000
00000000
00000000
00000000
00010000
00000000
10000000
00000000
00020000
00030000
00000000
00000000
00000000
00000000
00000000
00000000
01001000
00000000
00000000
00000000
00000000
00000000
00000000
00000000
00001000
00000000
00000000
00000000
00000000
00000000
00000000
00000000
,
00021000
00000000
00000000
00000000
00000000
00000000
00000000
00000000
00000000
00000000
00000000
00000000
00030100
00000000
00001000
00000000
00000010
00000000
00000100
00000000
00000000
00000000
00000000
00000000
00000001
00000000
00000010
00000000
00001000
00000000
00000010
00000000
00000000
00000001
00000000
00000000
00000100
00000000
00000000
00000000
00000000
00000000
00000010
00000000
00000000
00010000
00000000
00000000
,
00021000
00000000
00000000
00000000
00000000
00000000
00000000
00000000
00000000
00000000
00000000
00000000
00000000
00000000
00000000
00000000
00031000
00000000
00000000
00000000
00000000
00000000
00011000
00000000
00000000
00000000
00000000
00000000
00000000
00000000
00000000
00000000
02200000
03300000
00000000
00000000
00000000
00000000
00000000
00000000
10010000
00000000
00000000
00000000
00000000
00000000
00000000
00000000
11000000
00000000
00000000
00000000
00000000
00000000
00000000
00000000
00010000
00000000
00000000
00000000
00000000
00000000
00000000
00000000
,
00102000
00000000
00000000
00000000
00000000
00000000
00000000
00000000
00000000
00000000
00000000
00000000
00013000
00000000
00000100
00000000
00001000
00000000
00000100
00000000
00000000
00000000
00000000
00000000
00010000
00000000
00001000
00000000
01000000
00000000
00001000
00000000
00000000
00010000
00000000
00000000
00001000
00000000
00000000
00000000
00010000
00000000
00002000
00000000
00000000
00000000
00000000
00000000
,
00013000
00001000
00000010
00000001
00001000
00000000
00001001
00000000
00000001
00000000
00000010
00000000
00000100
00000000
00001000
00000000
,
00000010
00000100
00001000
00010000
00000100
00001000
00010000
00100000
,
00001000
00010000
00100000
01000000
00010000
00100000
01000000
10000000
,
00010000
01000000
00100000
10000000
01000000
00010000
00001000
00000100
,
00000001
00001000
00000001
00000000
00001000
00000001
00000010
00000100
,
00001000
00000100
00010000
00001000
00100000
00010000
00100000
01000000
,
10000000
00010000
10000000
01000000
00100000
00010000
01000000
00100000
,
00010000
00000000
00001000
00000000
00100000
00000000
00010000
00000000
00001000
00000000
00000000
01001000
00000000
00000000
00010100
00000000
,
00000000
00101000
00000000
00000000
00010010
00000000
00000000
00000000
00010000
00000100
00010000
00000000
00000100
00001000
00000100
00000000
,
00000010
00000100
00000010
00000000
00000100
00000001
00000100
00000000
00000001
00000010
00000001
00000000
00001000
00000010
00001000
00000000
,
00000001
00001000
00000001
00000000
00000100
00000010
00000100
00000000
00000010
00001000
00000010
00000000
00010000
00001000
00010000
00000000
,
00001000
00100000
00001000
00000000
01000000
00100000
01000000
00000000
00010000
10000000
00010000
00000000
01000000
00100000
01000000
00000000
,
00100000
10000000
00100000
00000000
10000000
00010000
10000000
00000000
00010000
01000000
00010000
00000000
10000000
01000000
00000000
00100000
,
00000000
00100000
00000000
00001000
00010000
00000000
00001000
00000000
00100000
00001000
00100000
00000000
00001000
00010000
00000000
00000100
,
00000000
00001000
00000010
00000000
00000100
00000010
00000000
00000010
00001000
00000000
00000001
00000010
00000000
00000010
00000000
00000100
,
00000010
00000000
00000001
00000100
00000000
00000010
00001000
00000001
00001000
00000000
00000001
00000000
00000010
00000000
00000100
00001000
,
00000100
00010000
00001000
00000000
00010000
00000000
00000000
00000000
00022000
00000000
00000000
00000000
00000000
00000000
00000000
00000000
,
00000000
00000000
00000000
00000000
,
00000000
00000000
00000000
00000000
00033000
00000000
00000000
00000000
00001000
00000000
00100000
00000000
00010000
00100000
00000000
00100000
,
01000000
00000000
10000000
00000000
00010000
10000000
00000000
10000000
00100000
00000000
10000000
00100000
10000000
00000000
00100000
01000000
,
00010000
00100000
00001000
00000000
00010000
00000000
00001000
00000000
00011000
00000000
00010000
00000000
00000100
00001000
00000000
00000001
,
00000000
00000010
00000001
00001000
00000001
00000000
00000100
00000000
00001000
00000000
00010000
00000000
01000000
10000000
00000000
00010000
,
00000000
10000000
00100000
00010000
00100000
10000000
00010000
00000000
01010000
00000000
01000000
00000000
00100000
10000000
00000000
01000000
,
00000000
00100000
00001000
00010000
00000100
00000000
00000010
00000000
00000001
00000000
00000100
00000000
00001000
00000100
00000000
00000001
,
00000000
00000010
00001000
00010000
00100000
10000000
00010000
00000000
10000000
00000000
01000000
00000000
00010000
00000000
00001000
00000000
,
00000100
00000001
00001000
00000000
00000001
00000100
00001000
00010000
,
01000000
10000000
00010000
00000000
10000000
00100000
00010000
00001000
,
00000010
00000001
00001000
00000000
00000001
00000010
00001000
00010000
,
00100000
10000000
00010000
00000000
10000000
00100000
10000000
01000000
,
00100000
00010000
01000000
00100000
00010000
00001000
00100000
00010000
,
00001000
00000100
00010000
00001000
00000100
00000010
00001000
00000100
,
00000010
00000001
00000100
00001000
00010000
00100000
10000000
00010000
,
01000000
00000000
00000000
00000000
00000000
00000000
00000000
00000000
00100000
00000000
00000000
00000000
00000000
00000000
00000000
00000000
02200000
03300000
00000000
00000000
00000000
00000000
00000000
00000000
00000000
00000000
00000000
00000000
00000000
00000000
00000000
00000000
10000000
00000000
00000000
00000000
00100000
00000000
00000000
00000000
10000000
00000000
00000000
00000000
00000000
00000000
00000000
00000000
01000000
00000000
00000000
00000000
00000000
00000000
00000000
00000000
00100000
00000000
00000000
00000000
00000000
00000000
00000000
00000000
,
00001000
00010000
00001000
00000000
01000000
00000000
00001000
00000000
00010000
00000100
00001000
00000000
00000010
00000100
00000001
00000000
,
00001000
00000100
00000010
00000000
00000001
00001000
00000010
00000000
00000100
00000001
00000100
00000000
00000010
00000000
00001000
00000000
,
00000100
00010000
00000100
00000000
00010000
00000000
00001000
00000000
00010000
00000010
00001000
00000000
00000100
00010000
00001000
00000000
,
00100000
00010000
01000000
00000000
00001000
00010000
00001000
00000000
00100000
00010000
10000000
00000000
01000000
10000000
01000000
00000000
,
00100000
00010000
01000000
00000000
00001000
00010000
00001000
00000000
00100000
00001000
00100000
00000000
00001000
00010000
00001000
00000000
,
00010000
00000010
00010000
00000000
00000010
00001000
00000010
00000000
00001000
00000100
00000010
00000000
00000001
00000100
00000001
00000000
,
00000100
00000010
00001000
00000000
00000100
00010000
00000100
00000000
00010000
00001000
00010000
00001000
00100000
00010000
00100000
00010000
,
01000000
00100000
01100000
00000000
10000000
01000000
00010000
00001000
,
00000010
00000000
00000000
00000000
00000002
00000000
00000000
00000000
00001003
00000001
00001000
00000001
00001000
00000000
00000000
00000000
00000001
00000000
00000000
00000000
00000100
00000000
00000000
00000000
00001000
00000000
00000000
00000000
00010000
00000000
00000000
00000000
,
00200000
00000000
00000000
00000000
10300000
00100000
10000000
00100000
10000000
00000000
00000000
00000000
00100000
00000000
00000000
00000000
00010000
00000000
00000000
00000000
00001000
00000000
00000000
00000000
00000100
00000000
00000000
00000000
00000002
00000000
00000000
00000000
,
00001003
00000001
00001000
00000001
00001000
00000000
00000000
00000000
00000001
00000000
00000000
00000000
00000100
00000000
00000000
00000000
00001000
00000000
00000000
00000000
00010000
00001000
00010000
00001000
00020000
00000000
00000000
00000000
00000000
00000000
00000000
00000000
,
00031000
00010000
00100000
00010000
00001000
00010000
00100000
00000000
,
00001000
00010000
00001000
00000010
00001000
00010000
00001000
00000000
,
00100000
00010000
10000000
00010000
01000000
00100000
10000000
01000000
,
00100000
00010000
00100000
00000000
00001000
00010000
00001000
00000000
00010000
00000010
00001000
00000001
00000100
00000000
00000000
00000000
,
00000220
00000000
00000000
00000000
,
00000000
00000000
00000000
00000000
,
00000330
00000000
00000000
00000000
;

//--------------- dance-double - Fred-104 ----------------
#NOTES:
     dance-double:
     Fred-104:
     Challenge:
     17:
     :
00000000
00000000
00000000
00000000
,
00000000
00000000
00000000
00000000
,
00000000
00000000
00000000
00000000
,
00000000
00000000
00000000
00000000
,
00000000
00000000
00000000
00000000
,
00022000
00000000
00000000
00000000
00000000
00033000
00000000
00020020
,
00000000
00000000
00000000
00000000
,
00030030
00000000
00020000
00000000
00032000
00203000
00000000
00320000
,
00000000
01030000
00001000
00020000
00000000
00031000
00011000
00000000
,
00010000
00000000
00001000
00000000
00000010
00000001
00000100
00001000
,
00000000
00000001
00001000
00000000
00000001
00000100
00001000
00010000
,
00001000
00000000
00011000
00000000
00001000
00010000
00000000
01000000
,
10000000
00010000
01000000
00100000
10000000
01000000
01100000
00000000
,
00100000
00000000
00001000
00010000
00001000
00000000
00100000
00001000
00010000
00000000
00000100
00001000
00000001
00000000
00000100
00000000
,
00000001
00000000
00000010
00000100
00001000
00000000
00000001
00001000
00000100
00000000
00000010
00000001
00001000
00000000
00000010
00000000
,
00000100
00000001
00000010
00000000
00000010
00000001
00000100
00000000
00000100
00000010
00001000
00000000
00001000
00000100
00010000
00000000
,
00010000
00001000
00010000
00001000
00100000
00010000
00100000
00010000
10000000
00010000
01000000
00100000
10000000
00000000
01000000
00000000
,
02200000
00000000
00000000
03300000
,
00022000
00000000
00000000
00000000
00000000
00000000
00000000
00000000
00000000
00033000
00000000
00000000
00000220
00000000
00000000
00000000
,
00000000
00000000
00000000
00000000
00000000
00000000
00000000
00000000
00000330
00000000
00000000
00000000
00000000
00000000
00000000
00000000
00000100
00000000
00000000
00000000
00000001
00000000
00000010
00000000
00000001
00000000
00000100
00000000
00000000
00000000
00000100
00000000
00000010
00000000
00001000
00000000
00000001
00000000
00000010
00000000
00000200
00000300
00000000
00000000
00000000
00000000
00000000
00000000
00011000
00000000
00000000
00000000
00000000
00000000
00000000
00000000
01000000
00000000
00000000
00000000
00100000
00000000
00000000
00000000
,
02100000
00000000
00000000
00000000
00000000
00000000
00000000
00000000
00000000
00000000
00000000
00000000
00000000
00000000
00000000
00000000
00000000
00000000
00000000
00000000
00000000
00000000
00000000
00000000
03010000
00000000
00000000
00000000
00100000
00000000
00000000
00000000
00010000
00000000
00000000
00000000
01000000
00000000
00000000
00100000
00000000
00000000
01000000
00000000
00000000
00100000
00000000
00000000
10000000
00000000
00000000
00000000
01000000
00000000
00000000
00000000
00100000
00000000
00000000
00000000
00001000
00000000
00000000
00010000
00000000
00000000
00001000
00000000
00000000
00010000
00000000
00000000
00001000
00000000
00000000
00000000
00000000
00000000
00000000
00000000
00000000
00000000
00000000
00000000
00000010
00000000
00000000
00000000
00000000
00000000
00000100
00000000
00000000
00000000
00000000
00000000
,
00000120
00000000
00000000
00000000
00000000
00000000
00000000
00000000
00000000
00000000
00000000
00000000
00000000
00000000
00000000
00000000
00000000
00000000
00000000
00000000
00000000
00000000
00000000
00000000
00001030
00000000
00000000
00000000
00000100
00000000
00000000
00000000
00000001
00000000
00000000
00000000
00000100
00000000
00000000
00000000
00001000
00000000
00000000
00000000
00000010
00000000
00000000
00000000
00000200
00000000
00000000
00000000
00000000
00000000
00000000
00000000
00000000
00000000
00000000
00000000
00000301
00000000
00000000
00000100
00000000
00000000
00000001
00000000
00000000
00000100
00000000
00000000
00000010
00000000
00000000
00000000
00000000
00000000
00000000
00000000
00000000
00000000
00000000
00000000
00010000
00000000
00000000
00000000
00000000
00000000
00001000
00000000
00000000
00000000
00000000
00000000
,
00021000
00000000
00000000
00000000
00000000
00000000
00000000
00000000
00000000
00000000
00000000
00000000
00000000
00000000
00000000
00000000
00000000
00000000
00000000
00000000
00000000
00000000
00000000
00000000
00030010
00000000
00000000
00000000
00010000
00000000
00000000
00000000
00001000
00000000
00000000
00000000
00100000
00000000
00000000
00010000
00000000
00000000
10000000
00000000
00000000
00010000
00000000
00000000
00100000
00000000
00000000
00000000
01000000
00000000
00000000
00000000
10000000
00000000
00000000
00000000
00010000
00000000
00000000
00100000
00000000
00000000
10000000
00000000
00000000
00100000
00000000
00000000
01000000
00000000
00000000
00000000
00000000
00000000
00000000
00000000
10000000
00000000
00000000
00000000
00020000
00000000
00000000
00000000
00000000
00000000
00000000
00000000
00000000
00000000
00000000
00000000
,
01030000
00000000
01010000
00000000
00001000
00010000
00001000
00010000
00001000
00000000
00000000
00000000
00001001
00000000
00000000
00000000
00000001
00000000
00000010
00000000
00000001
00000000
00000010
00000000
00000001
00000000
00000100
00000000
00000000
00000000
00000010
00000000
,
00000000
00001000
00000010
00000100
00000010
00000000
00010000
00000000
00000100
00010000
00000100
00010000
00001000
00010000
00000000
00000010
,
00000000
00010000
00001000
00000000
00100000
00010000
10000000
00010000
01000000
00000000
00010000
00100000
01000000
10000000
00000000
00100000
,
01000000
00000000
00100000
10000000
00000000
00100000
01000000
00001000
00010000
00001000
00000100
00000000
00000010
00000001
00000000
00001000
,
00000000
00000001
00000100
00000001
00000010
00000000
00000001
00000000
00001000
00000001
00000100
00000001
00001000
00000001
00000000
00000100
,
00000000
00000010
00001000
00000010
00010000
00000000
00001000
00000000
00010000
00000100
00001000
00000100
00000010
00000001
00000000
00001000
,
00000000
00000001
00000010
00000000
00001000
00010000
00000000
00010000
00100000
00000000
10000000
00010000
01000000
00100000
00000000
10000000
,
01000000
00000000
00100000
00001000
00000000
00100000
00001000
00010000
00001000
00000000
00000000
01001000
00000000
00000000
00010100
00000000
,
00000000
00101000
00000000
00000000
00010010
00000000
00000010
00000000
00001000
00000010
00000100
00000000
00000001
00000100
00000001
00000100
,
00000001
00000010
00000100
00000000
00001000
00000100
00000010
00000100
00000010
00000100
00001000
00000000
00000001
00000100
00000001
00000100
,
00001000
00010000
00001000
00000000
00010000
01000000
00010000
01000000
10000000
00010000
10000000
00000000
00010000
10000000
00010000
10000000
,
00100000
00010000
00100000
00000000
10000000
00010000
01000000
00010000
01000000
00001000
00010000
00000000
00000100
00001000
00000100
00001000
,
00000100
00000010
00000001
00001000
00000001
00000000
00000100
00000000
00000001
00000010
00000100
00000010
00000001
00000010
00000000
00000010
,
00000000
00000001
00001000
00000001
00000100
00000000
00000010
00000000
00001000
00000100
00010000
00000100
00001000
00000100
00000000
00010000
,
00000000
00001000
00100000
00000000
00010000
00100000
00000000
01000000
10000000
00000000
00010000
01000000
00100000
10000000
00000000
01000000
,
00100000
00000000
00001000
00010000
00000000
00001000
01000000
00001000
00010000
00000000
00001000
00000000
00000010
00000000
00000100
00000001
,
00000100
00000001
00000010
00000000
00000100
00000000
00001000
00000000
00002002
00000000
00000000
00000000
00000000
00000000
00000000
00000000
,
00000000
00000000
00000000
00000000
,
00000000
00000000
00000000
00000000
00003003
00000000
00000000
00000000
00000001
00000000
00000100
00000000
00000001
00000010
00000000
00000010
,
00000100
00000000
00010000
00000000
00001000
01000000
00000000
01000000
00010000
00100000
00010000
00100000
01000000
10000000
01000000
10000000
,
00010000
01000000
00001000
00010000
00001000
00000000
00010000
00000000
00012000
00000000
00000000
00000000
00000000
00203000
00000000
00320000
,
00000000
00000000
00000000
00000000
02030000
00000000
00000000
00000000
03200000
00000000
00000000
00000000
00000000
20300000
00000000
32000000
,
00000000
03020000
00000000
00031000
00000010
00000001
00001000
00000000
00001002
00000000
00000000
00000000
00000000
00000010
00000000
00000203
,
00000000
00000000
00000000
00000000
00000320
00000000
00000032
00000000
00002003
00000000
00000000
00000000
00000000
00000010
00000000
00100000
,
00000000
00000000
00000100
00000000
00000000
00000000
01003000
00000000
00001000
00000000
00010000
00001000
00010000
00001000
00010000
00000000
00001000
00000000
00000000
00000000
00100000
00000000
00000000
00000000
00001000
00000000
00000000
00000000
00100000
00000000
00000000
00000000
,
00010000
10000000
00010000
10000000
01000000
00100000
00010000
00001000
,
00000100
00000010
00000001
00000010
00000001
00000000
00000000
00000000
00001000
00000000
00000001
00000000
00001000
00000000
00000001
00000000
,
00000010
00000100
00010000
00001000
00100000
01000000
10000000
00010000
,
01000000
00100000
01000000
00100000
10000000
00000000
00000000
00000000
00010000
00000000
01000000
00000000
10000000
00000000
01000000
00000000
,
00010000
00001000
00010000
01000000
00010000
00001000
00000100
00000001
,
00000010
00000001
00000010
00000001
00000010
00000000
00000000
00000000
00000001
00000000
00000010
00000000
00001000
00000000
00010000
00000000
,
00100000
00000000
10000000
00000000
00010000
00000000
01000000
00000000
00010000
10000000
01000000
00000000
00100000
00001000
00010000
00000000
,
00001000
00000000
00000000
00000000
00000000
00000000
00000000
00000000
00010000
00000000
00000000
00000000
00000000
00000000
00000000
00000000
00022000
00033000
00000000
00000000
00000000
00000000
00000000
00000000
00000000
00000000
00000000
00000000
00000000
00000000
00000000
00000000
00010000
00000000
00000000
00000000
00000100
00000000
00000000
00000000
00001000
00000000
00000000
00000000
00000000
00000000
00000000
00000000
00000010
00000000
00000000
00000000
00001000
00000000
00000000
00000000
00000010
00000000
00000000
00000000
00000000
00000000
00000000
00000000
,
00000100
00000010
00000100
00000000
00000001
00001000
00000100
00000000
00000010
00000001
00000010
00000001
00001000
00000001
00001000
00000000
,
00000010
00000000
00010000
00001000
00010000
00001000
00100000
00000000
00010000
10000000
00010000
00000000
01000000
00100000
10000000
00000000
,
01000000
00100000
00010000
00000000
00100000
01000000
10000000
00000000
00010000
10000000
00010000
10000000
01000000
00100000
01000000
00000000
,
00100000
00001000
00010000
00000010
00001000
00000010
00000100
00000000
00000001
00000100
00000001
00000010
00000100
00000010
00000001
00000000
,
00001000
00000010
00010000
00001000
00100000
00001000
00010000
00000000
00001000
00010000
00100000
01000000
10000000
00010000
00100000
01000000
,
10000000
00100000
01000000
00010000
01000000
00000000
00001000
00000000
00100000
00001000
00010000
00001000
00100000
00001000
00010000
00000000
,
00001000
00000100
00000010
00000001
00001000
00000001
00000100
00000000
00000001
00000010
00000100
00001000
00010000
00100000
01000000
10000000
,
00010000
10000000
00100000
01000000
00010000
10000000
01000000
00100000
,
00001000
00000000
00000000
00000000
00002000
00000000
00000000
00000000
00013000
00001000
00010000
00001000
00010000
00000000
00000000
00000000
00000100
00000000
00000000
00000000
00001000
00000000
00000000
00000000
00000001
00000000
00000000
00000000
00000010
00000000
00000000
00000000
,
00000020
00000000
00000000
00000000
00000031
00000010
00000001
00000010
00000001
00000000
00000000
00000000
00000100
00000000
00000000
00000000
00001000
00000000
00000000
00000000
00010000
00000000
00000000
00000000
01000000
00000000
00000000
00000000
20000000
00000000
00000000
00000000
,
30010000
10000000
00010000
10000000
00010000
00000000
00000000
00000000
10000000
00000000
00000000
00000000
00100000
00000000
00000000
00000000
02000000
00000000
00000000
00000000
03001000
01000000
00001000
01000000
00001000
00000000
00010000
00000000
00001000
00000000
00000000
00000000
,
00010000
00001000
00000100
00000001
00000010
00000100
00010000
00001000
,
00100000
00001000
00010000
00001000
01000000
00001000
00010000
00001000
,
00100000
00000000
00010000
00000000
10000000
00000000
01000000
00000000
00010000
00000000
00001000
00000000
00000010
00000000
00000001
00001000
,
00000001
00000010
00000100
00001000
00000100
00010000
00001000
00100000
00010000
00100000
01000000
10000000
00010000
01000000
00100000
10000000
,
00200000
00000000
00000000
00000000
,
00000000
00000000
00000000
00000000
,
00300000
00000000
00000000
00000000
;
