#TITLE:passionate fate;
#ARTIST:Ryu☆;
#GENRE:HANDZ UP;
#BANNER:passionate fate.png;
#BACKGROUND:passionate fate-bg.png;
#CDTITLE:./CDTitles/bm IIDX 18 Resort Anthem.png;
#MUSIC:passionate fate.ogg;
#SAMPLESTART:56.947;
#SAMPLELENGTH:15;
#BPMS:0=149;
#BGSTAGE:16;

//--------------- dance-single - Fred-104 ----------------
#NOTES:
     dance-single:
     Fred-104:
     Beginner:
     2:
     :
0000
0000
0000
0000
,
0000
0000
0000
0000
,
0000
0000
0000
0000
,
0000
0000
0000
0000
,
0000
0000
0000
0000
,
0000
0000
0000
0000
,
1000
0000
0000
0000
,
0001
0000
0000
0000
,
1000
0000
1000
0000
,
0001
0000
0001
0000
,
0000
0000
0000
0000
,
1000
0000
0000
0000
,
0010
0000
0000
0000
,
0001
0000
0000
0000
,
0100
0000
0000
0000
,
1000
0000
0000
0000
,
0001
0000
0000
0000
,
1000
0000
0000
0000
,
1000
0000
0000
0000
,
0001
0000
0000
0000
,
0010
0000
0000
0000
,
1000
0000
0000
0000
,
0100
0000
0000
0000
,
0001
0000
0000
0000
,
0001
0000
0000
0000
,
1000
0000
0000
0000
,
0000
0000
0000
0000
,
1000
0000
0000
0000
,
0100
0000
0000
0000
,
0010
0000
0000
0000
,
0001
0000
0001
0000
,
1000
0000
0000
0000
,
0001
0000
0000
0000
,
0100
0000
0000
0000
,
0020
0000
0000
0000
,
0030
0000
0000
0000
,
1000
0000
0000
0000
,
0001
0000
0000
0000
,
0010
0000
0000
0000
,
1000
0000
0000
0000
,
0010
0000
0000
0000
,
0100
0000
0010
0000
,
0001
0000
0000
0000
,
0000
0000
0000
0000
,
0001
0000
1000
0000
,
0010
0000
0000
0000
,
0100
0000
0010
0000
,
1000
0000
0000
0000
,
0001
0000
1000
0000
,
0100
0000
0000
0000
,
0010
0000
0001
0000
,
0010
0000
0000
0000
,
0002
0000
0000
0000
,
0003
0000
0000
0000
,
2000
0000
0000
0000
,
3000
0000
0000
0000
,
0001
0000
1000
0000
,
0001
0000
1000
0000
,
0001
0000
0001
0000
,
0001
0000
0000
0000
,
1000
0000
0010
0000
,
0001
0000
0000
0000
,
0001
0000
0010
0000
,
1000
0000
0000
0000
,
0001
0000
0001
0000
,
0010
0000
0100
0000
,
1000
0000
0001
0000
,
1000
0000
0000
0000
,
2002
0000
0000
0000
,
3003
0000
0000
0000
;

//--------------- dance-single - Fred-104 ----------------
#NOTES:
     dance-single:
     Fred-104:
     Easy:
     5:
     :
0000
0000
0000
0000
,
0000
0000
0000
0000
,
0000
0000
0000
0000
,
0000
0000
0000
0000
,
0000
0000
0000
0000
,
0000
0000
0000
0000
,
1000
0000
0001
0000
,
1000
0000
0001
1000
,
0001
0000
0001
0000
,
1000
1000
1000
2002
,
3003
0000
0000
0000
,
0001
0000
1000
0000
,
0010
0000
0100
0000
,
0001
0000
1000
0000
,
0100
0100
0110
0000
,
0010
0000
0001
0000
,
1000
0000
1000
0000
,
0001
0000
0100
0000
,
1001
0000
0000
0000
,
0001
0000
0010
0000
,
0100
0000
1000
1000
,
0001
0000
0100
0000
,
0100
0010
0010
1001
,
0001
0000
1000
0000
,
0001
0000
1000
0000
,
0010
0000
0000
0000
0100
0000
0000
2002
,
0000
0000
0000
3003
,
1000
0100
1000
0000
,
0001
0100
0020
0030
,
0100
0001
0100
0000
,
0010
1000
0002
0003
,
0010
0100
1000
0000
,
0010
1000
0002
0003
,
1000
0100
1000
0000
,
0001
0000
0100
0000
0010
0000
0000
1001
,
0000
0000
0000
0000
,
0001
0000
1000
0000
,
0010
0000
1000
1000
,
0001
0000
0010
0000
,
0110
0110
1001
0001
,
1000
0000
0001
0000
,
0100
0000
0010
0000
,
0110
0000
1000
0000
,
0002
0000
0000
0003
,
2000
0000
3020
0000
,
1030
0000
0001
0001
,
0020
0000
0230
0000
,
0310
0000
0001
0001
,
2000
0000
3002
0000
,
0103
0000
0010
0000
,
0200
0000
0302
0000
,
1003
0000
0000
0000
,
0002
0000
0000
0000
,
2003
0000
0000
3000
,
2000
0000
0000
0000
,
3002
0000
0000
0003
,
0001
0000
0100
0000
,
1000
0000
0010
0000
,
0001
0000
1000
0000
,
0001
0001
0001
1001
,
1000
0000
0001
0000
,
0100
0000
0001
0001
,
1000
0000
0100
0000
,
0110
0000
0001
0000
,
1000
0000
0001
0000
,
0100
0000
0010
0010
,
0110
0000
0001
0000
,
1000
0000
0001
0000
,
2002
0000
0000
0000
,
3003
0000
0000
0000
;

//--------------- dance-single - Fred-104 ----------------
#NOTES:
     dance-single:
     Fred-104:
     Medium:
     9:
     :
0000
0000
0000
0000
,
0000
0000
0000
0000
,
0000
0000
0000
0000
,
0000
0000
0000
0000
,
0000
0000
0000
0000
,
0000
0000
0000
0000
,
0001
0000
0010
0000
0100
0100
0100
0000
,
0010
0000
0001
0000
1000
0010
1000
0010
,
0100
0001
1000
0100
,
1100
0101
1100
2002
,
3003
0000
0000
0000
,
0001
0000
0000
0010
0000
0000
0010
0000
0100
0000
0000
1000
0000
0000
1000
0000
,
0001
0001
0101
0100
,
0010
0000
0000
0000
1000
0000
0000
0000
0001
0000
0000
0001
0000
0000
0010
0000
,
0100
0110
2002
3003
,
1000
0000
0000
0010
0000
0000
0010
0000
0100
0000
0000
0010
0000
0000
0010
0000
,
1000
0001
0011
0010
,
0100
0000
0000
0000
0010
0000
0100
0000
0010
0000
0000
0001
0000
0000
1000
0000
,
0001
0002
0000
0000
0000
0000
0003
0000
,
0001
0000
0000
0010
0000
0000
1000
0000
0001
0000
0000
0100
0000
0000
1000
0000
,
0001
0100
0010
0100
,
0001
0000
0000
0000
1000
0000
0000
0000
0100
0000
0000
0010
0000
0000
0010
0000
,
0011
1010
0011
1001
,
1000
0000
0000
0100
0000
0000
0001
0000
1000
0000
0000
0010
0000
0000
0001
0000
,
1000
1000
1000
0000
1010
0000
0100
0000
,
0001
0000
0000
1000
0000
0000
0100
0000
0010
0000
0000
0100
0000
0000
2002
0000
,
0000
0000
0000
3003
,
0001
0100
1000
0001
,
1000
0000
0100
0000
0010
0000
1000
0001
,
1000
0100
0010
0001
,
1000
0000
0010
0000
0100
0010
0100
0010
,
1000
0001
0010
1000
,
0001
0000
1000
0000
0010
0000
0001
1000
,
0100
0010
0001
1000
,
0010
0000
0100
0000
0010
0000
0000
0000
0100
0000
0000
0010
0000
0000
2002
0000
,
0000
3003
0000
0000
,
0001
0000
0000
0010
0000
0000
0100
0000
1000
0000
0000
0010
0000
0000
0100
0000
,
0001
0000
1000
0000
0100
0100
0010
0000
,
0011
0000
0000
0000
0000
0000
0000
0000
1000
0000
0000
0001
0000
0000
1000
0000
,
0010
0000
0100
0000
0001
1000
0001
1000
,
0100
0000
0000
0010
0000
0000
0001
0000
0100
0000
0000
0010
0000
0000
1000
0000
,
0001
0000
0010
0000
0100
0100
1000
0000
,
1001
0000
0000
0000
0000
0000
0001
0000
0100
0000
0000
0010
0000
0000
0110
0000
,
0000
1001
0000
0110
0000
0001
1000
0000
,
0001
0000
0000
0001
0000
0000
0010
0000
0100
0000
0000
1000
0000
0000
1000
0000
,
0002
0000
0203
0000
0310
0010
0200
0000
,
0301
0000
0000
0001
0000
0000
1000
0000
0100
0000
0000
0010
0000
0000
0010
0000
,
0100
0000
0000
0000
1000
0000
0000
0000
0001
0000
0000
0001
0000
0000
0001
0000
,
0100
0000
0000
0010
0000
0000
1000
0000
0010
0000
0000
0100
0000
0000
0001
0000
,
2000
0000
3200
0000
0310
0010
0002
0000
,
1003
0000
0000
0001
0000
0000
0100
0000
0010
0000
0000
0010
0000
0000
1000
0000
,
0001
0001
0000
0000
0000
0000
0000
0000
,
2000
0000
3200
0000
,
0320
0000
0030
0000
,
0002
0000
0203
0000
,
0320
0000
0030
0000
,
1000
0000
0000
0001
0000
0000
0010
0000
0100
0000
0000
1000
0000
0000
0010
0000
,
0200
0000
0320
0000
0130
0100
0002
0000
,
1003
0000
0000
0000
0100
0000
0000
0000
0010
0000
0000
0100
0000
0000
1000
0000
,
1100
0101
1100
1001
,
0001
0000
0000
0100
0000
0000
1000
0000
0001
0000
0000
0010
0000
0000
1000
0000
,
0100
0000
0010
0000
0001
1000
0010
0000
,
0100
0000
0000
0000
0010
0000
0000
0000
0100
0000
0000
0001
0000
0000
1000
0000
,
1001
0000
0001
0001
,
1000
0000
0000
0100
0000
0000
0001
0000
0100
0000
0000
1000
0000
0000
0010
0000
,
0100
0000
0010
0000
1000
0000
0000
0000
0100
0000
0000
0100
0000
0000
0010
0000
,
0110
0000
0000
0000
0000
0000
0000
0000
0001
0000
0000
1000
0000
0000
0001
0000
,
0100
0000
0000
0010
0000
0000
1000
0000
0000
0100
0000
0000
0110
0000
0000
0000
,
2002
0000
0000
0000
,
3003
0000
0000
0000
;

//--------------- dance-single - Fred-104 ----------------
#NOTES:
     dance-single:
     Fred-104:
     Hard:
     11:
     :
0000
0000
0000
0000
,
0000
0000
0000
0000
,
0000
0000
0000
0000
,
0000
0000
0000
0000
,
0000
0000
0000
0000
,
0000
0000
0000
0000
,
0001
0000
0000
0100
0000
0000
0001
0000
1000
0000
0000
0010
0000
0000
0100
0000
,
0001
0000
0000
0010
0000
0000
0001
0000
1000
0000
0000
0100
0000
0000
1000
0000
,
0001
0000
0000
0100
0000
0000
0010
0000
1000
0000
0000
0100
0000
0000
0010
0000
,
0011
1010
0101
2002
,
3003
0000
0000
0000
,
1000
0000
0000
0001
0000
0000
0001
0000
0010
0000
0000
0100
0000
0000
0100
0000
,
1000
0001
0000
0001
0100
0010
1000
0100
,
0010
0000
0000
0000
0010
0000
0001
0000
1000
0000
0000
0001
0000
0000
0100
0000
,
0101
0000
1010
0000
1000
0001
1000
0000
,
0001
0000
0000
0010
0000
0000
0010
0000
0100
0000
0000
1000
0000
0000
1000
0000
,
0010
0100
0000
0100
0001
1000
0100
0010
,
0100
0000
0000
0000
0100
0000
0001
0000
0100
0000
0000
1000
0000
0000
0001
0000
,
0100
0220
0000
0000
0000
0000
0330
0000
,
1000
0000
0000
0001
0000
0000
0010
0000
1000
0000
0000
0010
0000
0000
0001
1000
,
0001
0100
0010
0000
1000
0001
0010
0000
,
0110
0000
0000
0000
1000
0000
0010
0000
0100
0000
0000
0001
0000
0000
1000
0000
,
1100
0011
1010
0101
,
1001
0000
0000
0001
0000
0000
0010
0000
0100
0000
0000
1000
0000
0000
0001
0000
,
0100
0110
0000
0010
1000
0001
1000
0100
,
0110
0000
0000
0010
0000
0000
0001
1000
0001
0000
0000
1000
0000
0000
2002
0000
,
0000
0000
0000
3003
,
0001
0100
0010
0100
0000
0100
0001
1000
,
0100
0001
0100
1000
0001
0000
1001
0000
,
1000
0010
0100
1000
0000
1000
0100
0001
,
1000
0100
0010
0001
0100
0010
1000
0000
,
0001
0010
1000
0010
0000
0010
0100
0010
,
0001
0100
0010
1000
0001
0000
1001
0000
,
1000
0001
0100
1000
0000
1000
0001
0010
,
0100
0000
0001
0000
1000
0000
0100
0000
0010
0000
0000
0001
0000
0000
2002
0000
,
0000
3003
0000
0000
,
1000
0000
0000
0100
0000
0000
0001
0000
1000
0000
0000
0010
0000
0000
0001
0000
,
1000
0010
0100
0010
1000
0001
0010
0000
,
0110
0000
0000
0000
1000
0000
0001
0000
0100
0000
0000
0010
0000
0000
1000
0000
,
0001
0010
0100
0000
1000
0010
0100
0000
,
0001
0000
0000
1000
0000
0000
0100
0000
0001
0000
0000
0100
0000
0000
0010
0000
,
0001
1000
0010
0100
0001
1000
0100
0000
,
0110
0000
0000
0000
0000
0000
0010
0000
0100
0000
0000
1000
0000
0000
1001
0000
,
0000
0110
0000
0110
0000
1001
1001
0000
,
0001
0000
0000
0100
0000
0000
1000
0000
0100
0000
0000
0001
0000
0000
1000
0000
,
0100
0010
0001
1000
0010
0100
0001
0000
,
1000
0000
0000
0100
0000
0000
0001
0000
0100
0000
0000
1000
0000
0000
0001
0000
,
1001
0000
0000
0000
0000
0000
0000
0000
1000
0000
0000
1000
0000
0000
1000
0000
,
0001
0000
0000
0100
0000
0000
1000
0000
0001
0000
0000
0010
0000
0000
0100
0000
,
0001
1000
0100
0010
0001
1000
0010
0000
,
0110
0000
0000
0100
0000
0000
0001
0000
0001
0000
0000
1000
0000
0000
0100
0000
,
1000
1001
0000
0000
0000
0000
0000
0000
,
0002
0000
0023
0000
,
0230
0000
2300
3002
,
0203
0000
0000
0000
0000
0000
0000
0000
0320
0000
0000
0100
0000
0000
0200
0000
,
0000
0000
0000
0330
,
0001
0000
0000
1000
0000
0000
0010
0000
0100
0000
0000
0001
0000
0000
0010
0000
,
0001
1000
0010
0100
0001
1000
0100
0010
,
0100
0000
0000
0000
1000
0000
0001
0000
0100
0000
0000
0010
0000
0000
1000
0000
,
1100
0011
1010
0101
,
1000
0000
0000
0001
0000
0000
0010
0000
1000
0000
0000
0001
0000
0000
0100
0000
,
0010
0001
1000
0010
0100
0001
1000
0000
,
0110
0000
0000
0000
0001
0000
1000
0000
0100
0000
0000
0010
0000
0000
0001
0000
,
1001
0000
0000
0000
0000
0000
1000
0001
1000
0001
0000
0000
,
1000
0000
0000
0010
0000
0000
0001
0000
1000
0000
0000
0100
0000
0000
0001
0000
,
0010
0000
0100
0000
1000
0000
0001
0100
0001
0000
0000
0100
0000
0000
0010
0000
,
0110
0000
0000
0000
0000
0000
1000
0000
0001
0000
0000
0010
0000
0000
0100
0000
,
1100
0000
0000
1001
0000
0000
0101
0000
0000
1000
0001
0000
0010
0000
0100
0000
,
0220
0000
0000
0000
,
0330
0000
0000
0000
;

//--------------- dance-single - Fred-104 ----------------
#NOTES:
     dance-single:
     Fred-104:
     Challenge:
     14:
     :
0000
0000
0000
0000
,
0000
0000
0000
0000
,
0000
0000
0000
0000
,
0000
0000
0000
0000
,
0000
0000
0000
0000
,
0000
0000
0000
0000
,
1000
0000
0001
1000
0000
1000
0100
0000
0010
0001
0000
0001
0000
0001
0000
0001
,
1000
0000
0001
0100
0001
0000
1000
0000
0100
0000
0010
0001
0010
0100
0010
0100
,
0010
0000
0001
0010
0000
0010
0100
0000
1000
0000
0001
0100
0000
0100
0001
0000
,
1000
0100
1000
0000
0001
0010
0001
0000
1000
0001
1000
0001
2000
0000
0000
0000
,
3000
0000
0000
0002
0203
0320
2030
3002
,
1003
0000
0000
0100
0000
0000
0010
0000
0001
0000
0000
0100
0000
0000
0010
1000
,
0001
0000
1000
0000
0010
0000
0100
0000
0001
1000
0001
0000
0010
0000
0001
0000
,
1001
0000
0000
0000
0001
0000
0100
0000
0010
0000
0000
1000
0000
0000
0001
0000
,
0011
1010
0101
1100
,
1000
0000
0000
0001
0000
0000
1000
0000
0100
0000
0000
0010
0000
0000
0001
1000
,
0010
0000
0100
0000
0010
0000
1000
0000
0100
0010
0001
0000
1000
0000
0001
0000
,
0101
0000
0000
0000
1000
0000
0001
0000
0010
0000
0100
0010
0000
0001
1000
0000
,
0001
1001
0000
0002
0203
0320
2030
3002
,
0013
0000
0100
1000
0000
1000
0001
0000
0100
0000
0010
1000
0000
1000
0001
0010
,
0100
0000
1000
0000
0001
0000
0100
0000
0010
1000
0001
0000
0010
0000
1000
0000
,
0010
0000
0001
0000
0100
0000
0010
1000
0001
0000
0010
0100
0000
1000
0001
0000
,
1100
0000
0101
0000
1010
1000
0011
0000
,
1001
0000
0000
1000
0000
0000
0001
0000
0010
0000
0000
0100
0000
0000
1000
0001
,
0100
0010
0000
0010
0110
0100
0001
0010
,
0110
0000
0000
1100
0000
0000
1000
0001
0100
0000
0000
0110
0000
0000
2002
0000
,
0000
0000
0000
3003
,
1000
0100
0010
0100
0001
1000
0010
0001
,
1000
0010
0200
0000
0301
0010
0200
0000
1300
0000
0001
0000
1000
0001
1000
0001
,
0100
0010
1000
0100
0010
0100
1000
0001
,
0100
0010
0100
0010
2000
0000
3002
0000
0013
0100
0010
0100
0010
0001
0010
0001
,
1000
0001
0100
1000
0001
0010
0100
0001
,
1000
0001
0020
0000
0130
1000
0002
0000
0103
0000
0010
0000
0100
0001
0100
0001
,
1000
0100
0010
1000
0010
0100
1000
0001
,
1000
0010
1000
0010
0100
0001
0100
0010
1000
0000
0000
0110
0000
0000
2002
0000
,
0000
0000
0000
0000
3003
0000
0002
0000
0203
0000
0320
0000
2030
0000
3002
0003
,
1001
0000
1000
0100
0000
0100
0010
0000
0001
0000
1000
0010
0000
0010
0100
0000
,
0010
1000
0001
0000
0010
0000
0100
0000
0010
0001
1000
0000
0010
0000
0001
0000
,
0010
0000
1000
0000
0001
0000
0010
0100
1000
0000
0001
1000
0000
1000
0010
0000
,
0100
0000
0001
0000
1000
0000
0100
0010
0100
0000
1000
0000
0001
1000
0001
1000
,
0010
0000
0100
0001
0000
0001
1000
0000
0100
0000
0010
0001
0000
0001
1000
0000
,
0001
0100
0010
0000
1000
0000
0001
0000
0010
0100
0010
0000
1000
0000
0010
0000
,
0011
0000
0000
0000
0000
0000
1000
0000
1100
0000
0000
0101
0000
0000
1010
0000
,
0000
0101
0000
1010
0000
1001
1000
0001
,
0010
0000
0100
1000
0000
1000
0001
0000
1000
0000
0010
0100
0000
0100
0001
0000
,
1000
0000
0100
0000
0001
0000
0100
0000
0010
0000
0001
1000
0001
0000
0100
0000
,
0010
0000
1000
0001
0000
0001
0010
0000
0100
0000
0010
0001
0000
0001
0100
0000
,
0110
0000
0000
0000
0000
0000
0000
0000
1010
0000
0000
0101
0000
0000
1100
0000
,
0001
0000
1000
0010
0000
0010
0100
0000
0001
0000
0010
0100
0000
0100
1000
0000
,
0001
0000
0100
0000
0010
0000
0001
0000
0010
0000
1000
0010
1000
0000
0001
0000
,
0011
0000
0000
0010
0000
0000
0100
0000
0110
0000
0000
0010
0000
0000
0001
0000
,
1000
1001
0000
0002
0203
0320
2030
3002
,
0023
0000
0000
0100
0000
0000
0130
0000
2000
0000
0000
0001
0000
0000
3001
1000
,
0020
0230
0000
0302
2003
3200
0302
0203
,
2300
0000
0000
0000
0000
0000
3001
1000
0020
0000
0000
0230
0000
0000
0302
0000
,
0000
0000
0000
2003
3200
0302
2003
3020
,
0031
0000
1000
0010
0000
0100
0010
0000
1000
0000
0001
0010
0000
0100
0010
0000
,
0001
1000
0010
0000
0100
0000
0001
0000
1000
0001
0010
0000
0100
0000
1000
0000
,
1001
0000
0001
0000
0100
0000
0010
1000
0001
0000
0000
0010
0000
0000
0100
0000
,
0110
0000
1100
2000
3200
0320
0032
2003
,
3010
0000
0100
0001
0000
1000
0001
0000
0010
0000
0100
1000
0000
0001
1000
0000
,
0010
0100
0001
0000
0010
0000
1000
0000
0010
0001
0010
0000
0100
0000
1000
0000
,
0001
1000
0010
0000
0100
0000
0001
1000
0100
0000
0001
0100
0000
0010
0100
0000
,
0110
0000
0000
0000
0000
0000
1000
0100
0010
1001
0000
0000
,
0001
0000
0100
0010
0000
0001
1000
0000
0100
0000
0001
1000
0000
0100
0010
0000
,
0001
1000
0010
0100
0001
0000
1000
0100
0010
0000
0000
0110
0000
0000
0011
0000
,
1001
0000
0000
0000
0000
0000
0001
0100
0010
0000
1000
0001
0000
0001
0010
0000
,
0011
0000
0000
1010
0000
0000
0101
0000
0000
1000
0100
0000
0010
0000
0010
0000
,
2002
0000
0000
0000
,
3003
0000
0000
0000
;

//--------------- dance-double - Fred-104 ----------------
#NOTES:
     dance-double:
     Fred-104:
     Easy:
     5:
     :
00000000
00000000
00000000
00000000
,
00000000
00000000
00000000
00000000
,
00000000
00000000
00000000
00000000
,
00000000
00000000
00000000
00000000
,
00000000
00000000
00000000
00000000
,
00000000
00000000
00000000
00000000
,
00001000
00000000
00010000
00000000
,
00001000
00000000
00010000
00001000
,
00010000
00000000
00001000
00000000
,
00010000
00010000
00001000
00022000
,
00033000
00000000
00000000
00000000
,
00010000
00000000
00001000
00000000
,
00000010
00000001
00001000
00000000
,
00000001
00000000
00000100
00000000
,
00000110
00000110
00001001
00000000
,
00000001
00000000
00001000
00000000
,
00000010
00000000
00010000
00001000
,
00010000
00000000
00000100
00000000
,
00000110
00000000
00000000
00000000
,
00001000
00000000
00000010
00000000
,
00010000
00000000
00001000
00001000
,
00100000
00000000
01000000
00000000
,
10000000
10000000
00010000
10010000
,
10000000
00000000
00100000
00000000
,
00010000
00000000
00001000
00001000
,
00010000
00000000
00000000
00000000
00000010
00000000
00000000
00002002
,
00000000
00000000
00000000
00003003
,
00001000
00000100
00001000
00000001
,
00000100
00001000
00020000
00030000
,
00001000
00100000
00010000
10000000
,
00100000
01000000
00020000
00030000
,
10000000
01000000
00100000
01000000
,
00010000
00001000
00020000
00030000
,
00000010
00001000
00000010
00000100
,
00000001
00000000
00001000
00000000
00000100
00000000
00000000
00011000
,
00000000
00000000
00000000
00000000
,
00001000
00000000
00010000
00000000
,
00100000
00100000
10000000
01000000
,
00100000
00000000
00001000
00000000
,
00011000
00011000
00011000
00010000
,
00001000
00000000
00010000
00000000
,
00000010
00001000
00000010
00000100
,
00000001
00000000
00001000
00000000
,
00000020
00000230
00002300
00023000
,
00032000
00000000
00023000
00000000
,
00031000
00000000
00010000
00100000
,
20000000
00000000
30020000
00000000
,
00130000
00000000
00001000
00001000
,
00020000
00000000
00030200
00000000
,
00000310
00000000
00000001
00001000
,
00000010
00010000
00001000
01000000
,
01100000
00000000
00000000
00000000
,
20000000
00000000
00000000
00000000
,
30200000
00000000
00000000
00000000
,
00320000
00000000
00000000
00000000
,
00032000
00000000
00000000
00003000
,
00010000
00000000
00000100
00000000
,
00000010
00000010
00000001
00001000
,
00000010
00000000
00000100
00001000
,
00010000
00010000
00001000
00011000
,
00010000
00000000
00000100
00000000
,
00001000
00000010
00000100
00000001
,
00001000
00000000
00000100
00010000
,
00011000
00000000
00001000
00000000
,
00010000
00001000
01000000
00010000
,
10000000
01000000
00010000
00001000
,
00011000
00000000
00010000
00000000
,
00000100
00000000
00010000
00000000
,
00022000
00000000
00000000
00000000
,
00033000
00000000
00000000
00000000
;

//--------------- dance-double - Fred-104 ----------------
#NOTES:
     dance-double:
     Fred-104:
     Medium:
     9:
     :
00000000
00000000
00000000
00000000
,
00000000
00000000
00000000
00000000
,
00000000
00000000
00000000
00000000
,
00000000
00000000
00000000
00000000
,
00000000
00000000
00000000
00000000
,
00000000
00000000
00000000
00000000
,
00010000
00000000
00001000
00000000
00000010
00000010
00000001
00000000
,
00001000
00000000
00000001
00000000
00000100
00000000
00000010
00000010
,
00000100
00001000
00010000
00001000
,
00010100
01001000
00010010
00202000
,
00303000
00000000
00000000
00000000
,
00001000
00000000
00000000
00100000
00000000
00000000
00100000
00000000
00010000
00000000
00000000
00001000
00000000
00000000
00001000
00000000
,
00000100
00010000
00011000
00001000
,
00010000
00000000
00000000
00000000
00001000
00000000
00000000
00000000
00100000
00000000
00000000
01000000
00000000
00000000
01000000
00000000
,
00100000
00110000
20020000
30030000
,
00010000
00000000
00000000
10000000
00000000
00000000
01000000
00000000
01000000
00000000
00000000
00010000
00000000
00000000
00001000
00000000
,
00001000
00010000
00010100
00000100
,
00000010
00000000
00000000
00000000
00000001
00000000
00000100
00000000
00001000
00000000
00000000
00010000
00000000
00000000
01000000
00000000
,
10000000
20000000
00000000
00000000
00000000
00000000
30000000
00000000
,
00010000
00000000
00000000
10000000
00000000
00000000
01000000
00000000
00010000
00000000
00000000
10000000
00000000
00000000
00100000
00000000
,
00010000
00000000
01000000
00000000
00001000
00010000
00000100
00000000
,
00000110
00000000
00000000
00000000
00000010
00000000
00000000
00000000
00000001
00000000
00000000
00001000
00000000
00000000
00000001
00000000
,
00000101
00001100
00011000
01001000
,
00001000
00000000
00000000
00001000
00000000
00000000
00010000
00000000
01000000
00000000
00000000
00100000
00000000
00000000
00100000
00000000
,
00010000
00010000
00010000
00000000
11000000
00000000
00010000
00000000
,
10000000
00000000
00000000
00100000
00000000
00000000
00010000
00000000
00001000
00000000
00000000
00010000
00000000
00000000
00022000
00000000
,
00000000
00000000
00000000
00033000
,
00010000
00000100
00000001
00000100
,
00001000
00000000
00000001
00000000
00000100
00001000
00010000
00000000
,
00001000
00100000
10000000
00100000
,
00020000
02030000
03200000
20300000
,
30010000
00100000
01000000
00010000
,
00001000
00000000
00000010
00000000
00000100
00001000
00000001
00000000
,
00000100
00001000
00010000
00001000
,
00010000
00000000
00000010
00000000
00001000
00000000
00000000
00000000
00000010
00000000
00000000
00010000
00000000
00000000
00022000
00000000
,
00000000
00033000
00000000
00000000
,
00010000
00000000
00000000
00001000
00000000
00000000
00000010
00000000
00000100
00000000
00000000
00001000
00000000
00000000
00000001
00000000
,
00001000
00000010
00010000
00001000
,
00011000
00000000
00000000
00000000
00010000
00000000
00000000
00000000
00100000
00000000
00000000
10000000
00000000
00000000
00010000
00000000
,
00100000
00000000
01000000
00000000
10000000
00010000
10000000
00000000
,
00010000
00000000
00000000
01000000
00000000
00000000
00100000
00000000
10000000
00000000
00000000
01000000
00000000
00000000
00010000
00000000
,
00001000
00010000
00000010
00010000
,
00011000
00000000
00000000
00000000
00000000
00000000
00001000
00000000
01000000
00000000
00000000
00100000
00000000
00000000
01100000
00000000
,
00000000
10010000
00000000
10010000
00000000
00010000
10000000
00000000
,
00010000
00000000
00000000
00100000
00000000
00000000
01000000
00000000
10000000
00000000
00000000
00010000
00000000
00000000
01000000
00000000
,
00200000
20300000
30020000
00230000
,
00301000
00000000
00000000
00010000
00000000
00000000
00001000
00000000
00000010
00000000
00000000
00000001
00000000
00000000
00001000
00000000
,
00000010
00000000
00000000
00000000
00000100
00000000
00000000
00000000
00001000
00000000
00000000
00001000
00000000
00000000
00001000
00000000
,
00010000
00000000
00000000
00000100
00000000
00000000
00001000
00000000
00000010
00000000
00000000
00000100
00000000
00000000
00000001
00000000
,
00002000
00003200
00000320
00002030
,
00013000
00000000
00000000
00001000
00000000
00000000
01000000
00000000
00001000
00000000
00000000
00010000
00000000
00000000
00000100
00000000
,
00000010
00000010
00000000
00000000
00000000
00000000
00000000
00000000
,
00000002
00000000
00000203
00000000
,
00002300
00000000
00003000
00000000
,
00020000
00000000
00230000
00000000
,
20300000
00000000
30000000
00000000
,
01000000
00000000
00000000
00100000
00000000
00000000
00001000
00000000
00010000
00000000
00000000
00000100
00000000
00000000
00000010
00000000
,
00000001
00001000
00000010
00000000
00000100
00000001
00001000
00000000
,
00000110
00000000
00000000
00000000
00000001
00000000
00000100
00000000
00001000
00000000
00000000
00010000
00000000
00000000
00001000
00000000
,
00101000
00010010
01001000
00011000
,
00010000
00000000
00000000
00001000
00000000
00000000
00000010
00000000
00000001
00000000
00000000
00001000
00000000
00000000
00000100
00000000
,
00010000
00000000
00001000
00000000
01000000
00100000
01000000
00000000
,
10010000
00000000
00000000
00000000
10000000
00000000
01000000
00000000
00100000
00000000
00000000
00010000
00000000
00000000
01000000
00000000
,
01100000
00000000
00010000
00010000
,
10000000
00000000
00000000
01000000
00000000
00000000
00100000
00000000
00010000
00000000
00000000
00100000
00000000
00000000
00001000
00000000
,
00010000
00000000
00000100
00000000
00001000
00000000
00000000
00000000
00000001
00000000
00000000
00000001
00000000
00000000
00000100
00000000
,
00000110
00000000
00000000
00000000
00000000
00000000
00000000
00000000
00001000
00000000
00000000
00000001
00000000
00000000
00001000
00000000
,
00000001
00000000
00000000
00000001
00000000
00000000
00000010
00000000
00000000
00000010
00000000
00000000
00001000
00000000
00010000
00000000
,
00022000
00000000
00000000
00000000
,
00033000
00000000
00000000
00000000
;

//--------------- dance-double - Fred-104 ----------------
#NOTES:
     dance-double:
     Fred-104:
     Hard:
     11:
     :
00000000
00000000
00000000
00000000
,
00000000
00000000
00000000
00000000
,
00000000
00000000
00000000
00000000
,
00000000
00000000
00000000
00000000
,
00000000
00000000
00000000
00000000
,
00000000
00000000
00000000
00000000
,
00001000
00000000
00000000
00010000
00000000
00000000
00000010
00000000
00001000
00000000
00000000
00000001
00000000
00000000
00000010
00000000
,
00000100
00000000
00000000
00010000
00000000
00000000
00001000
00000000
00010000
00000000
00100000
00000000
10000000
00000000
00000000
00000000
,
00010000
00000000
00000000
00100000
00000000
00000000
01000000
00000000
00010000
00000000
00000000
00001000
00000000
00000000
00010000
00000000
,
00010100
00001100
00000011
00002002
,
00003003
00000000
00000000
00000000
,
00010000
00000000
00000000
00001000
00000000
00000000
00001000
00000000
00100000
00000000
00000000
01000000
00000000
00000000
01000000
00000000
,
10000000
00010000
01000000
00000000
10000000
01000000
00010000
00000000
,
10010000
00000000
00000000
00000000
10000000
00000000
01000000
00000000
00010000
00000000
00000000
00001000
00000000
00000000
00010000
00000000
,
00010010
00000000
00010010
00000000
00001000
00010000
00000100
00000000
,
00000010
00000000
00000000
00000001
00000000
00000000
00000001
00000000
00001000
00000000
00000000
00000010
00000000
00000000
00000010
00000000
,
00000100
00001000
00010000
00000000
00001000
01000000
00010000
10000000
,
00010000
00000000
00000000
00000000
10000000
00000000
01000000
00000000
00010000
00000000
00000000
00001000
00000000
00000000
00010000
00000000
,
00001000
00022000
00000000
00000000
00000000
00000000
00033000
00000000
,
00010000
00000000
00000000
00001000
00000000
00000000
00000010
00000000
00000100
00000000
00000000
00001000
00000000
00000000
00000010
00000100
,
00000010
00010000
00001000
00000000
00010000
00100000
01000000
00000000
,
01100000
00000000
00000000
00000000
00010000
00000000
10000000
00000000
01000000
00000000
00000000
00100000
00000000
00000000
00001000
00000000
,
00011000
00000000
00010010
00000000
00001000
00010000
00100000
00000000
,
10100000
00000000
00000000
00010000
00000000
00000000
10000000
00000000
01000000
00000000
00000000
00100000
00000000
00000000
00010000
00000000
,
10000000
10010000
00000000
00010000
01000000
00100000
00010000
00001000
,
00010000
00000000
00000000
00000100
00000000
00000000
00000010
00000001
00000010
00000000
00000000
00000100
00000000
00000000
00002002
00000000
,
00000000
00000000
00000000
00003003
,
00000001
00000010
00000001
00000010
00000000
00000010
00001000
00010000
,
00001000
00100000
00010000
10000000
00100000
00000000
10010000
00000000
,
00010000
01000000
10000000
01000000
00000000
01000000
00010000
10000000
,
01000000
00010000
00001000
00010000
00000100
00000010
00000100
00000000
,
00001000
00000010
00000100
00001000
00000000
00001000
00010000
00001000
,
00100000
00010000
01000000
00001000
00010000
00000000
00011000
00000000
,
00001000
00000100
00000010
00001000
00000000
00001000
00000001
00000010
,
00000100
00000000
00010000
00000000
00000100
00000000
00010000
00000000
00001000
00000000
00000000
00010000
00000000
00000000
00022000
00000000
,
00000000
00033000
00000000
00000000
,
00010000
00000000
00000000
00000100
00000000
00000000
00000001
00000000
00001000
00000000
00000000
00000010
00000000
00000000
00000001
00001000
,
00000001
00001000
00000010
00000000
00000100
00001000
00010000
00000000
,
00011000
00000000
00000000
00000000
00001000
00000000
01000000
00000000
00100000
00000000
00000000
00010000
00000000
00000000
10000000
00000000
,
01000000
00010000
10000000
01000000
00100000
00001000
00010000
00000000
,
00001000
00000000
00000000
00010000
00000000
00000000
00000100
00000000
00001000
00000000
00000000
00000010
00000000
00000000
00010000
00000000
,
00001000
00100000
00010000
00000000
01000000
00001000
00010000
00000000
,
00011000
00000000
00000000
00000000
00000000
00000000
00001000
00000000
00010000
00000000
00000000
00000100
00000000
00000000
00000010
00000000
,
00000000
00000110
00000000
00000110
00000000
00000010
00000001
00001000
,
00000001
00000000
00000000
00000100
00000000
00000000
00000010
00000000
00001000
00000000
00000000
00000100
00000000
00000000
00000010
00000000
,
00001000
00010000
00001000
00100000
00010000
10000000
00100000
00000000
,
01000000
00000000
00000000
00010000
00000000
00000000
00100000
00000000
01000000
00000000
00000000
00100000
00000000
00000000
00010000
00000000
,
10010000
00000000
00000000
00000000
00000000
00000000
00000000
00000000
10000000
00000000
00000000
10000000
00000000
00000000
10000000
00000000
,
00010000
00000000
00000000
01000000
00000000
00000000
00100000
00000000
00010000
00000000
00000000
00001000
00000000
00000000
00010000
00000000
,
00000100
00000010
00000100
00000000
00001000
00000010
00000100
00000000
,
00000001
00000000
00000000
00001000
00000000
00000000
00000100
00000000
00000010
00000000
00000000
00001000
00000000
00000000
00010000
00000000
,
00001000
00011000
00000000
00000000
00000000
00000000
00000000
00000000
,
00020000
00000000
00032000
00000000
,
00003020
00000000
00000032
00000000
,
00002003
00000000
00003002
00000000
,
00000203
00000000
00002300
00000000
00013000
00010000
00002000
00000000
,
00013000
00000000
00000000
00001000
00000000
00000000
00100000
00000000
00010000
00000000
00000000
10000000
00000000
00000000
00010000
00000000
,
01000000
10000000
01000000
00010000
10000000
01000000
00010000
00001000
,
00010000
00000000
00000000
00000000
00000010
00000000
00001000
00000000
00000100
00000000
00000000
00000010
00000000
00000000
00000001
00000000
,
00000011
00001100
00010100
00011000
,
00001000
00000000
00000000
00010000
00000000
00000000
00100000
00000000
00010000
00000000
00000000
00001000
00000000
00000000
00010000
00000000
,
00000010
00001000
00000100
00010000
00001000
01000000
00010000
00000000
,
01100000
00000000
00000000
00000000
10000000
00000000
00010000
00000000
00100000
00000000
00000000
01000000
00000000
00000000
00010000
00000000
,
00011000
00000000
00000000
00000000
00000000
00000000
00010000
00001000
00010000
00001000
00000000
00000000
,
01000000
00000000
00000000
00010000
00000000
00000000
10000000
00000000
01000000
00000000
00000000
00100000
00000000
00000000
00001000
00000000
,
00010000
00000000
00000010
00000000
00001000
00000000
00000010
00000000
00000100
00000000
00000000
00000001
00000000
00000000
00001000
00000000
,
00001001
00000000
00000000
00000000
00000000
00000000
00000001
00000000
00000010
00000000
00000000
00000100
00000000
00000000
00010000
00000000
,
00011000
00000000
00000000
01001000
00000000
00000000
00011000
00000000
00000000
00001000
00100000
00000000
00001000
00000000
00010000
00000000
,
00022000
00000000
00000000
00000000
,
00033000
00000000
00000000
00000000
;

//--------------- dance-double - Fred-104 ----------------
#NOTES:
     dance-double:
     Fred-104:
     Challenge:
     14:
     :
00000000
00000000
00000000
00000000
,
00000000
00000000
00000000
00000000
,
00000000
00000000
00000000
00000000
,
00000000
00000000
00000000
00000000
,
00000000
00000000
00000000
00000000
,
00000000
00000000
00000000
00000000
,
00010000
00000000
00001000
00010000
00001000
00000000
00000000
00000000
01000000
00010000
00000000
10000000
00000000
00010000
00000000
00100000
,
01000000
00000000
10000000
00010000
10000000
00000000
00100000
00000000
00010000
00000000
00001000
00000000
00010000
00000010
00010000
00000010
,
00010000
00000000
00000100
00001000
00000100
00000000
00000000
00000000
00000010
00000000
00000001
00001000
00000001
00000000
00000000
00000000
,
00000100
00000010
00000100
00000000
00001000
00010000
00001000
00000000
01000000
00010000
01000000
00010000
20000000
00000000
00000000
00000000
,
30000000
00000000
00000000
20000000
32000000
03020000
00032000
00003200
,
00000301
00000000
00000000
00001000
00000000
00000000
00000001
00000000
00000100
00000000
00000000
00000010
00000000
00000000
00001000
00000001
,
00000010
00000000
00000100
00000000
00010000
00000000
00001000
00000000
00010000
00000010
00001000
00000000
00000100
00000000
00010000
00000000
,
00011000
00000000
00000000
00000000
00001000
00000000
01000000
00000000
00100000
00000000
00000000
10000000
00000000
00000000
00010000
00000000
,
00110000
00101000
00010010
00000101
,
00000001
00000000
00000000
00000010
00000000
00000000
00000100
00000000
00001000
00000000
00000000
00000001
00000000
00000000
00000100
00001000
,
00000100
00000000
00000001
00000000
00001000
00000000
00000100
00000000
00010000
00001000
00010000
00000000
00001000
00000000
01000000
00000000
,
01100000
00000000
00000000
00000000
00010000
00000000
10000000
00000000
01000000
00000000
00000000
00100000
00000000
00000000
00001000
00000000
,
00010000
00011000
00000000
00002000
00023000
00030020
00002030
00003002
,
00001003
00000000
00000100
00010000
00000000
00000100
00001000
00000000
00000100
00000000
00000010
00000001
00000000
00001000
00000010
00000100
,
00000010
00000000
00000100
00000000
00001000
00000000
00010000
00000000
00001000
01000000
00010000
00000000
10000000
00000000
01000000
00000000
,
00100000
00000000
00010000
00000000
01000000
00000000
00100000
10000000
00010000
00000000
00100000
00001000
00000000
00010000
00001000
00000000
,
00011000
00000000
00010100
00000000
00001100
00000001
00000011
00000000
,
00001001
00000000
00000000
00000001
00000000
00000000
00000100
00000000
00010000
00000000
00000000
00000100
00000000
00000000
00000010
00000100
,
00000010
00001000
00000000
00001000
00001001
00000001
00000010
00001000
,
00011000
00000000
00000000
00101000
00000000
00000000
00100000
00010000
01000000
00000000
00000000
01100000
00000000
00000000
20020000
00000000
,
00000000
00000000
00000000
30030000
,
00010000
10000000
00100000
00010000
00001000
01000000
00010000
00001000
,
00000010
00000100
00000002
00000000
00001003
00000001
00000020
00000000
00000130
00000000
00010000
00000000
00001000
00010000
00001000
00010000
,
00001000
00100000
00010000
00001000
00000100
00010000
00001000
00000010
,
00000001
00000010
00000001
00000010
00000200
00000000
00002300
00000000
00003001
00000100
00000001
00000100
00000010
00001000
00000010
00001000
,
00000010
00001000
00010000
01000000
00001000
00010000
01000000
10000000
,
00010000
01000000
00200000
00000000
10300000
00010000
00200000
00000000
01300000
00000000
00010000
00000000
00001000
00010000
00001000
00010000
,
00001000
01000000
00010000
00001000
00000010
00010000
00001000
00100000
,
01000000
10000000
01000000
10000000
00010000
01000000
00010000
01000000
00001000
00000000
00000000
00010000
00000000
00000000
00022000
00000000
,
00000000
00000000
00000000
00000000
00033000
00000000
00020000
00000000
00032000
00000000
00003020
00000000
00000032
00000000
00002003
00003000
,
00001001
00000000
00000001
00000100
00000000
00000100
00000010
00000000
00001000
00000000
00000010
00000100
00000000
00000100
00001000
00000000
,
00010000
00001000
01000000
00000000
00010000
00000000
00100000
00000000
01000000
10000000
00010000
00000000
01000000
00000000
00100000
00000000
,
00010000
00000000
00001000
00000000
00010000
00000000
00000010
00001000
00000100
00000000
00000000
00000010
00000000
00000000
00000001
00000000
,
00001000
00000000
00000010
00000000
00000001
00000000
00000010
00000100
00000010
00000000
00000100
00000000
00001000
00010000
00001000
00010000
,
00001000
00000000
01000000
00010000
00000000
00010000
00100000
00000000
00001000
00000000
00010000
00001000
00000000
00001000
00100000
00000000
,
00010000
01000000
00100000
00000000
10000000
00000000
00010000
00000000
00100000
00001000
00010000
00000000
00000100
00000000
00001000
00000000
,
00001001
00000000
00000000
00000000
00000000
00000000
00000001
00000000
00000011
00000000
00000000
00000110
00000000
00000000
00010100
00000000
,
00000000
00011000
00000000
00011000
00000000
00011000
00001000
00010000
,
00001000
00000000
00100000
00010000
00000000
10000000
00010000
00000000
00100000
00000000
01000000
10000000
00000000
00100000
10000000
00000000
,
00010000
00000000
00100000
00000000
01000000
00000000
00010000
00000000
00000100
00000000
00001000
00000001
00001000
00000000
00000010
00000000
,
00000100
00000000
00001000
00010000
00000000
00001000
00100000
00000000
00001000
00000000
00010000
00000010
00000000
00000100
00000001
00000000
,
00001001
00000000
00000000
00000000
00000000
00000000
00000000
00000000
00010010
00000000
00000000
00011000
00000000
00000000
00101000
00000000
,
00001000
00000000
00010000
00001000
00000000
01000000
00010000
00000000
00100000
00000000
01000000
10000000
00000000
00010000
01000000
00000000
,
00100000
00000000
10000000
00000000
01000000
00000000
00010000
00000000
00001000
00000000
00000010
00000100
00000010
00000000
00000001
00000000
,
00001001
00000000
00000000
00001000
00000000
00000000
00000010
00000000
00000110
00000000
00000000
00000100
00000000
00000000
00001000
00000000
,
00010000
00011000
00000000
00002000
00023000
00230000
20300000
32000000
,
03200000
00000000
00000000
00001000
00000000
00000000
00301000
00000000
00020000
00000000
00000000
00000010
00000000
00000000
00030010
00001000
,
00000002
00000023
00000000
00002030
00003020
00000032
00000203
00002300
,
00023000
00000000
00000000
00000000
00000000
00000000
00031000
00010000
00002000
00000000
00000000
00023000
00000000
00000000
00032000
00000000
,
00000000
00000000
00000000
00023000
00230000
20300000
30020000
00230000
,
01300000
00000000
10000000
00010000
00000000
10000000
00100000
00000000
01000000
00000000
00100000
00010000
00000000
00001000
00010000
00000000
,
00000010
00001000
00000010
00000000
00000100
00000000
00000001
00000000
00001000
00000100
00000010
00000000
00000001
00000000
00001000
00000000
,
00001010
00000000
00000010
00000000
00000100
00000000
00001000
00010000
00001000
00000000
00000000
00010000
00000000
00000000
00001000
00000000
,
00101000
00000000
10010000
00020000
00230000
02300000
03020000
00032000
,
00013000
00000000
00000100
00001000
00000000
00000001
00000100
00000000
00000010
00000000
00001000
00000001
00000000
00000010
00000100
00000000
,
00010000
00001000
00010000
00000000
00100000
00000000
10000000
00000000
00010000
00100000
01000000
00000000
10000000
00000000
00010000
00000000
,
01000000
00100000
10000000
00000000
01000000
00000000
00010000
00001000
00010000
00000000
00000000
00000100
00000000
00000000
00000010
00000000
,
00000110
00000000
00000000
00000000
00000000
00000000
00000001
00000100
00001000
00011000
00000000
00000000
,
00001000
00000000
00010000
00000010
00000000
00001000
00000100
00000000
00010000
00000000
00001000
00010000
00000000
00100000
01000000
00000000
,
00010000
01000000
00010000
01000000
00100000
00000000
00010000
00000000
00001000
00000000
00000000
00010000
00000000
00000000
00001000
00000000
,
01001000
00000000
00000000
00000000
00000000
00000000
00100000
00001000
00010000
00000000
00000000
00001000
00000000
00000000
00010000
00000000
,
00011000
00000000
00000000
00001100
00000000
00000000
00000101
00000000
00000000
00000001
00000010
00000000
00000100
00000000
00010000
00000000
,
00022000
00000000
00000000
00000000
,
00033000
00000000
00000000
00000000
;
