#TITLE:onslaught;
#ARTIST:PHQUASE;
#BANNER:onslaught.png;
#BACKGROUND:onslaught-bg.png;
#CDTITLE:./CDTitles/RB groovin'!!.png;
#MUSIC:onslaught.ogg;
#SAMPLESTART:13.366;
#SAMPLELENGTH:15;
#BPMS:0=202,147=404,149.666667=202,215=404,216=202,218=404,219=202,221=404,222=202,240.25=101,240.375=50.5,240.5=101,240.625=202,240.75=404,241=202,257=404,259=202,317.375=191.9,317.5=181.8,317.625=171.7,317.75=161.6,317.875=151.5,318=141.4,318.125=131.3,318.25=121.2,318.375=111.1,318.5=101,318.5625=90.9,318.625=80.8,318.6875=70.7,318.75=60.6,318.8125=50.5,318.875=25.25,318.9375=101,319=202,334=101,335=202;
#STOPS:40.9375=0.891,90=0.297,93=0.297,147=0.099,147.666667=0.099,148.333333=0.099,149=0.099,215=0.149,218=0.149,221=0.149,257=2.079,318.9375=0.415,355.9375=0.581;
#TIMESIGNATURES:0=4=4,20=3=4,32=4=4,36=6=4,42=4=4,90=3=4,96=4=4,104=7=4,111=8=4,119=4=4,183=7=4,190=8=4,198=7=4,205=8=4,213=3=4,222=5=4,227=7=8,241=4=4,257=2=4,259=5=4,264=6=4,270=5=4,280=3=4,283=5=4,288=6=4,300=4=4,332=3=4,347=4=4,351=5=4,356=4=4;
#BGSTAGE:29;

//--------------- dance-single - Fred-104 ----------------
#NOTES:
     dance-single:
     Fred-104:
     Beginner:
     9:
     :
0000
0000
0000
0000
,
0000
0000
0000
0000
,
0000
0000
0000
0000
,
0000
0000
0000
0000
,
0000
0000
0000
0000
,
1000
1000
0100
0010
,
0010
0001
1000
1000
,
0001
0100
0100
0010
,
1001
0000
0000
0110
0000
0000
1001
0000
,
0000
0220
0000
0000
0000
0000
0000
0000
,
0000
0000
0000
0330
0000
0000
0000
0000
2000
0000
0000
0000
0000
0000
3002
0000
,
0000
0203
0000
0000
,
0000
0000
0300
0001
,
0001
1000
1000
0100
,
0010
0001
2000
0000
,
0000
0000
3002
0000
,
0000
0000
0103
0100
,
0010
0100
0100
0001
,
1000
0001
1000
0000
0200
0000
0000
0320
,
0000
0032
0000
0000
,
0000
0000
0003
1000
,
0001
1000
0010
0100
,
0001
1000
1001
0100
,
0000
1001
0010
0000
,
2000
0000
0001
0000
,
3002
0000
0103
0001
,
1000
0000
0000
0000
0000
0001
0000
0000
,
0000
0100
0100
0100
,
0000
0000
0000
0010
0000
0000
0000
0000
,
0100
0100
0001
2000
,
0000
3200
0000
0000
0320
0000
0000
0000
,
0000
0000
0000
0030
,
0001
1000
0001
0100
,
0010
1000
0010
0200
,
0000
0000
0000
0302
,
0000
0000
0000
1003
,
0100
1000
0001
2002
,
0000
0000
3003
0002
,
0000
0023
0000
0000
0230
0000
0000
0000
,
0000
0000
0000
1300
,
0001
0100
0010
1000
,
0100
0010
0001
2000
,
0000
3010
1000
0002
,
0000
0013
0001
0200
,
0000
0310
1000
0200
,
0000
0310
0001
1000
,
0000
0000
0000
1000
0000
0000
0000
0000
,
0001
1000
0001
0000
,
0000
0100
0000
0000
0000
0000
0010
0000
,
0010
0010
0010
0000
,
0000
0100
0000
0000
0000
0000
0001
0000
,
1000
0000
0001
0000
0000
0000
0000
1000
,
0000
0000
0100
0100
,
1000
0002
0000
0003
,
2000
0000
3000
0020
,
0000
0030
0200
0000
,
0000
0000
0300
2002
,
0000
0000
3003
0220
,
0000
0000
0000
0000
0330
2002
0000
0000
,
0000
0000
0000
3003
0000
0220
0000
0000
,
0000
0330
2002
0000
0000
0000
0000
0000
,
0000
0000
0000
0000
,
0000
0000
0000
0000
,
0000
0000
0000
0000
,
0000
3003
0000
1000
,
0000
1000
0000
0000
0001
0000
0100
0000
,
0001
0000
0000
1000
0000
0000
0100
0000
,
0010
0000
0001
0000
1000
0000
0000
0001
,
0000
0100
0010
1000
,
0100
0001
0010
1000
,
0001
0010
0001
0000
1000
0010
1000
0000
,
0000
0001
0000
0000
0100
0000
0001
0000
,
1000
0000
0000
0100
0000
0000
0010
0000
,
0001
0000
1000
0000
0001
0000
0000
0100
,
0000
0001
1000
0100
,
2000
3002
2003
3001
,
1001
0000
0000
0000
,
0110
0000
0000
0000
,
2002
0000
0000
0000
,
0000
0000
0000
0000
0000
0000
0000
0000
0000
0000
0000
3003
0000
0000
0000
0000
,
1000
1000
0100
0100
,
0001
0001
0010
0010
,
1000
0100
0001
0010
,
1000
0000
0100
0000
1000
0001
1000
0000
,
0100
0000
0010
0100
0010
0000
0001
0000
,
1000
0001
1000
0000
0001
0000
0100
0010
,
0100
0001
1000
1001
,
0000
0110
0000
0000
1001
0000
0000
0220
,
0000
0000
0000
0000
0000
0000
0000
0000
0000
0000
0000
0000
0000
0000
0000
0330
,
1000
0100
0010
0001
,
2002
0000
0000
0000
,
3003
0000
0000
0000
;

//--------------- dance-single - Fred-104 ----------------
#NOTES:
     dance-single:
     Fred-104:
     Easy:
     12:
     :
0000
0000
0000
0000
,
0000
0000
0000
0000
,
0000
0000
0000
0000
,
0000
0000
0000
0000
,
0000
0000
0000
0000
,
1000
0100
0100
1000
0010
0000
0100
0001
,
0001
0100
0010
0000
1000
0001
0001
1000
,
0001
0000
0010
0100
0100
0010
0100
0000
,
1000
1000
0000
0001
0001
0000
0100
0100
,
0000
0010
0220
0000
0000
0000
0000
0000
,
0000
0000
0330
0000
1002
0000
0000
2003
,
0000
3020
0130
0001
,
1000
0000
0100
0010
0100
0000
0002
0000
,
0203
2300
3002
0203
,
2300
3200
0301
1000
,
0100
0010
0100
0000
0010
0000
0001
0000
,
1000
0010
1000
0000
0010
0000
0100
0000
,
0001
0010
0100
0000
1000
0010
0100
0000
,
0001
1000
0200
0000
2300
0000
0000
3020
,
0000
0032
0013
0100
,
0010
0000
1000
0001
2000
0000
3200
0000
,
0302
0203
0320
0032
,
2003
0000
3002
0003
1001
0000
1000
0100
,
0010
0000
1001
0000
0001
0100
0010
0000
,
2000
0000
0100
0000
0010
0000
3100
1000
,
0002
0000
0100
0000
0103
0010
0100
0000
,
1001
0000
0000
0000
0000
0110
0000
0000
,
0000
1001
0110
1001
,
0000
0000
0000
0110
0000
0000
0000
0000
,
1001
0110
1001
2200
,
3300
0202
0000
0303
1100
0000
0001
0000
,
0100
0000
1000
0000
0100
0001
2000
0000
,
0010
0100
3010
2000
,
3200
0000
0320
0000
0032
0000
0103
0001
,
0100
0000
0010
0000
1000
0000
0001
0010
,
0100
0000
0000
1000
0000
0000
0001
1000
0001
1000
0000
0000
,
0010
0000
0000
0000
0000
0000
0100
0000
0000
0100
0000
0000
0100
0000
0000
0000
0000
0000
0001
0000
0000
0000
0001
0000
,
0000
1000
0000
1000
0000
1001
0000
0000
0000
2020
0000
0000
,
3030
0202
0000
0303
1010
0000
0001
0000
,
0010
0000
1000
0000
0010
0001
2000
0000
,
0001
0100
3001
2000
,
3200
0000
1300
0010
0200
0000
0301
0100
,
1000
0000
0100
0000
0001
0000
1000
0100
,
0001
0000
0100
0000
2000
0000
3001
0100
,
0001
0000
0010
0000
0100
1000
0001
0000
,
0100
0000
0010
1000
0010
0000
1001
0000
,
0000
0000
0000
0110
0000
0000
0000
0000
,
1001
0110
1001
0000
,
0000
0110
0000
0000
0000
0000
1001
0000
,
0110
1001
1001
0000
,
0000
0110
0000
0000
0000
0000
1001
0000
,
0110
0000
1001
0000
0000
0000
0000
0110
,
0000
0000
1001
0110
,
1001
1100
1000
0101
,
0011
0001
1010
0110
,
1000
0000
1001
0000
0001
0001
0000
1000
,
1000
0000
0001
1000
0100
0000
1001
0000
,
0000
0000
0000
0110
0000
0000
0000
0000
0000
0000
0001
0000
2002
0000
0000
0000
,
0000
0000
0000
0000
3003
1001
0000
0000
,
0000
0110
0000
0000
0000
0000
0000
0000
1000
0000
2002
0000
0000
0000
0000
0000
,
3003
2002
0000
0000
,
0000
0000
0000
0000
,
0000
0000
0000
0000
,
0000
0000
0000
0000
,
0000
3003
0000
1000
,
0000
0010
0000
0000
1000
0000
0100
0000
,
0010
0000
0000
0001
0000
0000
1000
0000
,
0001
0000
0100
0000
0010
0000
0000
0010
,
0000
0100
0001
1000
,
0100
0001
0100
1000
,
0001
1000
0001
1000
0001
1000
0001
0000
,
0000
0010
0000
0000
0100
0000
1000
0000
,
0001
0000
0000
0100
0000
0000
0010
0000
,
0100
0000
0001
0000
1000
0000
0000
0100
,
0000
0000
0010
0000
0000
0001
0000
0000
,
1000
0001
0100
0000
,
1001
0000
0000
0000
,
0110
0000
0000
0000
,
2002
0000
0000
0000
,
0000
0000
0000
3003
,
0001
0001
0001
0000
0010
0000
0100
0100
,
0100
0000
1000
0000
0001
0001
0001
0000
,
0100
0100
0100
0000
0010
0000
0100
0100
,
0100
0000
0000
0000
0001
0000
0000
0000
0001
1000
0001
0000
1000
0000
1000
0000
,
0100
1000
0100
0000
0010
0010
0001
0010
,
0001
0000
1000
1000
0100
0010
0001
0000
,
0100
0100
0001
1000
0010
0000
1001
0000
,
0000
0110
0000
0000
1001
0000
0000
0220
,
0000
0000
0000
0330
,
1000
0000
0000
0100
0000
0000
0010
0001
0010
0001
0000
0000
,
2002
0000
0000
0000
,
3003
0000
0000
0000
;

//--------------- dance-single - Fred-104 ----------------
#NOTES:
     dance-single:
     Fred-104:
     Medium:
     15:
     :
0000
0000
0000
0000
,
0000
0000
0000
0000
,
0000
0000
0000
0000
,
0000
0000
0000
0000
,
0000
0000
0000
0000
,
0001
0010
0100
1000
0001
1000
0010
0100
,
0001
1000
0100
0010
0100
1000
0001
0100
,
0010
1000
0001
0010
0100
0010
0001
1000
,
0001
0101
0000
1000
1100
0000
0001
0011
,
0000
0000
0000
1000
0000
0000
1010
0000
0000
0000
0010
0000
0100
0000
0001
0000
0010
0000
0001
0000
1000
0000
0010
0000
,
1000
0001
1000
0001
0000
0000
0000
0000
2200
0000
0000
0000
3300
0000
0202
0000
,
0000
0303
1100
0000
0001
0100
1000
0000
,
0001
0000
0000
0010
0000
0000
1000
0000
0001
0000
1000
0000
0001
0000
0000
0000
0000
0000
0020
0000
0000
0000
0000
0000
,
0130
1000
0002
0000
0203
0000
0310
1000
,
0001
0000
0010
0100
0020
0000
0000
0000
0031
0000
0001
1000
0001
0000
0010
0000
,
0100
0000
1000
0000
0001
0000
0000
0000
0100
0000
0100
0010
0100
0000
0001
0000
,
1000
0000
0100
0000
0010
0000
0000
0000
0001
0000
0001
0010
0001
0000
1000
0000
,
0010
0100
0001
0000
1000
0100
0001
0100
,
1000
0000
0100
0000
0020
0000
0000
0030
0022
0000
0000
0000
0033
0000
2020
0000
,
0000
3030
0101
0000
1000
0000
0001
0010
,
0100
0000
0000
0010
0000
0000
0001
0000
0000
0000
1000
0000
0200
0000
0000
0000
0000
0000
0001
0000
0000
0000
0000
0000
,
0010
2300
3002
0023
,
0130
0000
1000
0001
1000
0000
0000
0000
1001
0000
0001
0100
0001
0000
1000
0000
,
0100
0000
0000
0000
1001
0000
1000
0100
1000
0000
0001
0000
0100
0000
0000
0000
,
0020
0000
0000
0000
0001
0000
0000
0000
0100
0000
0000
0000
1030
0000
0001
1000
,
0001
0010
0100
1000
0001
1000
1001
0000
,
0001
0000
0000
0000
0000
0000
0010
0000
0100
0000
0010
0000
0100
0000
0000
0100
0000
0000
0000
0000
0000
1000
0000
0000
,
0100
0001
0100
0010
0001
0000
1001
0000
,
0001
0000
0010
0000
0100
0000
1000
0000
0000
1000
0000
0000
0000
0000
0000
0010
0000
0000
0100
0000
0000
1000
0000
0000
,
0100
0001
0001
0010
0100
1000
0001
0010
,
1000
0001
0100
1000
0001
0000
0200
0000
,
1000
0010
0302
2003
,
3200
0302
0203
0320
,
0032
0000
0000
0000
1003
0000
0001
0000
1000
0000
0000
0000
0001
0000
0100
0010
,
0100
0000
0001
0000
0010
0000
0100
0000
1000
0000
0000
0000
0001
0000
1000
0100
,
1000
0000
0000
0000
0000
0000
0001
0000
0000
0000
0000
0000
0100
0000
0000
0000
0000
0000
0010
0000
0000
0000
0000
0000
1000
0000
0000
0000
0001
0000
0000
0000
1000
0000
0000
0000
0001
0000
0000
0000
0000
0000
1000
0000
0000
0100
0000
0000
,
1000
0000
0000
0010
0000
0000
0100
0000
0000
0001
0000
0000
1000
0000
0000
0000
0000
0000
0001
0000
0000
0000
0100
0000
,
0000
0000
1000
0000
0000
0000
0100
0000
0000
0000
0101
0000
0000
0000
0000
0000
0000
0000
1000
0000
0000
0100
0000
0000
,
0001
0100
0010
0001
1000
0000
0020
0000
,
0001
0100
2030
3002
,
0203
2300
3200
0320
,
2030
0000
3100
0010
0001
0000
1000
0001
,
0100
0000
0010
1000
0010
0000
0100
0000
0001
0000
0000
0000
0010
0000
0100
0000
,
1000
0000
0001
0010
0001
0000
0100
0000
0010
0000
0000
0000
1000
0000
0001
0000
,
0010
0000
0100
0000
1000
0000
0001
0000
0100
0000
0010
1000
0010
0000
0100
0000
,
0001
1000
0100
0100
0110
0000
0011
0000
,
0001
0000
1000
0000
0001
0000
0010
0000
0000
0010
0000
0000
0000
0000
0000
0100
0000
0000
1000
0000
0000
0001
0000
0000
,
0100
0000
0000
1000
0000
0000
0100
0000
0000
0001
0000
0000
1001
0000
0000
0000
0000
0000
1000
0000
0100
0000
1000
0000
,
0100
0100
0000
0001
0100
0010
0001
1000
,
0010
0000
0000
0100
0000
0000
0001
0000
0000
0000
0000
0000
1001
0000
0000
0000
0000
0000
0001
0000
0010
0000
0001
0000
,
0100
0100
0000
1000
0100
0010
1000
0100
,
0010
0000
0000
0000
0000
0000
0011
0000
0000
0000
0000
0000
0001
0000
1000
0000
0001
0000
0010
0000
0000
0010
0000
0000
,
0000
1000
0010
0100
0010
0001
1000
0001
,
0100
0000
0001
0000
1000
0100
0001
0000
,
0110
0000
0001
0100
1000
0000
0110
0000
,
0001
1000
0001
0000
1000
0100
0000
0001
,
0100
0000
1000
0001
0100
0010
0110
0000
,
0000
0000
0000
1001
0000
0000
0000
0000
0000
0000
0100
0000
0220
0000
0000
0000
,
0000
0000
0000
0000
0330
0011
0000
0000
,
0000
1100
0000
0000
0000
0000
0000
0000
0010
0000
0220
0000
0000
0000
0000
0000
,
0330
2002
0000
0000
,
0000
0000
0000
0000
,
0000
0000
0000
0000
,
0000
0000
0000
0000
,
0000
0000
3003
0000
0000
0000
0001
0010
,
0100
0010
1000
0010
0100
1000
0001
0000
,
1000
0010
0100
0010
0001
1000
0100
0001
,
1000
0100
0010
0000
0001
0100
1000
0001
,
0010
0100
0001
1000
0100
0010
0001
1000
,
0001
0010
0100
1000
0001
0100
0010
1000
0010
0100
0000
0000
,
0002
0023
0230
2300
3020
0230
0301
0100
,
0010
0001
1000
0100
0010
0100
0001
1000
,
0001
0010
1000
0001
0100
0010
0001
1000
,
0010
0001
0010
1000
0001
0010
1000
0001
,
0100
1000
0001
0100
1000
0001
0010
0000
,
0100
0001
0100
0001
1000
0001
1000
0100
0010
0001
0000
0000
,
1001
0000
0000
0000
,
0110
0000
0000
0000
,
2002
0000
0000
0000
,
0000
0000
0000
3003
,
0001
0001
0010
1000
0010
0001
1000
1000
,
0001
0100
1000
0100
0010
0110
0000
0000
,
1000
1000
0001
0100
1000
0100
0001
0001
,
0010
0000
0000
0000
0100
0000
0000
0000
0001
0000
0000
0000
0100
0000
0000
0000
0010
0000
0000
0001
1000
0000
0000
0000
0001
0000
0000
0000
0100
0000
0000
0000
,
0010
0001
0010
0100
0001
0010
0100
0001
,
0100
1000
0001
0100
1000
0100
0010
1000
,
0100
0010
1000
0010
0001
1000
0001
0011
,
0000
1000
1100
0000
0001
0101
0000
1000
,
1010
0000
1000
0001
0010
0100
1000
0001
0100
0020
0000
0000
,
1030
0010
1000
0001
0100
0001
1000
0100
0010
0001
0010
0100
,
2000
0000
0000
0000
,
3000
0000
0000
0000
;

//--------------- dance-single - Fred-104 ----------------
#NOTES:
     dance-single:
     Fred-104:
     Hard:
     18:
     :
0000
0000
0000
0000
,
0000
0000
0000
0000
,
0000
0000
0000
0000
,
0000
0000
0000
0000
,
0000
0000
0000
0000
,
1000
0001
0010
1000
0010
0100
1000
0001
,
0010
0100
0001
1000
0010
0001
1000
0001
,
0100
0010
0001
0010
0100
0001
1000
0100
,
1100
1010
0000
0101
0011
0000
1100
1010
,
0000
0000
0000
0101
0000
0000
0001
0000
1000
0000
0001
0000
1000
0000
0100
0000
0010
0000
0001
0000
0010
0000
0100
0000
,
1000
0100
0010
0002
0000
0003
0000
0000
2100
0000
0000
0000
3010
0000
2000
0000
,
0000
3001
2000
0000
3200
0000
1000
0000
,
0310
0000
0000
0100
0000
0000
0001
0000
0100
0000
1000
0000
0002
0000
0000
0000
0000
0000
0100
0000
0000
0000
0000
0000
,
1000
0000
0000
0000
0013
0000
0001
0010
0200
0000
0000
0000
0310
0000
0100
1000
,
0001
1000
0001
1000
0002
0000
0000
0000
1003
0000
0001
0010
0100
0000
0002
0000
,
0103
0000
0010
0000
0001
0000
1000
0000
0001
0000
1000
0010
0100
0000
1000
0000
,
0100
0000
0000
0000
0000
0000
0010
0000
0000
0000
0000
0000
1000
0000
0000
0000
0001
0000
0000
0000
0010
0000
0000
0000
0100
0000
0000
0000
0000
0000
1000
0000
0000
0100
0000
0000
0010
0000
0000
0000
0000
0000
0001
0000
0000
0000
0000
0000
,
1000
0001
0010
0000
0001
1000
0010
1000
0001
0000
0010
0000
0110
0000
0100
0000
,
1100
0000
1001
0000
1000
0001
1000
0001
0200
0000
0000
0000
0310
0000
0200
0000
,
0000
0301
0200
0000
0310
1000
0100
1000
,
0001
0000
0000
1000
0000
0000
0010
0000
0100
0000
0001
0000
2000
0000
0000
0000
0000
0000
0010
0000
0000
0000
0000
0000
,
0001
0000
0000
0000
3010
0000
0100
0001
0020
0000
0000
0000
0130
0000
1000
0001
,
0100
0000
0000
0000
0010
0000
0000
0000
1000
0000
0000
0000
0001
0000
0000
0000
0010
0000
0000
0000
0000
0000
0000
0000
0100
0000
0000
0000
1000
0000
0000
0000
0002
0003
0000
0000
0000
0000
0000
0000
0010
0000
0000
0000
0001
0000
0000
0000
0100
0000
0000
0000
0000
0000
0000
0000
0010
0000
0000
0000
1000
0000
0000
0000
,
0001
0000
0000
0000
0000
0000
0000
0000
1000
0000
0000
0000
0000
0000
0000
0000
2002
3003
0000
0000
0000
0000
0000
0000
0001
0000
0000
0000
0010
0000
0000
0000
0100
0000
0000
0000
1000
0000
0000
0000
0100
0000
0000
0000
0000
0000
0000
0000
1000
0000
0000
0000
0000
0000
0000
0000
0001
0000
0000
0000
1000
0000
0000
0000
,
0002
0000
0000
0000
0010
0000
0000
0000
1000
0000
0000
0000
0103
0000
0001
0010
,
0100
0000
0000
0000
0000
0000
1000
0000
0000
0010
0000
0000
0100
0000
0000
0000
0000
0000
0110
0000
0000
0000
0000
0000
0101
0000
0000
0000
0000
0000
0001
0000
0000
1000
0000
0000
0001
0000
0000
0000
0001
0000
0000
0000
1000
0000
0000
0000
,
1001
0000
0000
0000
0000
0000
0000
0000
0000
0000
0000
0000
1000
0000
0000
0000
0001
0000
0000
0000
0100
0000
0000
0000
0010
0000
0000
1000
0000
0000
0010
0000
0000
0000
0000
0000
0000
0000
0000
0000
0000
0000
1000
0000
0000
0100
0000
0000
,
0010
0001
0010
0100
1000
0000
0001
1000
0010
0000
0100
0000
0101
0000
0000
0000
,
1000
0000
0000
0000
0100
0000
0000
0000
0010
0000
0000
0000
0001
0000
0000
0010
0000
0000
0100
0000
0000
0000
0000
0000
0000
0000
0000
0000
0000
0000
1000
0000
0000
0001
0000
0000
0010
0000
0000
0001
0000
0000
1000
0000
0000
0010
0000
0000
,
0100
0000
0001
0010
0100
0000
1000
0010
0100
0001
0010
0100
2000
0000
3001
0000
,
0100
0020
0031
1000
0200
0301
1000
0001
,
0010
0000
1000
0000
0010
0000
0100
0000
1000
0000
0001
0000
1000
0000
0001
0010
,
0100
0000
1000
0001
0100
0000
1000
0100
0010
0000
1000
0100
0010
0000
1000
0010
,
0100
0000
1000
0001
0010
0000
0100
1000
0001
0000
1000
0001
0010
0000
0001
0010
,
1000
0000
0010
0000
0100
0000
0010
0000
0001
0000
1000
0001
0100
0000
1000
0100
,
0010
0000
0000
0000
0000
0000
1000
0000
0000
0000
0000
0000
0001
0000
0000
0000
0000
0000
0010
0000
0000
0000
0000
0000
0001
0000
0000
0000
0100
0000
0000
0000
0010
0000
0000
0000
1000
0000
0000
0000
0000
0000
0010
0000
0000
1000
0000
0000
,
0001
0000
0000
0000
0000
0000
0010
0000
0000
0100
0000
0000
1000
0000
0000
0000
0000
0000
0010
0000
0000
0100
0000
0000
0001
0000
0000
0000
0000
0000
0000
0000
0000
0000
0000
0000
1100
0000
0000
0000
0000
0000
0000
0000
0101
0000
0000
0000
,
0000
0000
1010
0000
0000
0000
0011
0000
0000
0000
1001
0000
0000
0000
0000
0000
0000
0000
0002
0000
0000
1003
0000
0000
,
0010
0200
1300
0001
0020
1030
0001
0100
,
1000
0000
0100
0000
0010
0000
1000
0000
0001
0000
0100
0001
0010
0000
0100
1000
,
0001
0000
0100
0010
0001
0000
0010
0100
0001
0000
0010
0100
0001
0000
0100
0010
,
0001
0000
0100
0010
1000
0000
0001
0010
0100
0000
1000
0000
0001
0000
0010
0000
,
0100
0000
1000
0010
0100
0000
0010
1000
0100
0000
0010
0000
0001
0000
1000
0000
,
0010
0000
0100
0001
0010
0000
0100
1000
0002
0000
0000
0000
1003
0000
0001
0010
,
0100
0000
0010
0000
0001
0000
1000
0001
0100
0000
0010
0100
0001
0000
0100
0001
,
0010
0000
0000
0001
0000
0000
1000
0000
0000
0001
0000
0000
1000
0000
0100
0000
0001
0000
0100
0000
0000
0000
0000
0000
,
1000
0000
0000
0000
0100
0000
0000
0000
0010
0000
0000
0000
0001
0000
0000
0100
0000
0000
0010
0000
0000
0000
0000
0000
0000
0000
0000
0000
0000
0000
0100
0000
0000
0001
0000
0000
0010
0000
0000
0100
0000
0000
0010
0000
0000
0001
0000
0000
,
1000
0000
0000
0000
0000
0000
0001
0000
0000
0010
0000
0000
0100
0000
0000
0000
0000
0000
1000
0000
0000
0010
0000
0000
0100
0000
0000
0000
0000
0000
0000
0000
0000
0000
0000
0000
0001
0000
0000
0000
0010
0000
0000
0000
1000
0000
0000
0000
,
0010
0001
0100
0000
0000
0000
0001
0010
0100
1000
0001
1000
0100
0000
1000
0010
,
0100
0000
0000
0000
0000
0000
0010
0000
0000
1000
0000
0000
0100
0000
0000
0000
0000
0000
0010
0000
0000
0001
0000
0000
1000
0000
0000
0000
0000
0000
0000
0000
0000
0000
0000
0000
0001
0000
0000
0000
0010
0000
0000
0000
1000
0000
0000
0000
,
0001
0100
1000
0000
0000
0000
0001
0010
0100
1000
0100
0010
0001
0000
1000
0010
,
0100
0000
0000
0000
0000
0000
0001
0000
0000
0010
0000
0000
0100
0000
0000
0000
0000
0000
0000
0000
0000
0000
0000
0000
1000
0000
0000
0000
0010
0000
0000
0000
0001
0000
0000
0000
1000
0000
0000
0100
0000
0000
0010
0000
0000
0000
0000
0000
,
0000
0000
1000
0001
0010
0001
1000
0010
0100
0000
0001
0100
0010
0000
1000
0100
,
0010
0000
0000
0000
0000
0000
0000
0000
0001
0000
0000
0000
1000
0000
0000
0000
0001
0000
0000
0000
0000
0000
0000
0000
0000
0000
0000
0000
0000
0000
0000
0000
1000
0000
0000
0000
0100
0000
0000
0000
0010
0000
0000
0000
0001
0000
0000
0000
2000
3000
0000
0000
0000
0000
0000
0000
0000
0000
0000
0000
0000
0000
0000
0000
,
1001
0000
0000
0000
0000
0000
0000
0000
0000
0000
0000
0000
0000
0000
0000
0000
0000
0000
0000
0000
0000
0000
0000
0000
0000
0000
0000
0000
0000
0000
0000
0000
0000
0000
0000
0000
0000
0000
0000
0000
0000
0000
0000
0000
0000
0000
0000
0000
0001
0000
0000
0000
0000
0000
0000
0000
0000
0000
0000
0000
0100
0000
0000
0000
0000
0000
0000
0000
0000
0000
0000
0000
0010
0000
0000
0000
0000
0000
0000
0000
0000
0000
0000
0000
1000
0000
0000
0000
0000
0000
0000
0000
0000
0000
0000
0000
0002
0000
0000
0003
0000
0000
0000
0000
0000
0000
0000
0000
0000
0000
0000
0000
0000
0000
0000
0000
0000
0000
0000
0000
0000
0000
0000
0000
0000
0000
0000
0000
0000
0000
0000
0000
0000
0000
0000
0000
0000
0000
0000
0000
0000
0000
0000
0000
1000
0000
0000
0000
0000
0000
0000
0000
0000
0000
0000
0000
0000
0000
0000
0000
0100
0000
0000
0000
0000
0000
0000
0000
0000
0000
0000
0000
0000
0000
0000
0000
0010
0000
0000
0000
0000
0000
0000
0000
0000
0000
0000
0000
0000
0000
0000
0000
,
0001
0000
0000
0000
0100
0000
0000
0000
0010
0000
0000
0000
1000
0000
0000
0000
0002
0003
0000
0000
0000
0000
0000
0000
0000
0000
0000
0000
0000
0000
0000
0000
0001
0000
0000
0000
0100
0000
0000
0000
0010
0000
0000
0000
0000
0000
0000
0000
0000
0000
0000
0000
0000
0000
0000
0000
1000
0000
0000
0000
0100
0000
0000
0000
,
0010
0000
0000
0000
0001
0100
0010
0000
1000
0100
0010
0000
0011
0000
0000
0000
,
0000
0000
0000
1001
0000
0000
0000
0000
0000
0000
1100
0000
2002
0000
0000
0000
,
0000
0000
0000
0000
3003
1010
0000
0000
,
0000
0101
0000
0000
0000
0000
0000
0000
0110
0000
2002
0000
0000
0000
0000
0000
,
0000
3003
2000
0000
0000
0000
3001
0000
,
1000
0000
0000
0000
0001
0000
0000
0000
1000
0000
0000
0001
0000
0000
1000
0000
,
0000
0000
0001
0000
0000
0000
0000
0000
1000
0000
0000
0000
0000
0001
0000
0000
0000
0000
1000
0000
0000
0000
0000
0001
0000
0000
0000
0000
1000
0000
0000
0000
,
0001
0000
0000
0000
0000
0000
1000
0000
0000
0000
0000
0000
0001
0000
0000
0000
0000
0000
1000
0000
0000
0000
0000
0000
0001
0000
0000
0000
1000
0000
0000
0000
0001
0000
0000
0000
1000
0000
0000
0001
0000
0000
1000
0000
0000
0001
0000
0000
,
1000
0001
1000
0001
1000
0000
0000
0000
0000
0000
0000
0000
1200
0000
0310
0000
,
0001
0201
0310
1000
1002
1003
0010
0000
,
0210
0301
1000
0120
1030
0001
2000
0100
,
3002
0010
1003
0001
0021
0130
1000
1020
,
0130
0000
0001
0000
2001
0000
3001
0100
0010
0000
1000
0000
0001
0010
0100
1000
,
0001
0010
0100
1000
0010
0100
0001
1000
0100
0010
0001
1000
,
0002
0023
2030
3002
0203
2300
3001
0100
,
0010
0000
0001
0010
0100
0000
0001
0000
0010
0000
0100
1000
0010
0000
1000
0001
,
0100
0000
0010
0000
1000
0000
0100
0010
1000
0000
0010
0000
0100
0000
1000
0001
,
0010
0000
0001
1000
0100
0000
0010
0000
0001
0000
0010
0000
1000
0000
0010
0100
,
1000
0000
0000
0000
0000
0000
0001
0000
0000
0000
0000
0000
0100
0000
0000
0000
0000
0000
0010
0000
0000
0001
0000
0000
1000
0000
0000
0000
0000
0000
0100
0000
0000
0001
0000
0000
1000
0000
0000
0000
0001
0000
0000
0000
1000
0000
0000
0000
,
0001
0000
0000
0000
0100
0000
0000
0000
0010
0000
0000
0000
1000
0000
0000
0000
0010
0000
0000
0000
0100
0000
0000
0000
0001
0000
0000
0000
0010
0000
0000
0000
0100
0000
0000
0000
1000
0000
0000
0001
0000
0000
0100
0000
0000
0010
0000
0000
,
1001
0000
0000
0000
,
0110
0000
0000
0000
,
1001
0000
0000
0000
0000
0000
0000
0000
0000
0000
0000
0000
0000
0001
0000
0000
0000
0000
0000
0000
0000
0000
1000
0000
0000
0000
0000
0000
0000
0000
0000
0001
0000
0000
0000
0000
0000
0000
0000
0000
0100
0000
0000
0000
0000
0000
0000
0000
,
0000
0010
0000
0000
0000
2002
0000
0000
0000
0000
0000
0000
3003
0000
0000
0000
,
1100
0000
1100
0000
1000
0010
1000
0010
0100
0000
0001
0000
0011
0000
0011
0000
,
0000
1001
0001
0100
0110
1001
0000
0000
,
1010
0000
1010
0000
1000
0001
1000
0100
1000
0000
0010
0000
0110
0000
0110
0000
,
0000
0000
0000
0000
0101
0000
0000
0000
0001
0000
0000
0000
0020
0000
0000
0000
0032
0000
0000
0103
0001
1000
0001
0000
1001
0000
0000
0000
0011
0000
0000
0000
,
0001
1000
0010
1000
0100
0000
0010
0000
0011
0000
0101
0000
0100
0010
1000
0010
,
0100
0000
0010
0000
1010
0000
1100
0000
1000
0100
0010
0001
0100
0000
0001
0000
,
0011
0000
1001
0000
1000
0100
0010
0001
1000
0010
0100
0000
0101
0000
1001
0000
,
0000
1010
1001
0000
0011
1001
0000
1100
,
0001
0000
0000
0000
1000
0000
0000
0000
0001
0000
0000
0000
0100
0000
0000
0000
0010
0000
0000
0000
0100
0000
0000
0000
0001
0000
0000
0000
0010
0000
0000
0000
0100
0000
0000
0000
1000
0000
0000
0001
0000
0000
0010
0000
0000
0200
0000
0000
,
1300
0000
0000
0001
0000
0000
1000
0000
0000
0010
0000
0000
1000
0000
0000
0000
0100
0000
0000
0000
0010
0000
0000
0000
0001
0000
0000
0000
0100
0000
0000
0000
0010
0000
0000
0000
1000
0000
0000
0000
0001
0000
0000
0000
1000
0000
0000
0000
,
2002
0000
0000
0000
,
3003
0000
0000
0000
;

//--------------- dance-double - Fred-104 ----------------
#NOTES:
     dance-double:
     Fred-104:
     Easy:
     12:
     :
00000000
00000000
00000000
00000000
,
00000000
00000000
00000000
00000000
,
00000000
00000000
00000000
00000000
,
00000000
00000000
00000000
00000000
,
00000000
00000000
00000000
00000000
,
00010000
00001000
00001000
00010000
00000010
00000000
00001000
00000100
,
00000100
00000010
00000001
00000000
00001000
00000001
00000001
00000100
,
00001000
00000000
00010000
00010000
01000000
00100000
00010000
00000000
,
10000000
10000000
00000000
01000000
01000000
00000000
00100000
00100000
,
00000000
00001000
00022000
00000000
00000000
00000000
00000000
00000000
,
00000000
00000000
00033000
00000000
00021000
00000000
00000000
00030020
,
00000000
00020030
00031000
00010000
,
00100000
00000000
10000000
01000000
00200000
00000000
00302000
00000000
,
00013000
00001000
00010000
00000000
00002000
00000000
00003200
00000000
,
00000301
00000010
00000100
00000000
00001000
00000001
00000100
00000000
,
00001000
00000000
00010000
00000000
00100000
01000000
00010000
00000000
,
00100000
00000000
01000000
00000000
10000000
00100000
00010000
00000000
,
00001000
00010000
00001000
00000100
,
00000001
00001000
00000002
00000000
00000023
00000000
00000000
00000230
,
00000000
00020300
00031000
00010000
,
01000000
00000000
10000000
01000000
00010000
00000000
00002000
00000000
,
00013000
00000100
00002000
00000000
00003200
00000000
00000320
00000000
,
00000031
00000100
00001000
00000000
00011000
00000000
00001000
00010000
,
00100000
00000000
01100000
00000000
01000000
00010000
10000000
00000000
,
01020000
00000000
20030000
00000000
32000000
00000000
03100000
00001000
,
00010000
00000000
00001000
00000010
00000001
00000010
00000100
00000010
,
00000011
00000000
00000000
00000000
00000000
00001001
00000000
00000000
,
00000000
00001100
00010100
00011000
,
00000000
00000000
00000000
01001000
00000000
00000000
00000000
00000000
,
01010000
11000000
01100000
20020000
,
30030000
02200000
00000000
03300000
10010000
00000000
10000000
00000000
,
00100000
00000000
00010000
00000000
00001000
00010000
00002000
00000000
,
00023000
00000000
00030100
00001000
00000002
00000000
00000203
00000000
,
00002300
00000000
00013000
00001000
00010000
00000000
00001000
00010000
,
00200000
00000000
02300000
00000000
03020000
00000000
10030000
01000000
,
00020000
00000000
00032000
00000000
00023000
00000000
00031000
00000100
,
00000001
00000000
00000000
00000010
00000000
00000000
00000100
00000000
00000000
00001000
00000000
00010000
,
00000000
01000000
00000000
00010000
00000000
00011000
00000000
00000000
00000000
00020020
00000000
00000000
,
00030030
00022000
00000000
00033000
01001000
00000000
00001000
00000000
,
00010000
00000000
00100000
00000000
01000000
00010000
10000000
00000000
,
01000000
00000000
00010000
01000000
10000000
00000000
00100000
00010000
,
00001000
00000000
00000010
00000001
00001000
00000000
00000001
00000100
,
00000001
00000000
00000100
00000000
00001000
00000000
00010000
00001000
,
00010000
00000000
00100000
00000000
01000000
00010000
00100000
00000000
,
01000000
00000000
00100000
00000000
00001000
00010000
00001000
00000000
,
00000100
00000001
00001000
00000100
00000010
00000000
00001001
00000000
,
00000000
00000000
00000000
00010010
00000000
00000000
00000000
00000000
,
01001000
00011000
00101000
00000000
,
00000000
01010000
00000000
00000000
00000000
00000000
11000000
00000000
,
01010000
11000000
01100000
00000000
,
00000000
00110000
00000000
00000000
00000000
00000000
00011000
00000000
,
00001100
00000000
00000110
00000000
00000000
00000000
00000000
00000011
,
00000000
00000000
00001001
00000110
,
00001001
00000000
00000001
00000000
00000100
00001000
00010000
00000000
,
00100000
00000000
10000000
01000000
00010000
00000000
00001000
00000000
,
00000010
00000001
00001000
00000000
00000001
00000001
00000000
00000100
,
00000100
00001000
00010000
00011000
,
00000000
00000000
00000000
01100000
00000000
00000000
00000000
00000000
00000000
00000000
10000000
00000000
20020000
00000000
00000000
00000000
,
00000000
00000000
00000000
00000000
30030000
11000000
00000000
00000000
,
00000000
01010000
00000000
00000000
00000000
00000000
00000000
00000000
00001000
00000000
00022000
00000000
00000000
00000000
00000000
00000000
,
00033000
00022000
00000000
00000000
,
00000000
00000000
00000000
00000000
,
00000000
00000000
00000000
00000000
,
00000000
00000000
00000000
00000000
,
00000000
00033000
00000000
00010000
,
00000000
00001000
00000000
00000000
00000100
00000000
00000001
00000000
,
00000010
00000000
00000000
00000100
00000000
00000000
00010000
00000000
,
00001000
00000000
01000000
00000000
00001000
00000000
00000000
00010000
,
00000000
00001000
00010000
00100000
,
01000000
00000000
00010000
00000000
10000000
01000000
10000000
00000000
,
01000000
00100000
01000000
00100000
01000000
00000000
00100000
00000000
,
00000000
00001000
00000000
00000000
00000010
00000000
00000001
00000000
,
00000010
00000000
00000000
00000100
00000000
00000000
00000010
00000000
,
00000001
00000000
00001000
00000000
00000010
00000000
00000000
00010000
,
00000000
00001000
00100000
00001000
,
00010000
00000000
00010000
00000000
00001000
00010000
00001000
00000000
,
00011000
00000000
00000000
00000000
,
01100000
00000000
00000000
00000000
,
20020000
00000000
00000000
00000000
,
00000000
00000000
00000000
30030000
,
10000000
01000000
00100000
00000000
00001000
00000000
00010000
00000100
,
00010000
00000000
00001000
00000000
00010000
00000010
00010000
00000000
,
00001000
00100000
00001000
00000000
00010000
00000000
00000100
00001000
,
00000100
00000000
00010000
00000000
00001000
00011000
00001000
00010000
,
00010000
00001000
01000000
00000000
00010000
00100000
00100000
00010000
,
10000000
00000000
01000000
01000000
00100000
00001000
00010000
00000000
,
00001000
00001000
00010000
00000010
00001000
00000000
00000001
00000001
,
00000000
00000100
00000100
00000000
00001000
00001000
00000000
00010000
,
00022000
00000000
00000000
00033000
,
00001000
00010000
00100000
00010000
,
00022000
00000000
00000000
00000000
,
00033000
00000000
00000000
00000000
;

//--------------- dance-double - Fred-104 ----------------
#NOTES:
     dance-double:
     Fred-104:
     Medium:
     15:
     :
00000000
00000000
00000000
00000000
,
00000000
00000000
00000000
00000000
,
00000000
00000000
00000000
00000000
,
00000000
00000000
00000000
00000000
,
00000000
00000000
00000000
00000000
,
00001000
00010000
00100000
10000000
00010000
00000000
10000000
01000000
,
00100000
00001000
00010000
00000000
00001000
00010000
00100000
01000000
,
00010000
00000000
00100000
01000000
00100000
00001000
00010000
00000000
,
00001000
00011000
00000000
00010000
00011000
00000000
00001000
00011000
,
00000000
00000000
00000000
00010000
00000000
00000000
00011000
00000000
00000000
00000000
00001000
00000000
00010000
00000000
00000100
00000000
00010000
00000000
00000100
00000000
00001000
00000000
00000001
00000000
,
00001000
00000100
00000010
00000001
00000000
00000000
00000000
00000000
00000202
00000000
00000000
00000000
00000303
00000000
00002200
00000000
,
00000000
00003300
00000101
00000000
00001000
00000000
00000001
00000100
,
00001000
00000000
00000000
00010000
00000000
00000000
00100000
00000000
01000000
00000000
00010000
00000000
10000000
00000000
00000000
00000000
00000000
00000000
00200000
00000000
00000000
00000000
00000000
00000000
,
10300000
01000000
00020000
00000000
00032000
00000000
00013000
00100000
,
01000000
00000000
00010000
10000000
00020000
00000000
00000000
00000000
00130000
00000000
00100000
01000000
00100000
00000000
00001000
00000000
,
00000010
00000000
00000100
00000000
00001000
00000000
00000000
00000000
00000010
00000000
00000010
00000100
00000010
00000000
00001000
00000000
,
00000001
00000000
00000010
00000000
00010000
00000000
00000000
00000000
00100000
00000000
00100000
01000000
00100000
00000000
00010000
00000000
,
10000000
00100000
00010000
00000000
00100000
10000000
01000000
00010000
,
00001000
00000000
00010000
00000000
00002000
00000000
00000000
00003000
00022000
00000000
00000000
00000000
00033000
00000000
00020020
00000000
,
00000000
00030030
00011000
00000000
00010000
00000000
00001000
00000100
,
00000010
00000000
00000000
00001000
00000000
00000000
00000001
00000000
00000000
00000000
00001000
00000000
00000200
00000000
00000000
00000000
00000000
00000000
00000001
00000000
00000000
00000000
00000000
00000000
,
00000010
00002300
00003002
00000023
,
00001030
00000000
00010000
00000000
00011000
00000000
00000000
00000000
01100000
00000000
00010000
10000000
01000000
00000000
00100000
00000000
,
00001000
00000000
00000000
00000000
00011000
00000000
00010000
00000100
00001000
00000000
00000001
00000000
00001000
00000000
00000000
00000000
,
00000020
00000000
00000001
00000000
00000100
00000000
00001030
00000001
,
00000010
00001000
00010000
00100000
10000000
01000000
00100000
00000000
,
00011000
00000000
00000000
00000000
00000000
00000000
00010000
00000000
00001000
00000000
00010000
00000000
00001000
00000000
00000000
00001000
00000000
00000000
00000000
00000000
00000000
00010000
00000000
00000000
,
00001000
00000100
00000001
00000010
00001000
00000000
00011000
00000000
,
00001000
00000000
00010000
00000000
00001000
00000000
00010000
00000000
00000000
00010000
00000000
00000000
00000000
00000000
00000000
00100000
00000000
00000000
10000000
00000000
00000000
01000000
00000000
00000000
,
00010000
00001000
00000100
00000001
00001000
00000000
00000010
00000100
,
00001000
00010000
00100000
01000000
00010000
00000000
00200000
00000000
,
10000000
00000000
01000000
00000000
00310000
10000000
00200000
00000000
,
00010000
01000000
20300000
32000000
,
03020000
00000000
00000000
00000000
00031000
00000000
00010000
00000000
00001000
00000000
00000000
00000000
00010000
00000000
00000100
00001000
,
00000100
00000000
00000010
00000000
00000001
00000000
00000100
00000000
00001000
00000000
00000000
00000000
00010000
00000000
00100000
01000000
,
00100000
00000000
00000000
00000000
00000000
00000000
10000000
00000000
00000000
00000000
00000000
00000000
01000000
00000000
00000000
00000000
00000000
00000000
00010000
00000000
00000000
00000000
00000000
00000000
00001000
00000000
00000000
00000000
00010000
00000000
00000000
00000000
00001000
00000000
00000000
00000000
00010000
00000000
00000000
00000000
00000000
00000000
00000010
00000000
00000000
00001000
00000000
00000000
,
00000010
00000000
00000000
00010000
00000000
00000000
00001000
00000000
00000000
00000100
00000000
00000000
00000001
00000000
00000000
00000000
00000000
00000000
00000001
00000000
00000000
00000000
00000010
00000000
,
00000000
00000000
00001000
00000000
00000000
00000000
00010000
00000000
00000000
00000000
00011000
00000000
00000000
00000000
00000000
00000000
00000000
00000000
00001000
00000000
00000000
00010000
00000000
00000000
,
00100000
10000000
01000000
00100000
01000000
00000000
20000000
00000000
,
00100000
00010000
32000000
23000000
,
30200000
00000000
00310000
00001000
00000200
00000000
00000302
00000000
,
00000023
00000000
00001030
00010000
00001000
00000000
00010000
00001000
,
00000100
00000000
00000010
00000100
00000010
00000000
00001000
00000000
00000001
00000000
00000010
00000000
00000100
00000000
00010000
00000000
,
00001000
00000000
01000000
00010000
01000000
00000000
00100000
00000000
10000000
00000000
00000000
00000000
01000000
00000000
00100000
00000000
,
00001000
00000000
00010000
00000000
00000100
00000000
00000010
00000000
00000001
00000000
00000100
00000010
00000100
00000000
00001000
00000000
,
00010000
00100000
10000000
00010000
00100000
00000000
11000000
00000000
,
10000000
00000000
00100000
00000000
10000000
00000000
00100000
00000000
00000000
00100000
00000000
00000000
00000000
00000000
00000000
00010000
00000000
00000000
00100000
00000000
00000000
10000000
00000000
00000000
,
01000000
00000000
00000000
00100000
00000000
00000000
00001000
00000000
00000000
00000000
00000000
00000000
00011000
00000000
00000000
00000000
00000000
00000000
00010000
00000000
00001000
00000000
00010000
00000000
,
00001000
00001000
00000000
00010000
00001000
00000100
00000001
00001000
,
00000100
00000000
00000000
00000010
00000000
00000000
00000001
00000000
00000000
00000000
00000000
00000000
00000011
00000000
00000000
00000000
00000000
00000000
00000001
00000000
00000100
00000000
00000001
00000000
,
00000100
00000100
00000000
00001000
00010000
00100000
10000000
00010000
,
00100000
00000000
00000000
00000000
00000000
00000000
01100000
00000000
00000000
00000000
00000000
00000000
10000000
00000000
00100000
00000000
10000000
00000000
00100000
00000000
00000000
00100000
00000000
00000000
,
00000000
00010000
00100000
10000000
01000000
00100000
00001000
00010000
,
00000010
00000000
00000110
00000000
00000001
00000100
00001000
00000000
,
00011000
00000000
00010000
00100000
10000000
00000000
10010000
00000000
,
10000000
01000000
00010000
00000000
00010000
00010000
00000000
00001000
,
00001000
00000000
00010000
00001000
00000100
00000001
00000011
00000000
,
00000000
00000000
00000000
00001010
00000000
00000000
00000000
00000000
00000000
00000000
00010000
00000000
00022000
00000000
00000000
00000000
,
00000000
00000000
00000000
00000000
00033000
00011000
00000000
00000000
,
00000000
01010000
00000000
00000000
00000000
00000000
00000000
00000000
10000000
00000000
22000000
00000000
00000000
00000000
00000000
00000000
,
33000000
00022000
00000000
00000000
,
00000000
00000000
00000000
00000000
,
00000000
00000000
00000000
00000000
,
00000000
00000000
00000000
00000000
,
00000000
00000000
00033000
00000000
00000000
00000000
00010000
00001000
,
00000100
00000010
00000001
00001000
00000100
00000001
00001000
00000000
,
00000001
00000100
00001000
00010000
00100000
10000000
00010000
00100000
,
01000000
10000000
00010000
00000000
10000000
00100000
00010000
00001000
,
00010000
00100000
01000000
00100000
10000000
00010000
10000000
00100000
,
01000000
00010000
10000000
01000000
10000000
01000000
00100000
00001000
00010000
00001000
00000000
00000000
,
00020000
00032000
00003200
00000302
00002003
00003200
00000310
00000001
,
00000100
00000010
00000001
00001000
00000100
00000010
00001000
00000001
,
00000010
00001000
00010000
01000000
10000000
01000000
00100000
00010000
,
10000000
00100000
00010000
00100000
10000000
00010000
01000000
10000000
,
01000000
00100000
00010000
10000000
01000000
00100000
10000000
00000000
,
00010000
10000000
00010000
01000000
00001000
00010000
00000100
00001000
00000100
00010000
00000000
00000000
,
00011000
00000000
00000000
00000000
,
00000110
00000000
00000000
00000000
,
00002002
00000000
00000000
00000000
,
00000000
00000000
00000000
00003003
,
00000001
00000001
00000100
00001000
00010000
00100000
10000000
10000000
,
01000000
00100000
00001000
00010000
00100000
01000000
01000000
00000000
,
00010000
00010000
10000000
00100000
01000000
00100000
10000000
10000000
,
01000000
00000000
00000000
00000000
00010000
00000000
00000000
00000000
00001000
00000000
00000000
00000000
00000100
00000000
00000000
00000000
00000001
00000000
00000000
00000001
00001000
00000000
00000000
00000000
00000001
00000000
00000000
00000000
00000001
00000000
00000000
00000000
,
00000010
00001000
00010000
00100000
01000000
01000000
00010000
00100000
,
01000000
10000000
00100000
00100000
10000000
01000000
00010000
00001000
,
00010000
00010000
00001000
00000010
00000100
00001000
00000001
00000101
,
00000000
00001000
00001100
00000000
00000001
00000011
00000000
00001000
,
00001010
00000000
00000001
00000010
00000100
00001000
00000100
00010000
00001000
02000000
00000000
00000000
,
03010000
00000000
00010000
10000000
00000000
10000000
01000000
00010000
00001000
00000100
00000010
00001000
,
00000002
00000000
00000000
00000000
,
00000003
00000000
00000000
00000000
;

//--------------- dance-double - Fred-104 ----------------
#NOTES:
     dance-double:
     Fred-104:
     Hard:
     18:
     :
00000000
00000000
00000000
00000000
,
00000000
00000000
00000000
00000000
,
00000000
00000000
00000000
00000000
,
00000000
00000000
00000000
00000000
,
00000000
00000000
00000000
00000000
,
00010000
00001000
00000010
00000100
00001000
00000010
00010000
00100000
,
10000000
00010000
00100000
01000000
00010000
00001000
00000010
00000100
,
00010000
00000010
00001000
00000001
00000100
00010000
01000000
00000000
,
00010000
10000000
00000000
01000000
00010000
00000000
00000100
00010000
,
00000000
00000000
00000000
00001000
00000000
00000000
00010000
00000000
00001000
00000000
00000100
00000000
00000001
00000000
00000010
00000000
00000100
00000000
00000010
00000000
00001000
00000000
00010000
00000000
,
01000000
00100000
00010000
20000000
00000000
30000000
00000000
00000000
01200000
00000000
00000000
00000000
10300000
00000000
00200000
00000000
,
00000000
00310000
00200000
00000000
10300000
10000000
01000000
10000000
,
00010000
00000000
00000000
01000000
00000000
00000000
00001000
00000000
00010000
00000000
00000100
00000000
00020000
00000000
00000000
00000000
00000000
00000000
00001000
00000000
00000000
00000000
00000000
00000000
,
00000010
00000000
00000000
00000000
00030100
00000000
00010000
00001000
00020000
00000000
00000000
00000000
00031000
00000000
00010000
00000010
,
00001000
00000000
00000001
00001000
00000200
00000000
00000000
00000000
00000310
00000000
00000001
00000000
00000100
00000000
00020000
00000000
,
01030000
00010000
00100000
00001000
00010000
00001000
00000010
00000001
,
00000010
00000000
00000000
00000100
00000000
00000000
00001000
00000000
00000100
00000000
00010000
00000000
00001000
00000000
00000000
00100000
00000000
00000000
00001000
00000000
00000000
00000010
00000000
00000000
,
00000100
00001000
00010000
00100000
01000000
00010000
00001000
00000100
,
00000001
00000000
00000100
00000000
00001000
00010000
00001000
00010000
00002000
00000000
00000000
00000000
00013000
00000000
00002000
00000000
,
00000000
00003010
00002000
00000000
00013000
00001000
00100000
00001000
,
00010000
00000000
00000000
00001000
00000000
00000000
00000010
00000000
00000100
00000000
00001000
00000000
00000020
00000000
00000000
00000000
00000000
00000000
00010000
00000000
00000000
00000000
00000000
00000000
,
00001000
00000000
00000000
00000000
00010030
00000000
00001000
00100000
00020000
00000000
00000000
00000000
10030000
00000000
00010000
00100000
,
10000000
00000000
00000000
00000000
00000000
00000000
00000000
00000000
10000000
00000000
00000000
00000000
00100000
00000000
00000000
00000000
00010000
00000000
00000000
00000000
00000000
00000000
00000000
00000000
01000000
00000000
00000000
00000000
00000000
00000000
00000000
00000000
02200000
03300000
00000000
00000000
00000000
00000000
00000000
00000000
10000000
00000000
00000000
00000000
01000000
00000000
00000000
00000000
00010000
00000000
00000000
00000000
00000000
00000000
00000000
00000000
00001000
00000000
00000000
00000000
00000010
00000000
00000000
00000000
,
00000001
00000000
00000000
00000000
00000000
00000000
00000000
00000000
00000100
00000000
00000000
00000000
00000000
00000000
00000000
00000000
00000220
00000330
00000000
00000000
00000000
00000000
00000000
00000000
00000001
00000000
00000000
00000000
00000100
00000000
00000000
00000000
00001000
00000000
00000000
00000000
00000000
00000000
00000000
00000000
00010000
00000000
00000000
00000000
00100000
00000000
00000000
00000000
10000000
00000000
00000000
00000000
00000000
00000000
00000000
00000000
00010000
00000000
00000000
00000000
00000000
00000000
00000000
00000000
,
02000000
00000000
00000000
00000000
00010000
00000000
00000000
00000000
10000000
00000000
00000000
00000000
03100000
00000000
01000000
00010000
,
10000000
00000000
00000000
00000000
00000000
00000000
01000000
00000000
00000000
00100000
00000000
00000000
00010000
00000000
00000000
00000000
00000000
00000000
00110000
00000000
00000000
00000000
00000000
00000000
00101000
00000000
00000000
00000000
00000000
00000000
00100000
00000000
00000000
00001000
00000000
00000000
00010000
00000000
00000000
00000000
00001000
00000000
00000000
00000000
00010000
00000000
00000000
00000000
,
00011000
00000000
00000000
00000000
00000000
00000000
00000000
00000000
00000000
00000000
00000000
00000000
00001000
00000000
00000000
00000000
00010000
00000000
00000000
00000000
01000000
00000000
00000000
00000000
10000000
00000000
00000000
00010000
00000000
00000000
00100000
00000000
00000000
00000000
00000000
00000000
00000000
00000000
00000000
00000000
00000000
00000000
00010000
00000000
00000000
10000000
00000000
00000000
,
01000000
10000000
00010000
01000000
00001000
00000000
00010000
00001000
00000010
00000000
00000001
00000010
00000100
00000000
00000000
00000000
,
00001000
00000000
00000000
00000000
00000001
00000000
00000000
00000000
00000100
00000000
00000000
00000000
00001000
00000000
00000000
00010000
00000000
00000000
00100000
00000000
00000000
00000000
00000000
00000000
00000000
00000000
00000000
00000000
00000000
00000000
01000000
00000000
00000000
00010000
00000000
00000000
10000000
00000000
00000000
00010000
00000000
00000000
10000000
00000000
00000000
01000000
00000000
00000000
,
00100000
00000000
00001000
00010000
00100000
00000000
00010000
00001000
00000010
00000000
00001000
00010000
00002000
00000000
00013000
00000000
,
00100000
20000000
31000000
00010000
00002000
00013000
00000100
00000010
,
00000001
00000100
00010000
01000000
00100000
10000000
01000000
00100000
,
00002000
00013000
02000000
03010000
00002000
00013000
00200000
00310000
,
00002000
00003010
00000200
00001300
00000002
00000013
00020000
00130000
,
01000000
00100000
00001000
01000000
00100000
10000000
00010000
00100000
,
01000000
00000000
00000000
00010000
00000000
00000000
00001000
00000000
00000000
00000010
00000000
00000000
00000100
00000000
00001000
00000000
00010000
00000000
00100000
00000000
00000000
00010000
00000000
00000000
,
01000000
00000000
00000000
00001000
00000000
00000000
00000100
00000000
00000000
00000010
00000000
00000000
00001000
00000000
00000000
00000000
00000000
00000000
00000011
00000000
00000000
00000000
00001010
00000000
,
00000000
00000000
00011000
00000000
00000000
00000000
01010000
00000000
00000000
00000000
11000000
00000000
00000000
00000000
00000000
00000000
00000000
00000000
20000000
00000000
00000000
30100000
00000000
00000000
,
00010000
00002000
00013000
01000000
00200000
00301000
00010000
00001000
,
00000010
00000001
00001000
00000010
00000100
00000010
00000001
00000010
,
00002000
00003001
00000200
00001300
00020000
00130000
02000000
03001000
,
00000200
00000310
00020000
00130000
20000000
30010000
00200000
01300000
,
00001000
00000100
00010000
00000010
00000100
00001000
00010000
00001000
,
00000010
00000100
00001000
00000001
00000200
00001300
00020000
00130000
,
01000000
00000000
00001000
00000000
00000100
00000000
00000010
00000000
00010000
00000000
00001000
00100000
00010000
00000000
10000000
00100000
,
01000000
00000000
00000000
00010000
00000000
00000000
01000000
00000000
00000000
00001000
00000000
00000000
00010000
00000000
00001000
00000000
00000010
00000000
00000001
00000000
00000000
00000000
00000000
00000000
,
00001000
00000000
00000000
00000000
00000010
00000000
00000000
00000000
00000100
00000000
00000000
00000000
00001000
00000000
00000000
00010000
00000000
00000000
00100000
00000000
00000000
00000000
00000000
00000000
00000000
00000000
00000000
00000000
00000000
00000000
01000000
00000000
00000000
00010000
00000000
00000000
10000000
00000000
00000000
00010000
00000000
00000000
00100000
00000000
00000000
01000000
00000000
00000000
,
00100000
00000000
00000000
00000000
00000000
00000000
00001000
00000000
00000000
00010000
00000000
00000000
00001000
00000000
00000000
00000000
00000000
00000000
00000010
00000000
00000000
00000100
00000000
00000000
00001000
00000000
00000000
00000000
00000000
00000000
00000000
00000000
00000000
00000000
00000000
00000000
00000010
00000000
00000000
00000000
00010000
00000000
00000000
00000000
00001000
00000000
00000000
00000000
,
00100000
00010000
10000000
00000000
00000000
00000000
00100000
10000000
00010000
10000000
01000000
00100000
00001000
00000000
00010000
00001000
,
00000010
00000000
00000000
00000000
00000000
00000000
00001000
00000000
00000000
00010000
00000000
00000000
00100000
00000000
00000000
00000000
00000000
00000000
00010000
00000000
00000000
00001000
00000000
00000000
00010000
00000000
00000000
00000000
00000000
00000000
00000000
00000000
00000000
00000000
00000000
00000000
00001000
00000000
00000000
00000000
00010000
00000000
00000000
00000000
00100000
00000000
00000000
00000000
,
01000000
00001000
00010000
00000000
00000000
00000000
00001000
00010000
00000010
00001000
00000001
00000010
00000100
00000000
00001000
00000001
,
00000010
00000000
00000000
00000000
00000000
00000000
00001000
00000000
00000000
00010000
00000000
00000000
01000000
00000000
00000000
00000000
00000000
00000000
00000000
00000000
00000000
00000000
00000000
00000000
10000000
00000000
00000000
00000000
00100000
00000000
00000000
00000000
01000000
00000000
00000000
00000000
10000000
00000000
00000000
01000000
00000000
00000000
00100000
00000000
00000000
00000000
00000000
00000000
,
00000000
00000000
10000000
01000000
00100000
00010000
01000000
00001000
00010000
00000000
00001000
00000010
00000100
00000000
00001000
00000100
,
00000010
00000000
00000000
00000000
00000000
00000000
00000000
00000000
00000001
00000000
00000000
00000000
00000100
00000000
00000000
00000000
00000010
00000000
00000000
00000000
00000000
00000000
00000000
00000000
00000000
00000000
00000000
00000000
00000000
00000000
00000000
00000000
00010000
00000000
00000000
00000000
00000010
00000000
00000000
00000000
00001000
00000000
00000000
00000000
00000010
00000000
00000000
00000000
00020000
00030000
00000000
00000000
00000000
00000000
00000000
00000000
00000000
00000000
00000000
00000000
00000000
00000000
00000000
00000000
,
00011000
00000000
00000000
00000000
00000000
00000000
00000000
00000000
00000000
00000000
00000000
00000000
00000000
00000000
00000000
00000000
00000000
00000000
00000000
00000000
00000000
00000000
00000000
00000000
00000000
00000000
00000000
00000000
00000000
00000000
00000000
00000000
00000000
00000000
00000000
00000000
00000000
00000000
00000000
00000000
00000000
00000000
00000000
00000000
00000000
00000000
00000000
00000000
00001000
00000000
00000000
00000000
00000000
00000000
00000000
00000000
00000000
00000000
00000000
00000000
01000000
00000000
00000000
00000000
00000000
00000000
00000000
00000000
00000000
00000000
00000000
00000000
00010000
00000000
00000000
00000000
00000000
00000000
00000000
00000000
00000000
00000000
00000000
00000000
01000000
00000000
00000000
00000000
00000000
00000000
00000000
00000000
00000000
00000000
00000000
00000000
00002000
00000000
00000000
00003000
00000000
00000000
00000000
00000000
00000000
00000000
00000000
00000000
00000000
00000000
00000000
00000000
00000000
00000000
00000000
00000000
00000000
00000000
00000000
00000000
00000000
00000000
00000000
00000000
00000000
00000000
00000000
00000000
00000000
00000000
00000000
00000000
00000000
00000000
00000000
00000000
00000000
00000000
00000000
00000000
00000000
00000000
00000000
00000000
00010000
00000000
00000000
00000000
00000000
00000000
00000000
00000000
00000000
00000000
00000000
00000000
00000000
00000000
00000000
00000000
00000100
00000000
00000000
00000000
00000000
00000000
00000000
00000000
00000000
00000000
00000000
00000000
00000000
00000000
00000000
00000000
00001000
00000000
00000000
00000000
00000000
00000000
00000000
00000000
00000000
00000000
00000000
00000000
00000000
00000000
00000000
00000000
,
00000100
00000000
00000000
00000000
00000010
00000000
00000000
00000000
00000001
00000000
00000000
00000000
00001000
00000000
00000000
00000000
00000002
00000003
00000000
00000000
00000000
00000000
00000000
00000000
00000000
00000000
00000000
00000000
00000000
00000000
00000000
00000000
00000001
00000000
00000000
00000000
00000100
00000000
00000000
00000000
00001000
00000000
00000000
00000000
00000000
00000000
00000000
00000000
00000000
00000000
00000000
00000000
00000000
00000000
00000000
00000000
00010000
00000000
00000000
00000000
01000000
00000000
00000000
00000000
,
10000000
00000000
00000000
00000000
10000000
00100000
00010000
00000000
00001000
00000010
00000001
00000000
00001001
00000000
00000000
00000000
,
00000000
00000000
00000000
00000010
00000000
00000000
00000000
00000000
00000000
00000000
00010000
00000000
00022000
00000000
00000000
00000000
,
00000000
00000000
00000000
00000000
00033000
01100000
00000000
00000000
,
00000000
10000000
00000000
00000000
00000000
00000000
00000000
00000000
01100000
00000000
20020000
00000000
00000000
00000000
00000000
00000000
,
00000000
30030000
00002000
00000000
00000000
00000000
00013000
00000000
,
00001000
00000000
00000000
00000000
00010000
00000000
00000000
00000000
00001000
00000000
00000000
00010000
00000000
00000000
00001000
00000000
,
00000000
00000000
00010000
00000000
00000000
00000000
00000000
00000000
00001000
00000000
00000000
00000000
00000000
00010000
00000000
00000000
00000000
00000000
00001000
00000000
00000000
00000000
00000000
00010000
00000000
00000000
00000000
00000000
00001000
00000000
00000000
00000000
,
00010000
00000000
00000000
00000000
00000000
00000000
00001000
00000000
00000000
00000000
00000000
00000000
00010000
00000000
00000000
00000000
00000000
00000000
00001000
00000000
00000000
00000000
00000000
00000000
00010000
00000000
00000000
00000000
00001000
00000000
00000000
00000000
00010000
00000000
00000000
00000000
00001000
00000000
00000000
00010000
00000000
00000000
00001000
00000000
00000000
00010000
00000000
00000000
,
00001000
00010000
00001000
00010000
00001000
00000000
00000000
00000000
00000000
00000000
00000000
00000000
00020000
00000000
00031000
00000000
,
00000100
00000002
00000013
00000100
00020000
01030000
00200000
01300000
,
00020000
00031000
00000010
00000200
00010300
00001000
02000000
13000000
,
02000000
03001000
00020000
00030010
00000200
00001300
00100000
02000000
,
03010000
00000000
00001000
00000000
00020000
00000000
01030000
00000000
20000000
00000000
30010000
00000000
00100000
00010000
10000000
00100000
,
10000000
01000000
00010000
00001000
00000010
00000001
00001000
00000010
00000100
00000010
00000001
00000010
,
00002000
00003002
00000023
00002030
00023000
02030000
03200000
00310000
,
01000000
00002000
00003100
00000010
00020000
00031000
00000020
00000031
,
00002000
00003010
00000100
00020000
01030000
00100000
00020000
00031000
,
00020000
01030000
00200000
00310000
20000000
30100000
00010000
00002000
,
00003100
00000000
00000000
00000001
00000000
00000000
00002000
00000000
00000000
00003100
00000000
00000000
00000020
00000000
00000000
00001030
00000000
00000000
00010000
00000000
00001000
00000000
00000100
00000000
,
00000001
00000000
00000000
00000000
00001000
00000000
00000000
00000000
00000100
00000000
00000000
00000000
00000010
00000000
00000000
00000000
00001000
00000000
00000000
00000000
00010000
00000000
00000000
00000000
01000000
00000000
00000000
00000000
10000000
00000000
00000000
00000000
01000000
00000000
00000000
00000000
00100000
00000000
00000000
00001000
00000000
00000000
00010000
00000000
00000000
00000010
00000000
00000000
,
00010000
00000000
00000000
00000000
,
00011000
00000000
00000000
00000000
,
00001001
00000000
00000000
00000000
00000000
00000000
00000000
00000000
00000000
00000000
00000000
00000000
00000000
00000001
00000000
00000000
00000000
00000000
00000000
00000000
00000000
00000000
00000100
00000000
00000000
00000000
00000000
00000000
00000000
00000000
00000000
00001000
00000000
00000000
00000000
00000000
00000000
00000000
00000000
00000000
00010000
00000000
00000000
00000000
00000000
00000000
00000000
00000000
,
00000000
00100000
00000000
00000000
00000000
20020000
00000000
00000000
00000000
00000000
00000000
00000000
30030000
00000000
00000000
00000000
,
10100000
00000000
10100000
00000000
10000000
01000000
00100000
00010000
00100000
00000000
00001000
00000000
00011000
00000000
00011000
00000000
,
00000000
00010010
00000010
00001000
00000001
00001001
00000000
00000000
,
00000101
00000000
00000101
00000000
00000001
00000010
00000100
00001000
00000100
00000000
00010000
00000000
00011000
00000000
00011000
00000000
,
00000000
00000000
00000000
00000000
00101000
00000000
00000000
00000000
00001000
00000000
00000000
00000000
02000000
00000000
00000000
00000000
03010000
00000000
00000000
00010000
10000000
00010000
01000000
00000000
01100000
00000000
00000000
00000000
01100000
00000000
00000000
00000000
,
00100000
10000000
01000000
00100000
00001000
00000000
00010000
00000000
00011000
00000000
00010010
00000000
00000010
00001000
00000001
00001000
,
00000100
00000000
00000010
00000000
00000011
00000000
00001001
00000000
00000001
00000010
00000100
00001000
00000010
00000000
00010000
00000000
,
00011000
00000000
01001000
00000000
00001000
00010000
00100000
01000000
00010000
00100000
01000000
10000000
00010000
00000000
01100000
00000000
,
00000000
10000000
01100000
00000000
00010000
01100000
00000000
10000000
,
00010000
00000000
00000000
00000000
10000000
00000000
00000000
00000000
01000000
00000000
00000000
00000000
00010000
00000000
00000000
00000000
00001000
00000000
00000000
00000000
00100000
00000000
00000000
00000000
00001000
00000000
00000000
00000000
00010000
00000000
00000000
00000000
00000100
00000000
00000000
00000000
00001000
00000000
00000000
00000001
00000000
00000000
00000100
00000000
00000000
00000020
00000000
00000000
,
00001030
00000000
00000000
00000001
00000000
00000000
00000010
00000000
00000000
00000100
00000000
00000000
00001000
00000000
00000000
00000000
00000001
00000000
00000000
00000000
00000100
00000000
00000000
00000000
00001000
00000000
00000000
00000000
00010000
00000000
00000000
00000000
00100000
00000000
00000000
00000000
01000000
00000000
00000000
00000000
00010000
00000000
00000000
00000000
10000000
00000000
00000000
00000000
,
20020000
00000000
00000000
00000000
,
30030000
00000000
00000000
00000000
;
