#VERSION:0.83;
#TITLE:of the first magnitude;
#ARTIST:BEMANI Sound Team "Trance Liquid";
#ARTISTTRANSLIT:Trance Liquid;
#GENRE:TRANCE;
#BANNER:of the first magnitude.png;
#BACKGROUND:of the first magnitude-bg.png;
#CDTITLE:./CDTitles/bm IIDX 28 BISTROVER.png;
#MUSIC:of the first magnitude.ogg;
#SAMPLESTART:62.675;
#SAMPLELENGTH:15;
#DISPLAYBPM:157;
#BPMS:0=157,211=129.67,211.104167=159.986,211.166667=234.873,211.354167=153.32,211.416667=118.7,211.604167=153.32,211.666667=235.5,211.854167=160,211.916667=105,212=157,219=314,219.25=157,219.375=78.5,219.5=157;
#BGSTAGE:6;

//--------------- dance-single - Fred-104 ----------------
#NOTEDATA:;
#STEPSTYPE:dance-single;
#DESCRIPTION:Fred-104;
#DIFFICULTY:Beginner;
#METER:3;
#DISPLAYBPM:157;
#BPMS:0=157;
#CREDIT:Fred-104;
#NOTES:
0000
0000
0000
0000
,
0000
0000
0000
0000
,
0000
0000
0000
0000
,
0000
0000
0000
0000
,
0000
0000
0000
0000
,
0000
0000
0000
0000
,
0000
0000
0000
0000
,
0000
0000
0000
0000
,
0000
0000
0000
0000
,
1000
0000
0000
0000
,
0001
0000
0000
0000
,
1000
0000
0000
0000
,
0001
0000
0000
0000
,
1000
0000
1000
0000
,
0001
0000
0001
0000
,
2000
0000
0000
0000
,
3000
0000
0000
0000
,
0001
0000
0000
0000
,
1000
0000
0000
0000
,
0010
0000
0000
0000
,
1000
0000
0000
0000
,
0001
0000
0000
0000
,
1000
0000
0000
0000
,
0100
0000
0000
0000
,
0010
0000
0000
0000
,
0002
0000
0000
0000
,
0000
0000
0003
0000
,
2000
0000
0000
0000
,
3000
0000
0001
1000
,
0002
0000
1003
0000
,
0020
0000
0130
0000
,
0002
0000
0003
0000
,
2000
3000
0002
0003
,
0020
0000
0030
0000
,
0200
0000
0300
0000
,
2000
0000
3000
0000
,
0002
0000
0003
0000
,
0200
0000
0300
0000
,
0001
0000
1000
0000
,
0002
0000
2003
0000
,
3100
0000
0010
0000
,
0002
0000
0003
0000
,
2000
0000
3000
0000
,
0020
0000
0030
0000
,
0200
0000
0300
0000
,
0010
0000
1000
0000
,
0001
0000
1000
0000
,
0001
0000
1000
0000
,
0002
0000
0000
0003
,
1001
0000
0000
0000
,
0001
0000
0000
0000
,
1000
0000
0000
0000
,
0100
0000
0000
0000
,
0010
0000
0000
0000
,
0001
0000
0000
0000
,
1000
0000
0000
0000
,
0010
0000
0000
0000
,
1000
0000
1000
0000
,
0100
0000
0000
0000
,
0001
0000
0001
0000
,
0100
0000
0000
0000
,
1000
0000
0010
0000
,
1000
0000
0000
0000
,
0001
0000
1000
0000
,
1001
0000
0000
0000
,
0001
0000
0010
0000
,
0100
0000
0100
0000
,
1000
0000
0001
0000
,
2000
0000
0000
3000
,
0002
0003
2000
3000
,
0020
0030
0200
0300
,
0001
0000
1000
0000
,
0100
0100
0100
0000
,
0010
0000
0001
0000
,
1000
0000
0001
0001
,
0001
0000
1000
0000
,
0010
0000
0100
0000
,
0001
0000
0001
0000
,
1000
0000
1000
0000
,
0100
0000
0010
0000
,
0001
0001
0001
0000
,
2002
0000
0000
0000
,
0000
0000
0000
0000
,
3003
0000
0000
0000
;

//--------------- dance-single - Fred-104 ----------------
#NOTEDATA:;
#STEPSTYPE:dance-single;
#DESCRIPTION:Fred-104;
#DIFFICULTY:Easy;
#METER:7;
#CREDIT:Fred-104;
#NOTES:
0000
0000
0000
0000
,
0000
0000
0000
0000
,
0000
0000
0000
0000
,
0000
0000
0000
0000
,
0000
0000
0000
0000
,
0000
0000
0000
0000
,
0000
0000
0000
0000
,
0000
0000
0000
0000
,
0000
0000
0000
0000
,
0001
0000
0000
1000
0000
0001
0000
0200
,
0000
0000
0000
0000
0000
0000
0310
0020
,
0000
0000
0000
0030
,
0100
0100
0001
1000
,
0002
0000
0003
0002
0000
0003
0010
0000
,
0200
0000
0300
0200
0000
0300
1000
0000
,
0001
0100
0010
1000
,
0002
0023
0230
1300
,
1001
0000
0000
0001
0000
0000
1000
0000
,
0010
0000
0100
0010
,
1000
0000
0000
0100
0000
0000
0010
0000
,
0001
0000
1000
0001
,
0100
0000
0000
0010
0000
0000
0100
0000
,
0001
0000
0000
1000
0000
0000
0001
0000
,
0010
0000
0000
0100
0000
0100
0000
0100
,
0000
1000
0001
1000
,
0100
0000
0000
0010
0000
0010
0000
0020
,
0000
0000
0031
1000
,
0002
0000
2003
0000
,
3100
0010
0001
1000
,
2002
0000
3003
0220
0000
0330
0000
0000
,
2020
0000
3030
0202
0000
0303
0001
0000
,
1000
0001
2000
0000
0100
0000
3100
0000
,
0010
0000
0002
0000
2003
3000
1001
0000
,
0002
0000
0003
2000
0000
3000
0001
0000
,
0200
0000
0300
0020
0000
0030
0100
0000
,
0002
0000
0003
2000
0000
3000
0100
0000
,
0020
0000
0030
0002
0000
0003
1000
0000
,
0002
0000
1003
0001
,
0100
0100
0010
0010
,
0100
0000
0001
0000
1000
0000
0100
1000
,
0200
0320
0032
1003
,
1001
0000
0000
0001
0000
0000
0010
0100
,
0010
0000
0000
0100
0000
0000
1000
0100
,
1000
0000
0000
0001
0000
0000
0100
0001
,
0100
0000
0000
0010
0000
1000
0001
0000
,
1000
1000
1100
0000
,
0001
0100
1000
0100
,
0001
1000
0001
0000
0100
0010
0100
0000
,
0001
1000
0100
0010
,
0011
0000
0000
0001
0000
0000
1000
0000
,
0001
0000
0000
0100
0000
0000
0010
0000
,
0100
0000
0000
0001
0000
0000
1000
0000
,
0100
0000
0000
0010
0000
0000
0002
0000
,
1003
0000
0000
0001
0000
0000
0100
0000
,
0010
0000
0000
0100
0000
0000
0002
0000
,
1003
0000
0000
0100
0000
0000
0001
0000
,
0100
0000
0000
1000
0000
0000
0001
0000
,
1000
0100
0001
0100
,
1000
0000
0001
0000
0100
0010
0100
0000
,
0001
1000
0010
0001
,
0010
0000
1000
0000
0001
0010
0001
0000
,
0100
0010
1000
0001
,
0010
0000
0100
0000
1000
0001
0100
0000
,
0010
0000
0100
0000
0001
1000
0001
0000
,
1000
0000
0000
0001
0000
2000
3000
0002
,
0103
0000
0110
0000
,
0001
1000
0010
0100
,
0001
0000
1000
0000
,
0100
0001
0010
1000
,
0002
0003
0020
0030
,
0200
0300
2000
3000
,
0002
0003
2000
3000
,
0010
0100
0001
1000
,
1001
0000
0001
0000
,
1000
0100
0001
0100
,
1000
0000
0001
0000
,
0100
0010
0100
0001
,
2000
3000
0200
0300
,
0002
0003
0020
0030
,
1000
1000
0001
0001
,
0100
0010
0100
0000
0001
1000
0001
0000
,
2002
0000
0000
0000
,
0000
0000
0000
0000
,
3003
0000
0000
0000
;

//--------------- dance-single - Fred-104 ----------------
#NOTEDATA:;
#STEPSTYPE:dance-single;
#DESCRIPTION:Fred-104;
#DIFFICULTY:Medium;
#METER:11;
#CREDIT:Fred-104;
#NOTES:
0000
0000
0000
0000
,
0000
0000
0000
0000
,
0000
0000
0000
0000
,
0000
0000
0000
0000
,
0000
0000
0000
0000
,
0000
0000
0000
0000
,
0000
0000
0000
0000
,
0000
0000
0000
0000
,
0000
0000
0000
0000
,
0001
0000
1000
0100
0000
0010
0000
0200
,
0000
0000
0000
0000
0000
0000
1300
0002
,
0000
0000
0000
0000
,
0003
0100
0001
1000
0001
0010
0100
1000
,
0001
0000
0100
0002
0000
1003
0001
0010
,
0100
0000
1000
0020
0000
0130
0010
1000
,
0001
0010
0100
1000
0100
0010
0001
1000
,
0020
0230
0310
1001
,
1100
0000
1000
0100
0000
0010
0001
1000
,
0001
0001
0000
0100
0001
1000
0100
0010
,
0100
0000
1000
1000
0000
0010
0100
0010
,
1000
1000
0000
0100
0010
0001
1000
0010
,
0100
0000
0001
0001
0000
1000
0001
0010
,
0100
0000
1000
1000
0000
0010
0100
0001
,
0100
0000
0010
0010
0000
1000
0000
1001
,
0000
0001
0100
1000
0001
0010
1000
0001
,
0010
0000
0100
0100
0000
1000
0001
0100
,
0020
0000
2030
0000
3001
0010
0100
1000
,
0002
0000
0100
0000
0100
0000
0103
0010
,
1000
0001
0010
0100
0010
0001
1000
0010
,
0220
0000
0330
0202
0000
0303
0001
0000
,
0022
0000
0033
2002
0000
3003
1000
0100
,
1000
0200
0001
0000
1000
0000
0310
0000
,
0002
0000
2003
0000
3100
0010
0011
0000
,
0001
0000
0100
0001
1000
0001
0010
0100
,
1000
0000
0001
0100
0010
1000
0010
0100
,
0001
0000
1000
0100
0010
0001
0010
0100
,
1000
0000
0010
0100
0001
0010
0100
1000
,
0002
0000
0100
0000
2003
0000
3100
0010
,
0000
0001
1000
0001
0100
0010
1000
0000
,
0001
0010
0100
1000
0010
0100
0010
1000
,
0001
0100
2000
0000
3200
0000
0301
0000
,
1001
0000
1000
0100
0000
0010
0001
1000
,
0010
0000
0100
0001
0000
1000
0010
0100
,
0001
0000
0010
0100
0000
0010
0001
1000
,
0010
0000
0100
0001
1000
0100
0001
0100
,
1000
0100
0010
0000
0011
0000
1001
0000
,
0001
0100
0010
0100
1000
0100
0010
0100
,
0001
1000
0100
0010
0001
0010
0100
1000
,
0002
0000
2003
0000
3001
1000
1001
0000
,
0011
0000
0000
1000
0000
0000
0001
0000
0000
0100
0000
0000
0010
0000
1000
0000
,
0001
0000
0000
0010
0000
0000
0100
0000
0000
0100
1000
0000
0010
0000
0100
0000
,
0010
0000
0000
1000
0000
0000
0001
0000
0000
0010
0000
0000
0100
0000
0010
0000
,
0001
0000
0000
0100
0000
0000
0001
0000
0000
0001
1000
0000
0100
0000
0100
0000
,
0010
0000
0000
0001
0000
0000
1000
0000
0000
0001
0000
0000
0100
0000
0010
0000
,
1000
0000
0000
0001
0000
0000
0010
0000
0000
0010
0100
0000
1000
0000
1000
0000
,
0001
0000
0000
0100
0000
0000
0010
0000
0000
1000
0000
0000
0001
0000
0010
0000
,
0100
0000
0000
1000
0000
0000
0001
0000
0000
0001
1000
0000
0010
0000
0010
0000
,
0100
0000
0000
0001
0000
0000
1000
0000
0100
0000
0010
0000
0001
0000
0000
0000
,
1000
0000
0000
0001
0000
0000
0100
0000
0010
0000
1000
0000
0010
0000
0000
0000
,
0100
0000
0000
0001
0000
0000
1000
0000
0100
0000
0010
0000
0001
0000
0000
0000
,
1000
0000
0000
0010
0000
0000
0100
0000
0010
0000
1000
0000
0001
0000
0010
0000
,
0100
0000
0000
1000
0000
0000
0001
0000
0100
0000
0010
0000
1000
0000
0000
0000
,
0100
0000
0000
0010
0000
0000
0100
0000
1000
0000
0001
0000
0100
0000
0000
0000
,
0010
0000
0000
0100
0000
0000
0001
0000
0010
0000
0100
0000
1000
0000
0001
0000
,
0100
0000
0000
0010
0000
0000
0100
0000
0000
0000
0002
0000
0003
0000
2000
0000
,
3001
0000
0100
1000
0100
0000
0001
1000
,
0100
0000
0010
0001
1000
0010
0100
0010
,
1000
0000
0001
0010
1000
0000
0010
0001
,
2000
0000
3002
0000
0203
0000
0310
1000
,
0001
0000
0000
0001
0000
0000
0010
0000
0100
0000
0000
0100
0000
0000
1000
0000
,
0010
0000
0000
0010
0000
0000
0100
0000
0001
0000
0000
0001
0000
0000
1000
0000
,
0100
0010
0001
1000
0010
0100
0001
1000
,
0200
0320
0032
1003
,
0001
0000
1000
0100
0001
0000
1000
0010
,
0001
0000
0010
0100
1000
0001
0100
0010
,
0100
0000
0001
1000
0010
0000
0100
0001
,
2000
0000
0000
0000
3200
0000
0000
0000
0302
0000
0000
0000
0013
0000
1000
0001
,
1000
0000
0000
1000
0000
0000
0100
0000
0010
0000
0000
0010
0000
0000
0001
0000
,
1000
0000
0000
1000
0000
0000
0001
0000
0100
0000
0000
0100
0000
0000
0010
0000
,
0100
0000
0001
0000
1000
0000
0001
0000
0100
0000
0010
0000
1000
0001
1000
0001
,
0020
0000
0000
0000
0230
0000
0000
0000
1300
0000
0001
0000
1000
0001
1000
0001
,
2000
0000
0000
0000
,
0000
0000
0000
0000
,
3000
0000
0000
0000
;

//--------------- dance-single - Fred-104 ----------------
#NOTEDATA:;
#STEPSTYPE:dance-single;
#DESCRIPTION:Fred-104;
#DIFFICULTY:Hard;
#METER:15;
#CREDIT:Fred-104;
#NOTES:
0000
0000
0000
0000
,
0000
0000
0000
0000
,
0000
0000
0000
0000
,
0000
0000
0000
0000
,
0000
0000
0000
0000
,
0000
0000
0000
0000
,
0000
0000
0000
0000
,
0000
0000
0000
0000
,
0000
0000
0000
0000
,
1100
0000
0000
0000
0101
0000
0000
0000
1100
0000
0000
0000
0110
0000
0000
0010
,
0001
0000
0001
0000
1000
0010
0000
0000
0110
0000
0000
0000
1001
0000
0000
0001
,
0010
0100
1000
0000
1100
0000
0000
0000
0101
0000
0000
0000
1100
0000
0000
0001
,
1000
0000
1000
0000
0010
0100
0000
0000
0101
0000
0000
0000
1001
0000
0000
0001
,
0010
0100
1000
0000
0001
0100
0001
0000
1000
0100
0010
0000
0001
1000
0001
0000
,
0100
0010
0100
0010
1000
0010
1000
0000
0001
0010
0001
0010
0100
0010
0100
0000
,
1000
0001
1000
0001
0100
0010
0100
0010
1000
0001
0010
0100
1000
0001
0100
0010
,
0200
0000
0000
0000
0302
0000
0000
0000
2003
0000
0100
3000
0110
0000
0000
0000
,
1002
0000
1003
0020
0000
0031
0010
0100
,
0001
0020
0000
0130
0001
0100
0010
0001
,
2001
0000
3001
0200
0000
1300
0100
0010
,
1000
0200
0000
0301
0100
0010
0100
1000
,
2001
0000
3001
0020
0000
0130
1000
0001
,
0102
0000
0103
0020
0000
1030
0001
0010
,
0210
0000
1300
0002
0000
2003
0000
3020
,
0000
0000
0130
0000
0001
0000
1000
0000
0001
0010
0100
0000
1000
0000
0001
0000
,
0102
0000
1003
0100
0001
0100
1000
0100
,
0020
0000
0001
0000
0130
0010
0001
1000
,
0002
0000
0100
0000
1000
0000
0013
0100
,
1000
0020
0230
2300
3002
0023
0230
0302
,
2003
3100
0001
2000
3010
0001
2000
0000
,
3002
0103
1000
0002
0013
1000
0002
0023
,
0130
1000
0002
0000
0100
0000
1000
0000
,
0013
0000
1001
0000
1000
1000
0001
0001
,
1000
0000
0100
0010
0100
0000
1000
0000
0010
0100
0010
0000
1000
0000
0000
0000
,
0001
0000
0100
0010
0100
0000
0001
0000
0010
0100
0010
0000
0001
0000
1000
0001
,
0010
0000
0100
1000
0100
0000
0010
0000
0001
0100
0001
0000
1000
0000
0100
0010
,
0100
0000
1000
0001
1000
0000
0010
0000
0100
0001
0100
0000
0010
0000
1000
0000
,
0001
0000
0010
0100
1000
0000
0001
0000
0100
0000
0010
1000
0002
0000
2003
0000
,
3100
0002
0203
2300
3020
0000
0230
0000
,
0301
0000
1000
0001
0010
0000
0100
0010
0001
0000
1000
0000
0010
0100
0001
0000
,
1000
0100
0002
0000
0203
0000
1300
0001
,
2001
0000
0000
0000
3001
0000
0100
0000
1000
0000
0100
0000
0010
1000
0010
1000
,
0002
0000
0000
0000
1003
0000
0100
0000
0001
0000
0100
1000
0100
1000
0001
0100
,
0002
0000
0000
0000
1003
0000
0010
0000
0001
0000
0010
0000
0100
0010
0100
0010
,
2000
0000
3002
0023
1030
0002
0203
0320
,
0031
0000
1000
0000
0001
0010
0000
0000
0110
0000
0000
0000
1001
0000
0000
1000
,
0100
0010
0100
0000
0010
0001
0010
0000
0001
0100
0001
0000
1000
0010
1000
0000
,
0001
1000
0001
1000
0100
0010
0100
0010
0001
1000
0010
0100
0001
1000
0100
0010
,
0002
0000
0000
0000
2003
0000
0000
0000
3002
0000
1000
0003
1001
0000
0000
0000
,
1100
0000
0000
0001
0000
0000
1000
0000
0000
0010
0000
0000
0110
0000
0100
0001
,
0100
0000
0000
0001
0000
0000
1000
0000
0000
0100
0010
0000
0011
0000
0001
1000
,
0001
0000
0000
0100
0000
0000
0010
0000
0000
1000
0000
0000
1010
0000
1000
0001
,
0010
0000
0000
0100
0000
0000
1000
0000
0000
0001
0100
0000
0002
2003
3002
2003
,
3001
0000
0000
0010
0000
0000
0100
0000
0000
1000
0000
0000
2002
0000
3003
0000
,
1000
0000
0000
0010
0000
0000
0100
0000
0000
0001
1000
0000
2002
3003
1000
0001
,
1000
0000
0000
0001
0000
0000
0100
0000
0000
0010
0000
0000
0110
0000
0010
0000
,
1000
0000
0000
0001
0000
0000
0010
0000
0000
0100
0010
0000
0001
1000
0010
0100
,
0001
0000
1000
0100
0000
0010
0100
0000
1000
0000
0001
0100
0010
0000
1000
0000
,
0001
0000
0010
0100
0000
1000
0001
0000
0100
0000
0010
1000
0010
0000
0100
0000
,
0001
0000
1000
0100
0000
0010
0001
0000
1000
0000
0010
0100
0010
0000
1000
0000
,
0001
0000
0010
0100
0000
1000
0001
0000
0100
0000
0010
1000
0010
0000
0100
0000
,
0001
0000
1000
0100
0000
0010
0001
0000
1000
0000
0010
1000
0001
0000
0010
0000
,
0100
0000
0010
0001
0000
1000
0010
0000
0100
0000
0001
1000
0100
0000
0010
0000
,
0001
0000
1000
0010
0000
0100
0001
0000
1000
0000
0100
0000
0010
0001
0010
0100
,
1000
0000
0000
0001
0000
0000
0100
0000
0000
0000
0002
0000
0003
0000
2000
0000
,
3001
0000
0100
0000
0010
0000
1000
0001
0010
0000
0100
0000
1000
0100
1000
0100
,
1000
0000
0000
0000
0001
0100
0001
0000
1000
0100
1000
0100
0010
0001
0010
0000
,
0001
0000
0010
0000
0100
0000
1000
0001
0100
0000
0001
0000
1000
0000
0100
0010
,
0200
0000
0000
0000
2300
0000
0000
0000
3002
0000
0000
0000
1003
0010
0100
0001
,
1000
0000
0000
0100
0000
0000
0001
0000
1000
0000
0000
0010
0000
0000
0001
0000
,
1000
0000
0000
0010
0000
0000
0001
0000
1000
0000
0000
0100
0000
0000
0001
1000
,
0001
0000
0100
0000
0010
1000
0010
1000
0001
0000
0000
0000
1000
0001
1000
0001
,
0020
0000
0000
0000
0230
0000
0000
0000
1300
0000
1000
0000
0001
0010
0001
0010
,
0100
0000
1000
0000
0001
0000
1000
0001
0100
0000
0010
0000
0100
0001
1000
0100
,
0010
0000
0000
0000
0001
1000
0001
0000
1000
0100
0010
0001
1000
0100
0010
0001
,
1000
0000
0001
0000
0100
0000
0010
1000
0001
0000
0010
0000
0100
0000
1000
0001
,
0200
0000
0000
0000
0320
0000
0000
0000
1030
0000
0001
0000
0010
0100
1000
0001
,
1000
0000
0000
0010
0000
0000
0001
0000
1000
0000
0000
0100
0000
0000
0001
0000
,
1000
0000
0000
0100
0000
0000
0001
0000
1000
0000
0000
0010
0000
0000
0001
1000
,
0001
0100
0001
0100
0010
1000
0010
1000
0001
0010
0100
1000
0001
0100
0010
1000
,
0002
0000
0000
0000
0203
0000
0000
0000
0310
0000
1000
0000
0001
0010
0100
1000
,
0002
0000
0000
0000
,
0000
0000
0000
0000
,
0003
0000
0000
0000
;

//--------------- dance-double - Fred-104 ----------------
#NOTEDATA:;
#STEPSTYPE:dance-double;
#DESCRIPTION:Fred-104;
#DIFFICULTY:Easy;
#METER:7;
#CREDIT:Fred-104;
#NOTES:
00000000
00000000
00000000
00000000
,
00000000
00000000
00000000
00000000
,
00000000
00000000
00000000
00000000
,
00000000
00000000
00000000
00000000
,
00000000
00000000
00000000
00000000
,
00000000
00000000
00000000
00000000
,
00000000
00000000
00000000
00000000
,
00000000
00000000
00000000
00000000
,
00000000
00000000
00000000
00000000
,
00000001
00000000
00000000
00001000
00000000
00000010
00000000
00002000
,
00000000
00000000
00000000
00000000
00000000
00000000
00003001
00000002
,
00000000
00000000
00000000
00000003
,
00000100
00001000
00010000
01000000
,
20000000
00000000
30000000
20000000
00000000
30000000
01000000
00000000
,
00200000
00000000
00300000
00200000
00000000
00300000
00001000
00000000
,
00010000
00000010
00010000
00001000
,
00020000
00230000
02300000
03010000
,
10010000
00000000
00000000
10000000
00000000
00000000
01000000
00000000
,
00010000
00000000
00001000
00000100
,
00000010
00000000
00000000
00001000
00000000
00000000
00000001
00000000
,
00000010
00000000
00000100
00000010
,
00000001
00000000
00000000
00001000
00000000
00000000
00000010
00000000
,
00010000
00000000
00000000
00001000
00000000
00000000
01000000
00000000
,
00001000
00000000
00000000
00010000
00000000
00010000
00000000
00010000
,
00000000
00001000
00010000
00100000
,
01000000
00000000
00000000
00010000
00000000
00010000
00000000
00020000
,
00000000
00000000
10030000
01000000
,
00020000
00000000
00032000
00000000
,
00013000
00001000
00000100
00000001
,
00002002
00000000
00003003
00000220
00000000
00000330
00000000
00000000
,
00022000
00000000
00033000
02002000
00000000
03003000
00001000
00000000
,
01000000
00010000
00200000
00000000
01000000
00000000
01300000
00000000
,
10000000
00000000
02000000
00000000
03020000
00030000
00011000
00000000
,
00020000
00000000
00030000
00002000
00000000
00003000
00000100
00000000
,
00000002
00000000
00000003
00000200
00000000
00000000
00000310
00000000
,
00002000
00000000
00003000
00000002
00000000
00000003
00000010
00000000
,
00000200
00000000
00000300
00020000
00000000
00030000
00001000
00000000
,
00020000
00000000
00031000
00010000
,
00100000
00100000
01000000
01000000
,
00010000
00000000
10000000
00000000
01000000
00000000
00100000
00001000
,
00020000
00230000
02300000
03010000
,
10010000
00000000
00000000
10000000
00000000
00000000
00100000
00010000
,
00001000
00000000
00000000
00010000
00000000
00000000
00001000
00000010
,
00000001
00000000
00000000
00001000
00000000
00000000
00000001
00000010
,
00000100
00000000
00000000
00010000
00000000
00001000
00010000
00000000
,
00001000
00010000
00011000
00000000
,
00001000
00010000
01000000
00100000
,
00001000
00010000
00100000
00000000
01000000
00010000
10000000
00000000
,
01000000
00100000
00001000
00010000
,
00101000
00000000
00000000
00001000
00000000
00000000
00010000
00000000
,
00000010
00000000
00000000
00001000
00000000
00000000
00000001
00000000
,
00000010
00000000
00000000
00000100
00000000
00000000
00010000
00000000
,
00001000
00000000
00000000
01000000
00000000
00000000
00002000
00000000
,
00013000
00000000
00000000
01000000
00000000
00000000
00010000
00000000
,
00001000
00000000
00000000
00010000
00000000
00000000
00200000
00000000
,
10300000
00000000
00000000
00010000
00000000
00000000
10000000
00000000
,
01000000
00000000
00000000
00100000
00000000
00000000
00001000
00000000
,
00010000
01000000
00100000
00010000
,
10000000
00000000
00100000
00000000
00010000
00001000
00010000
00000000
,
00001000
00000100
00000010
00010000
,
00001000
00000000
00000010
00000000
00000001
00001000
00000001
00000000
,
00000100
00000010
00000100
00001000
,
00010000
00000000
00001000
00000000
01000000
00010000
01000000
00000000
,
00010000
00000000
10000000
00000000
01000000
00100000
01000000
00000000
,
00100000
00000000
00000000
00001000
00000000
00020000
00030000
00002000
,
00013000
00000000
00011000
00000000
,
00010000
00001000
00000010
00000001
,
00000100
00000000
00001000
00010000
,
00100000
10000000
01000000
00010000
,
00002000
00003000
00020000
00030000
,
00200000
00300000
02000000
03000000
,
00020000
00030000
20000000
30000000
,
01000000
00100000
00001000
00010000
,
00011000
00000000
00010000
00000000
,
00001000
00000010
00000001
00000100
,
00001000
00000000
00010000
00000000
,
00001000
00010000
00000100
00001000
,
00000200
00000300
00000020
00000030
,
00000002
00000003
00000200
00000300
,
00001000
00001000
00010000
00010000
,
00001000
00010000
00100000
00000000
01000000
00010000
10000000
00000000
,
20020000
00000000
00000000
00000000
,
00000000
00000000
00000000
00000000
,
30030000
00000000
00000000
00000000
;

//--------------- dance-double - Fred-104 ----------------
#NOTEDATA:;
#STEPSTYPE:dance-double;
#DESCRIPTION:Fred-104;
#DIFFICULTY:Medium;
#METER:11;
#CREDIT:Fred-104;
#NOTES:
00000000
00000000
00000000
00000000
,
00000000
00000000
00000000
00000000
,
00000000
00000000
00000000
00000000
,
00000000
00000000
00000000
00000000
,
00000000
00000000
00000000
00000000
,
00000000
00000000
00000000
00000000
,
00000000
00000000
00000000
00000000
,
00000000
00000000
00000000
00000000
,
00000000
00000000
00000000
00000000
,
00001000
00000000
00010000
00100000
00000000
01000000
00000000
00020000
,
00000000
00000000
00000000
00000000
00000000
00000000
10030000
02000000
,
00000000
00000000
00000000
00000000
,
03000000
00100000
00001000
00010000
00001000
00000010
00000001
00000010
,
00000100
00000000
00010000
00002000
00000000
01003000
00001000
00010000
,
00000100
00000000
00001000
00000200
00000000
00000310
00000001
00001000
,
00000010
00000100
00001000
00010000
00100000
01000000
00010000
10000000
,
02000000
00000000
03200000
00000000
00301000
00010000
00011000
00000000
,
01001000
00000000
00001000
00010000
00000000
01000000
00100000
00010000
,
10000000
10000000
00000000
01000000
00100000
00001000
00010000
00001000
,
00100000
00000000
00001000
00001000
00000000
00010000
00000010
00001000
,
00000100
00000100
00000000
00000010
00000001
00000100
00001000
00010000
,
00001000
00000000
00010000
00010000
00000000
00100000
01000000
00010000
,
10000000
00000000
01000000
01000000
00000000
00100000
00001000
00010000
,
00001000
00000000
00000100
00000100
00000000
00000001
00000000
00001001
,
00000000
00000001
00000100
00001000
00010000
00100000
10000000
00010000
,
00100000
00000000
01000000
01000000
00000000
10000000
01000000
00100000
,
00002000
00000000
00023000
00000000
00031000
00000100
00000010
00001000
,
00000002
00000000
00000010
00000000
00000010
00000000
00000013
00000001
,
00000100
00001000
00010000
01000000
10000000
00010000
00100000
00001000
,
00022000
00000000
00033000
00020020
00000000
00030030
00001000
00000000
,
02002000
00000000
03003000
00020200
00000000
00030300
00001000
00010000
,
00100000
02000000
00010000
00000000
10000000
00000000
03010000
00000000
,
20000000
00000000
32000000
00000000
03010000
00001000
00011000
00000000
,
00001000
00000000
00010000
00001000
01000000
00010000
00100000
00001000
,
00010000
00000000
00000010
00001000
00000100
00010000
00000100
00001000
,
00000001
00000000
00000100
00000010
00000100
00001000
00010000
00100000
,
01000000
00000000
00010000
10000000
01000000
00010000
00001000
00010000
,
00002000
00000000
00103000
00000000
00002000
00000000
00013000
00001000
,
00000000
00000100
00000010
00001000
00000100
00000010
00000100
00000000
,
00010000
00001000
01000000
00010000
00100000
01000000
00100000
00010000
,
10000000
00100000
00020000
00000000
00032000
00010000
00013000
00001000
,
00011000
00000000
00001000
00010000
00000000
00100000
00010000
00001000
,
00010000
00000000
00001000
00000010
00000000
00001000
00010000
00001000
,
00010000
00000000
01000000
00010000
00000000
00001000
00010000
00001000
,
00000100
00000000
00001000
00010000
00001000
00010000
01000000
10000000
,
00010000
00100000
01000000
00000000
11000000
00000000
01010000
00000000
,
10000000
00100000
00010000
00001000
00000100
00000010
00001000
00000001
,
00000010
00001000
00010000
01000000
00100000
00010000
10000000
00100000
,
02000000
00000000
03002000
00000000
00013000
00001000
00011000
00000000
,
00101000
00000000
00000000
00001000
00000000
00000000
00010000
00000000
00000000
01000000
00000000
00000000
10000000
00000000
00010000
00000000
,
10000000
00000000
00000000
00100000
00000000
00000000
00010000
00000000
00000000
00010000
00001000
00000000
00000010
00000000
00000001
00000000
,
00001000
00000000
00000000
00000010
00000000
00000000
00000100
00000000
00000000
00001000
00000000
00000000
00010000
00000000
00100000
00000000
,
01000000
00000000
00000000
00010000
00000000
00000000
10000000
00000000
00000000
10000000
01000000
00000000
00100000
00000000
00100000
00000000
,
01000000
00000000
00000000
10000000
00000000
00000000
00100000
00000000
00000000
00010000
00000000
00000000
00001000
00000000
00010000
00000000
,
00100000
00000000
00000000
01000000
00000000
00000000
00001000
00000000
00000000
00001000
00010000
00000000
00000100
00000000
00001000
00000000
,
00000100
00000000
00000000
00000010
00000000
00000000
00000001
00000000
00000000
00001000
00000000
00000000
00000010
00000000
00010000
00000000
,
00001000
00000000
00000000
01000000
00000000
00000000
00010000
00000000
00000000
00010000
00100000
00000000
01000000
00000000
01000000
00000000
,
10000000
00000000
00000000
00100000
00000000
00000000
00010000
00000000
00001000
00000000
00010000
00000000
00100000
00000000
00010000
00000000
,
00001000
00000000
00000000
00000010
00000000
00000000
00001000
00000000
00010000
00000000
00001000
00000000
00000100
00000000
00000001
00000000
,
00001000
00000000
00000000
00000100
00000000
00000000
00000010
00000000
00000001
00000000
00001000
00000000
00000010
00000000
00000100
00000000
,
00001000
00000000
00000000
00010000
00000000
00000000
00100000
00000000
01000000
00000000
00010000
00000000
10000000
00000000
01000000
00000000
,
00100000
00000000
00000000
00001000
00000000
00000000
00010000
00000000
01000000
00000000
00100000
00000000
00010000
00000000
10000000
00000000
,
00100000
00000000
00000000
00010000
00000000
00000000
00001000
00000000
00010000
00000000
00100000
00000000
01000000
00000000
00010000
00000000
,
10000000
00000000
00000000
01000000
00000000
00000000
00010000
00000000
00001000
00000000
00000100
00000000
00000001
00000000
00001000
00000000
,
00000100
00000000
00000000
00000010
00000000
00000000
00000001
00000000
00000000
00000000
00020000
00000000
00030000
00000000
00002000
00000000
,
00013000
00000000
00001000
00010000
01000000
00000000
00100000
00010000
,
10000000
00000000
01000000
00010000
00001000
00000100
00000001
00001000
,
00000100
00000000
00000001
00000100
00001000
00000000
00000001
00000100
,
00002000
00000000
00000000
00000000
00023000
00000000
00000000
00000000
02030000
00000000
00000000
00000000
13000000
00000000
00010000
10000000
,
00010000
00000000
00000000
01000000
00000000
00000000
00100000
00000000
00010000
00000000
00000000
00001000
00000000
00000000
00000100
00000000
,
00000010
00000000
00000000
00001000
00000000
00000000
00010000
00000000
00100000
00000000
00000000
01000000
00000000
00000000
00010000
00000000
,
00001000
00010000
00000100
00001000
00000001
00000100
00001000
00010000
,
00200000
00000000
02300000
00000000
03020000
00000000
10030000
10000000
,
00010000
00000000
10000000
00100000
00010000
00000000
00001000
00000010
,
00000001
00000000
00000100
00000010
00000001
00000010
00000100
00000001
,
00001000
00000000
00000001
00000010
00001000
00000000
00010000
00100000
,
20000000
00000000
00000000
00000000
32000000
00000000
00000000
00000000
03200000
00000000
00000000
00000000
00301000
00000000
00010000
00001000
,
00010000
00000000
00000000
00001000
00000000
00000000
01000000
00000000
00010000
00000000
00000000
10000000
00000000
00000000
01000000
00000000
,
00100000
00000000
00000000
00001000
00000000
00000000
00010000
00000000
00000100
00000000
00000000
00000010
00000000
00000000
00000001
00000000
,
00000100
00000000
00000010
00000000
00000100
00000000
00001000
00000000
00010000
00000000
00100000
00000000
01000000
00010000
01000000
00010000
,
20000000
00000000
00000000
00000000
32000000
00000000
00000000
00000000
03010000
00000000
00001000
00000000
00010000
00001000
00010000
00001000
,
00020000
00000000
00000000
00000000
,
00000000
00000000
00000000
00000000
,
00030000
00000000
00000000
00000000
;

//--------------- dance-double - Fred-104 ----------------
#NOTEDATA:;
#STEPSTYPE:dance-double;
#DESCRIPTION:Fred-104;
#DIFFICULTY:Hard;
#METER:16;
#CREDIT:Fred-104;
#NOTES:
00000000
00000000
00000000
00000000
,
00000000
00000000
00000000
00000000
,
00000000
00000000
00000000
00000000
,
00000000
00000000
00000000
00000000
,
00000000
00000000
00000000
00000000
,
00000000
00000000
00000000
00000000
,
00000000
00000000
00000000
00000000
,
00000000
00000000
00000000
00000000
,
00000000
00000000
00000000
00000000
,
00011000
00000000
00000000
00000000
00010010
00000000
00000000
00000000
00011000
00000000
00000000
00000000
00010100
00000000
00000000
00010000
,
00001000
00000000
00001000
00000000
00100000
00010000
00000000
00000000
10010000
00000000
00000000
00000000
01100000
00000000
00000000
10000000
,
01000000
00100000
00001000
00000000
00011000
00000000
00000000
00000000
00010010
00000000
00000000
00000000
00001001
00000000
00000000
00000001
,
00000010
00000000
00000010
00000000
00000100
00010000
00000000
00000000
00011000
00000000
00000000
00000000
01001000
00000000
00000000
00001000
,
00010000
00001000
00100000
00000000
00010000
10000000
00100000
00000000
01000000
00010000
10000000
00010000
01000000
00010000
10000000
00000000
,
01000000
00100000
00010000
00100000
00001000
00010000
00000100
00001000
00000001
00000100
00000010
00001000
00000001
00000010
00000100
00000000
,
00000010
00000001
00001000
00000010
00000100
00000001
00001000
00000100
00010000
00001000
00100000
00010000
10000000
01000000
00010000
00001000
,
00020000
00000000
00000000
00000000
00032000
00000000
00000000
00000000
00003200
00000000
00000001
00000300
00001001
00000000
00000000
00000000
,
00001001
00000000
00000001
00000010
00001000
00010000
00100000
10000000
,
00010000
00010000
10000000
10000000
01000000
00010000
00001000
00010000
,
01000000
00000000
00100000
00010000
01000000
00100000
00010000
00001000
,
00000100
00000010
00000010
00001000
00001000
00000001
00000010
00000100
,
00010000
00000000
00001000
00010000
00100000
01000000
00010000
10000000
,
00010000
00000000
10000000
01000000
00010000
00001000
00000010
00000001
,
00000010
00000000
00000100
00010000
00001000
00010000
00100000
01000000
,
00010000
00000000
00100000
01000000
10000000
00000000
00100000
00000000
00010000
00000000
00001000
00000000
00000100
00000000
00000001
00000000
,
00001000
00000000
00000100
00000010
00001000
00010000
01000000
00100000
,
00002000
00000000
00010000
00000000
01003000
00001000
00010000
00000100
,
00002000
00000000
00000100
00000000
00000010
00000000
00003100
00000010
,
00000001
00000200
00002300
00023000
00230000
20300000
32000000
03200000
,
00320000
10030000
00100000
00020000
00031000
00000100
00000002
00000000
,
00002003
00003001
00000010
00002000
00013000
01000000
20000000
32000000
,
03100000
00010000
00100000
00000000
00002000
00000000
00000000
00000000
00010000
00000000
00000000
00000000
00000100
00000000
00000000
00000000
,
00013000
00000000
00000000
00000000
00011000
00000000
00000000
00000000
00001000
00010000
00100000
00000000
01000000
00010000
10000000
00000000
,
00010000
00000000
01000000
00100000
00010000
00000000
00001000
00000000
00000100
00000010
00001000
00000000
00000001
00000000
00001000
00000000
,
00000001
00000000
00000100
00000010
00001000
00000000
00010000
00000000
01000000
00100000
10000000
00000000
00010000
00000000
10000000
01000000
,
00100000
00000000
00001000
00010000
00100000
00000000
01000000
00000000
00010000
00100000
01000000
00000000
10000000
00000000
01000000
00100000
,
00001000
00000000
00010000
00001000
00000010
00000000
00000001
00000000
00000010
00000100
00001000
00000000
00000001
00000000
00000100
00000000
,
00001000
00000000
00010000
00001000
00010000
00000000
00100000
00000000
01000000
00000000
00010000
10000000
02000000
00000000
03200000
00000000
,
00301000
00020000
00230000
00320000
00032000
00000000
00023000
00000000
,
00031000
00000000
00010000
00100000
00010000
00000000
00001000
00010000
00100000
00000000
00010000
00000000
00001000
00010000
00000010
00000000
,
00010000
00001000
00000200
00000000
00000310
00001000
00000001
00000100
,
00000120
00000000
00000000
00000000
00001030
00000000
00000001
00000000
00000010
00000000
00000100
00000000
00010000
00001000
01000000
00001000
,
00020000
00000000
00000000
00000000
00031000
00000000
00010000
00000000
00100000
00000000
01000000
00010000
10000000
01000000
00100000
00001000
,
00020000
00000000
00000000
00000000
00031000
00000000
00000100
00000000
00000001
00000000
00001000
00000000
00000100
00000010
00000001
00001000
,
00000020
00000000
00001030
00000001
00000100
00001000
00010000
01000000
,
10000000
00000000
01000000
00000000
00100000
00010000
00000000
00000000
00101000
00000000
00000000
00000000
00011000
00000000
00000000
00010000
,
00000100
00001000
00000100
00001000
00000001
00000100
00000001
00000100
00000010
00001000
00000001
00000010
00000100
00001000
00000100
00010000
,
00001000
00100000
00010000
00100000
01000000
10000000
00010000
01000000
00100000
10000000
00010000
00100000
00001000
00010000
00001000
01000000
,
00020000
00000000
00000000
00000000
00230000
00000000
00000000
00000000
00302000
00000000
00010000
00003000
00011000
00000000
00000000
00000000
,
00010010
00000000
00000000
00001010
00000000
00000000
00010010
00000000
00000000
00011000
00000000
00000000
00101000
00000000
00001000
00100000
,
00010000
00000000
00000000
01010000
00000000
00000000
10010000
00000000
00000000
10000000
01000000
00000000
01100000
00000000
00100000
00001000
,
00010000
00000000
00000000
00011000
00000000
00000000
00010010
00000000
00000000
00001001
00000000
00000000
00000011
00000000
00001000
00000001
,
00000100
00000000
00000000
00001010
00000000
00000000
00010010
00000000
00000000
00010000
00001000
00000000
00200000
00320000
00230000
00320000
,
00130000
00000000
00000000
00110000
00000000
00000000
10010000
00000000
00000000
11000000
00000000
00000000
02200000
00000000
03300000
00000000
,
00101000
00000000
00000000
00010010
00000000
00000000
01001000
00000000
00000000
00001000
00010000
00000000
00022000
00033000
00010000
00001000
,
00010000
00000000
00000000
00010100
00000000
00000000
01001000
00000000
00000000
00010010
00000000
00000000
00011000
00000000
00001000
00000000
,
00101000
00000000
00000000
01010000
00000000
00000000
10100000
00000000
00000000
10000000
01000000
00000000
00100000
00001000
00010000
00001000
,
00010000
00000000
00001000
00000100
00000000
00000010
00001000
00000000
00000001
00000000
00000010
00000100
00000010
00000000
00000001
00000000
,
00001000
00000000
00000010
00000100
00000000
00001000
00010000
00000000
00100000
00000000
01000000
00010000
10000000
00000000
01000000
00000000
,
00100000
00000000
00001000
00010000
00000000
00100000
01000000
00000000
00010000
00000000
01000000
00001000
00010000
00000000
00001000
00000000
,
00000100
00000000
00000010
00001000
00000000
00000001
00000010
00000000
00000100
00000000
00001000
00000001
00000100
00000000
00000010
00000000
,
00001000
00000000
00000001
00000010
00000000
00001000
00010000
00000000
00100000
01000000
00100000
01000000
00010000
00000000
10000000
00000000
,
01000000
00000000
00100000
00001000
00000000
00010000
00001000
00000000
00000100
00000010
00000100
00000010
00001000
00000001
00000010
00000000
,
00000100
00000000
00001000
00000010
00000000
00000100
00001000
00000000
00010000
00000000
00100000
00000000
01000000
00100000
01000000
00100000
,
10000000
00000000
00000000
01000000
00000000
00000000
00010000
00000000
00000000
00000000
00002000
00000000
00003000
00000000
00020000
00000000
,
00031000
00000000
00010000
00000000
00000100
00000000
00001000
00000001
00000010
00000000
00000100
00000000
00000010
00000001
00001000
00000010
,
00000100
00000000
00000000
00000000
00000001
00001000
00000100
00000000
00010000
00001000
00010000
00001000
00100000
00010000
10000000
00100000
,
01000000
00000000
00010000
00000000
10000000
00000000
01000000
00100000
00001000
00000000
00010000
00000000
00001000
00000000
00000010
00000001
,
00000020
00000000
00000000
00000000
00000230
00000000
00000000
00000000
00020300
00000000
00000000
00000000
00031000
00010000
00100000
01000000
,
00010000
00000000
00000000
00100000
00000000
00000000
01000000
00000000
10000000
00000000
00000000
00100000
00000000
00000000
00010000
00000000
,
00001000
00000000
00000000
00000100
00000000
00000000
00000001
00000000
00001000
00000000
00000000
00000100
00000000
00000000
00000010
00000001
,
00001000
00000000
00000001
00000000
00000010
00000100
00001000
00000100
00010000
00000000
00000000
00000000
00001000
01000000
00010000
01000000
,
00002000
00000000
00000000
00000000
00023000
00000000
00000000
00000000
00031000
00000000
00001000
00000000
00010000
00000010
00001000
00000001
,
00000010
00000000
00000100
00000000
00001000
00000000
00000010
00010000
00001000
00000000
00010000
00000000
00100000
01000000
00100000
10000000
,
00010000
00000000
00000000
00000000
10000000
01000000
00100000
00000000
00001000
00010000
00001000
00010000
00000010
00001000
00000001
00000010
,
00000100
00000000
00001000
00000000
00000001
00000000
00000100
00001000
00010000
00000000
00100000
00000000
01000000
00000000
00010000
10000000
,
01000000
00000000
00100000
00001000
00010000
00000000
00001000
00000010
00000001
00000000
00000010
00000000
00000100
00001000
00000100
00001000
,
00000001
00000000
00000100
00000000
00000100
00000010
00000000
00000000
00011000
00000000
00000000
00000000
01100000
00000000
00000000
00010000
,
10000000
01000000
00100000
00010000
00100000
00001000
00010000
00000000
00000100
00001000
00000100
00000010
00000001
00001000
00000010
00000000
,
00000100
00000001
00000100
00000001
00001000
00000100
00001000
00000100
00010000
00001000
01000000
00001000
00010000
00001000
00100000
00010000
,
20000000
00000000
00000000
00000000
32000000
00000000
00000000
00000000
03010000
00000000
00001000
00000000
00000100
00000010
00001000
00000001
,
00000020
00000000
00000000
00000000
,
00000000
00000000
00000000
00000000
,
00000030
00000000
00000000
00000000
;
