#VERSION:0.83;
#TITLE:neu (STARDOM Remix);
#ARTIST:少年ラジオ arranged by BEMANI Sound Team "PON";
#ARTISTTRANSLIT:Shounen Radio arranged by PON;
#BANNER:neu (STARDOM Remix).png;
#BACKGROUND:neu (STARDOM Remix)-bg.png;
#CDTITLE:./CDTitles/DANCERUSH STARDOM.png;
#MUSIC:neu (STARDOM Remix).ogg;
#SAMPLESTART:61.351;
#SAMPLELENGTH:15;
#BPMS:0=133;
#BGSTAGE:14;

//--------------- dance-single - Fred-104 ----------------
#NOTEDATA:;
#STEPSTYPE:dance-single;
#DESCRIPTION:Fred-104;
#DIFFICULTY:Beginner;
#METER:2;
#CREDIT:Fred-104;
#NOTES:
0000
0000
0000
0000
,
0000
0000
0000
0000
,
0000
0000
0000
0000
,
0000
0000
0000
0000
,
0000
0000
0000
0000
,
1000
0000
0000
0000
,
0001
0000
0000
0000
,
1000
0000
1000
0000
,
0001
0000
0001
0000
,
0100
0000
0000
0000
,
0100
0000
0000
0000
,
0010
0000
0000
0000
,
0010
0000
0010
0000
,
0100
0000
0000
0000
,
0001
0000
0000
0000
,
1000
0000
0000
0000
,
0001
0000
1000
0000
,
2000
3000
0100
0000
,
2000
3000
0100
0000
,
0002
0003
0010
0000
,
0002
0003
0010
0000
,
1000
0000
0000
0000
,
0001
0000
0000
0000
,
1000
0000
0001
0000
,
1000
0000
0001
0000
,
2000
0000
0000
0000
,
3000
0000
0000
0000
,
0002
0000
0000
0003
,
1000
0000
1000
0000
,
0010
0000
0010
0000
,
0001
0000
0001
0000
,
0100
0000
0100
0000
,
1000
0000
1000
0000
,
1001
0000
0000
0000
,
0001
0000
0000
0000
,
1000
0000
0010
0000
,
1000
0000
0000
0000
,
0001
0000
0010
0000
,
0010
0000
0000
0000
,
0100
0000
1000
0000
,
0100
0000
0000
0000
,
1000
0000
0001
0000
,
0001
0000
0000
0100
,
0000
0000
1000
0000
,
1000
0000
0000
0010
,
0000
0000
0001
0000
,
0001
0000
1000
0000
,
0001
0000
1000
0000
,
0010
0000
0100
0000
,
0010
0000
0100
0000
,
0001
0000
1000
0000
,
0100
0000
0100
0000
,
0010
0000
0010
0000
,
0001
0000
1000
0000
,
1001
0000
0000
0000
,
1001
0000
0000
0000
,
1001
0000
0001
0000
,
1001
0000
1000
0000
,
0001
0000
0000
0000
,
1000
0000
0000
0000
,
2002
0000
0000
0000
,
0000
0000
0000
0000
0000
3003
0000
0000
0000
0000
0000
0000
0000
0000
0000
0000
0000
0000
0000
0000
0000
0000
0000
0000
0000
0000
0000
0000
0000
0000
0000
0000
;

//--------------- dance-single - Fred-104 ----------------
#NOTEDATA:;
#STEPSTYPE:dance-single;
#DESCRIPTION:Fred-104;
#DIFFICULTY:Easy;
#METER:4;
#CREDIT:Fred-104;
#NOTES:
0000
0000
0000
0000
,
0000
0000
0000
0000
,
0000
0000
0000
0000
,
0000
0000
0000
0000
,
0000
0000
0000
0000
,
2000
0000
0000
3000
,
0002
0000
0000
0003
,
1000
0000
0001
0000
,
1000
1000
0001
0001
,
1001
0000
1000
0000
,
0001
0000
0010
0100
,
0010
0000
0100
0000
,
1000
0001
1000
0010
,
0100
0000
0001
0000
,
0100
0000
0001
0000
,
1000
0000
0001
0000
,
0010
0100
1000
0001
,
0200
0300
0001
1000
,
0200
0300
1000
0001
,
0020
0030
0001
1000
,
0020
0030
0100
0001
,
1001
0000
0100
0000
,
1001
0000
0010
0000
,
1001
0000
0110
0000
,
1000
1000
0001
0001
,
2000
0000
0000
0000
,
3002
0000
0000
0000
,
2003
0000
3002
0000
,
0103
0000
0100
0000
,
0010
0000
0010
0000
,
1000
0000
1000
0000
,
0001
0000
0001
0000
,
0010
0010
0100
0100
,
0220
0000
0000
0330
,
1000
0000
0010
0000
,
1000
0001
0010
0100
,
0010
0000
0100
0000
,
1000
0001
0100
0100
,
0010
0000
0100
0000
,
0001
1000
0001
0010
,
0001
0000
0010
0000
,
0100
0100
1000
0001
,
1000
0000
0010
0000
,
0100
0100
0001
0010
,
0010
0000
0100
0000
,
1000
1000
0001
0100
,
0100
0000
0010
0000
,
0100
0100
0001
1000
,
1001
0000
1001
0000
,
1001
0000
0001
1000
,
0001
0000
0100
0000
,
0001
1000
0001
0001
,
0010
0000
0100
0000
,
1000
1000
0001
1000
,
1001
0000
1001
0000
,
1001
0000
0001
1000
,
1001
0000
0110
0000
,
1001
0001
1001
1000
,
2002
0000
0000
0000
,
0000
0000
0000
0000
,
0000
0000
0000
0000
,
0000
0000
0000
0000
0000
3003
0000
0000
0000
0000
0000
0000
0000
0000
0000
0000
0000
0000
0000
0000
0000
0000
0000
0000
0000
0000
0000
0000
0000
0000
0000
0000
;

//--------------- dance-single - Fred-104 ----------------
#NOTEDATA:;
#STEPSTYPE:dance-single;
#DESCRIPTION:Fred-104;
#DIFFICULTY:Medium;
#METER:8;
#CREDIT:Fred-104;
#NOTES:
0000
0000
0000
0000
,
0000
0000
0000
0000
,
0000
0000
0000
0000
,
0000
0000
0000
0000
,
0000
0000
0000
0000
,
1000
1000
0100
0100
,
0010
0010
0001
0001
,
1000
0010
0001
0100
,
1000
0100
1000
0000
0001
0100
0001
0000
,
1001
0000
1000
0000
0100
0010
0001
0000
,
1000
0010
1000
0000
0001
0010
0001
0000
,
0100
0010
0100
0100
,
0001
0010
0100
0100
,
1000
0000
0001
0000
0100
0010
0100
0000
,
0001
0000
0010
0000
0100
1000
0100
0000
,
1000
0010
1000
0000
0001
0100
0001
0000
,
0100
0010
0100
0000
0001
0000
1000
0000
,
0100
0100
0000
0000
0010
0000
0001
0000
,
0100
0100
0000
0000
0010
0000
1000
0000
,
0001
0001
0000
0000
0010
0000
0100
0000
,
1000
1000
1000
0000
0001
0000
0100
0000
,
0001
0010
0000
0000
1000
0000
0010
0000
,
1000
0100
0000
0000
0001
0000
0100
0000
,
0101
1001
1100
1001
,
1000
0000
0100
0000
0010
0001
0010
0000
,
1002
0000
2003
0000
,
3020
0000
0230
0000
,
0302
0000
1003
1000
,
0001
0001
0010
0010
,
0100
0100
1000
1000
,
0001
0100
0001
0000
1000
0100
1000
0000
,
0001
0010
0100
0000
0010
0001
0100
0000
,
0010
1000
0100
0000
0010
0100
1000
0000
,
2002
0000
0000
3003
,
0001
0000
0010
0000
1000
0010
0001
0000
,
1000
0000
0010
0000
0001
0010
1000
0000
,
0001
0000
0100
0000
1000
0100
0001
0000
,
1000
0000
0100
0000
0001
0100
1000
0000
,
0001
0000
0010
0000
0100
1000
0010
0000
,
0100
0000
0001
0000
0100
0010
1000
0000
,
0100
0000
0010
0000
0001
0100
0010
0000
,
0100
0000
0001
0000
1000
0001
1000
0000
,
0100
0000
0010
0001
0010
0000
0001
1000
,
0000
0001
0100
0000
0001
0000
0010
0100
,
1000
0000
0001
0100
0001
0000
1000
0100
,
0000
0010
0100
0000
0010
0001
1000
0000
,
0001
0000
0100
0001
0010
0000
0100
1000
,
0000
0010
1000
0000
0001
1000
0100
0000
,
1100
0001
0101
1000
,
0110
0000
0001
0000
1000
0001
1000
0000
,
0001
0100
0000
1000
0100
0000
0001
0100
,
0000
1000
0100
0000
0001
1000
0001
0000
,
1000
0100
0000
0001
0100
0000
1000
0100
,
0000
0001
0100
0000
1000
0001
1000
0000
,
0001
0001
0010
0000
0100
0000
1000
0000
,
0010
0000
0010
0000
0100
0000
0000
0000
0010
0000
0000
1000
0000
0000
0001
0000
,
0110
1000
0110
0001
,
1000
0100
0010
0001
0100
0010
1000
0000
,
0002
0000
0023
0000
,
0230
0000
2300
0000
,
3002
0000
0200
0000
,
0000
0000
0000
0000
0000
0303
0000
0000
0000
0000
0000
0000
0000
0000
0000
0000
0000
0000
0000
0000
0000
0000
0000
0000
0000
0000
0000
0000
0000
0000
0000
0000
;

//--------------- dance-single - Fred-104 ----------------
#NOTEDATA:;
#STEPSTYPE:dance-single;
#DESCRIPTION:Fred-104;
#DIFFICULTY:Hard;
#METER:12;
#CREDIT:Fred-104;
#NOTES:
0000
0000
0000
0000
,
0000
0000
0000
0000
,
0000
0000
0000
0000
,
0000
0000
0000
0000
,
0000
0000
0000
0000
,
0001
0010
0001
0010
,
0100
1000
0100
1000
,
0001
0100
0010
1000
0001
0100
0010
1000
,
0001
0010
0001
0000
1000
0010
1000
0000
0001
0000
1000
0000
1001
0000
0000
0000
,
0001
0010
0001
1000
0010
0100
0010
1000
,
0100
0010
0001
1000
0010
1000
0100
1000
,
0001
0100
0010
0100
0001
0010
0001
1000
,
0001
0100
0010
1000
0001
0001
1000
1000
,
0100
0010
0001
1000
0010
1000
0100
1000
,
0001
0100
0010
0100
0001
0010
0001
1000
,
0010
0100
0010
1000
0100
0010
0001
1000
,
0010
0100
0001
1000
0100
1000
0001
0000
,
1000
1000
0100
0010
0001
1000
0010
1000
,
0001
0001
0100
0001
0010
0100
1000
0001
,
0100
0100
0010
0100
0001
1000
0100
1000
,
0010
0010
0100
0001
1000
0100
0010
0000
,
0001
0011
0000
0000
0100
0000
0010
0000
,
1000
1010
0000
0000
0100
0000
0010
0000
,
0011
1010
1100
0101
,
0001
0010
1000
0010
0001
0100
0010
1000
,
1002
2003
3020
0000
,
0230
0000
0302
2003
,
3200
0000
0020
0330
,
2000
0100
0001
3010
,
0200
0001
1000
0310
,
1000
1000
0010
0010
0100
0100
0001
0001
,
0010
0100
1000
0010
0100
0001
1000
0001
,
1000
0010
1000
0000
0001
0000
0010
0000
0100
1000
0100
0000
0010
0000
0001
0000
,
2002
0000
0000
3003
,
1000
0000
0001
0000
0100
0000
0010
1000
0010
0000
0100
0000
0001
0000
1000
0000
,
0100
0000
0010
0000
0001
0000
0100
0010
0100
0000
0001
1000
0001
0000
0010
0001
,
0010
0000
0100
0000
1000
0000
0001
0100
0001
0000
0010
0000
0100
0000
1000
0000
,
0001
0000
0100
0010
0100
0000
0001
0010
0001
0000
1000
0000
1001
0000
0000
0000
,
0001
0000
1000
0000
0010
0000
0100
0001
0100
0000
0010
0000
1000
0000
0001
0010
,
0001
0000
0010
0000
0100
0000
1000
0001
1000
0000
0010
0100
0010
0000
1000
0100
,
1000
0000
0001
0000
0100
0000
0010
1000
0010
0000
0100
0000
0001
0000
1000
0100
,
1000
0000
0001
0100
0001
0000
0100
0010
0100
0000
0100
0000
1001
0000
0000
0000
,
0001
0000
0010
0000
0100
0000
1000
0001
1000
0000
0010
0000
0100
0001
0100
0000
,
0001
0000
1000
0100
1000
0000
0001
0000
0010
0100
0010
0000
0001
0000
0001
0000
,
1000
0000
0001
0100
0001
0000
0010
0000
0100
0010
0100
0000
0010
0000
0001
0000
,
1000
0000
0010
0100
0010
0000
1000
0000
0001
0000
0001
0000
1000
0000
1000
0000
,
0001
0000
0010
0000
0100
0000
1000
0001
1000
0000
0010
0000
0100
0000
0001
1000
,
0001
0000
0100
0000
0001
0000
0010
0100
1000
0000
0100
0000
1000
0000
0001
0000
,
0101
1100
0011
1010
,
0110
0000
1001
0000
1001
0001
1001
0000
,
1000
0000
0010
0000
0100
0000
0010
1000
0001
0000
1000
0000
0100
0000
0010
0001
,
1000
0001
0010
0001
2000
3020
0230
0302
,
1003
0000
0001
0000
0010
0000
0100
1000
0001
0000
0100
0000
0001
0000
1000
0100
,
0010
0001
1000
0010
0200
0302
2003
3002
,
0103
0100
0001
0000
1000
0001
0010
0010
,
0100
0000
0100
0000
1000
0000
0000
0000
0010
0000
0000
0010
0000
0000
0100
0000
,
0110
0001
1000
0000
0110
1000
0001
0000
,
1000
0100
0001
1000
0010
0001
1001
0000
,
0001
0010
0100
2000
0000
3010
1000
0001
,
1000
0100
0010
0002
0000
0103
0001
0010
,
0001
0100
0010
2000
0000
3001
2000
0002
,
0000
0000
0000
0000
0000
3003
0000
0000
0000
0000
0000
0000
0000
0000
0000
0000
0000
0000
0000
0000
0000
0000
0000
0000
0000
0000
0000
0000
0000
0000
0000
0000
;

//--------------- dance-single - Fred-104† ----------------
#NOTEDATA:;
#STEPSTYPE:dance-single;
#DESCRIPTION:Fred-104†;
#DIFFICULTY:Challenge;
#METER:17;
#CREDIT:Fred-104;
#NOTES:
0000
0000
0000
0000
,
0000
0000
0000
0000
,
0000
0000
0000
0000
,
0000
0000
0000
0000
,
0000
0000
0000
0000
,
1000
1000
1000
1000
,
0001
0001
0001
0001
,
1000
0100
0010
0001
1000
0100
0010
0001
,
1000
0010
0100
0001
0010
0100
1000
0010
0100
0000
0010
0000
0110
0000
0000
0000
,
0001
0010
0100
1000
0001
0000
0100
0010
1000
0001
0100
0001
1000
0100
0010
0001
,
1000
0010
1000
0000
0100
1000
0001
0000
0100
0001
1000
0100
0010
0001
0010
0000
,
0100
1000
0010
0100
0010
1000
0100
0010
0001
1000
0010
0000
0001
0010
0100
0010
,
1000
0000
0000
0000
0000
0000
0001
0000
0000
0010
0000
0000
0100
0000
0000
1000
0000
0000
0001
0000
0000
0000
1000
0000
0001
0000
0000
0000
1000
0000
0100
0000
0000
0000
1000
0000
0001
0000
0000
0000
0100
0000
0010
0000
0000
0000
0000
0000
,
1000
0001
0010
0000
0100
0010
0001
1000
0001
0100
1000
0000
0001
0010
1000
0000
,
0100
0000
0010
0001
1000
0010
0100
0000
1000
0100
0001
1000
0100
0010
0001
0000
,
1000
0100
0010
0000
1000
0010
0100
0000
1000
0001
0100
0010
1000
0100
0010
0001
,
2000
0000
0000
0010
0000
0000
3002
0000
0000
0100
0000
0000
1003
0000
0001
0010
0000
0100
0010
0000
0001
1000
0000
0000
,
0020
0030
0000
0000
0000
0000
0000
0000
0020
0030
0000
0000
0000
0000
0000
0000
0001
0000
0000
0000
1000
0000
0000
0000
0010
0000
0000
0000
0000
0000
0000
0000
0100
0000
0000
0000
0010
0000
0000
0000
1000
0000
0000
0000
0100
0000
0000
0000
0010
0000
0000
0000
0001
0000
0000
0000
1000
0000
0000
0000
0001
0000
0000
0000
,
0020
0030
0000
0000
0000
0000
0000
0000
0020
0030
0000
0000
0000
0000
0000
0000
1000
0000
0000
0000
0001
0000
0000
0000
0010
0000
0000
0000
0100
0000
0000
0000
1000
0000
0000
0000
0010
0000
0000
0000
0100
0000
0000
0000
0010
0000
0000
0000
1000
0000
0000
0000
0001
0000
0000
0000
0010
0000
0000
0000
0001
0000
0000
0000
,
0200
0300
0000
0000
0000
0000
0000
0000
0200
0300
0000
0000
0000
0000
0000
0000
1000
0000
0000
0000
0010
0000
0000
0000
0100
0000
0000
0000
0001
0000
0000
0000
1000
0000
0000
0000
0100
0000
0000
0000
0010
0000
0000
0000
0001
0000
0000
0000
0100
0000
0000
0000
0001
0000
0000
0000
1000
0000
0000
0000
0001
0000
0000
0000
,
0200
0000
0000
0300
0000
0000
0000
0000
0000
0000
0000
0000
0000
0000
0000
0000
0000
0000
0000
0000
0000
0000
0000
0000
0200
0000
0000
0300
0000
0000
0000
0000
0000
0000
0000
0000
0000
0000
0000
0000
0000
0000
0000
0000
0000
0000
0000
0000
1000
0000
0000
0000
0000
0000
0000
0000
0000
0000
0000
0000
0010
0000
0000
0000
0000
0000
0000
0000
0000
0000
0000
0000
0100
0000
0000
0000
0000
0000
0000
0000
0000
0000
0000
0000
0001
0000
0000
0000
0000
0000
0000
0000
0000
0000
0000
0000
1000
0000
0000
0000
0000
0000
0000
0000
0000
0000
0000
0000
0000
0000
0000
0000
1000
0000
0000
0000
0000
0000
0000
0000
0100
0000
0000
0000
0000
0000
0000
0000
0000
0000
0000
0000
0000
0000
0000
0000
0100
0000
0000
0000
0000
0000
0000
0000
0010
0000
0000
0000
0000
0000
0000
0000
0000
0000
0000
0000
0000
0000
0000
0000
0010
0000
0000
0000
0000
0000
0000
0000
0001
0000
0000
0000
0000
0000
0000
0000
0000
0000
0000
0000
0000
0000
0000
0000
0000
0000
0000
0000
0000
0000
0000
0000
,
1100
0101
0000
0000
2000
3000
0002
0003
,
1010
0011
0000
0000
0002
0003
2000
3000
,
0001
0010
0100
2000
0000
0000
3010
0100
0001
2000
0000
0000
3001
0100
0010
2000
0000
0000
3100
0010
0001
2000
0000
0000
,
3001
0010
0001
0010
0001
0010
0100
1000
0100
1000
0100
1000
0001
0100
0010
1000
0010
0100
0001
1000
0001
1000
0000
0000
,
2001
0000
3200
0320
0032
0000
0203
2300
,
0000
0000
0000
3002
0023
2030
3200
0320
,
0230
0000
0000
0000
0000
0000
0000
0000
0000
0302
0000
0000
0203
0000
0000
0000
0000
0000
1300
0000
0000
0001
0010
0100
,
1000
0000
0001
0010
0200
0000
1000
0310
0200
0000
0001
0310
0200
0000
1000
0310
,
0100
0000
0001
0100
0020
0000
1000
0130
0020
0000
0001
0130
0020
0000
1000
0130
,
0010
0010
0001
0001
1000
1000
0010
0010
,
0100
0001
1000
0100
0010
0001
0100
0010
1000
0001
0010
0100
0010
0001
0100
0010
,
1000
0001
0010
0100
1000
0010
0100
0001
0010
0100
0010
0001
0100
0010
1000
0100
,
0020
0000
0000
0130
,
0110
0000
0001
1000
0010
0000
0100
0001
1000
0100
0010
0001
0100
0010
1000
0001
,
0010
1000
0002
0000
0103
1000
0002
0000
1003
0010
0100
0001
0010
0001
0100
0010
,
1000
0001
0020
0000
1030
0010
0200
0000
0310
0001
1000
0100
0010
0001
0100
0010
,
0200
0000
0000
0000
0000
0000
0301
0000
0000
0100
0000
0000
0010
0000
0000
1000
0000
0000
0001
0000
0000
0010
0000
0000
0100
0000
0000
0000
0100
0000
0010
0000
0000
0000
0010
0000
0002
0000
0000
0000
0000
0000
0000
0000
0000
0000
0000
0000
,
1003
0100
0020
0000
1030
0010
0001
1000
0010
0100
0001
0010
0100
0010
0001
1000
,
0001
0100
0020
0000
0031
1000
0200
0000
0310
1000
0001
0100
0010
1000
0200
0000
,
0310
0001
1000
0001
0100
0010
2000
0000
3001
0010
0100
0010
0001
0100
0010
0100
,
0001
0010
0100
1000
0010
0100
0001
1000
1100
0000
0011
0000
2002
0000
3003
0000
,
0110
0000
0001
0010
0200
0000
1300
0010
0100
0010
0001
1000
0100
0001
2000
0000
,
3002
0000
0000
0000
0000
0000
0000
0000
0013
0000
0000
0000
1000
0000
0000
0000
0010
0000
0000
0000
0001
0000
0000
0000
1000
0000
0000
0000
0000
0000
0000
0000
0100
0000
0000
0000
0010
0000
0000
0000
0001
0000
0000
0000
0000
0000
0000
0000
0200
0300
0000
0000
0000
0000
0000
0000
0200
0300
0000
0000
0000
0000
0000
0000
,
1000
0000
0001
1000
0100
0000
0001
0100
0010
0100
1000
0010
0100
0001
0100
0000
,
1000
0000
0100
0010
0100
0001
1000
0001
0011
0000
1100
0000
1001
0000
0110
0000
,
1001
0000
0001
0010
0200
0000
1000
0310
0200
0000
0001
0310
0100
1000
0010
0100
,
0001
0000
1000
0100
0020
0000
0001
0130
0010
1000
0100
0010
0001
0100
0010
1000
,
2100
0000
0000
3001
0000
0000
0102
0000
0000
1003
0000
0010
2010
0000
0000
3001
0000
0000
0012
0000
0000
1003
0000
0001
,
2001
0000
0000
3100
0000
0000
1002
0000
0000
0013
0000
0000
1000
0000
0100
0010
0000
0001
2000
0000
0000
0000
0000
0000
,
3001
0100
0010
0000
0100
0001
0010
0100
1000
0010
1000
0100
0010
0001
1000
0010
,
0200
0000
0010
0000
1000
0000
0301
1000
0010
0100
0001
1000
0100
1000
0010
0100
,
0001
0000
1000
0000
0101
0000
1000
0100
0010
0001
1000
0010
0100
0010
1000
0001
,
0020
0000
0000
0000
0000
0000
1000
0000
0000
0000
0000
0000
0100
0000
0000
0000
0000
0000
0031
0000
0000
1000
0000
0000
0100
0000
0000
0000
0100
0000
0010
0000
0000
0000
0010
0000
0001
0000
0000
0000
0000
0000
1000
0000
0000
0000
0000
0000
,
1100
0000
0000
0101
0000
0000
1001
0000
0000
1000
0000
0100
0010
0000
0010
0001
0000
0001
1000
0000
1000
0010
0000
0010
,
0110
0000
0000
0000
0000
0000
0101
0000
0000
0000
0000
0000
1001
0000
0000
0000
0000
0000
1000
0000
0000
0000
0001
0000
0011
0000
0000
0000
0000
0000
1000
0000
0000
0010
0000
0000
0000
0000
0000
0001
0000
0000
0010
0000
0000
0000
0000
0000
,
1010
0000
0000
0101
0000
0000
1000
0100
1000
0100
0010
0001
0010
0000
0000
0011
0000
0000
0001
0100
0001
0100
0010
1000
,
0001
0000
0000
1100
0000
0000
0001
0000
0000
1010
0000
0000
0001
0000
0010
0100
0000
1000
0010
0000
0100
0001
0000
0000
,
1000
0010
0100
2000
0000
3001
0010
0100
,
0001
0010
0100
0002
0000
1003
0010
0100
,
1000
0000
0000
0010
0000
0000
0001
0000
0000
2000
0000
0000
0000
0000
0000
3100
0000
0000
0001
0000
2000
0002
0000
0000
,
0000
0000
0000
0000
0000
3003
0000
0000
0000
0000
0000
0000
0000
0000
0000
0000
0000
0000
0000
0000
0000
0000
0000
0000
0000
0000
0000
0000
0000
0000
0000
0000
;

//--------------- dance-double - Fred-104 ----------------
#NOTEDATA:;
#STEPSTYPE:dance-double;
#DESCRIPTION:Fred-104;
#DIFFICULTY:Easy;
#METER:5;
#CREDIT:Fred-104;
#NOTES:
00000000
00000000
00000000
00000000
,
00000000
00000000
00000000
00000000
,
00000000
00000000
00000000
00000000
,
00000000
00000000
00000000
00000000
,
00000000
00000000
00000000
00000000
,
00020000
00030000
00002000
00003000
,
00020000
00030000
00002000
00003000
,
00010000
00010000
00001000
00001000
,
00010000
00000000
00001000
00000000
00010000
00001000
00010000
00000000
,
00011000
00000000
00010000
00000000
,
00001000
00000100
00000001
00001000
,
00000100
00000000
00000010
00000000
,
00000001
00001000
00000010
00000100
,
00001000
00000000
00010000
00000000
,
00001000
01000000
00010000
00100000
,
01000000
00000000
10000000
00000000
,
00100000
10000000
01000000
00100000
,
00001000
00001000
00000000
00000000
00010000
00000000
00000100
00000000
,
00001000
00001000
00000000
00000000
00000001
00000000
00000010
00000000
,
00000100
00000100
00000000
00000000
00010000
00000000
00001000
00000000
,
01000000
01000000
00000000
00000000
00010000
00000000
00100000
00000000
,
01100000
00000000
10000000
00010000
,
01100000
00000000
10000000
01000000
,
01100000
00001000
00011000
00010000
,
00000100
00001000
00000001
00001000
,
00001002
00000000
00000000
00000000
,
00002003
00000000
00000000
00000000
,
00003002
00000000
00002003
00000000
,
00003001
00000001
00000100
00000100
,
00001000
00001000
00010000
00010000
,
00100000
00100000
10000000
10000000
,
01000000
01000000
00010000
00010000
,
00001000
00000010
00000001
00001000
,
00002002
00000000
00000000
00003003
,
00001001
00000000
00000001
00000000
,
00000010
00000100
00010000
00001000
,
01000000
00000000
00010000
00000000
,
00100000
01000000
10000000
00010000
,
01000000
00000000
00100000
00000000
,
10000000
01000000
00010000
00001000
,
00010000
00000000
00000100
00000000
,
00000010
00000001
00001000
00000010
,
00010000
00000000
00000000
00001000
00000000
00000000
01000000
00000000
,
00000000
00010000
00000000
00000000
00100000
00000000
01000000
00000000
,
10000000
00000000
00000000
00100000
00000000
00000000
00010000
00000000
,
00000000
00100000
00000000
00000000
00010000
00000000
00001000
00000000
,
00010000
00000000
00000000
00000010
00000000
00000000
00001000
00000000
,
00000000
00000100
00000000
00000000
00000010
00000000
00000001
00000000
,
00001001
00000000
00000110
00000000
,
00001001
00000000
00000001
00001000
,
00000001
00000100
00000001
00000100
,
00001000
00010000
00001000
00000000
,
01000000
00010000
01000000
00010000
,
00100000
01000000
10000000
00000000
,
10010000
00000000
01100000
00000000
,
10010000
00000000
10000000
01000000
,
01100000
00000000
00011000
00000000
,
00000110
00000001
00000110
00001000
,
00002002
00000000
00000000
00000000
,
00000000
00000000
00000000
00000000
,
00000000
00000000
00000000
00000000
,
00000000
00000000
00000000
00000000
00000000
00003003
00000000
00000000
00000000
00000000
00000000
00000000
00000000
00000000
00000000
00000000
00000000
00000000
00000000
00000000
00000000
00000000
00000000
00000000
00000000
00000000
00000000
00000000
00000000
00000000
00000000
00000000
;

//--------------- dance-double - Fred-104 ----------------
#NOTEDATA:;
#STEPSTYPE:dance-double;
#DESCRIPTION:Fred-104;
#DIFFICULTY:Medium;
#METER:9;
#CREDIT:Fred-104;
#NOTES:
00000000
00000000
00000000
00000000
,
00000000
00000000
00000000
00000000
,
00000000
00000000
00000000
00000000
,
00000000
00000000
00000000
00000000
,
00000000
00000000
00000000
00000000
,
00000001
00000100
00000010
00010000
,
00001000
01000000
00100000
10000000
,
00010000
00100000
01000000
00000000
10000000
00100000
01000000
00000000
,
00100000
00010000
00001000
00000100
00000001
00001000
00000100
00000000
,
00000110
00000000
00000001
00000000
00001000
00000010
00000100
00000000
,
00000001
00000100
00001000
00000000
00010000
00001000
00010000
00000000
,
00001000
00100000
00010000
00000000
00100000
01000000
10000000
00000000
,
00100000
01000000
00010000
00000000
10000000
01000000
00010000
01000000
,
10000000
00000000
00010000
00000000
00100000
01000000
00010000
00000000
,
00001000
00010000
00000100
00000000
00001000
00000001
00000100
00000000
,
00000010
00001000
00000001
00000000
00000100
00000010
00000100
00000000
,
00001000
00010000
00100000
00000000
01000000
00010000
00100000
00000000
,
01000000
01000000
01000000
00000000
10000000
00000000
00100000
00000000
,
00010000
00010000
00010000
00000000
00001000
00000000
00000010
00000000
,
00000001
00000001
00000001
00000000
00001000
00000000
00000010
00000000
,
00000100
00000100
00000100
00000000
00001000
00000000
00010000
00000000
,
00001000
00010000
00000000
00000000
01000000
00000000
00100000
00000000
,
00001000
00010000
00000000
00000000
00100000
00000000
01000000
00000000
,
01010000
11000000
00110000
10100000
,
10000000
01000000
00010000
00000000
00001000
00010000
00001000
00000000
,
00012000
00000000
00023000
00000000
,
02030000
00000000
23000000
00000000
,
30020000
00000000
00130000
01000000
,
10000000
10000000
00100000
00100000
,
00010000
00010000
00001000
00001000
,
00000010
00000001
00000010
00000001
00000010
00000001
00000100
00000000
,
00000100
00001000
00000100
00001000
00010000
00001000
00010000
00000000
,
00010000
00100000
00010000
00100000
10000000
00100000
10000000
01000000
,
20020000
00000000
00000000
30030000
,
10000000
00000000
01000000
00000000
00010000
00001000
00010000
00000000
,
00001000
00000000
00000010
00000000
00000001
00001000
00000001
00000000
,
00000100
00000000
00001000
00000000
00010000
00001000
00010000
00000000
,
00100000
00000000
10000000
00000000
00010000
10000000
00010000
00000000
,
10000000
00000000
00100000
00000000
00010000
00001000
00010000
00000000
,
00001000
00000000
00000100
00000000
00000001
00001000
00000001
00000000
,
00000010
00000000
00001000
00000000
00010000
00001000
00010000
00000000
,
01000000
00000000
10000000
00000000
00010000
10000000
00010000
00000000
,
10000000
01000000
00000000
00010000
00001000
00000000
00010000
00100000
,
00000000
00010000
00001000
00000000
00000100
00000001
00001000
00000000
,
00000001
00000010
00000000
00001000
00010000
00000000
00001000
00000100
,
00000000
00001000
00010000
00000000
00100000
10000000
00010000
00000000
,
00100000
01000000
00000000
10000000
01000000
00000000
00100000
01000000
,
00000000
00010000
00001000
00000000
00000010
00000100
00001000
00000000
,
00000101
00001000
00010100
00001000
,
01010000
00000000
10000000
00000000
01000000
01000000
10010000
00000000
,
10000000
01000000
00010000
01000000
10000000
01000000
00100000
00000000
,
00001000
00010000
00100000
00010000
00001000
00010000
00001000
00000000
,
00010000
00001000
00000010
00001000
00010000
00001000
00000100
00000000
,
00000001
00001000
00000100
00000001
00000100
00001000
00000001
00000000
,
00000100
00000100
00000100
00000000
00001000
00010000
00001000
00000000
,
00010000
00000000
00010000
00000000
00010000
00000000
00000000
00000000
00100000
00000000
00000000
10000000
00000000
00000000
01000000
00000000
,
01100000
00001000
00010010
00001000
,
00010000
00001000
00000100
00000001
00001000
00000010
00000100
00001000
,
00020000
00000000
00000000
00032000
00000000
00000000
02003000
00000000
,
03020000
00000000
00000000
20030000
00000000
00000000
30200000
00000000
,
00320000
00000000
00000000
00032000
00000000
00000000
00020000
00000000
,
00000000
00000000
00000000
00000000
00000000
00033000
00000000
00000000
00000000
00000000
00000000
00000000
00000000
00000000
00000000
00000000
00000000
00000000
00000000
00000000
00000000
00000000
00000000
00000000
00000000
00000000
00000000
00000000
00000000
00000000
00000000
00000000
;

//--------------- dance-double - Fred-104 ----------------
#NOTEDATA:;
#STEPSTYPE:dance-double;
#DESCRIPTION:Fred-104;
#DIFFICULTY:Hard;
#METER:12;
#CREDIT:Fred-104;
#NOTES:
00000000
00000000
00000000
00000000
,
00000000
00000000
00000000
00000000
,
00000000
00000000
00000000
00000000
,
00000000
00000000
00000000
00000000
,
00000000
00000000
00000000
00000000
,
00010000
00010000
00010000
00010000
,
00001000
00001000
00001000
00001000
,
00010000
00001000
00000010
00000100
00000010
00000001
00001000
00000001
,
00000100
00001000
00010000
01000000
10000000
10000000
10010000
00000000
,
00010000
01000000
00010000
00100000
01000000
10000000
00100000
10000000
,
00010000
00100000
01000000
00010000
00001000
00000010
00000100
00001000
,
00000001
00001000
00000010
00001000
00000100
00000010
00000100
00010000
,
01000000
00100000
00010000
10000000
00100000
00100000
00010000
00010000
,
00001000
00010000
00001000
01000000
00010000
00000100
00000010
00001000
,
00000001
00000010
00000100
00001000
00000010
00000100
00001000
00010000
,
00001000
00100000
00010000
10000000
00100000
01000000
00010000
00100000
,
01000000
00010000
00001000
00000100
00000001
00000010
00000110
00000000
,
00001000
00001000
00000001
00000100
00001000
00010000
00001000
00000000
,
00010000
00010000
00001000
01000000
00010000
00100000
01000000
00000000
,
10000000
10000000
00100000
00010000
00001000
00010000
00000010
00000000
,
00001000
00001000
00000100
00000001
00000100
00001000
00000001
00000000
,
00000100
00000110
00000000
00000000
00010000
00000000
00001000
00000000
,
00100000
01100000
00000000
00000000
00010000
00000000
10000000
00000000
,
10000000
01000000
10000000
00000000
00010000
01000000
00010000
00000000
10000000
00100000
10000000
00000000
00010000
00100000
00010000
00000000
,
10000000
00100000
00010000
00001000
00000010
00000001
00001000
00000001
,
00000201
00000320
00002030
00000000
,
00003002
00000000
00000023
00002030
,
00023000
00000000
00000000
00000000
00230000
00000000
10300000
00010000
,
00200000
10000000
01000000
00310000
,
20000000
00100000
00010000
31000000
,
10000000
10000000
01000000
01000000
00010000
00010000
00001000
00001000
,
00000100
00000100
00000001
00000001
00000010
00000010
00000100
00000100
,
00001000
00000001
00001000
00000000
00000010
00000100
00000010
00000000
00001000
00000100
00001000
00000000
00000100
00010000
00000100
00000000
,
00022000
00000000
00000000
00033000
,
00001000
00000000
00010000
00000000
01000000
00000000
10000000
00010000
10000000
00000000
00100000
00000000
01000000
00000000
00010000
10000000
,
00010000
00000000
00100000
00000000
01000000
00000000
10000000
00000000
00100000
00000000
00010000
00001000
00010000
00000000
00000100
00000000
,
00001000
00000000
00000100
00000000
00000010
00000000
00000001
00001000
00000001
00000000
00000100
00000000
00000010
00000000
00000100
00000000
,
00001000
00000000
00010000
00001000
00010000
00000000
00001000
01000000
00001000
00000000
00010000
00000000
00011000
00000000
00000000
00000000
,
00010000
00000000
00001000
00000000
00000010
00000000
00000100
00000010
00000100
00000000
00001000
00000000
00000001
00000000
00000100
00000001
,
00000100
00000000
00000010
00000000
00001000
00000000
00000100
00000000
00000010
00000000
00001000
00010000
00001000
00000000
00100000
00000000
,
00010000
00000000
10000000
00100000
10000000
00000000
00010000
00000000
10000000
00000000
01000000
00100000
01000000
00000000
00010000
00000000
,
00001000
00000000
00010000
00000010
00010000
00000000
00000100
00001000
00000100
00000000
00010000
00000000
00011000
00000000
00000000
00000000
,
00010000
00001000
00000010
00000100
00001000
00000010
00000100
00001000
,
00010000
00100000
01000000
00010000
00100000
01000000
00010000
00001000
,
00100000
00001000
00000100
00000010
00001000
00000100
00000010
00001000
,
00010000
01000000
00100000
00010000
01000000
00100000
00010000
00001000
,
00010000
00000100
00000010
00000001
00001000
00000010
00000100
00001000
,
00010000
00100000
01000000
10000000
01000000
00010000
10000000
01000000
,
01100000
00011000
00000110
00001001
,
00000110
00000000
00011000
00000000
01100000
01000000
10010000
00000000
,
00010000
00000000
00100000
00000000
00010000
00000000
10000000
00100000
10000000
00000000
01000000
00000000
00100000
00000000
00001000
00010000
,
00001000
00010000
00001000
00000100
00000020
00002030
00003200
00000320
,
00000031
00000000
00001000
00000000
00000010
00000000
00000100
00001000
00000100
00000000
00001000
00000000
00010000
00000000
00100000
01000000
,
00100000
10000000
00010000
10000000
02000000
03020000
00032000
00003200
,
00000301
00000001
00000010
00000000
00000100
00010000
00001000
00001000
,
00010000
00000000
00010000
00000000
00100000
00000000
00000000
00000000
01000000
00000000
00000000
00010000
00000000
00000000
10000000
00000000
,
01100000
00010000
10000000
00000000
01100000
10000000
00010000
00000000
,
10000000
01000000
00010000
00001000
00000010
00000001
00001000
00001000
,
00000001
00000010
00000100
00002000
00000000
00013000
00100000
01000000
,
10000000
00100000
01000000
00020000
00000000
00031000
00000010
00000100
,
00000001
00000010
00001000
00020000
00000000
01030000
20000000
00020000
,
00000000
00000000
00000000
00000000
00000000
30030000
00000000
00000000
00000000
00000000
00000000
00000000
00000000
00000000
00000000
00000000
00000000
00000000
00000000
00000000
00000000
00000000
00000000
00000000
00000000
00000000
00000000
00000000
00000000
00000000
00000000
00000000
;

//--------------- dance-double - Fred-104† ----------------
#NOTEDATA:;
#STEPSTYPE:dance-double;
#DESCRIPTION:Fred-104†;
#DIFFICULTY:Challenge;
#METER:17;
#CREDIT:Fred-104;
#NOTES:
00000000
00000000
00000000
00000000
,
00000000
00000000
00000000
00000000
,
00000000
00000000
00000000
00000000
,
00000000
00000000
00000000
00000000
,
00000000
00000000
00000000
00000000
,
00001000
00001000
00010000
00010000
,
00001000
00001000
00010000
00010000
,
00001000
00100000
00010000
10000000
00100000
01000000
00001000
00010000
,
00000100
00001000
00000100
00000010
00000001
00000100
00000010
00000100
00001000
00000000
00010000
00000000
00011000
00000000
00000000
00000000
,
00001000
00100000
00010000
00100000
01000000
00000000
10000000
00100000
01000000
00100000
10000000
01000000
00100000
00010000
10000000
00000000
,
00100000
01000000
00100000
00010000
00001000
00000000
00010000
00000000
00001000
00010000
00000100
00001000
00000010
00010000
00001000
00000000
,
00000100
00000000
00000001
00001000
00000100
00000010
00000001
00001000
00000002
00000000
00000100
00000000
00002003
00000000
00000010
00000000
,
00003001
00000000
00000000
00000000
00000000
00000000
00001000
00000000
00000000
00000001
00000000
00000000
00001000
00000000
00000000
00000000
00000000
00000000
00000001
00000000
00000000
00000000
00000010
00000000
00000100
00000000
00000000
00000000
00001000
00000000
00000100
00000000
00000000
00000000
00010000
00000000
00001000
00000000
00000000
00000000
00010000
00000000
00001000
00000000
00000000
00000000
00000000
00000000
,
01000000
00010000
01000000
00000000
00010000
00100000
01000000
00100000
00010000
10000000
00100000
00000000
00010000
10000000
01000000
00000000
,
00010000
00000000
10000000
00100000
01000000
00100000
00010000
00000000
00001000
00000100
00000010
00001000
00000100
00000010
00000001
00000000
,
00001000
00000010
00000001
00000000
00001000
00000100
00000001
00000000
00001000
00000010
00000100
00001000
00010000
00100000
01000000
00100000
,
20000000
00000000
00000000
00100000
00000000
00000000
30020000
00000000
00000000
01000000
00000000
00000000
10030000
00000000
10000000
01000000
00000000
01000000
00100000
00000000
00100000
00001000
00000000
00000000
,
00020000
00030000
00000000
00000000
00000000
00000000
00000000
00000000
00020000
00030000
00000000
00000000
00000000
00000000
00000000
00000000
10000000
00000000
00000000
00000000
00100000
00000000
00000000
00000000
01000000
00000000
00000000
00000000
00000000
00000000
00000000
00000000
00100000
00000000
00000000
00000000
00010000
00000000
00000000
00000000
00001000
00000000
00000000
00000000
00000100
00000000
00000000
00000000
00000010
00000000
00000000
00000000
00001000
00000000
00000000
00000000
00000001
00000000
00000000
00000000
00001000
00000000
00000000
00000000
,
00000200
00000300
00000000
00000000
00000000
00000000
00000000
00000000
00000200
00000300
00000000
00000000
00000000
00000000
00000000
00000000
00000001
00000000
00000000
00000000
00000010
00000000
00000000
00000000
00000100
00000000
00000000
00000000
00000000
00000000
00000000
00000000
00000010
00000000
00000000
00000000
00001000
00000000
00000000
00000000
00010000
00000000
00000000
00000000
01000000
00000000
00000000
00000000
00100000
00000000
00000000
00000000
01000000
00000000
00000000
00000000
10000000
00000000
00000000
00000000
00010000
00000000
00000000
00000000
,
02000000
03000000
00000000
00000000
00000000
00000000
00000000
00000000
02000000
03000000
00000000
00000000
00000000
00000000
00000000
00000000
10000000
00000000
00000000
00000000
00100000
00000000
00000000
00000000
10000000
00000000
00000000
00000000
01000000
00000000
00000000
00000000
00100000
00000000
00000000
00000000
00010000
00000000
00000000
00000000
00100000
00000000
00000000
00000000
00001000
00000000
00000000
00000000
00010000
00000000
00000000
00000000
00001000
00000000
00000000
00000000
00000100
00000000
00000000
00000000
00000001
00000000
00000000
00000000
,
00000020
00000000
00000000
00000030
00000000
00000000
00000000
00000000
00000000
00000000
00000000
00000000
00000000
00000000
00000000
00000000
00000000
00000000
00000000
00000000
00000000
00000000
00000000
00000000
00000020
00000000
00000000
00000030
00000000
00000000
00000000
00000000
00000000
00000000
00000000
00000000
00000000
00000000
00000000
00000000
00000000
00000000
00000000
00000000
00000000
00000000
00000000
00000000
00001000
00000000
00000000
00000000
00000000
00000000
00000000
00000000
00000000
00000000
00000000
00000000
00000001
00000000
00000000
00000000
00000000
00000000
00000000
00000000
00000000
00000000
00000000
00000000
00000010
00000000
00000000
00000000
00000000
00000000
00000000
00000000
00000000
00000000
00000000
00000000
00000100
00000000
00000000
00000000
00000000
00000000
00000000
00000000
00000000
00000000
00000000
00000000
00010000
00000000
00000000
00000000
00000000
00000000
00000000
00000000
00000000
00000000
00000000
00000000
00000000
00000000
00000000
00000000
00010000
00000000
00000000
00000000
00000000
00000000
00000000
00000000
00001000
00000000
00000000
00000000
00000000
00000000
00000000
00000000
00000000
00000000
00000000
00000000
00000000
00000000
00000000
00000000
00001000
00000000
00000000
00000000
00000000
00000000
00000000
00000000
00010000
00000000
00000000
00000000
00000000
00000000
00000000
00000000
00000000
00000000
00000000
00000000
00000000
00000000
00000000
00000000
00010000
00000000
00000000
00000000
00000000
00000000
00000000
00000000
00001000
00000000
00000000
00000000
00000000
00000000
00000000
00000000
00000000
00000000
00000000
00000000
00000000
00000000
00000000
00000000
00000000
00000000
00000000
00000000
00000000
00000000
00000000
00000000
,
00011000
01001000
00000000
00000000
00002000
00013000
00020000
00030000
,
00011000
00010010
00000000
00000000
00020000
00031000
00002000
00003000
,
00010000
00001000
00000200
00000000
00000301
00001000
00000200
00000000
00000310
00000001
00000200
00000000
00001300
00010000
00200000
00000000
,
01300000
00000000
00010000
00000000
01000000
00000000
00010000
00000000
01000000
00000000
00010000
00000000
10000000
00000000
01000000
00000000
10000000
00000000
01000000
00000000
10000000
00000000
01000000
00000000
00100000
00000000
00010000
00000000
00100000
00000000
01000000
00000000
10000000
00000000
00010000
00000000
01000000
00000000
00000000
00100000
00000000
00000000
01000000
00000000
00000000
00000000
00000000
00000000
,
10020000
00000000
20030000
32000000
03020000
00000000
00032000
00023000
,
00000000
00000000
00000000
00032000
00003020
00000032
00000203
00002300
,
00023000
00000000
00000000
00000000
00000000
00000000
00032000
00000000
00023000
00000000
00000000
00000000
00031000
00000000
00010000
00100000
,
01000000
00000000
00010000
00100000
02000000
00000000
10000000
03100000
02000000
00000000
00010000
03100000
02000000
00000000
10000000
03100000
,
01000000
00000000
00100000
00010000
00002000
00000000
00010000
00003100
00002000
00000000
00000100
00013000
00002000
00000000
00010000
00003100
,
00001000
00001000
00000010
00000010
00000100
00000100
00000001
00000001
,
00001000
00000001
00000010
00000100
00001000
00000100
00001000
00000100
00010000
00001000
00100000
00010000
00100000
01000000
10000000
01000000
,
10000000
00010000
01000000
00010000
10000000
01000000
00100000
00010000
00100000
00001000
00010000
00000010
00001000
00000001
00000010
00000100
,
00020000
00000000
00000000
00031000
,
00011000
00000000
00010000
00000100
00001000
00000000
00000010
00001000
00000010
00000100
00000001
00001000
00000100
00010000
00001000
00000000
,
01000000
00010000
00200000
00000000
01000000
10300000
00200000
00000000
01000000
00310000
00100000
00010000
00100000
01000000
00010000
00001000
,
00010000
00000100
00002000
00000000
00003100
00010000
00002000
00000000
00013000
00000100
00000010
00000001
00001000
00000100
00000010
00000001
,
00000200
00000000
00000000
00000000
00000000
00000000
00000301
00000000
00000000
00000100
00000000
00000000
00000010
00000000
00000000
00000100
00000000
00000000
00001000
00000000
00000000
00010000
00000000
00000000
00001000
00000000
00000000
00000000
00001000
00000000
00010000
00000000
00000000
00000000
00010000
00000000
00002000
00000000
00000000
00000000
00000000
00000000
00000000
00000000
00000000
00000000
00000000
00000000
,
00013000
00001000
00100000
00000000
00010000
01000000
00100000
10000000
00100000
10000000
01000000
00100000
00010000
00100000
00001000
00000000
,
00020000
00000000
00031000
00000010
00000200
00000000
00000310
00000001
00001000
00000100
00000010
00000001
00000100
00000010
00002000
00000000
,
00003002
00000000
00000103
00000010
00000200
00000000
00001300
00010000
00200000
00000000
01300000
00010000
10000000
01000000
00100000
00001000
,
00010000
00000100
00001000
00000001
00000100
00000010
00000100
00001000
00010000
00000000
00011000
00000000
02002000
00000000
03003000
00000000
,
01010000
00000000
10000000
01000000
00200000
00000000
00310000
01000000
00100000
00010000
00001000
00010000
00000010
00001000
00000020
00000000
,
00000230
00000000
00000000
00000000
00000000
00000000
00000000
00000000
00000301
00000000
00000000
00000000
00000010
00000000
00000000
00000000
00000100
00000000
00000000
00000000
00000000
00000000
00000000
00000000
00010000
00000000
00000000
00000000
00000000
00000000
00000000
00000000
00001000
00000000
00000000
00000000
00010000
00000000
00000000
00000000
00100000
00000000
00000000
00000000
00000000
00000000
00000000
00000000
02000000
03000000
00000000
00000000
00000000
00000000
00000000
00000000
02000000
03000000
00000000
00000000
00000000
00000000
00000000
00000000
,
10000000
00000000
00100000
01000000
00010000
00000000
00100000
00001000
00010000
00000010
00001000
00000000
00000010
00010000
00001000
00000000
,
00010000
00000000
00001000
00000100
00000010
00001000
00000100
00000010
00000001
00000000
00000101
00000000
00000110
00000000
00001010
00000000
,
00001001
00000000
00000001
00000100
00000020
00000000
00001000
00000130
00000020
00000000
00000001
00000130
00000010
00000100
00001000
00010000
,
00001000
00000000
00100000
00001000
00020000
00000000
00001000
00130000
00010000
10000000
00010000
01000000
00100000
00010000
00001000
00000000
,
00021000
00000000
00000000
01030000
00000000
00000000
00012000
00000000
00000000
00003100
00000000
00010000
00021000
00000000
00000000
00130000
00000000
00000000
00012000
00000000
00000000
00003010
00000000
00010000
,
00021000
00000000
00000000
00031000
00000000
00000000
00012000
00000000
00000000
00013000
00000000
00000000
00001000
00000000
00010000
00001000
00000000
00010000
00002000
00000000
00000000
00000000
00000000
00000000
,
00013000
00001000
00010000
00000000
00001000
00000010
00000100
00001000
00000010
00000100
00001000
00010000
00100000
01000000
00010000
00000000
,
00001000
00000000
00000010
00000000
00000100
00000000
00001000
00100000
00010000
01000000
00010000
00100000
01000000
00010000
00001000
00010000
,
00001000
00000000
00010000
00000000
00010010
00000000
00000010
00010000
00001000
01000000
00010000
00100000
01000000
00010000
00001000
00010000
,
00000010
00000000
00000000
00000000
00000000
00000000
00001000
00000000
00000000
00000000
00000000
00000000
00000010
00000000
00000000
00000000
00000000
00000000
00010000
00000000
00000000
00001000
00000000
00000000
00010000
00000000
00000000
00000000
00010000
00000000
00000100
00000000
00000000
00000000
00000100
00000000
00002000
00000000
00000000
00000000
00000000
00000000
00003000
00000000
00000000
00000000
00000000
00000000
,
00001100
00000000
00000000
00000011
00000000
00000000
00001001
00000000
00000000
00000001
00000000
00000001
00000100
00000000
00000100
00001000
00000000
00001000
00010000
00000000
00010000
00001000
00000000
00000000
,
00011000
00000000
00000000
00000000
00000000
00000000
00101000
00000000
00000000
00000000
00000000
00000000
00110000
00000000
00000000
00000000
00000000
00000000
00010000
00000000
00000000
00000000
01000000
00000000
00100000
00000000
00000000
00000000
00000000
00000000
10000000
00000000
00000000
01000000
00000000
00000000
00000000
00000000
00000000
00010000
00000000
00000000
01000000
00000000
00000000
00000000
00000000
00000000
,
11000000
00000000
00000000
01100000
00000000
00000000
00100000
00010000
00100000
00001000
00010000
00001000
00010000
00000000
00000000
00011000
00000000
00000000
00010000
00000100
00001000
00000100
00000010
00000001
,
00001000
00000000
00000000
00000101
00000000
00000000
00001000
00000000
00000000
00000011
00000000
00000000
00001000
00000000
00001000
00000001
00000000
00000001
00000100
00000000
00000100
00001000
00000000
00000000
,
00010000
00001000
00000010
00000200
00000000
00001300
00000010
00000100
,
00001000
00010000
00100000
02000000
00000000
03001000
00100000
01000000
,
00010000
00001000
01000000
00020000
00000000
00030100
00000020
00002000
,
00000000
00000000
00000000
00000000
00000000
00003030
00000000
00000000
00000000
00000000
00000000
00000000
00000000
00000000
00000000
00000000
00000000
00000000
00000000
00000000
00000000
00000000
00000000
00000000
00000000
00000000
00000000
00000000
00000000
00000000
00000000
00000000
;
