#TITLE:milky ice bear;
#ARTIST:S-C-U;
#BANNER:milky ice bear.png;
#BACKGROUND:milky ice bear-bg.png;
#CDTITLE:./CDTitles/RB colette -Winter-.png;
#MUSIC:milky ice bear.ogg;
#SAMPLESTART:70.201;
#SAMPLELENGTH:15;
#DISPLAYBPM:147;
#BPMS:0=147.1,4=147;
#STAGE:3;

//--------------- dance-single - Fred-104 ----------------
#NOTES:
     dance-single:
     Fred-104:
     Beginner:
     1:
     :
0000
0000
0000
0000
,
0000
0000
0000
0000
,
0000
0000
0000
0000
,
0000
0000
0000
0000
,
0000
0000
0000
0000
,
0000
0000
0000
0000
,
0000
0000
0000
0000
,
0000
0000
0000
0000
,
0000
0000
0000
0000
,
1000
0000
0000
0000
,
0001
0000
0000
0000
,
1000
0000
0000
0000
,
0001
0000
0000
0000
,
1000
0000
0000
0000
,
1000
0000
0000
0000
,
0001
0000
0000
0000
,
0001
0000
0000
0000
,
1000
0000
0000
0000
,
0001
0000
0000
0000
,
1000
0000
0000
0000
,
1000
0000
0000
0000
,
1000
0000
1000
0000
,
0001
0000
0001
0000
,
1000
0000
1000
0000
,
2000
0000
0000
3000
,
1000
0000
0000
0000
,
0010
0000
0000
0000
,
0100
0000
0000
0000
,
0001
0000
0000
0000
,
1000
0000
0000
0000
,
0001
0000
0000
0000
,
1000
0000
0000
0000
,
0002
0000
0000
0003
,
0001
0000
0000
0000
,
1000
0000
0000
0000
,
0001
0000
0000
0000
,
1000
0000
0000
0000
,
0010
0000
0000
0000
,
0100
0000
0000
0000
,
0001
0000
0000
0000
,
1000
0000
0000
0000
,
0001
0000
0000
0000
,
2002
0000
3003
0000
,
1000
0000
0000
0000
,
0010
0000
0000
0000
,
1000
0000
0000
0000
,
0001
0000
0000
0000
,
1000
0000
0000
0000
,
0100
0000
0000
0000
,
0010
0000
0000
0000
,
0002
0000
0003
0000
,
1000
0000
0000
0000
,
0001
0000
0000
0000
,
1000
0000
0000
0000
,
0001
0000
0000
0000
,
1000
0000
0000
0000
,
0001
0000
0000
0000
,
1000
0000
0000
0000
,
0002
0000
0000
0003
,
0001
0000
0000
0000
,
0001
0000
0000
0000
,
1000
0000
0000
0000
,
1000
0000
0000
0000
,
0001
0000
0000
0000
,
0001
0000
0000
0000
,
2000
0000
3000
0000
,
1000
0000
0000
2002
,
0000
0000
0000
0000
,
3003
0000
0000
0000
;

//--------------- dance-single - Fred-104 ----------------
#NOTES:
     dance-single:
     Fred-104:
     Easy:
     6:
     :
0000
0000
0000
0000
,
0000
0000
0000
0000
,
0000
0000
0000
0000
,
0000
0000
0000
0000
,
0000
0000
0000
0000
,
0000
0000
0000
0000
,
0000
0000
0000
0000
,
0000
0000
0000
0000
,
0000
0000
0000
0000
,
1000
0000
0010
0000
,
1000
0000
0001
0000
,
1000
0000
0100
0000
,
1000
0010
1000
0100
,
1000
0000
0100
0000
,
0100
0000
0001
0000
,
0001
0000
0010
0000
,
0220
0000
0330
0000
,
2000
0000
3200
0000
,
0320
0000
0032
0000
,
2003
0000
3002
0000
,
2003
3200
0320
0032
,
1003
1000
0000
0010
,
0000
0001
0000
0001
,
0000
0100
0000
1000
,
2002
0000
0000
3003
,
1000
1000
0100
1000
,
0001
0001
0010
0000
,
0001
0000
0100
0000
,
0001
1000
0100
0000
,
1000
0010
1000
1000
,
0001
0010
0100
0000
,
0010
0000
0001
0000
,
0001
1000
0010
0000
,
1001
0000
1000
0000
,
0100
0010
0001
0010
,
0001
0000
0100
0000
,
0001
0100
0010
1000
,
0001
0000
1000
0000
,
0001
0100
0010
1000
,
0001
0000
1000
0000
,
0001
1000
0010
0100
,
0001
1000
0100
0010
,
0022
0000
0000
0033
,
0001
0100
0010
1000
,
0010
0100
0010
0100
,
0001
1000
0001
0010
,
0100
0000
1000
0000
0001
1000
0001
0000
,
1000
0010
0100
0010
,
1000
0100
1000
0100
,
0001
0010
0001
0010
,
2000
0000
3002
0000
1003
0001
1000
0000
,
0010
1000
0001
0010
,
0001
0000
1000
0000
0010
0100
0010
0000
,
0100
0001
0100
0001
,
0010
0000
0100
0000
1000
0010
0100
0000
,
0010
1000
0010
0100
,
0001
0000
0100
0000
0001
0010
0001
0000
,
0100
0000
0001
0000
1000
0001
1000
0000
,
0002
0023
2030
3200
,
0301
0000
0010
0000
0001
0000
1000
0001
,
1000
0000
0001
0000
0100
0000
0010
0100
,
0010
0000
1000
0000
0001
0000
1000
0001
,
2000
3200
0302
0023
,
1030
0000
0100
0000
1000
0000
0001
1000
,
0001
0000
1000
0000
0100
0000
0010
0001
,
0010
0000
0001
0000
0100
0000
0010
1000
,
0001
0000
1000
0000
0001
0000
0000
2002
,
0000
0000
0000
0000
,
3003
0000
0000
0000
;

//--------------- dance-single - Fred-104 ----------------
#NOTES:
     dance-single:
     Fred-104:
     Medium:
     10:
     :
0000
0000
0000
0000
,
0000
0000
0000
0000
,
0000
0000
0000
0000
,
0000
0000
0000
0000
,
0000
0000
0000
0000
,
0000
0000
0000
0000
,
0000
0000
0000
0000
,
0000
0000
0000
0000
,
0000
0000
0000
0000
,
0001
0000
1000
0000
0010
0000
0000
1000
0000
0000
0001
0000
0100
0000
0000
0000
,
0001
0000
0010
0000
0100
0000
0000
0010
0000
0000
0001
0000
1000
0000
0000
0000
,
0001
0000
0010
0000
0100
0000
0000
0001
0000
0000
0100
0000
1000
0000
0000
0000
,
0001
0000
1000
0000
0100
0000
0000
1000
0000
0000
0010
0000
0100
0000
0001
0000
,
1000
0000
0010
0000
1000
0000
0000
0100
0000
0000
0010
0000
0001
0000
0000
0000
,
1000
0000
0010
0000
0001
0000
0000
1000
0000
0000
0100
0000
0001
0000
0000
0000
,
1000
0001
0100
0010
0100
0001
1000
0001
,
0000
1000
0100
1000
0001
0010
0001
1000
,
0001
0000
0000
0001
0000
0000
0001
0000
0100
0000
0000
0100
0000
0000
0100
0000
,
1000
0000
0000
1000
0000
0000
1000
0000
0010
0000
0000
0010
0000
0000
0010
0000
,
0001
0000
0000
0001
0000
0000
1000
0000
0010
0000
0000
0010
0000
0000
0100
0000
,
0002
0023
2030
3200
,
0301
0101
1000
1100
,
0001
0011
1000
1010
,
0001
0110
1000
0110
,
0001
0000
0000
0101
0000
0000
1000
0000
0000
1010
0000
0000
1001
0000
0000
0000
,
1000
0000
0100
0000
1000
0000
0001
0000
0010
0000
0000
0010
0000
0000
0010
0000
,
0100
0000
0010
0000
0001
0000
1000
0000
0001
0000
0000
0001
0000
0000
0001
0000
,
0200
0010
1000
0301
,
1000
0000
0100
0000
0001
0000
0100
0000
1000
0000
0000
1000
0000
0000
1000
0000
,
0001
0000
0010
0000
0001
0000
0100
0000
0010
0000
0000
0010
0000
0000
0010
0000
,
1000
0000
0100
0000
0001
0000
0100
0000
1000
0000
0000
1000
0000
0000
1000
0000
,
0020
1000
0001
0130
,
0001
0100
0010
2000
0000
3001
1000
0000
,
0001
0000
0000
0000
1000
0000
0000
0001
0000
0000
0100
0000
0010
0000
0000
0000
,
1000
0000
0000
0000
0100
0000
0000
0010
0000
0000
0100
0000
1000
0000
0000
0000
,
0001
0000
0000
0000
0100
0000
0000
0010
0000
0000
0100
0000
0001
0000
0000
0000
,
0100
0001
1000
0000
0010
1000
0001
0000
,
1000
0000
0100
0000
1000
0010
0100
0000
,
0001
0000
0100
0000
0001
0010
0100
0000
,
1000
0000
0010
0000
0001
0100
1000
0000
,
0001
0000
0100
0000
1000
0010
0001
0000
,
1000
0100
0001
0000
0100
1000
0010
0220
,
0000
0000
0000
0330
,
1000
0000
0001
0000
1000
0000
0000
0000
0010
0000
0000
0100
0000
0000
0010
0000
,
0000
0000
1000
0000
0010
0000
0000
0000
0100
0000
0000
0001
0000
0000
1000
0000
,
0000
0001
0010
0000
0100
1000
0010
0000
,
0100
0010
1000
0020
0000
0100
0130
0000
,
0001
0000
0100
0000
0010
0000
0000
0000
0100
0000
0000
0001
0000
0000
1000
0000
,
0000
0010
1000
0000
0001
0100
0001
0000
,
1000
0100
0001
0000
0100
1000
0010
0000
,
0200
0302
2003
3200
,
0310
0000
0001
0000
1000
0000
0010
0000
1000
0000
0000
0010
0000
0000
0100
0000
,
0000
0000
0001
0000
0002
0000
0000
0000
1003
0000
0000
0100
0000
0000
0010
0000
,
0000
0100
1000
0000
0001
0100
1000
0000
,
0100
0010
1000
0200
0000
0010
0310
0000
,
0001
0000
1000
0000
0001
0000
0000
0000
0100
0000
0000
0010
0000
0000
0200
0000
,
0000
0001
0301
0000
0010
0001
1000
0000
,
0001
0100
0010
0000
1000
0100
0001
0000
,
0200
2300
3020
0230
,
0301
0100
0010
0100
0001
1000
0100
0000
,
0010
0001
0100
0001
1000
0001
0100
0000
,
0010
0100
0001
1000
0010
0100
0010
0000
,
1000
0000
0001
0000
0010
0000
0000
0001
0000
0000
0100
0000
0010
0000
0100
0000
,
0001
1000
0100
1000
0001
1000
0100
0000
,
0010
0001
1000
0001
0100
0001
0010
0000
,
0100
1000
0001
0100
0010
1000
0001
0000
,
1000
0000
0000
0000
0010
0000
0000
0100
0000
0000
0001
0000
0002
0000
2000
0000
,
0000
0000
0000
0000
,
3003
0000
0000
0000
;

//--------------- dance-single - Fred-104 ----------------
#NOTES:
     dance-single:
     Fred-104:
     Hard:
     14:
     :
0000
0000
0000
0000
,
0000
0000
0000
0000
,
0000
0000
0000
0000
,
0000
0000
0000
0000
,
0000
0000
0000
0000
,
0000
0000
0000
0000
,
0000
0000
0000
0000
,
0000
0000
0000
0000
,
0000
0000
0000
0000
,
1000
0000
0001
0000
1000
0000
0010
1000
0000
0010
1000
0000
0100
0000
1000
0000
,
0001
0000
0010
0000
0001
0000
0100
0001
0000
0010
0001
0000
1000
0000
0001
0000
,
0100
0000
0010
0000
1000
0000
0010
0100
0000
0010
1000
0000
0001
0000
2000
0000
,
0000
0000
3010
0000
0001
0000
0010
0100
0000
0001
1000
0010
1000
0000
0001
1000
,
0001
0000
0010
0000
0100
0000
0010
0001
0000
1000
0001
0000
0010
0000
0100
0000
,
1000
0000
0001
0000
0100
0000
0010
1000
0000
0010
0100
0000
0001
0000
0100
0000
,
0001
0000
0010
0000
0100
0000
1000
0010
0000
0100
0001
0000
0100
0000
0010
0000
,
0000
0000
1000
0000
0001
1000
0000
1000
0000
0010
0000
0000
0100
0000
0001
0000
,
1000
0000
0000
1000
0000
0000
0100
0000
0001
0000
0000
0001
0000
0000
0100
0000
,
1000
0000
0000
1000
0000
0000
0010
0000
0001
0000
0000
0001
0000
0000
0010
0000
,
1000
0000
0000
0100
0000
0000
0001
0000
1000
0000
0000
0010
0000
0000
0001
0000
,
2000
3200
0302
0023
,
1030
0000
0000
1000
0100
0000
0010
0000
0001
0000
0000
0001
0100
0000
0010
0000
,
1000
0000
0000
1000
0100
0000
1000
0000
0010
0000
0000
0010
0100
0000
0001
0000
,
1000
0000
0000
0100
0001
0000
0100
0000
1000
0000
0000
0010
0001
0000
0010
0000
,
1010
0000
0000
0011
0000
0000
1100
0000
0000
0101
0000
0000
1001
0000
0000
0000
,
0001
0000
1000
0000
0010
1000
0000
1000
0100
0000
0100
0010
0000
0010
0001
0000
,
1000
0000
0100
0000
1000
0000
0001
0000
0100
0000
0000
0100
0000
0000
0100
0000
,
0001
0000
0100
0010
0100
0000
0001
0000
1000
0000
0100
0010
0100
0000
1000
0000
,
0001
0000
0100
0000
0010
0000
1000
0000
1100
0000
0000
0101
0000
0000
1001
0000
,
1000
0000
0010
0000
0100
0010
0000
1000
0100
0000
0010
0001
0000
1000
0001
0000
,
1000
0000
0100
0000
0001
0000
0100
0000
1000
0000
0000
0010
0000
0000
0100
0000
,
0001
0000
0100
0010
0100
0000
0001
0000
1000
0000
0100
0010
0100
0000
1000
0000
,
0001
0000
0010
0000
0001
0000
1000
0100
1000
0100
1000
0000
0010
0000
0100
0000
,
0000
0000
0001
0000
0010
0000
0001
0100
0000
0001
0100
0000
0010
0000
1000
0000
,
0001
0000
1000
0000
0001
0000
0100
0010
0000
0100
0010
0000
1000
0000
0100
0000
,
0000
0000
1000
0000
0010
0000
0100
0001
0000
0100
0001
0000
1000
0000
0010
0000
,
0100
0000
0001
0000
1000
0000
0100
0010
0000
0001
0100
0000
0001
0100
0010
1000
,
0001
0000
1000
0000
0100
0000
0010
0001
0000
1000
0010
0000
0100
0000
0010
0000
,
1000
0000
0001
0000
1000
0000
0100
0001
0000
0100
1000
0000
0001
0000
0100
0000
,
0010
0000
1000
0000
0100
0000
1000
0100
0000
0010
1000
0000
0010
0000
0100
0000
,
1000
0000
0001
0000
0100
0000
0010
0001
0000
0010
0100
0000
0001
0000
1000
0000
,
0001
0000
0100
0000
0001
0000
1000
0010
0000
0100
0001
0000
1000
0000
0001
0000
,
0000
0000
1000
0000
1010
0000
0000
0101
0000
1100
0000
0000
0011
0000
0000
0000
,
0001
0000
1000
0100
1000
0000
0010
0000
1000
0010
0000
0100
0001
0000
0200
0000
,
0000
0000
1300
0000
0100
0000
0000
0000
0001
0010
0000
0100
1000
0000
0001
0000
,
0100
0000
0010
0000
0100
0000
0001
0010
0000
0100
0001
0000
0100
0000
1000
0000
,
0001
0000
0100
0000
0010
0000
2000
0000
0000
0000
3100
0010
0001
0000
1000
0000
,
0001
0000
1000
0100
1000
0000
0001
0000
1000
0100
0000
0010
0001
0000
0100
0000
,
0000
0001
1000
0000
0001
0000
0100
0010
0000
0001
0010
0000
1000
0000
0001
0000
,
0100
0000
0010
0000
0100
0000
0001
0100
0000
0010
1000
0000
0001
0000
0100
0000
,
0002
0023
0230
2300
3002
0203
0320
2030
,
3001
0000
1000
0010
0100
0000
1000
0000
0100
0001
0000
1000
0001
0000
0200
0000
,
0000
0000
0301
0000
1000
0000
0000
0000
0001
0010
0000
0100
1000
0000
0001
0000
,
1000
0000
0010
0000
0100
0000
0010
0001
0000
0010
1000
0000
0001
0000
1000
0000
,
0001
0000
0010
0000
0100
0000
0020
0000
0000
0000
0031
1000
0001
0000
0100
0000
,
0010
0000
1000
0000
0002
0000
0000
0000
1003
0100
0000
0010
0001
0000
1000
0000
,
0000
0001
0100
0000
1000
0000
0100
0010
0000
1000
0100
0000
0010
0000
0001
0000
,
1000
0000
0010
0000
0100
0000
0001
0100
0000
0010
0100
0000
0001
0000
1000
0000
,
0001
0000
0010
0000
0001
0000
1000
0100
0000
0010
0001
1000
0010
0100
0001
1000
,
0001
0000
0010
0000
0100
0000
1000
0100
0000
0010
0100
0000
1000
0000
0001
0000
,
0100
0000
0001
0000
0100
0000
0010
1000
0000
0010
1000
0000
0100
0000
0010
0000
,
0001
0000
0100
0000
0001
0000
0100
0010
0000
1000
0100
0000
0010
0000
0002
0000
,
0000
0000
1003
0000
0100
0000
0001
0100
0000
1000
0001
0000
1000
0000
0010
0100
,
0001
0000
1000
0000
0001
0000
0010
0100
0000
0010
0001
1000
0001
0000
0100
0000
,
0010
0000
1000
0000
0100
0000
0010
0001
0000
0100
0010
0001
0010
0000
1000
0000
,
0001
0000
0100
0000
1000
0000
0100
0010
0000
1000
0100
0010
0001
0000
1000
0000
,
0002
2003
3200
0302
2003
3020
0032
2000
,
0000
0000
0000
0000
,
3003
0000
0000
0000
;

//--------------- dance-single - Fred-104 ----------------
#NOTES:
     dance-single:
     Fred-104:
     Challenge:
     16:
     :
0000
0000
0000
0000
,
0000
0000
0000
0000
,
0000
0000
0000
0000
,
0000
0000
0000
0000
,
0000
0000
0000
0000
,
0000
0000
0000
0000
,
0000
0000
0000
0000
,
0000
0000
0000
0000
,
0000
0000
0001
0000
0100
0000
0001
0010
0000
0100
1000
0010
0100
0001
1000
0100
,
0010
0000
0001
0000
1000
0000
0001
0100
0000
1000
0100
0000
0001
0000
1000
0000
,
0001
0000
0010
0000
0100
0000
0001
0100
0000
1000
0001
0000
0100
0000
0010
0000
,
1000
0000
0100
0000
0010
0000
0001
0100
0000
0010
0001
0000
0010
0000
1000
0000
,
0001
0000
0100
0000
1000
0000
0100
0010
0000
1000
0100
0010
0001
0000
0100
0001
,
0010
0000
0100
0000
1000
0000
0100
0010
0000
1000
0010
0000
0100
0000
1000
0000
,
0001
0000
0100
0000
0010
0000
0001
0010
0000
0100
0001
0000
1000
0000
0010
0000
,
0001
0000
0010
0000
0100
0000
0001
1000
0000
0001
0100
0000
0010
0000
1000
0000
,
0001
0000
0100
0000
0010
0000
0100
0001
0100
0001
0100
0000
0010
0000
1000
0000
,
0001
0000
0000
0001
0000
0000
0001
0000
0100
0000
0000
0100
0000
0000
0100
0000
,
0010
0000
0000
0010
0000
0000
0010
0000
1000
0000
0000
1000
0000
0000
1000
0000
,
0100
0000
0000
0100
0000
0000
0100
0000
0010
0000
0000
0010
0000
0000
0010
0000
,
0001
0000
0000
0100
0000
0000
1000
0000
0001
0000
0000
0010
0000
0000
1000
0000
,
0001
0010
0000
0001
0010
0000
0100
0000
1000
0010
0000
1000
0010
0000
0100
0000
,
0001
0010
0000
0100
1000
0000
0001
0000
1000
0010
0000
0100
0001
0000
1000
0000
,
0001
0100
0000
1000
0100
0000
0001
0000
1000
0100
0000
0001
0100
0000
1000
0000
,
1100
0000
0000
0011
0000
0000
1010
0000
0000
0101
0000
0000
2002
0000
3003
0000
,
1100
0000
1000
0000
0001
0100
0000
0100
1000
0000
0001
0010
0000
0010
1000
0000
,
0001
0000
0100
0010
0100
0000
0001
0000
0011
0000
0000
1010
0000
0000
0011
0000
,
0001
0000
0001
0100
0000
0100
1000
0000
0001
0000
0001
0010
0000
0010
1000
0000
,
0001
0000
0010
0100
1000
0000
0001
0000
1100
0000
0000
0110
0000
0000
1100
0000
,
1010
0000
1000
0000
0001
0010
0000
0010
1000
0000
0001
0100
0000
0100
1000
0000
,
0001
0000
1000
0010
1000
0000
0100
0000
0110
0000
0000
0011
0000
0000
1001
0000
,
0001
0000
0100
1000
0000
0100
0010
0000
1000
0000
0100
0001
0000
0100
0010
0000
,
0001
0000
1000
0000
0001
0000
0100
0010
0100
0010
0100
0000
0001
0000
1000
0001
,
0100
0000
0001
0000
0010
0000
0100
1000
0000
0010
0100
0000
1000
0000
0100
0000
,
0001
0000
1000
0000
0010
0000
0100
0001
0000
0010
0100
0000
0001
0000
0100
0000
,
1000
0000
0001
0000
0010
0000
1000
0010
0000
0001
0100
0000
0010
0000
1000
0000
,
0001
0000
0100
0000
1000
0000
0100
0001
0000
1000
0001
0000
1000
0100
0010
0001
,
1000
0000
0001
0000
1000
0000
0001
0010
0000
0010
1000
0000
0001
0000
1000
0000
,
0001
0000
1000
0000
0001
0000
1000
0100
0000
0100
0001
0000
1000
0000
0001
0000
,
1000
0000
0100
0000
0001
0000
1000
0010
0000
0001
1000
0000
0001
0000
1000
0000
,
0001
0000
0100
0000
1000
0000
0001
0010
0000
1000
0001
0000
1000
0000
0001
0000
,
1000
0000
0100
0000
0010
0000
0100
1000
0000
0010
1000
0001
0100
0000
0010
0000
,
0000
0000
0100
0000
0110
0000
0000
1010
0000
0101
0000
0000
1001
0000
0000
0000
,
1000
0000
0010
1000
0001
0000
1000
0000
0100
0010
0000
0010
0001
0000
0201
0000
,
0000
0000
0310
0000
0110
0000
0000
0000
0010
1000
0000
0001
1000
0000
0100
0000
,
1000
0000
0100
0000
0010
0000
1000
0010
0000
0100
1000
0000
0010
0000
0100
0000
,
0001
0000
0010
0000
1000
0000
0020
0000
0000
0000
0031
1000
0001
0000
0000
0000
,
1000
0000
0001
0100
0010
0000
1000
0000
0001
0010
0000
0010
0100
0000
1200
0000
,
0000
1300
0010
0000
0100
0000
0001
0100
0000
0010
0001
0000
0010
0000
0100
0000
,
0001
0000
1000
0000
0001
0000
0010
0100
0000
1000
0010
0000
0100
0000
0001
0000
,
1000
0000
0100
0000
1100
0000
1000
0010
0100
0001
1000
0000
0001
0000
0010
0100
,
1000
0000
0001
0100
1000
0000
0100
0000
0010
1000
0100
0010
0001
0000
0102
0000
,
0000
0000
0103
0010
1000
0000
0000
0000
0001
0010
0100
1000
0001
0000
1000
0000
,
0001
0000
0100
0000
1000
0000
0100
0001
0100
0001
0010
0000
0100
0000
1000
0000
,
0001
0000
1000
0000
0100
0000
2100
0000
0000
0000
3010
1000
0001
0100
0001
0000
,
1000
0000
0100
0010
0001
0000
0100
0000
1000
0100
1000
0100
0001
0000
0021
0000
,
0000
0130
1000
0000
0001
0000
1000
0010
0001
0010
0100
0000
0001
0000
1000
0000
,
0001
0000
0100
0000
1000
0000
0100
1000
0100
0010
1000
0000
0100
0010
0001
0000
,
1000
0000
0001
0000
1000
0000
0001
0010
0000
0100
0010
0001
1000
0001
0100
0010
,
1000
0000
0100
0000
1000
0000
0010
0100
0000
1000
0100
0010
1000
0000
0001
0000
,
1000
0000
0100
0000
0010
0000
0001
0100
0000
0010
0001
0010
0100
0000
0001
0000
,
1000
0000
0001
0000
1000
0000
0100
0001
0000
0100
1000
0010
1000
0000
0010
0000
,
1000
0000
0100
0000
0010
0000
0001
0100
0000
0010
0100
0001
1000
0000
0100
0010
,
0001
0000
0010
0000
1000
0000
0010
0001
0000
1000
0001
0100
0001
0000
0010
0000
,
0100
0000
1000
0000
0010
0000
0100
1000
0000
0100
0001
1000
0001
0000
1000
0000
,
0100
0000
0010
0000
0001
0000
0100
0010
0000
0001
0010
1000
0001
0000
1000
0000
,
0001
0000
0100
0000
1000
0000
0100
0001
0010
1000
0010
0000
0001
0000
2002
0000
,
0000
0000
0000
0000
,
3003
0000
0000
0000
;

//--------------- dance-double - Fred-104 ----------------
#NOTES:
     dance-double:
     Fred-104:
     Easy:
     5:
     :
00000000
00000000
00000000
00000000
,
00000000
00000000
00000000
00000000
,
00000000
00000000
00000000
00000000
,
00000000
00000000
00000000
00000000
,
00000000
00000000
00000000
00000000
,
00000000
00000000
00000000
00000000
,
00000000
00000000
00000000
00000000
,
00000000
00000000
00000000
00000000
,
00000000
00000000
00000000
00000000
,
00001000
00000000
00010000
00000000
,
00001000
00100000
00001000
00000000
,
00010000
00000000
00001000
00000000
,
00010000
00001000
00010000
00000000
,
00000100
00000000
00001000
00000000
,
00000010
00000100
00000010
00000000
,
00000100
00000001
00001000
00000000
,
00002002
00000000
00003003
00000000
,
00000002
00000000
00000203
00000000
,
00000320
00000000
00002030
00000000
,
00003200
00000000
00000320
00000000
,
00000032
00000203
00002300
00023000
,
00031000
00010000
00000000
00010000
,
00100000
10000000
00000000
10000000
,
01000000
00010000
00000000
00010000
,
00002000
00000000
00000000
00003000
,
00010000
00001000
00100000
00100000
,
00010000
01000000
00100000
00000000
,
10000000
00000000
01000000
00000000
,
00010000
00001000
00010000
00000000
,
00001000
00000100
00001000
00000100
,
00000001
00001000
00000001
00000000
,
00000100
00000000
00000010
00000000
,
00010000
00001000
00010000
00000000
,
00002000
00000000
00023000
00000000
,
00031000
00010000
00001000
00000000
,
02000000
00000000
03200000
00000000
,
01300000
00100000
01000000
00000000
,
00010000
10000000
01000000
00000000
,
00100000
00001000
00010000
00000000
,
00000100
00001000
00000010
00000000
,
00000100
00000010
00000100
00000000
,
00000001
00001000
00000001
00002002
,
00000000
00000000
00000000
00003003
,
00000001
00001000
00000001
00001000
,
00000010
00000100
00000010
00000000
,
00001000
00000100
00010000
00001000
,
00010000
00000100
00010000
00000000
,
00001000
00010000
00001000
01000000
,
00001000
00010000
00001000
00000000
,
00100000
00010000
10000000
00100000
,
02000000
03200000
20300000
32000000
,
13000000
01000000
00100000
00010000
,
01000000
00001000
00011000
00000000
,
00010000
00001000
00010000
00000010
,
00001000
00000100
00000110
00000000
,
00000010
00000001
00001000
00000001
,
00000100
00001000
00011000
00000000
,
00010000
01000000
10000000
00010000
,
02000000
03200000
20300000
30020000
,
10030000
01000000
10000000
01000000
,
00100000
01000000
10000000
00000000
,
00100000
01000000
00010000
01000000
,
00002000
00000000
00023000
00000000
,
00031000
00010000
00000100
00001000
,
00000001
00001000
00000100
00001000
,
00000010
00000100
00000001
00001000
,
00000010
00000000
00010000
00000000
00001000
00000000
00010000
00020000
,
00000000
00000000
00000000
00000000
,
00030000
00000000
00000000
00000000
;

//--------------- dance-double - Fred-104 ----------------
#NOTES:
     dance-double:
     Fred-104:
     Medium:
     10:
     :
00000000
00000000
00000000
00000000
,
00000000
00000000
00000000
00000000
,
00000000
00000000
00000000
00000000
,
00000000
00000000
00000000
00000000
,
00000000
00000000
00000000
00000000
,
00000000
00000000
00000000
00000000
,
00000000
00000000
00000000
00000000
,
00000000
00000000
00000000
00000000
,
00000000
00000000
00000000
00000000
,
10000000
00010000
10000000
00000000
00100000
01000000
00100000
00000000
,
01000000
00001000
00010000
00000000
00001000
00010000
00000100
00000000
,
00001000
00000010
00000100
00000000
00000001
00001000
00000010
00000000
,
00000100
00000000
00000001
00000000
00001000
00000001
00000100
00000010
,
00000100
00000000
00000001
00000000
00001000
00000000
00000000
00000010
00000000
00000000
00000100
00000000
00000001
00000000
00000000
00000000
,
00001000
00000000
00000001
00000000
00000010
00000000
00000000
00001000
00000000
00000000
00010000
00000000
00100000
00000000
00000000
00000000
,
10000000
00000000
00010000
00000000
01000000
00000000
00000000
00100000
00000000
00000000
10000000
00000000
01000000
00000000
00100000
00000000
,
00000000
00010000
01000000
00100000
00010000
00001000
00100000
00000000
,
00002000
00000000
00000000
00010000
00003000
00000000
00010000
00000000
00200000
00000000
00000000
00010000
00300000
00000000
00010000
00000000
,
02000000
00000000
00000000
00001000
03000000
00000000
00001000
00000000
00020000
00000000
00000000
00001000
00030000
00000000
00001000
00000000
,
00020000
00000000
00000000
00000100
00030000
00000000
00000100
00000000
00000020
00000000
00000000
00000100
00000030
00000000
00000100
00000000
,
00002000
00003020
00020030
00230000
,
00301000
00000000
00000000
00001000
00000000
00000000
00001000
00000000
01000000
00000000
00000000
01000000
00000000
00000000
01000000
00000000
,
00001000
00000000
00000000
00001000
00000000
00000000
00001000
00000000
00010000
00000000
00000000
00010000
00000000
00000000
00010000
00000000
,
00000010
00000000
00000000
00000010
00000000
00000000
00000010
00000000
00001000
00000000
00000000
00001000
00000000
00000000
00001000
00000000
,
00000001
00000000
00000000
00000010
00000000
00000000
00000100
00000000
00000000
00001000
00000000
00000000
00001001
00000000
00000000
00000000
,
00000001
00000000
00000100
00000000
00000001
00000000
00000000
00000000
00001000
00000000
00000000
00000001
00000000
00000000
00000100
00000000
,
00000010
00000000
00000100
00000000
00000010
00000000
00001000
00000000
00010000
00000000
00000000
00010000
00000000
00000000
00010000
00000000
,
00002000
00100000
00023000
00130000
,
00010000
00000000
10000000
00000000
00010000
00000000
00100000
00000000
01000000
00000000
00000000
01000000
00000000
00000000
01000000
00000000
,
00100000
00000000
00010000
00000000
10000000
00000000
00000000
00000000
01000000
00000000
00000000
00010000
00000000
00000000
00001000
00000000
,
00000100
00000000
00000001
00000000
00000010
00000000
00000001
00000000
00001000
00000000
00000000
00000001
00000000
00000000
00001000
00000000
,
00000020
00000130
00002000
00003001
,
00001000
00000010
00001000
00000200
00000000
00010000
00010300
00000000
,
00011000
00000000
00000000
00000000
00010000
00000000
00000000
00100000
00000000
00000000
01000000
00000000
00100000
00000000
00000000
00000000
,
00010000
00000000
10000000
00000000
01000000
00000000
00000000
00100000
00000000
00000000
01000000
00000000
10000000
00000000
00000000
00000000
,
00100000
00000000
00000000
00000000
01000000
00000000
00000000
00001000
00000000
00000000
00010000
00000000
00000100
00000000
00000000
00000000
,
00001000
00000000
00000010
00000000
00000100
00000000
00000000
00000001
00000000
00000000
00001000
00000000
00000001
00000000
00000000
00000000
,
00000100
00000010
00001000
00000000
00000001
00000010
00000100
00000000
,
00000010
00000001
00001000
00000000
00000100
00010000
00001000
00000000
,
00100000
00010000
01000000
00010000
00100000
00001000
00010000
00000000
,
00001000
00010000
00000010
00001000
00000100
00010000
00001000
00000000
,
00000010
00000000
00000001
00000000
00000100
00001000
00010000
00002000
,
00000000
00000000
00000000
00003000
,
00010000
00000000
00001000
00000000
00010000
00000000
00000000
00000000
00001000
00000000
00000000
00100000
00000000
00000000
00010000
00000000
,
00000000
00000000
01000000
00000000
01000000
00000000
00000000
00000000
00100000
00000000
00000000
01000000
00000000
00000000
00010000
00000000
,
00000000
10000000
01000000
00000000
00100000
00001000
00010000
00001000
,
00100000
00000000
00002000
00000000
00010000
00013000
00001000
00000000
,
00010000
00000000
00000010
00000000
00001000
00000000
00000000
00000000
00000001
00000000
00000000
00000100
00000000
00000000
00000010
00000000
,
00000000
00000000
00001000
00000000
00000001
00000000
00000000
00000100
00000000
00000000
00001000
00000000
00001000
00000000
00000000
00000000
,
00010000
01000000
10000000
00010000
10000000
00100000
01000000
00000000
,
00200000
20300000
32000000
03200000
,
00301000
00000000
00010000
00000000
00001000
00000000
00000000
00000000
00010000
00000000
00000000
00000100
00000000
00000000
00001000
00000000
,
00000000
00000000
00000010
00000000
00000010
00000000
00000000
00000000
00000100
00000000
00000000
00000001
00000000
00000000
00001000
00000000
,
00000000
00000001
00000001
00000000
00001000
00000001
00000100
00000000
,
00000010
00001000
00000100
00020000
00000000
00032000
00003000
00000000
,
00010000
00000000
00001000
00000000
00100000
00000000
00000000
00000000
00010000
00000000
00000000
01000000
00000000
00000000
00100000
00000000
,
00000000
00000000
01000000
00000000
00010000
00000000
00000000
00001000
00000000
00000000
00010000
00000000
00000100
00000000
00000010
00000000
,
00000001
00000000
00001000
00000000
00000100
00000010
00000001
00000100
,
00000020
00002030
00003200
00020300
,
00031000
01000000
00010000
00100000
00010000
10000000
01000000
00000000
,
00100000
00001000
00010000
00000100
00001000
00000001
00001000
00000000
,
00000100
00000010
00000001
00001000
00000010
00001000
00000001
00000000
,
00000200
00000000
00000320
00000000
00002030
00000000
00013000
00001000
,
00010000
00100000
01000000
00100000
00010000
10000000
00010000
00000000
,
01000000
00100000
10000000
01000000
00100000
00001000
00010000
00000000
,
00000100
00001000
00000001
00000010
00000100
00000010
00000001
00000100
,
00000000
00001000
00010000
01000000
10000000
00010000
10000000
00020000
,
00000000
00000000
00000000
00000000
,
00030000
00000000
00000000
00000000
;

//--------------- dance-double - Fred-104 ----------------
#NOTES:
     dance-double:
     Fred-104:
     Hard:
     14:
     :
00000000
00000000
00000000
00000000
,
00000000
00000000
00000000
00000000
,
00000000
00000000
00000000
00000000
,
00000000
00000000
00000000
00000000
,
00000000
00000000
00000000
00000000
,
00000000
00000000
00000000
00000000
,
00000000
00000000
00000000
00000000
,
00000000
00000000
00000000
00000000
,
00000000
00000000
00000000
00000000
,
00000001
00000000
00000100
00000000
00000001
00000000
00001000
00000001
00000000
00001000
00000001
00000000
00000010
00000000
00000100
00000000
,
00010000
00000000
00001000
00000000
00010000
00000000
00001000
01000000
00000000
00010000
01000000
00000000
00010000
00000000
01000000
00000000
,
00100000
00000000
01000000
00000000
00010000
00000000
01000000
00100000
00000000
01000000
00100000
00000000
10000000
00000000
00200000
00000000
,
00000000
00000000
01300000
00000000
00010000
00000000
00100000
00001000
00000000
00010000
00001000
00100000
00001000
00000000
00010000
00000000
,
00001000
00000000
00100000
00000000
00001000
00000000
00010000
00000010
00000000
00001000
00000010
00000000
00010000
00000000
00000100
00000000
,
00001000
00000000
00000100
00000000
00000010
00000000
00000001
00000100
00000000
00001000
00000100
00000000
00000010
00000000
00001000
00000000
,
00000100
00000000
00000010
00000000
00000001
00000000
00000100
00000010
00000000
00000100
00000001
00000000
00001000
00000000
00000001
00000000
,
00002000
00003002
00000203
00002300
00023000
00230000
20300000
30020000
,
10030000
00000000
00000000
01000000
00000000
00000000
00010000
00000000
00001000
00000000
00000000
00000010
00000000
00000000
00000001
00000000
,
00000001
00000000
00000000
00000100
00000000
00000000
00001000
00000000
00010000
00000000
00000000
00100000
00000000
00000000
10000000
00000000
,
10000000
00000000
00000000
01000000
00000000
00000000
00010000
00000000
00001000
00000000
00000000
00000010
00000000
00000000
00000001
00000000
,
00000002
00000203
00002300
00003020
,
00000031
00000000
00000000
00000100
00000001
00000000
00000010
00000000
00000100
00000000
00000000
00001000
00000100
00000000
00000010
00000000
,
00000100
00000000
00000000
00010000
00001000
00000000
00100000
00000000
01000000
00000000
00000000
10000000
00100000
00000000
01000000
00000000
,
00010000
00000000
00000000
10000000
01000000
00000000
00100000
00000000
00001000
00000000
00000000
00010000
00001000
00000000
00010000
00000000
,
00011000
00000000
00000000
00001010
00000000
00000000
00000011
00000000
00000000
00000101
00000000
00000000
00001001
00000000
00000000
00000000
,
00000001
00000000
00000100
00000000
00000001
00000010
00000000
00000001
00001000
00000000
00000001
00000010
00000000
00000001
00001000
00000000
,
00000001
00000000
00000100
00000000
00001000
00000000
00000100
00000000
00000001
00000000
00000000
00001000
00000000
00000000
00000001
00000000
,
00000010
00000000
00000000
00000100
00001000
00000000
00000001
00000000
00001000
00000000
00000001
00000000
00000010
00000000
00000100
00000000
,
00010000
00000000
00001000
00000000
00000100
00000000
00000001
00000000
00001000
00000000
00000000
00000001
00000000
00000000
00000100
00000000
,
00000001
00000000
00000010
00000000
00000000
00001000
00000000
00000100
00010000
00000000
00001000
00100000
00000000
00010000
01000000
00000000
,
00100000
00000000
01000000
00000000
00010000
00000000
10000000
00000000
00100000
00000000
00000000
01000000
00000000
00000000
00010000
00000000
,
10000000
00000000
00000000
01000000
00000000
00000000
00010000
00000000
00001000
00000000
00000000
00000010
00000000
00000000
00000001
00000000
,
00001000
00000000
00000010
00000000
00000100
00000000
00000001
00000100
00000010
00001000
00000001
00000000
00000100
00000000
00000000
00000000
,
00000001
00000000
00000010
00000000
00000100
00000000
00010000
00001000
00000000
00100000
00001000
00000000
00010000
00000000
00000100
00000000
,
00001000
00000000
00000001
00000000
00000100
00000000
00000010
00010000
00000000
00000010
00001000
00000000
00000100
00000000
00000010
00000000
,
00000001
00000000
00000100
00000000
00001000
00000000
00010000
01000000
00000000
10000000
00010000
00000000
10000000
00000000
00010000
00000000
,
01000000
00000000
00100000
00000000
10000000
00000000
01000000
00100000
00000000
00001000
00010000
00000000
00001000
00010000
00001000
00010000
,
00001000
00000000
01000000
00000000
00001000
00000000
00010000
00001000
00000000
00100000
01000000
00000000
00100000
00000000
00001000
00000000
,
00010000
00000000
00001000
00000000
01000000
00000000
00100000
00010000
00000000
00001000
00000100
00000000
00000010
00000000
00001000
00000000
,
00010000
00000000
01000000
00000000
00001000
00000000
00010000
00001000
00000000
00010000
00000100
00000000
00001000
00000000
00000001
00000000
,
00000010
00000000
00000100
00000000
00001000
00000000
00010000
00100000
00000000
01000000
10000000
00000000
00100000
00000000
00010000
00000000
,
00001000
00000000
00000100
00000000
00000001
00000000
00001000
00000001
00000000
00001000
00000100
00000000
00000010
00000000
00000001
00000000
,
00000000
00000000
00000100
00000000
00000010
00000000
00000000
00010010
00000000
00011000
00000000
00000000
00101000
00000000
00000000
00000000
,
00010000
00000000
01000000
00000000
00100000
00000000
10000000
00000000
00010000
01000000
00000000
00100000
01000000
00000000
00020000
00000000
,
00000000
00000000
00130000
00000000
00010000
00000000
00000000
00000000
00001000
00000100
00000000
00000001
00001000
00000000
00000001
00000000
,
00000100
00000000
00000010
00000000
00001000
00000000
00000001
00000100
00000000
00001000
00000100
00000000
00001000
00000000
00010000
00000000
,
00001000
00000000
00010000
00000000
01000000
00000000
20000000
00000000
00000000
00000000
30010000
10000000
00010000
00000000
01000000
00000000
,
00100000
00000000
10000000
00000000
00100000
00000000
00000000
00000000
00010000
00001000
00000000
00010000
00001000
00000000
00010000
00000000
,
00000000
00001000
00000010
00000000
00000001
00000000
00001000
00000001
00000000
00000010
00000100
00000000
00001000
00000000
00000001
00000000
,
00000100
00000000
00000010
00000000
00001000
00000000
00000001
00001000
00000000
00000100
00000010
00000000
00000001
00000000
00001000
00000000
,
00000002
00000023
00000230
00002300
00023000
00230000
02300000
23000000
,
30010000
00000000
01000000
00000000
00100000
00000000
01000000
00000000
00010000
10000000
00000000
01000000
10000000
00000000
00200000
00000000
,
00000000
00000000
01000000
00000000
01300000
00000000
00000000
00000000
00001000
00010000
00000000
00000100
00001000
00000000
00000010
00000000
,
00001000
00000001
00000100
00000000
00000010
00000000
00001000
00000100
00000000
00000010
00001000
00000000
00000010
00000000
00000001
00000000
,
00001000
00000000
00000001
00000000
00000100
00000000
00002000
00000000
00000000
00000000
00013000
00001000
00010000
00000000
01000000
00000000
,
10000000
00000000
00010000
00000000
01000000
00000000
00000000
00000000
00100000
10000000
00000000
00100000
01000000
00000000
00100000
00000000
,
00000000
01000000
00001000
00000000
00010000
00000000
00001000
00010000
00000000
00000100
00001000
00000000
00000010
00000000
00000100
00000000
,
00000001
00000000
00000010
00000000
00000100
00000000
00001000
00000100
00000000
00010000
00001000
00000000
00010000
00000000
00000100
00000000
,
00010000
00000000
00001000
00000000
00100000
00000000
00010000
10000000
00000000
01000000
00100000
10000000
00010000
01000000
00100000
01000000
,
00010000
00000000
01000000
00000000
00100000
00000000
01000000
00010000
00000000
00100000
00001000
00000000
00010000
00000000
00000010
00000000
,
00001000
00000000
00000100
00000000
00010000
00000000
00001000
00000100
00000000
00000010
00001000
00000000
00010000
00000000
01000000
00000000
,
00100000
00000000
00001000
00000000
00010000
00000000
00000100
00000010
00000000
00001000
00000010
00000000
00000100
00000000
00000020
00000000
,
00000000
00000000
00001030
00000000
00000100
00000000
00010000
00001000
00000000
00010000
00001000
00000000
00100000
00000000
00010000
01000000
,
00010000
00000000
00100000
00000000
01000000
00000000
00100000
00010000
00000000
00001000
00010000
00001000
00010000
00000000
00001000
00000000
,
00000100
00000000
00000010
00000000
00000100
00000000
00001000
00000010
00000000
00010000
00000100
00001000
00000010
00000000
00010000
00000000
,
00001000
00000000
01000000
00000000
00010000
00000000
00100000
00001000
00000000
00100000
00010000
01000000
00100000
00000000
00001000
00000000
,
00020000
00032000
00003020
00000032
00000203
00002300
00023000
00002000
,
00000000
00000000
00000000
00000000
,
00033000
00000000
00000000
00000000
;

//--------------- dance-double - Fred-104 ----------------
#NOTES:
     dance-double:
     Fred-104:
     Challenge:
     16:
     :
00000000
00000000
00000000
00000000
,
00000000
00000000
00000000
00000000
,
00000000
00000000
00000000
00000000
,
00000000
00000000
00000000
00000000
,
00000000
00000000
00000000
00000000
,
00000000
00000000
00000000
00000000
,
00000000
00000000
00000000
00000000
,
00000000
00000000
00000000
00000000
,
00000000
00000000
00010000
00000000
00001000
00000000
01000000
00100000
00000000
01000000
00010000
10000000
01000000
00010000
00001000
00000010
,
00000001
00000000
00001000
00000000
00000001
00000000
00000100
00001000
00000000
00000100
00000001
00000000
00000010
00000000
00001000
00000000
,
00010000
00000000
01000000
00000000
10000000
00000000
00010000
01000000
00000000
00100000
10000000
00000000
00010000
00000000
00100000
00000000
,
10000000
00000000
00100000
00000000
00010000
00000000
10000000
01000000
00000000
00100000
00001000
00000000
00010000
00000000
00100000
00000000
,
10000000
00000000
01000000
00000000
00100000
00000000
00001000
00010000
00000000
00000100
00010000
00000100
00001000
00000000
00000100
00000010
,
00000001
00000000
00001000
00000000
00000100
00000000
00000010
00000001
00000000
00000100
00000010
00000000
00000001
00000000
00000010
00000000
,
00001000
00000000
00000001
00000000
00000010
00000000
00001000
00010000
00000000
01000000
10000000
00000000
00010000
00000000
01000000
00000000
,
00100000
00000000
10000000
00000000
00100000
00000000
00010000
00001000
00000000
00000100
00000001
00000000
00001000
00000000
00000100
00000000
,
00000001
00000010
00001000
00010000
01000000
10000000
00100000
00010000
,
00001000
00000000
00000000
00000010
00000000
00000000
00000001
00000000
00000100
00000000
00000000
00001000
00000000
00000000
00010000
00000000
,
00100000
00000000
00000000
10000000
00000000
00000000
01000000
00000000
00010000
00000000
00000000
00001000
00000000
00000000
00000010
00000000
,
00000001
00000000
00000000
00000100
00000000
00000000
00001000
00000000
00010000
00000000
00000000
01000000
00000000
00000000
10000000
00000000
,
00200000
00302000
00003020
00000032
,
00001003
00000001
00000000
00000001
00000100
00000000
00000010
00000000
00001000
00000010
00000000
00000010
00000100
00000000
00000010
00000000
,
00001000
00000001
00000000
00000001
00000010
00000000
00000100
00000000
00010000
00001000
00000000
00001000
00100000
00000000
01000000
00000000
,
10000000
00010000
00000000
01000000
10000000
00000000
01000000
00000000
00100000
10000000
00000000
01000000
00100000
00000000
00010000
00000000
,
11000000
00000000
00000000
01010000
00000000
00000000
00011000
00000000
00000000
00001010
00000000
00000000
00000011
00000000
00000000
00000000
,
00001000
00000000
00000100
00000000
00000010
00001000
00000000
00000010
00000100
00000000
00001000
00000010
00000000
00000100
00000001
00000000
,
00001000
00000000
00000001
00000010
00001000
00000000
00000010
00000000
00000101
00000000
00000000
00001100
00000000
00000000
00011000
00000000
,
00010000
00000000
00100000
01000000
00000000
00100000
00001000
00000000
00010000
00000000
00000010
00000100
00000000
00000010
00001000
00000000
,
00000100
00000000
00010000
00001000
00100000
00000000
00010000
00000000
00101000
00000000
00000000
00110000
00000000
00000000
01010000
00000000
,
00010000
00000000
01000000
00000000
00100000
00010000
00000000
00100000
01000000
00000000
00010000
00100000
00000000
01000000
10000000
00000000
,
00010000
00000000
10000000
00100000
00010000
00000000
00100000
00000000
11000000
00000000
00000000
01010000
00000000
00000000
00011000
00000000
,
00001000
00000000
00000010
00000100
00000000
00000010
00010000
00000000
00001000
00000000
00100000
01000000
00000000
00100000
00010000
00000000
,
01000000
00000000
00010000
00000000
00100000
00000000
10000000
00100000
00010000
10000000
00010000
00000000
01000000
00000000
00100000
10000000
,
01000000
00000000
00100000
00000000
00001000
00000000
00010000
00000100
00000000
00001000
00000001
00000000
00000010
00000000
00000100
00000000
,
00001000
00000000
00000001
00000000
00000010
00000000
00000100
00000001
00000000
00000100
00000010
00000000
00000001
00000000
00000100
00000000
,
00001000
00000000
00010000
00000000
01000000
00000000
10000000
00010000
00000000
01000000
00100000
00000000
10000000
00000000
01000000
00000000
,
00100000
00000000
00010000
00000000
01000000
00000000
00100000
00010000
00000000
00100000
10000000
00000000
00010000
01000000
00100000
10000000
,
00010000
00000000
01000000
00000000
10000000
00000000
01000000
00010000
00000000
00010000
00001000
00000000
00010000
00000000
01000000
00000000
,
10000000
00000000
00100000
00000000
00010000
00000000
00001000
00010000
00000000
00010000
00100000
00000000
10000000
00000000
00100000
00000000
,
00001000
00000000
00010000
00000000
00100000
00000000
00010000
00001000
00000000
00001000
00000010
00000000
00001000
00000000
00010000
00000000
,
00001000
00000000
00010000
00000000
01000000
00000000
00010000
00001000
00000000
00001000
00000100
00000000
00001000
00000000
00010000
00000000
,
00001000
00000000
00010000
00000000
01000000
00000000
00010000
00001000
00010000
00001000
00010000
00000000
00001000
00000000
00000010
00000000
,
00000000
00000000
00000001
00000000
00001001
00000000
00000000
00000110
00000000
00001010
00000000
00000000
00000101
00000000
00000000
00000000
,
00001000
00000000
00000001
00000100
00001000
00000000
00000100
00000000
00000001
00000010
00000000
00000010
00000100
00000000
00020000
00000000
,
00000000
00000000
00031000
00000000
00011000
00000000
00000000
00000000
00001000
00100000
00000000
00010000
10000000
00000000
00010000
00000000
,
10000000
00000000
01000000
00000000
00100000
00000000
10000000
00100000
00000000
01000000
10000000
00000000
00010000
00000000
01000000
00000000
,
00100000
00000000
10000000
00000000
01000000
00000000
00020000
00000000
00000000
00000000
00031000
00010000
00001000
00000000
00000010
00000000
,
00000001
00000000
00000100
00001000
00000100
00000000
00000001
00000000
00000010
00000100
00000000
00000100
00010000
00000000
00012000
00000000
,
00000000
01003000
00001000
00000000
00010000
00000000
00001000
00000010
00000000
00000100
00000001
00000000
00001000
00000000
00000100
00000000
,
00000010
00000000
00000001
00000000
00000100
00000000
00001000
00000000
00010000
00100000
00000000
10000000
00010000
00000000
01000000
00000000
,
00100000
00000000
10000000
00000000
01000000
00000000
00100000
00010000
01000000
00001000
00010000
00000000
00000100
00000000
00001000
00000010
,
00000001
00000000
00000010
00001000
00000001
00000000
00000100
00000000
00001000
00000100
00001000
00000100
00000001
00000000
00000021
00000000
,
00000000
00000000
00001030
00010000
00001000
00000000
00000000
00000000
00010000
00100000
10000000
00100000
10000000
00000000
00010000
00000000
,
10000000
00000000
01000000
00000000
00010000
00000000
00001000
00010000
00001000
00010000
01000000
00000000
10000000
00000000
00100000
00000000
,
00010000
00000000
00001000
00000000
00000010
00000000
00000011
00000000
00000000
00000000
00001000
00000001
00000100
00000000
00000001
00000000
,
00001000
00000000
00000001
00000010
00000001
00000000
00000010
00000000
00001000
00010000
00001000
00010000
00100000
00000000
10200000
00000000
,
00000000
10300000
01000000
00000000
00010000
00000000
01000000
10000000
01000000
10000000
00010000
00000000
01000000
00000000
00100000
00000000
,
01000000
00000000
00010000
00000000
00100000
00000000
01000000
00100000
00001000
00010000
00001000
00000000
00010000
00000000
00000100
00000000
,
00001000
00000000
00000010
00000000
00000100
00000000
00000001
00000010
00000000
00000100
00000010
00000001
00001000
00000001
00000100
00000010
,
00001000
00000000
00000001
00000000
00000010
00000000
00000100
00000010
00000001
00001000
00000010
00000000
00000100
00000000
00000001
00000000
,
00001000
00000000
00000001
00000000
00000010
00000000
00001000
00010000
00001000
00010000
00100000
00000000
10000000
00000000
00010000
00000000
,
01000000
00000000
00100000
00000000
10000000
00000000
01000000
10000000
00100000
10000000
01000000
00000000
00100000
00000000
00001000
00000000
,
00010000
00000000
00100000
00000000
10000000
00000000
01000000
00100000
00000000
01000000
10000000
00100000
01000000
00100000
00010000
00001000
,
00010000
00000000
01000000
00000000
00010000
00000000
00001000
00000010
00001000
00000010
00001000
00000000
00010000
00000000
01000000
00000000
,
00010000
00000000
00001000
00000000
00000100
00000000
00001000
00010000
00001000
00010000
00001000
00000000
00010000
00000000
00100000
00000000
,
00010000
00000000
00001000
00000000
00000010
00000000
00000001
00000100
00000001
00000100
00001000
00000000
00010000
00000000
01000000
00000000
,
10000000
00000000
00010000
00000000
10000000
00000000
01000000
00100000
00001000
00000000
00010000
00000000
00000100
00000000
00002200
00000000
,
00000000
00000000
00000000
00000000
,
00003300
00000000
00000000
00000000
;
