#TITLE:limelight world;
#ARTIST:DJ YOSHITAKA feat.DWP;
#BANNER:limelight world.png;
#BACKGROUND:limelight world-bg.png;
#CDTITLE:./CDTitles/RB limelight.png;
#MUSIC:limelight world.ogg;
#SAMPLESTART:49.866;
#SAMPLELENGTH:15;
#BPMS:0=160;
#BGSTAGE:16;

//--------------- dance-single - Fred-104 ----------------
#NOTES:
     dance-single:
     Fred-104:
     Beginner:
     1:
     :
0000
0000
0000
0000
,
0000
0000
0000
0000
,
0000
0000
0000
0000
,
0000
0000
0000
0000
,
0000
0000
0000
0000
,
0000
0000
0000
0000
,
0001
0000
0000
0000
,
0000
0000
0000
0000
,
1000
0000
0000
0000
,
0000
0000
0000
0000
,
0001
0000
0000
0000
,
1000
0000
0000
0000
,
0001
0000
0000
0000
,
0010
0000
0000
0000
,
0001
0000
0000
0000
,
1000
0000
0000
0000
,
0001
0000
0000
0000
,
0100
0000
0000
0000
,
0001
0000
0000
0000
,
0000
0000
0000
0000
,
1000
0000
0000
0000
,
0000
0000
0000
0000
,
0010
0000
0000
0000
,
0000
0000
0000
0000
,
0010
0000
0000
0000
,
0000
0000
0000
0000
,
0100
0000
0000
0000
,
0000
0000
0000
0000
,
0100
0000
0000
0000
,
0000
0000
0000
0000
,
0001
0000
0000
0000
,
1000
0000
0000
0000
,
0001
0000
0000
0000
,
1000
0000
0000
0000
,
0001
0000
0000
0000
,
0100
0000
0000
0000
,
0001
0000
0000
0000
,
0010
0000
0000
0000
,
0001
0000
0000
0000
,
1000
0000
0000
0000
,
0001
0000
0000
0000
,
1000
0000
0000
0000
,
0001
0000
0000
0000
,
0100
0000
0000
0000
,
0001
0000
0000
0000
,
1000
0000
0000
0000
,
0001
0000
0000
0000
,
0010
0000
0000
0000
,
0001
0000
0000
0000
,
0000
0000
0000
0000
,
1000
0000
0000
0000
,
0001
0000
0000
0000
,
1000
0000
0000
0000
,
0010
0000
0000
0000
,
1000
0000
0000
0000
,
0100
0000
0000
0000
,
1000
0000
0000
0000
,
0001
0000
0000
0000
,
1000
0000
0000
0000
,
0000
0000
0000
0000
,
0000
0000
0000
0000
,
0000
0000
0000
0000
,
0000
0000
0000
0000
,
0000
0000
0000
0000
,
0000
0000
0000
0000
,
0000
0000
0000
0000
,
0001
0000
0000
0000
,
0100
0000
0000
0000
,
0001
0000
0000
0000
,
1000
0000
0000
0000
,
0001
0000
0000
0000
,
1000
0000
0000
0000
,
0010
0000
0000
0000
,
1000
0000
0000
0000
,
0001
0000
0000
0000
;

//--------------- dance-single - Fred-104 ----------------
#NOTES:
     dance-single:
     Fred-104:
     Easy:
     4:
     :
0000
0000
0000
0000
,
0000
0000
0000
0000
,
0000
0000
0000
0000
,
0000
0000
0000
0000
,
0000
0000
0000
0000
,
0000
0000
0000
0000
,
2000
0000
0000
3000
,
0002
0000
0203
0000
,
0320
0000
0000
0000
,
1030
0000
0001
1000
,
0002
0000
0203
0000
,
0302
0000
0013
0100
,
2000
0000
3020
0000
,
2030
0000
3010
1000
,
0200
0000
0320
0000
,
0230
0000
0310
0001
,
2000
0000
3001
1000
,
0200
0000
1300
0001
,
1001
0000
0001
0000
,
0100
0000
0010
0010
,
0010
0000
0100
0000
,
0001
0000
1000
0001
,
1000
0000
0010
0000
,
1000
0000
0100
0000
,
1000
0001
1000
0000
,
0001
0000
1000
0001
,
0100
0000
0001
0000
,
0010
0000
0001
0000
,
1000
0000
0001
0000
,
1000
0000
0001
1000
,
0100
0000
1000
0000
,
0010
0000
0100
0001
,
2000
0000
3002
0003
,
1001
0000
0000
0000
,
0001
0010
0001
0000
,
0100
0010
0100
0000
,
0001
1000
0001
0000
,
1000
0010
1000
0000
,
0001
1000
0001
0000
,
0100
0010
0100
0000
,
0001
1000
0001
0000
,
0100
0000
0010
0000
,
1000
0100
1000
0000
,
0010
0100
0001
0000
,
1000
0001
1000
0000
,
0010
1000
0010
0000
,
1000
0100
0010
0000
,
0001
1000
0001
0010
,
0010
0000
0100
0000
,
0100
0000
1000
0000
,
0002
0000
2003
0000
,
3002
0000
1003
0100
,
0020
0000
0230
0000
,
0320
0000
0031
1000
,
0020
0000
2030
0000
,
3200
0000
0310
0100
,
2000
0000
3002
0000
,
0103
0010
0100
0001
,
1001
0000
0000
0000
,
0000
0000
0000
0000
,
0000
0000
0000
0000
,
0000
0000
0000
0000
,
0000
0000
0000
0000
,
0000
0000
0000
0000
,
0001
0000
0000
0000
,
1000
0000
0001
0000
,
0100
0010
0100
0000
,
0001
0010
0001
0010
,
0001
1000
0001
0000
,
1000
0100
1000
0010
,
0100
0010
1000
0000
,
0010
1000
0010
1000
,
0001
0000
1000
0000
,
0001
1000
0001
0000
,
2002
0000
0000
0000
,
3003
0000
0000
0000
;

//--------------- dance-single - Fred-104 ----------------
#NOTES:
     dance-single:
     Fred-104:
     Medium:
     7:
     :
0000
0000
0000
0000
,
0000
0000
0000
0000
,
0000
0000
0000
0000
,
0000
0000
0000
0000
,
0000
0000
0000
0000
,
0000
0000
0000
0000
,
0001
1000
0001
0000
0100
0000
0100
0000
,
0010
0000
0100
0010
0000
0010
0000
1000
,
0000
0010
1000
0000
0100
0000
1000
1000
,
0000
0001
0000
1000
0000
0010
0000
1001
,
0000
0002
0023
0230
,
2300
0000
3002
0000
0203
0000
0310
0010
,
0000
2000
3002
0203
,
0320
0000
2030
0000
3200
0000
1300
1000
,
0000
0002
2003
3020
,
0230
0000
0302
0000
2003
0000
3100
0100
,
0000
0000
0020
0000
0032
0000
1003
1000
,
0000
0001
0000
0100
0000
0010
0100
0001
,
0000
1000
0010
0100
,
0010
0000
1000
0000
0001
0000
0100
0010
,
0000
0100
0001
0000
1000
0000
0000
0000
,
0010
1000
0001
0000
,
1000
0000
0001
0000
0100
0000
0001
0010
,
0000
0100
0010
0000
0001
0000
1000
1000
,
0000
0010
0010
0000
0100
0000
0001
0001
,
0000
1000
0000
0001
0010
0000
0000
0100
,
0000
0100
1000
0000
1000
0000
0000
0001
,
0000
0001
0100
0000
0100
0000
0010
0100
,
0010
0000
0000
1000
0000
0100
0000
1000
,
0002
0000
0000
0000
1003
0000
0001
0100
,
0000
0000
0001
0010
0000
0000
0100
1000
,
0000
0000
0010
1000
0000
0000
0002
0000
,
0203
0000
0020
0330
,
1001
0000
0000
0000
0000
0000
0000
1000
,
0000
0000
0010
0000
0100
0000
0010
1000
,
0000
0100
0000
0010
0000
0001
0000
1000
,
0000
0000
0001
0000
0010
0000
0001
0100
,
0000
0001
0000
0010
0000
0001
0000
1000
,
0000
0000
0010
0000
0100
0000
0001
0100
,
0000
0001
0000
1000
0000
0001
0000
1000
,
0000
0001
1001
0000
,
1000
0100
0000
1000
0000
0001
0000
1000
,
0000
0001
0010
0000
0001
0000
0100
0100
,
0000
0001
0000
0010
0000
0001
0000
1000
,
0000
0100
0100
0000
1000
0000
0001
0001
,
0000
0010
0000
0001
0000
1000
0000
0001
,
0000
1000
1000
0000
0100
0000
0010
0010
,
0000
0001
0000
1000
0000
0001
0000
0100
,
0000
0010
0010
0000
1000
0000
0001
0000
,
1000
1000
0000
0001
0000
0100
0010
0100
,
0000
0002
0203
0320
,
2030
0000
3200
0000
0320
0000
0031
0001
,
0000
0200
0320
2030
,
3002
0000
2003
0000
3020
0000
0130
0100
,
0000
0002
2003
3002
,
0023
0000
0230
0000
2300
0000
3001
0001
,
0000
0000
0200
0000
0320
0000
0130
0100
,
0000
0000
0001
0000
1000
0000
0001
2000
,
0000
0000
0000
0000
0000
0000
0000
3020
,
0000
0000
0000
0000
0000
0000
0000
0230
,
0000
0000
0000
0000
0000
0000
0000
0302
,
0000
0000
0000
0000
0000
0000
0000
0023
,
0000
0000
0000
0000
0000
0000
0000
0130
,
0000
0000
0000
1000
0000
0000
0000
2002
,
0000
0000
0000
0000
0000
3003
0000
1001
,
0000
0001
1000
0000
0001
0000
0100
0100
,
0000
0000
0001
0000
0010
0000
0100
0100
,
0000
1000
0000
0001
0000
1000
0000
0010
,
0000
0000
0100
0000
0010
0000
1000
1000
,
0000
0100
0000
0010
0000
0001
0000
1000
,
0000
0000
0001
0000
0100
0000
0010
0010
,
0000
0100
0000
0001
0000
1000
0000
0100
,
0000
0000
1000
0000
1001
0000
0000
0001
,
1000
1000
0000
0010
0000
1000
0000
2002
,
0000
0000
0000
0000
,
3003
0000
0000
0000
;

//--------------- dance-single - Fred-104 ----------------
#NOTES:
     dance-single:
     Fred-104:
     Hard:
     10:
     :
0000
0000
0000
0000
,
0000
0000
0000
0000
,
0000
0000
0000
0000
,
0000
0000
0000
0000
,
0000
0000
0000
0000
,
0000
0000
0000
0000
,
1000
0010
1000
0000
0001
0000
1000
0000
,
0100
0000
0010
0001
0000
1000
0000
0001
,
0000
0100
0100
0000
0010
0000
0100
0100
,
0000
0001
1000
0001
0100
0010
1000
0010
,
0000
1000
0200
0000
0320
0000
0032
0000
,
2003
0000
3002
0000
0103
0010
1000
0002
,
0000
0013
0002
0000
0203
0000
0320
0000
,
0230
0000
0302
0000
1003
0100
0010
0002
,
0000
1003
0020
0000
0230
0000
0302
0000
,
2003
0000
3020
0000
1030
0001
0100
0020
,
0000
0130
0002
0000
0013
0100
0010
0020
,
0000
0031
1000
0002
0000
1003
0100
0010
,
0001
0000
1000
0000
0010
1000
0010
1000
,
0000
0100
0010
0100
0010
0000
0001
1000
,
0000
0100
0010
0000
1001
0000
0000
1000
,
0000
0001
0100
0000
0010
1000
0001
1000
,
0000
0000
1001
0000
0001
0100
0001
0100
,
0000
0001
1000
0010
1000
0000
0100
0010
,
0000
0001
0010
0000
0001
0000
1000
1001
,
0000
0001
0100
0001
0100
0010
1000
0100
,
0000
1000
0010
0000
1010
0000
1000
0100
,
0000
0010
0001
0000
0101
0000
0001
1000
,
0002
0000
0103
0020
0000
2030
0000
3001
,
0010
0100
1000
0001
0001
0000
0100
0110
,
0000
0010
1000
0100
0000
0010
0001
1000
,
0000
0100
1000
0001
0000
0100
0010
0000
,
2000
0000
0000
0001
0002
0000
3003
0000
,
0110
0000
0000
0000
0000
0000
0000
1001
,
0000
0001
0020
0000
0032
0000
1003
0020
,
0000
2030
0000
3200
0000
0320
0000
0130
,
1000
0001
0200
0000
0320
0000
0130
0002
,
0000
2003
0000
3002
0000
0023
0000
0130
,
1000
0001
0200
0000
0320
0000
0130
0002
,
0000
2003
0000
3200
0000
0320
0000
0031
,
1000
0001
0100
0000
0110
0000
0000
0001
,
1000
0200
0000
0320
0000
0031
1000
0001
,
0100
0010
2000
0000
3002
0000
0103
0001
,
0010
0001
1000
0002
0000
0203
0000
0310
,
1000
0100
2000
0000
3002
0000
0103
0001
,
0010
0100
1000
0020
0000
0230
0000
0301
,
0010
0001
0200
0000
0302
0000
1003
0100
,
1000
0001
0010
0200
0000
1300
0001
0010
,
0100
0010
0001
0000
1001
0000
1000
0100
,
1000
0200
0000
0302
0000
0103
1000
0002
,
0000
0013
0001
1000
0001
0100
0002
0000
,
1003
0001
0010
0001
0100
0010
1000
0020
,
0000
0130
0001
1000
0001
0010
0002
0000
,
1003
0010
1000
0100
1000
0010
0100
0020
,
0000
1030
0001
0010
0100
1000
0200
0000
,
1300
0100
0010
0001
0100
0010
1000
0002
,
0000
0013
0001
1000
0001
0100
0010
0020
,
0000
1030
0100
0010
0001
1000
0001
2000
,
0000
0000
0000
0000
0000
0000
0000
3002
,
0000
0000
0000
0203
0000
0000
0000
0320
,
0000
0000
0000
0000
0000
0000
0000
2030
,
0000
0000
0000
3200
0000
0000
0000
0320
,
0000
0000
0000
0000
0000
0000
0000
0031
,
0000
1000
0000
0001
0000
0100
0000
2002
,
0000
0000
0000
0000
0000
0000
3003
1001
,
0000
0001
1000
0001
0100
0000
0010
0020
,
0000
1030
0100
1000
0001
1000
0100
0020
,
0000
0130
1000
0100
1000
0001
0010
0200
,
0000
0310
0001
1000
0001
1000
0001
0020
,
0000
0031
1000
0001
0100
0010
0100
0020
,
0000
0130
0010
1000
0200
0000
1300
0002
,
0000
1003
0001
1000
0010
1000
0010
0200
,
0000
0301
2000
0000
3001
0100
0100
0010
,
1000
0100
0010
0001
0000
0001
1000
2002
,
0000
0000
0000
0000
,
3003
0000
0000
0000
;

//--------------- dance-double - Fred-104 ----------------
#NOTES:
     dance-double:
     Fred-104:
     Easy:
     3:
     :
00000000
00000000
00000000
00000000
,
00000000
00000000
00000000
00000000
,
00000000
00000000
00000000
00000000
,
00000000
00000000
00000000
00000000
,
00000000
00000000
00000000
00000000
,
00000000
00000000
00000000
00000000
,
00020000
00000000
00000000
00030000
,
00002000
00003000
00020000
00030000
,
00002000
00000000
00000000
00003000
,
00010000
00000000
00001000
00000000
,
00000020
00000030
00000002
00000003
,
00002000
00003000
00000002
00000003
,
00000200
00000300
00000020
00000030
,
00002000
00003000
00000020
00000030
,
00002000
00003000
00000200
00000300
,
00020000
00030000
00002000
00003000
,
00020000
00030000
00002000
00003000
,
00010000
00000000
00001000
01000000
,
00010000
00000000
00100000
00000000
,
00010000
00000000
01000000
00000000
,
00010000
10000000
00010000
00000000
,
10000000
00000000
00000000
00000000
,
00010000
00000000
10000000
00000000
,
01000000
00000000
00000000
00000000
,
00100000
00000000
00001000
00000000
,
00010000
00000000
00000000
00000000
,
00001000
00000000
00000010
00000000
,
00000100
00000000
00000000
00000000
,
00001000
00000000
00000001
00000000
,
00000010
00000000
00000000
00000000
,
00000001
00000000
00001000
00000000
,
00000010
00000000
00010000
00000000
,
00002000
00000000
00023000
00030000
,
00011000
00000000
00000000
00000000
,
00001000
00000000
00100000
00000000
,
00010000
10000000
00010000
00000000
,
10000000
00000000
00100000
00000000
,
10000000
00000000
01000000
00100000
,
01000000
00000000
00100000
00000000
,
00010000
00000000
00100000
00000000
,
00001000
00000000
00010000
00000000
,
00000010
00000000
00001000
00000010
,
00001000
00000000
00000001
00000000
,
00001000
00000000
00000100
00000010
,
00000100
00000000
00000010
00000000
,
00000001
00000000
00001000
00000000
,
00000001
00000100
00000001
00000000
,
00001000
00000000
00000010
00000000
,
00010000
00000000
00001000
00000000
,
00020000
00030000
00002000
00003000
,
00200000
00300000
00002000
00003000
,
00020000
00030000
00000020
00000030
,
00002000
00003000
00000200
00000300
,
00020000
00030000
00002000
00003000
,
00200000
00300000
00002000
00003000
,
02000000
03000000
00020000
00030000
,
00200000
00300000
00002000
00003000
,
00010000
00010000
00001000
00001000
,
00011000
00000000
00000000
00000000
,
00000000
00000000
00000000
00000000
,
00000000
00000000
00000000
00000000
,
00000000
00000000
00000000
00000000
,
00000000
00000000
00000000
00000000
,
00000000
00000000
00000000
00000000
,
00001000
00000000
00000000
00000000
,
00000001
00000000
00000000
00000000
,
00000100
00000010
00000100
00000000
,
00000001
00000000
00001000
00000000
,
00000010
00001000
00000010
00000000
,
00001000
00000000
00000100
00000000
,
00010000
00001000
00010000
00000000
,
00001000
00000000
01000000
00000000
,
00010000
00100000
00010000
00000000
,
10000000
00000000
00010000
00000000
,
20020000
00000000
00000000
00000000
,
30030000
00000000
00000000
00000000
;

//--------------- dance-double - Fred-104 ----------------
#NOTES:
     dance-double:
     Fred-104:
     Medium:
     7:
     :
00000000
00000000
00000000
00000000
,
00000000
00000000
00000000
00000000
,
00000000
00000000
00000000
00000000
,
00000000
00000000
00000000
00000000
,
00000000
00000000
00000000
00000000
,
00000000
00000000
00000000
00000000
,
10000000
00010000
10000000
00000000
00100000
00000000
00100000
00000000
,
01000000
00000000
00010000
00100000
00000000
00100000
00000000
00001000
,
00000000
00010000
00000010
00000000
00001000
00000000
00000100
00000100
,
00000000
00010000
00000000
00001000
00000000
00010000
00000000
00011000
,
00000000
00020000
00032000
00003020
,
00000230
00000000
00002300
00000000
00003002
00000000
00000103
00000100
,
00000000
00000002
00000023
00000230
,
00020300
00000000
00032000
00000000
00203000
00000000
00310000
00010000
,
00000000
20000000
32000000
03020000
,
02030000
00000000
23000000
00000000
30200000
00000000
01300000
01000000
,
00000000
00000000
00002000
00000000
00023000
00000000
00030100
00000100
,
00000000
00010000
00000000
00000010
00000000
00010000
00001000
00010000
,
00000000
00001000
01000000
00010000
,
00100000
00000000
00010000
00000000
01000000
00000000
00001000
00010000
,
00000000
00001000
00010000
00000000
00000100
00000000
00000000
00000000
,
00001000
00000010
00001000
00000000
,
00000001
00000000
00000100
00000000
00001000
00000000
00010000
01000000
,
00000000
00100000
00010000
00000000
10000000
00000000
00100000
00100000
,
00000000
01000000
01000000
00000000
00010000
00000000
10000000
10000000
,
00000000
01000000
00000000
00100000
00001000
00000000
00000000
00010000
,
00000000
00010000
00000100
00000000
00000100
00000000
00000000
00010000
,
00000000
00010000
00001000
00000000
00001000
00000000
01000000
00010000
,
01000000
00000000
00000000
00001000
00000000
00010000
00000000
00000010
,
00020000
00000000
00000000
00000000
00031000
00000000
00010000
00000100
,
00000000
00000000
00001000
00000100
00000000
00000000
00000010
00000001
,
00000000
00000000
00001000
00000010
00000000
00000000
00020000
00000000
,
00032000
00000000
00020000
00033000
,
00011000
00000000
00000000
00000000
00000000
00000000
00000000
00001000
,
00000000
00000000
00100000
00000000
00010000
00000000
00100000
00010000
,
00000000
10000000
00000000
00010000
00000000
10000000
00000000
01000000
,
00000000
00000000
00100000
00000000
00010000
00000000
01000000
00100000
,
00000000
01000000
00000000
00001000
00000000
00010000
00000000
00001000
,
00000000
00000000
00100000
00000000
00001000
00000000
00010000
00001000
,
00000000
00000010
00000000
00000001
00000000
00001000
00000000
00000001
,
00000000
00000100
00000110
00000000
,
00000001
00000001
00000000
00000100
00000000
00000010
00000000
00001000
,
00000000
00000100
00000100
00000000
00000010
00000000
00000001
00000001
,
00000000
00000100
00000000
00001000
00000000
00010000
00000000
00100000
,
00000000
01000000
01000000
00000000
00010000
00000000
10000000
10000000
,
00000000
00100000
00000000
01000000
00000000
00010000
00000000
01000000
,
00000000
00001000
00001000
00000000
00100000
00000000
00001000
00001000
,
00000000
00010000
00000000
00000010
00000000
00010000
00000000
00000100
,
00000000
00001000
00001000
00000000
00000010
00000000
00010000
00000000
,
00001000
00001000
00000000
00010000
00000000
00001000
00100000
00001000
,
00000000
00002000
00023000
02030000
,
03200000
00000000
00320000
00000000
20030000
00000000
31000000
01000000
,
00000000
00200000
00320000
02030000
,
03002000
00000000
00023000
00000000
00032000
00000000
00103000
00100000
,
00000000
00002000
00023000
00030020
,
00002030
00000000
00003200
00000000
00020300
00000000
00031000
00001000
,
00000000
00000000
00200000
00000000
00302000
00000000
00013000
00010000
,
00000000
00000000
00000100
00000000
00001000
00000000
00000010
00000200
,
00000000
00000000
00000000
00000000
00000000
00000000
00000000
00000320
,
00000000
00000000
00000000
00000000
00000000
00000000
00000000
00002030
,
00000000
00000000
00000000
00000000
00000000
00000000
00000000
00003002
,
00000000
00000000
00000000
00000000
00000000
00000000
00000000
00002003
,
00000000
00000000
00000000
00000000
00000000
00000000
00000000
00003100
,
00000000
00000000
00000000
00010000
00000000
00000000
00000000
00022000
,
00000000
00000000
00000000
00000000
00000000
00033000
00000000
00011000
,
00000000
00001000
00010000
00000000
00001000
00000000
00100000
00100000
,
00000000
00000000
00010000
00000000
10000000
00000000
01000000
01000000
,
00000000
00100000
00000000
00010000
00000000
01000000
00000000
00001000
,
00000000
00000000
00010000
00000000
00001000
00000000
00000010
00000010
,
00000000
00000100
00000000
00001000
00000000
00000001
00000000
00000100
,
00000000
00000000
00000010
00000000
00000100
00000000
00001000
00001000
,
00000000
00010000
00000000
00100000
00000000
01000000
00000000
00010000
,
00000000
00000000
10000000
00000000
10010000
00000000
00000000
01000000
,
00100000
00100000
00000000
00001000
00000000
00010000
00000000
00022000
,
00000000
00000000
00000000
00000000
,
00033000
00000000
00000000
00000000
;

//--------------- dance-double - Fred-104 ----------------
#NOTES:
     dance-double:
     Fred-104:
     Hard:
     10:
     :
00000000
00000000
00000000
00000000
,
00000000
00000000
00000000
00000000
,
00000000
00000000
00000000
00000000
,
00000000
00000000
00000000
00000000
,
00000000
00000000
00000000
00000000
,
00000000
00000000
00000000
00000000
,
00000001
00000100
00000001
00000000
00001000
00000000
00000010
00000000
,
00000100
00000000
00000010
00001000
00000000
00000100
00000000
00010000
,
00000000
00001000
00010000
00000000
00100000
00000000
01000000
00010000
,
00000000
10000000
00010000
01000000
00000000
00100000
10000000
00100000
,
00000000
10000000
02000000
00000000
03020000
00000000
00032000
00000000
,
00003020
00000000
00000032
00000000
00000103
00001000
00010000
00100000
,
00000000
01000000
00020000
00000000
20030000
00000000
32000000
00000000
,
03200000
00000000
00302000
00000000
00013000
00100000
10000000
00010000
,
00000000
10000000
02000000
00000000
03200000
00000000
00302000
00000000
,
00023000
00000000
00032000
00000000
00003010
00000100
00001000
00000010
,
00000000
00000100
00000002
00000000
00001003
00000001
00000100
00000200
,
00000000
00000310
00001000
00000100
00000000
00010000
00001000
00010000
,
00001000
00000000
01000000
00000000
00010000
00100000
00010000
01000000
,
00000000
00010000
01000000
00010000
10000000
00000000
01000000
00100000
,
00000000
00001000
00010000
00000000
00000100
00000000
00010000
00001000
,
00000000
01000000
00010000
00000000
01000000
00100000
01000000
00100000
,
00000000
00000000
10100000
00000000
10000000
01000000
00010000
00001000
,
00000000
00010000
00000100
00000010
00000001
00000000
00001000
00000001
,
00000000
00000010
00000100
00000000
00001000
00000001
00000100
00001000
,
00000000
00010000
00100000
01000000
00010000
01000000
00100000
10000000
,
00000000
00010000
10000000
00000000
11000000
00000000
01000000
00100000
,
00000000
00001000
00010000
00000000
00011000
00000000
00010000
00000010
,
00010000
00000000
00001000
00020000
00000000
00032000
00000000
00003010
,
00000001
00001000
00000010
00000100
00000001
00001000
00000100
00000010
,
00000000
00000001
00000100
00001000
00000000
00010000
00100000
10000000
,
00000000
00010000
10000000
00100000
00000000
01000000
00001000
00000000
,
00020000
00000000
00000000
00001000
00002000
00000000
00033000
00000000
,
00011000
00000000
00000000
00000000
00000000
00000000
00000000
00001001
,
00000000
00000001
00000200
00000000
00000320
00000000
00001030
00000002
,
00000000
00000023
00000000
00000230
00000000
00020300
00000000
00032000
,
00000000
00103000
00200000
00000000
00320000
00000000
10030000
00200000
,
00000000
02300000
00000000
03020000
00000000
20030000
00000000
32000000
,
00000000
03100000
00002000
00000000
00023000
00000000
00032000
00203000
,
00000000
00320000
00000000
20030000
00000000
30200000
00000000
00320000
,
00000000
00031000
00010000
00000000
00011000
00000000
00010000
00001000
,
00000010
00000200
00000000
00002300
00000000
00003001
00000100
00000010
,
00001000
00000001
00000020
00000000
00000230
00000000
00010300
00002000
,
00000000
00203000
00000000
00302000
00000000
01003000
00010000
00100000
,
00010000
01000000
00200000
00000000
20300000
00000000
30010000
00200000
,
00000000
02300000
00000000
23000000
00000000
30010000
10000000
00100000
,
10000000
01000000
00020000
00000000
00032000
00000000
00013000
00000200
,
00000000
00000320
00000000
00000032
00000000
00001003
00000001
00000010
,
00000100
00000010
00000002
00000000
00000203
00000000
00001300
00010000
,
00100000
02000000
00000000
03020000
00000000
10030000
00010000
02000000
,
00000000
03100000
10000000
00100000
10000000
01000000
00200000
00000000
,
00301000
00010000
00001000
00100000
00001000
00010000
00000010
00002000
,
00000000
00003010
00000100
00000010
00001000
00000010
00000200
00000000
,
00000301
00000010
00000001
00000010
00000100
00000010
00000001
00002000
,
00000000
00003001
00000100
00000010
00001000
00000010
00000200
00000000
,
00000301
00000010
00000100
00001000
00000100
00010000
00001000
02000000
,
00000000
03010000
00100000
00001000
00010000
00000010
00010000
00002000
,
00000000
00103000
00010000
10000000
00020000
00000000
01030000
00200000
,
00000000
00000000
00000000
00000000
00000000
00000000
00000000
20300000
,
00000000
00000000
00000000
32000000
00000000
00000000
00000000
03020000
,
00000000
00000000
00000000
00000000
00000000
00000000
00000000
00032000
,
00000000
00000000
00000000
00003020
00000000
00000000
00000000
00000032
,
00000000
00000000
00000000
00000000
00000000
00000000
00000000
00001003
,
00000000
00000001
00000000
00000100
00000000
00000010
00000000
00002002
,
00000000
00000000
00000000
00000000
00000000
00000000
00003003
00001001
,
00000000
00000001
00000010
00000100
00000010
00000000
00000001
00002000
,
00000000
00003001
00000010
00000100
00000010
00000001
00001000
00000020
,
00000000
00010030
00001000
00010000
01000000
00100000
00010000
20000000
,
00000000
30100000
01000000
00100000
10000000
01000000
00100000
00020000
,
00000000
01030000
00001000
00010000
00000100
00010000
00001000
00200000
,
00000000
00301000
00010000
00001000
00000010
00000100
00001000
00000002
,
00000000
00000103
00000001
00000010
00000001
00000100
00001000
00020000
,
00000000
00130000
02000000
00000000
03020000
00000000
10030000
01000000
,
00010000
00001000
00000010
00000100
00000000
00001000
00000001
00002002
,
00000000
00000000
00000000
00000000
,
00003003
00000000
00000000
00000000
;
