#VERSION:0.83;
#TITLE:licca;
#ARTIST:Qrispy Joybox;
#BANNER:licca.png;
#BACKGROUND:licca-bg.png;
#CDTITLE:./CDTitles/RB groovin'!!.png;
#MUSIC:licca.ogg;
#SAMPLESTART:59.693;
#SAMPLELENGTH:15;
#BPMS:0=196;
#STAGE:27;

//--------------- dance-single - Fred-104 ----------------
#NOTEDATA:;
#STEPSTYPE:dance-single;
#DESCRIPTION:Fred-104;
#DIFFICULTY:Beginner;
#METER:4;
#CREDIT:Fred-104;
#NOTES:
0000
0000
0000
0000
,
0000
0000
0000
0000
,
0000
0000
0000
0000
,
0000
0000
0000
0000
,
0000
0000
0000
0000
,
1000
0000
0000
0000
,
0001
0000
0001
0001
,
0001
0000
0000
0000
,
1000
0000
1000
1000
,
1000
0000
0001
0000
,
1000
0000
0001
0000
,
1000
0000
0001
0000
,
1000
0000
0001
0000
,
0100
0000
0010
0000
,
0100
0000
0010
0000
,
0100
0000
0010
0000
,
0100
0000
0010
0000
,
1000
0000
0000
0000
,
1000
0000
0001
0001
,
0001
0000
0000
0000
,
0100
0000
0100
0000
,
0100
0000
0000
0000
,
0010
0000
0010
0010
,
0010
0000
0000
0000
0000
0000
0000
2002
,
0000
0000
3003
0000
,
0000
1000
0000
1000
,
0000
1000
0000
1000
,
0000
0001
0000
0001
,
0000
0100
0000
0100
,
0000
0010
0000
0010
,
0000
0100
0000
0100
,
0000
0001
0000
0001
,
0000
1000
2000
3000
,
1000
0000
0000
0000
,
1000
0000
0001
0001
,
0001
0000
0000
0000
,
0010
0000
0010
0000
,
0010
0000
0000
0000
,
0100
0000
0100
0100
,
0100
0000
0000
0000
0000
0000
0000
2002
,
0000
0000
3003
0000
,
0001
0000
0000
0000
,
1000
0000
0000
0000
,
0001
0000
0000
0000
,
1000
0000
0000
0000
,
0010
0000
0010
0000
,
0100
0000
0100
0000
,
2002
0000
0000
0000
,
3003
0000
0000
0000
,
1000
0000
1000
0000
,
0001
0000
0001
0000
,
1000
0000
1000
0000
,
0001
0000
0001
0000
,
0100
0000
0010
0000
,
0100
0000
0100
0000
,
0010
0000
0010
0000
,
0100
0000
0100
0000
,
0001
0000
1000
0000
,
0001
0000
0001
0000
,
1000
0000
0001
0000
,
1000
0000
1000
0000
,
0001
0000
1000
0000
,
0001
0000
0001
0000
,
0100
0000
0010
0000
,
0100
0000
0100
0000
,
0001
0000
0001
0000
,
0100
0000
0100
0000
,
1000
0000
1000
0000
,
0010
0000
0010
0000
,
0001
0000
0001
0000
,
1000
0000
1000
0000
,
0001
0000
0001
0000
,
1000
0000
1000
0000
,
0001
0000
1000
0000
,
0100
0000
0100
0000
,
1000
0000
0001
0000
,
0010
0000
0010
0000
,
0001
0000
1000
0000
,
0001
0000
1000
0000
,
0010
0000
0100
0000
,
0001
0001
0001
0000
,
0001
0000
0000
0000
,
0001
0000
1000
1000
,
1000
0000
0000
0000
,
0100
0000
0100
0000
,
0100
0000
0000
0000
,
0010
0000
0010
0010
,
0010
0000
0000
0000
0000
0000
0000
1001
;

//--------------- dance-single - Fred-104 ----------------
#NOTEDATA:;
#STEPSTYPE:dance-single;
#DESCRIPTION:Fred-104;
#DIFFICULTY:Easy;
#METER:9;
#CREDIT:Fred-104;
#NOTES:
0000
0000
0000
0000
,
0000
0000
0000
0000
,
0000
0000
0000
0000
,
0000
0000
0000
0000
,
0000
0000
0000
0000
,
1000
0000
1000
0000
1000
0000
0000
0001
,
0000
0001
0000
0000
0100
0010
0100
0010
,
0100
0000
0100
0000
0100
0000
0000
0001
,
0000
1000
0000
0000
0001
1000
0001
1000
,
0001
0100
0002
0000
,
1003
0100
2000
0000
,
3010
0100
0020
0000
,
1030
0100
0010
0100
,
1000
0010
2000
0000
,
3001
0010
0002
0000
,
0103
0010
0200
0000
,
0301
1000
0001
1000
,
0001
0000
1001
0000
0000
0100
0000
0100
,
0000
0010
0100
1000
,
0001
0000
0011
0000
0000
1000
0000
0010
,
0000
0100
0220
0330
,
0011
0000
0011
0000
0000
0001
0000
1000
,
0000
0010
1000
1000
,
1010
0000
0101
0000
0000
0010
0000
0110
,
0000
0000
1000
0001
,
1000
1100
0000
0001
,
0101
0000
0100
0010
,
0001
0011
0000
1000
,
1010
0000
0100
0100
,
1000
1001
0000
0001
,
1001
0000
0100
0010
,
0100
0110
0000
0010
,
0100
0100
2002
3003
,
1000
0000
1001
0000
0000
0100
0000
0100
,
0000
0010
0100
0001
,
1000
0000
1010
0000
0000
0001
0000
0010
,
0000
0100
0220
0330
,
1010
0000
1010
0000
0000
1000
0000
0001
,
0000
0010
0001
0001
,
0011
0000
1100
0000
0000
0010
0000
0220
,
0000
0000
0330
0000
,
1000
0000
0000
0000
,
0100
0000
0000
0000
,
0001
0000
0000
0000
,
0010
0000
0000
0000
,
1000
0000
0100
0000
,
0001
0000
0010
0000
,
1000
0000
0000
0000
,
2002
0000
0000
3003
,
0001
0010
0001
0001
,
1000
0100
1000
1000
,
0100
1000
0001
0001
,
0010
0100
1000
1000
,
0010
1000
1000
0001
,
1000
1000
0100
1000
,
0001
0100
1000
0010
,
0001
1000
2002
3003
,
0100
0100
1000
0010
,
1000
1000
0100
1000
,
0001
0010
0100
1000
,
0001
1000
0100
0010
,
1000
0001
0010
0100
,
1000
0001
0100
0100
,
0001
0100
1000
0010
,
0001
1000
2002
3003
,
0001
0100
0100
0010
,
0200
0000
0010
0310
,
1000
0100
1000
0001
,
0200
0000
0001
0301
,
1000
1000
0010
1000
,
0001
0001
1000
0100
,
1000
0010
0001
0100
,
1000
0001
2002
3003
,
0001
0000
0100
0001
0100
0000
0001
1000
,
0001
1000
0100
0010
,
0001
0000
0100
0010
0100
0000
0001
1000
,
0001
1000
0010
1000
,
1000
0000
0100
1000
0100
0000
1000
0001
,
1000
0010
0100
0001
,
1000
0100
0001
0010
,
1000
0001
2002
3003
,
0001
0000
1001
0000
0000
0010
0000
0010
,
0000
0100
0010
1000
,
0001
0000
0101
0000
0000
1000
0000
0100
,
0000
0010
0220
0330
,
0101
0000
0101
0000
0000
0001
0000
1000
,
0000
0100
1000
1000
,
1100
0000
0011
0000
0000
0100
0000
0110
;

//--------------- dance-single - Fred-104 ----------------
#NOTEDATA:;
#STEPSTYPE:dance-single;
#DESCRIPTION:Fred-104;
#DIFFICULTY:Medium;
#METER:12;
#CREDIT:Fred-104;
#NOTES:
0000
0000
0000
0000
,
0000
0000
0000
0000
,
0000
0000
0000
0000
,
0000
0000
0000
0000
,
0000
0000
0000
0000
,
1000
0000
0010
0000
1000
0000
0001
1000
,
0000
1000
0000
0000
0010
0100
0010
0100
,
0001
0000
1000
0000
0100
0000
1000
0010
,
0000
0100
0000
0000
0001
0100
0001
0100
,
0010
0010
0100
1000
,
0001
1000
2002
3003
,
0100
0100
1000
0001
,
0010
0000
0000
0001
0000
0000
1000
0000
1000
0000
1000
0000
,
0001
0001
1000
0010
,
1000
0100
2002
3003
,
0100
1000
0010
0001
,
1000
0000
0000
0001
0000
0000
1000
0001
1000
0001
0000
0000
,
1001
0000
0110
0000
1000
0100
0000
0101
,
0000
0010
0100
0000
0002
0000
2003
0000
,
3010
0000
1000
0000
0010
0100
0000
0110
,
0000
0001
1000
0010
0220
0000
0330
0000
,
1100
0000
0101
0000
1000
0010
0000
0011
,
0000
0001
0100
0010
2000
0000
3200
0000
,
1300
0000
1001
0000
0010
0100
0000
0220
,
0000
0000
0000
0000
0000
0000
0000
0000
0000
0330
0000
0000
0010
0000
0000
0000
0010
0000
0000
0000
0010
0000
0000
0000
,
1001
2100
3010
0101
,
0012
0000
1003
0000
0010
0000
1000
1000
,
0001
0120
1030
1010
,
2001
3100
0220
0330
,
0011
2001
3100
0110
,
1200
0000
0310
0000
0001
0000
0100
0100
,
0010
0021
0031
1100
,
0110
0101
2002
3003
,
1001
0000
0110
0000
1000
0010
0000
0011
,
0000
0100
0010
0000
0002
0000
2003
0000
,
3100
0000
1000
0000
0100
0010
0000
0110
,
0000
0001
1000
0100
0220
0000
0330
0000
,
1010
0000
0011
0000
1000
0100
0000
0101
,
0000
0001
0010
0100
2000
0000
3020
0000
,
1030
0000
1001
0000
0100
0010
0000
0220
,
0000
0000
0330
0000
,
1000
0000
0000
0000
,
0100
0000
0000
0000
,
0001
0000
0000
0000
,
0010
0000
0000
0000
,
1000
0000
0100
0000
,
0001
0000
0010
0000
,
1000
0000
0000
0000
,
2002
0000
0000
0000
3003
0000
1000
1000
,
1000
0000
0100
1000
0001
0000
0100
0001
,
1000
0010
0100
0001
1000
0000
0010
1000
,
0001
0000
0010
0001
1000
0000
0010
1000
,
0001
0010
0100
0010
0001
0000
0100
0010
,
1000
0000
0010
0100
0001
0000
0100
0010
,
1000
0010
0100
0001
1000
0100
0010
0000
,
0001
0100
0001
0100
0010
1000
0010
1000
,
0001
0010
0100
1000
0002
0000
1003
0100
,
0020
0000
0031
0100
0020
0000
1030
0100
,
0010
0001
0100
0010
2000
0000
3001
0010
,
0200
0000
1300
0010
0200
0000
0301
0010
,
0100
1000
0010
0100
0002
0000
1003
0001
,
0020
0000
0031
1000
0020
0000
1030
0001
,
0010
0001
0100
0010
1000
0010
0100
0000
,
0001
1000
0001
1000
0100
0010
0100
0010
,
0001
0100
0010
1000
0002
0000
1003
0100
,
0002
0000
1003
0010
0002
0000
1003
0100
,
0002
0000
0010
0000
1003
0000
0001
0100
,
2000
0000
3001
0010
2000
0000
3001
0100
,
2000
0000
0010
0000
3001
0000
1000
0100
,
0100
0000
0010
0100
0100
0000
1000
0010
,
0010
0000
0001
0010
0010
0000
0100
0010
,
0001
0100
0001
0100
0010
0100
0001
1000
,
0100
0010
0001
1000
0002
0000
0103
0010
,
0002
0000
0013
0100
0002
0000
0103
0010
,
1000
0100
1000
0001
0100
0000
0110
0000
,
1001
0000
0100
1000
0002
0000
0103
0001
,
1000
0100
0010
0001
2000
0000
3010
0000
,
0100
0010
0100
0010
0001
0000
0100
0010
,
0100
0010
1000
0010
0100
0000
0001
1000
,
0100
1000
0100
1000
0001
0010
0100
1000
,
0010
0100
0001
1000
0200
0000
0300
0000
,
1001
0000
0110
0000
0001
0100
0000
1100
,
0000
0010
0100
0000
2000
0000
3002
0000
,
0013
0000
0001
0000
0010
0100
0000
0110
,
0000
1000
0001
0010
0220
0000
0330
0000
,
0101
0000
1100
0000
0001
0010
0000
1010
,
0000
1000
0100
0010
0002
0000
0203
0000
,
0301
0000
1001
0000
0010
0100
0000
0110
;

//--------------- dance-single - Fred-104 ----------------
#NOTEDATA:;
#STEPSTYPE:dance-single;
#DESCRIPTION:Fred-104;
#DIFFICULTY:Hard;
#METER:16;
#CREDIT:Fred-104;
#NOTES:
0000
0000
0000
0000
,
0000
0000
0000
0000
,
0000
0000
0000
0000
,
0000
0000
0000
0000
,
0000
0000
0000
0000
,
1000
0100
0010
1000
0001
0100
0010
0011
,
0000
0000
1010
0000
0000
0000
0001
0000
1000
0010
0100
0010
1000
0010
1000
0010
,
0100
0001
1000
0100
0010
1000
0001
0101
,
0000
0000
1100
0000
0000
0000
0100
0000
0001
1000
0100
1000
0001
1000
0010
1000
,
0001
0100
1000
0100
0001
0000
0001
0100
,
1000
0100
0001
0100
2000
0000
0000
0000
,
3001
0010
1000
0010
0001
0000
0001
0010
,
1000
0000
0000
0010
0000
0000
0001
0000
0000
0010
0000
0000
1000
0000
0000
0000
1000
0000
0000
0000
0001
0000
0000
0000
,
1000
0100
0001
0100
1000
0000
0001
0100
,
1000
0100
0001
0100
0020
0000
0000
0000
,
1030
0010
0001
0010
1000
0000
0001
0010
,
1000
0000
0000
0010
0000
0000
0100
0000
0000
0001
0000
0000
1000
0000
0100
0000
0010
0000
0001
0000
0100
0000
0010
0000
,
1010
0000
0101
0000
1000
1100
0000
0011
,
0000
0000
0000
0000
0000
0000
0100
0000
0000
0010
0000
0000
0100
0000
0000
0000
0000
0000
0001
0000
0000
0000
0000
0000
1000
0000
0000
0000
0001
0000
0000
0000
0010
0000
0000
0000
0001
0000
0000
0000
0100
0000
0000
0000
0010
0000
0000
0000
,
1000
0000
0101
0000
1000
1100
0000
0101
,
0000
0000
0100
0010
0100
0000
0001
0000
2002
0000
0000
0000
3003
0000
0000
0000
,
1100
0000
0101
0000
1000
1010
0000
0011
,
0000
0000
0000
0000
0000
0000
1000
0000
0000
0001
0000
0000
1000
0000
0000
0000
0000
0000
0010
0000
0000
0000
0000
0000
0100
0000
0000
0000
0001
0000
0000
0000
1000
0000
0000
0000
0010
0000
0000
0000
0100
0000
0000
0000
0001
0000
0000
0000
,
1000
0000
0110
0000
1000
1100
0000
0202
,
0000
0000
0000
0303
0000
0000
0000
0000
0000
0000
0000
0000
0001
0000
0010
0000
0100
0000
1000
0000
0001
0000
0100
0000
,
0020
0030
0000
0000
0000
0000
0000
0000
0020
0030
0000
0000
0000
0000
0000
0000
1000
0000
0000
0000
0000
0000
0000
0000
0020
0030
0000
0000
0000
0000
0000
0000
0020
0030
0000
0000
0000
0000
0000
0000
0001
0000
0000
0000
0000
0000
0000
0000
0020
0030
0000
0000
0000
0000
0000
0000
0020
0030
0000
0000
0000
0000
0000
0000
,
1000
0000
0000
0000
0000
0000
0000
0000
0200
0300
0000
0000
0000
0000
0000
0000
0200
0300
0000
0000
0000
0000
0000
0000
0001
0000
0000
0000
0000
0000
0000
0000
0200
0300
0000
0000
0000
0000
0000
0000
0200
0300
0000
0000
0000
0000
0000
0000
1000
0000
0000
0000
0001
0000
0000
0000
1000
0000
0000
0000
0001
0000
0000
0000
,
0200
0300
0000
0000
0000
0000
0000
0000
0200
0300
0000
0000
0000
0000
0000
0000
0010
0000
0000
0000
0000
0000
0000
0000
0200
0300
0000
0000
0000
0000
0000
0000
0200
0300
0000
0000
0000
0000
0000
0000
1000
0000
0000
0000
0000
0000
0000
0000
0200
0300
0000
0000
0000
0000
0000
0000
0200
0300
0000
0000
0000
0000
0000
0000
,
0001
0000
0000
0000
0000
0000
0000
0000
0000
0000
0000
0000
0000
0000
0000
0000
0000
0000
0000
0000
0000
0000
0000
0000
0020
0000
0000
0030
0000
0000
0000
0000
0000
0000
0000
0000
0000
0000
0000
0000
0000
0000
0000
0000
0000
0000
0000
0000
0020
0000
0000
0030
0000
0000
0000
0000
0000
0000
0000
0000
0000
0000
0000
0000
0000
0000
0000
0000
0000
0000
0000
0000
1000
0000
0000
0000
0000
0000
0000
0000
0000
0000
0000
0000
0000
0000
0000
0000
0000
0000
0000
0000
0000
0000
0000
0000
0020
0000
0000
0000
0000
0000
0000
0000
0000
0000
0000
0000
0000
0000
0000
0000
0000
0000
0000
0000
0000
0000
0000
0000
0000
0000
0000
0000
0000
0000
0000
0000
0000
0000
0000
0000
0000
0000
0000
0000
0000
0000
0000
0000
0000
0000
0000
0000
0031
0000
0000
0000
0000
0000
0000
0000
0000
0000
0000
0000
0000
0000
0000
0000
0010
0000
0000
0000
0000
0000
0000
0000
0000
0000
0000
0000
0000
0000
0000
0000
0100
0000
0000
0000
0000
0000
0000
0000
0000
0000
0000
0000
0000
0000
0000
0000
,
2000
0100
3020
0100
1030
0001
0200
0010
,
0320
0000
1000
0000
1030
0000
0001
0000
0100
0000
0010
0000
1000
0001
1000
0001
,
2000
0100
3002
0100
1003
0010
0200
0010
,
0320
0001
1030
0000
2002
0000
3003
0000
,
0011
0000
1100
0000
0001
0101
0000
1010
,
0000
0000
0000
0000
0000
0000
0100
0000
0000
0010
0000
0000
0100
0000
0000
0000
0000
0000
1000
0000
0000
0000
0000
0000
0001
0000
0000
0000
1000
0000
0000
0000
0010
0000
0000
0000
1000
0000
0000
0000
0100
0000
0000
0000
0010
0000
0000
0000
,
0001
0000
1100
0000
0001
0101
0000
1100
,
0000
0000
0100
0010
0100
0000
1000
0000
2002
0000
0000
0000
3003
0000
0000
0000
,
0101
0000
1100
0000
0001
0011
0000
1010
,
0000
0000
0000
0000
0000
0000
0001
0000
0000
1000
0000
0000
0001
0000
0000
0000
0000
0000
0010
0000
0000
0000
0000
0000
0100
0000
0000
0000
1000
0000
0000
0000
0001
0000
0000
0000
0010
0000
0000
0000
0100
0000
0000
0000
1000
0000
0000
0000
,
0001
0000
0110
0000
0001
0101
0000
1100
,
0000
0000
0010
0000
,
1001
0000
0000
0000
,
0100
0000
0000
0000
,
0010
0000
0000
0000
,
0001
0000
0000
0000
,
1000
0000
0100
0000
,
0001
0000
0010
0000
,
1000
0000
0000
0000
,
2002
0000
0000
0000
3003
0000
1000
0100
,
0110
0000
0010
0001
1001
0000
1000
0100
,
0110
0010
0001
0100
0101
0000
0010
0100
,
1100
0000
0010
0100
0101
0000
0010
0100
,
0110
0010
0001
1000
1010
0000
0100
0010
,
0011
0000
0100
0010
1010
0000
0001
1000
,
1001
0001
0100
0010
1000
0100
0010
0001
,
1000
0000
0000
0000
0000
0000
0000
0000
0200
0300
0000
0000
0000
0000
0000
0000
0200
0300
0000
0000
0000
0000
0000
0000
0001
0000
0000
0000
0000
0000
0000
0000
1000
0000
0000
0000
0000
0000
0000
0000
0020
0030
0000
0000
0000
0000
0000
0000
0020
0030
0000
0000
0000
0000
0000
0000
0001
0000
0000
0000
0000
0000
0000
0000
,
1000
0010
0100
0001
2000
0000
3001
0100
,
0110
0000
1000
0100
0110
0000
0001
0100
,
0110
0010
1000
0100
1100
0000
0001
1000
,
1100
0000
1000
0001
0101
0000
0001
1000
,
1010
0010
0100
0001
0011
0000
0100
1000
,
1100
0000
0100
0010
0011
0000
1000
0100
,
0110
0010
0001
1000
0010
0100
0001
1000
,
0001
0000
0000
0000
0000
0000
0000
0000
0020
0030
0000
0000
0000
0000
0000
0000
0020
0030
0000
0000
0000
0000
0000
0000
1000
0000
0000
0000
0000
0000
0000
0000
0001
0000
0000
0000
0000
0000
0000
0000
0200
0300
0000
0000
0000
0000
0000
0000
0200
0300
0000
0000
0000
0000
0000
0000
1000
0000
0000
0000
0000
0000
0000
0000
,
0001
0100
1000
0100
0002
0000
1003
0010
,
0110
0000
1100
0100
0010
0000
0101
0200
,
0010
0000
1000
0000
0001
0000
1300
0010
,
0100
0000
1100
0100
0010
0001
0101
0200
,
0010
0000
0001
0000
1000
0000
0301
0100
,
0110
0000
1000
0100
0110
0000
0001
0010
,
0011
0001
1000
0010
1010
1000
0100
0010
,
0001
0000
0000
0000
0000
0000
0000
0000
0200
0300
0000
0000
0000
0000
0000
0000
0200
0300
0000
0000
0000
0000
0000
0000
0010
0000
0000
0000
0000
0000
0000
0000
1000
0000
0000
0000
0000
0000
0000
0000
0200
0300
0000
0000
0000
0000
0000
0000
0200
0300
0000
0000
0000
0000
0000
0000
0001
0000
0000
0000
0000
0000
0000
0000
,
1000
0100
0010
0000
1001
0000
0100
0010
,
0011
0000
0001
0100
0110
0000
1010
1000
,
0200
0010
0302
0100
1003
0000
1001
0000
,
1010
0010
1000
0001
0011
0000
0110
0100
,
2000
0100
3020
0100
0130
0000
1001
0000
,
1000
0000
0000
0000
0000
0000
0000
0000
0001
0000
0000
0000
0000
0000
0000
0000
0200
0300
0000
0000
0000
0000
0000
0000
0200
0300
0000
0000
0000
0000
0000
0000
1000
0000
0000
0000
0000
0000
0000
0000
0001
0000
0000
0000
0000
0000
0000
0000
0020
0030
0000
0000
0000
0000
0000
0000
0020
0030
0000
0000
0000
0000
0000
0000
,
1000
0000
0000
0000
0000
0000
0000
0000
0001
0000
0000
0000
0000
0000
0000
0000
0020
0030
0000
0000
0000
0000
0000
0000
0020
0030
0000
0000
0000
0000
0000
0000
1000
0000
0000
0000
0000
0000
0000
0000
0010
0000
0000
0000
0000
0000
0000
0000
0200
0300
0000
0000
0000
0000
0000
0000
0200
0300
0000
0000
0000
0000
0000
0000
,
0001
0010
0100
1000
0010
0100
0001
1000
,
0100
0010
0001
1000
2002
0000
3003
0000
,
0101
0000
1010
0000
0001
0011
0000
1100
,
0000
0000
0000
0000
0000
0000
0010
0000
0000
0100
0000
0000
0010
0000
0000
0000
0000
0000
1000
0000
0000
0000
0000
0000
0001
0000
0000
0000
1000
0000
0000
0000
0100
0000
0000
0000
1000
0000
0000
0000
0010
0000
0000
0000
0100
0000
0000
0000
,
0101
0000
1010
0000
0001
0011
0000
1010
,
0000
0000
0010
0100
0010
0000
1000
0000
2002
0000
0000
0000
3003
0000
0000
0000
,
0011
0000
1010
0000
0001
0101
0000
1100
,
0000
0000
0000
0000
0000
0000
0001
0000
0000
1000
0000
0000
0001
0000
0000
0000
0000
0000
0100
0000
0000
0000
0000
0000
0010
0000
0000
0000
1000
0000
0000
0000
0001
0000
0000
0000
0100
0000
0000
0000
0010
0000
0000
0000
1000
0000
0000
0000
,
0001
0000
0110
0000
0001
0011
0000
1001
;

//--------------- dance-double - Fred-104 ----------------
#NOTEDATA:;
#STEPSTYPE:dance-double;
#DESCRIPTION:Fred-104;
#DIFFICULTY:Easy;
#METER:9;
#CREDIT:Fred-104;
#NOTES:
00000000
00000000
00000000
00000000
,
00000000
00000000
00000000
00000000
,
00000000
00000000
00000000
00000000
,
00000000
00000000
00000000
00000000
,
00000000
00000000
00000000
00000000
,
00010000
00000000
00010000
00000000
00001000
00000000
00000000
00000010
,
00000000
00000010
00000000
00000000
00000100
00000000
00000100
00000000
,
00000001
00000000
00001000
00000000
00000100
00000000
00000000
00010000
,
00000000
00010000
00000000
00000000
00001000
00000000
00010000
00000000
,
00001000
00001000
00020000
00000000
,
01030000
01000000
00020000
00000000
,
00031000
00001000
00000020
00000000
,
00001030
00001000
00100000
00010000
,
10000000
01000000
00010000
00000000
,
00010000
00001000
00000100
00000000
,
00000100
00000001
00000010
00000000
,
00000010
00001000
00010000
00010000
,
00011000
00000000
00011000
00000000
00000000
00100000
00000000
01000000
,
00000000
00010000
10000000
00100000
,
01100000
00000000
01100000
00000000
00000000
00010000
00000000
00001000
,
00000000
00000010
00000220
00000330
,
00000101
00000000
00000101
00000000
00000000
00000001
00000000
00001000
,
00000000
00000010
00010000
00001000
,
00101000
00000000
00101000
00000000
00000000
00010000
00000000
20020000
,
00000000
00000000
30030000
00000000
,
01000000
02100000
00000000
03100000
,
00120000
00031000
00010000
00000010
,
00000100
00000210
00000000
00000301
,
00001000
00000010
00000220
00000330
,
00010100
00020100
00000000
00031000
,
00010000
00100000
01100000
10000000
,
10010000
10020000
00000000
01030000
,
00010000
00001000
00022000
00033000
,
00011000
00000000
00011000
00000000
00000000
00000010
00000000
00000100
,
00000000
00001000
00000001
00000010
,
00000110
00000000
00000110
00000000
00000000
00001000
00000000
00010000
,
00000000
00100000
02200000
03300000
,
11000000
00000000
11000000
00000000
00000000
10000000
00000000
00010000
,
00000000
00100000
00001000
00010000
,
00010010
00000000
00010010
00000000
00000000
00001000
00000000
00002002
,
00000000
00000000
00003003
00000000
,
00000010
00000000
00000000
00000000
,
00000100
00000000
00000000
00000000
,
00001000
00000000
00000000
00000000
,
00010000
00000000
00000000
00000000
,
00100000
00000000
01000000
00000000
,
10000000
00000000
00010000
00000000
,
10000000
00000000
00000000
00000000
,
20020000
00000000
00000000
30030000
,
01000000
00000000
00100000
00000000
,
00010000
00010000
00001000
00000010
,
00000100
00000000
00000001
00000000
,
00000100
00000100
00000010
00000100
,
00000001
00000000
00001000
00000000
,
00000010
00000010
00001000
00000010
,
00010000
00000000
00001000
00000000
,
00010000
00001000
00022000
00033000
,
00001000
00000000
00010000
00000000
,
00001000
00001000
00100000
00000000
,
00010000
00000000
01000000
00000000
,
00100000
10000000
00010000
00000000
,
10000000
00000000
01000000
00000000
,
00100000
01000000
10000000
00010000
,
01000000
01000000
00010000
00010000
,
00001000
00010000
00022000
00033000
,
00000100
00000000
00000010
00000000
,
00000001
00000001
00001000
00000010
,
00000100
00000000
00000001
00000000
,
00001000
00001000
00000010
00010000
,
00001000
00000000
00010000
00000000
,
00001000
00001000
00010000
01000000
,
00100000
00100000
10000000
01000000
,
00010000
00001000
00022000
00033000
,
00001000
00000000
00000100
00000010
00000100
00000000
00001000
00000001
,
00001000
00000010
00000100
00000001
,
00000010
00000000
00000001
00000100
00000001
00000000
00001000
00000100
,
00001000
00000010
00010000
00001000
,
00010000
00000000
00001000
00010000
00001000
00000000
00100000
00001000
,
00100000
00010000
10000000
00100000
,
01000000
01000000
00010000
00001000
,
00000100
00000010
00000220
00000330
,
00011000
00000000
00011000
00000000
00000000
01000000
00000000
00100000
,
00000000
00010000
10000000
01000000
,
01100000
00000000
01100000
00000000
00000000
00010000
00000000
00001000
,
00000000
00000100
00000220
00000330
,
00000011
00000000
00000011
00000000
00000000
00000001
00000000
00001000
,
00000000
00000100
00010000
00001000
,
01001000
00000000
01001000
00000000
00000000
00010000
00000000
10010000
;

//--------------- dance-double - Fred-104 ----------------
#NOTEDATA:;
#STEPSTYPE:dance-double;
#DESCRIPTION:Fred-104;
#DIFFICULTY:Medium;
#METER:13;
#CREDIT:Fred-104;
#NOTES:
00000000
00000000
00000000
00000000
,
00000000
00000000
00000000
00000000
,
00000000
00000000
00000000
00000000
,
00000000
00000000
00000000
00000000
,
00000000
00000000
00000000
00000000
,
00010000
00000000
00001000
00000000
00100000
00001000
00100000
00001000
,
00000000
00001000
00000000
00010000
00001000
00000100
00000010
00000100
,
00000010
00000000
00000001
00000000
00000100
00000010
00001000
00000100
,
00000000
00000100
00000000
00010000
00001000
00100000
00010000
10000000
,
00010000
00010000
01000000
10000000
,
00100000
00010000
00022000
00033000
,
00001000
00001000
00000100
00000001
,
00000010
00000000
00000000
00001000
00000000
00000000
00010000
00000000
00001000
00000000
00001000
00000000
,
00010000
00010000
00100000
10000000
,
01000000
00010000
00022000
00033000
,
00001000
00001000
00000010
00000001
,
00000100
00000000
00000000
00001000
00000000
00000000
00010000
00001000
00010000
00001000
00000000
00000000
,
00101000
00000000
00101000
00000000
00010000
01000000
00000000
01100000
,
00000000
00100000
10000000
00010000
02000000
00000000
03200000
00000000
,
01300000
00000000
01010000
00000000
00001000
00010000
00000000
00011000
,
00000000
00001000
00000010
00000100
00000202
00000000
00000303
00000000
,
00001001
00000000
00000110
00000000
00000001
00001000
00000000
00001010
,
00000000
00000010
00010000
00001000
00200000
00000000
00302000
00000000
,
00013000
00000000
00011000
00000000
00001000
01000000
00000000
02200000
,
00000000
00000000
00000000
00000000
00000000
00000000
00000000
00000000
00000000
03300000
00000000
00000000
01000000
00000000
00000000
00000000
01000000
00000000
00000000
00000000
00100000
00000000
00000000
00000000
,
11000000
10020000
01030000
01001000
,
00021000
00000000
00030010
00000000
00000100
00000000
00000001
00000001
,
00000100
00000210
00001300
00011000
,
00201000
00000000
00000000
00310000
00000000
00000000
02000000
00000000
00000000
03100000
01000000
00100000
,
01000000
02100000
03010000
00011000
,
00010200
00000000
00001300
00000000
00000020
00000000
00000130
00000100
,
00000001
00001001
00000010
00001010
,
00010010
00011000
00202000
00303000
,
00010010
00000000
00010010
00000000
00001000
00000100
00000000
00000110
,
00000000
00000010
00000001
00001000
00000200
00000000
00000320
00000000
,
00000130
00000000
00001100
00000000
00010000
00001000
00000000
00011000
,
00000000
00010000
00100000
01000000
22000000
00000000
33000000
00000000
,
10010000
00000000
01100000
00000000
10000000
00010000
00000000
00110000
,
00000000
00100000
00001000
00010000
00000020
00000000
00020030
00000000
,
00031000
00000000
00011000
00000000
00010000
00000100
00000000
00000220
,
00000000
00000000
00000330
00000000
,
00000001
00000000
00000000
00000000
,
00001000
00000000
00000000
00000000
,
00010000
00000000
00000000
00000000
,
10000000
00000000
00000000
00000000
,
01000000
00000000
00010000
00000000
,
00001000
00000000
00000100
00000000
,
00000001
00000000
00000000
00000000
,
00002002
00000000
00000000
00000000
00003003
00000000
00000001
00000010
,
00000100
00000000
00001000
00000010
00000100
00000000
00000001
00000010
,
00000100
00010000
00001000
00100000
01000000
00000000
00100000
00010000
,
10000000
00000000
00100000
10000000
00010000
00000000
10000000
01000000
,
00100000
00001000
00010000
00000100
00000010
00000000
00001000
00000100
,
00000010
00000000
00000001
00000100
00000010
00000000
00001000
00000100
,
00000010
00000001
00001000
00000010
00000100
00000001
00000010
00000000
,
00001000
00010000
00001000
00010000
00100000
10000000
00100000
00010000
,
00001000
00100000
00001000
00010000
00000020
00000000
00000130
00000010
,
00000001
00000000
00000100
00000010
00001000
00000000
00000100
00010000
,
00001000
01000000
00010000
00100000
02000000
00000000
03100000
00010000
,
10000000
00000000
01000000
10000000
00010000
00000000
01000000
00010000
,
10000000
01000000
00010000
00001000
00010000
00000000
00001000
00000010
,
00000001
00000000
00000001
00000010
00001000
00000000
00000010
00000001
,
00001000
00000010
00000100
00000001
00001000
00000100
00000010
00000000
,
00000010
00000001
00000100
00001000
00000100
00001000
00010000
01000000
,
00100000
10000000
00010000
10000000
02000000
00000000
13000000
01000000
,
00010000
00000000
10000000
00100000
00010000
00000000
00010000
00001000
,
00000010
00000001
00000010
00001000
00010000
00000000
00001000
00000010
,
00000001
00000000
00000001
00000010
00001000
00010000
00001000
00010000
,
02000000
00000000
00100000
00000000
13000000
00000000
01000000
00010000
,
00001000
00000000
00010000
00001000
00000100
00000000
00001000
00010000
,
01000000
00010000
00001000
00000100
00000010
00000100
00000001
00000100
,
00000010
00000001
00000100
00001000
00010000
00001000
00010000
00100000
,
10000000
00100000
00010000
01000000
00200000
00000000
10300000
01000000
,
01100000
00000000
00100000
00001000
00010000
00000000
00001000
00011000
,
00010000
00000100
00001000
00000001
00000100
00000010
00000110
00000000
,
00001001
00001000
00000100
00000010
00000001
00000000
00000100
00000001
,
00001000
00000100
00000010
00010000
00001000
00010000
00011000
00000000
,
00001000
00010000
00010000
00010000
00100000
01000000
01000000
01000000
,
10000000
00100000
00100000
00100000
00010000
00001000
00001000
00001000
,
00000010
00000100
00000001
00001000
00000010
00010000
00001000
00010000
,
00100000
01000000
00010000
00100000
00220000
00000000
00330000
00000000
,
01001000
00000000
01001000
00000000
00010000
00100000
00000000
01100000
,
00000000
01000000
10000000
00010000
00200000
00000000
02300000
00000000
,
03100000
00000000
00110000
00000000
00001000
00010000
00000000
00011000
,
00000000
00001000
00000100
00000010
00000022
00000000
00000033
00000000
,
00001001
00000000
00000110
00000000
00000001
00001000
00000000
00001100
,
00000000
00000100
00010000
00001000
02000000
00000000
03002000
00000000
,
00013000
00000000
00011000
00000000
00001000
00100000
00000000
01100000
;

//--------------- dance-double - Fred-104 ----------------
#NOTEDATA:;
#STEPSTYPE:dance-double;
#DESCRIPTION:Fred-104;
#DIFFICULTY:Hard;
#METER:16;
#CREDIT:Fred-104;
#NOTES:
00000000
00000000
00000000
00000000
,
00000000
00000000
00000000
00000000
,
00000000
00000000
00000000
00000000
,
00000000
00000000
00000000
00000000
,
00000000
00000000
00000000
00000000
,
00010000
00001000
00010000
00000010
00010000
00001000
00000010
00000100
,
00000000
00000000
00000220
00000000
00000000
00000000
00000330
00000000
00000001
00000100
00000001
00000100
00000001
00000100
00000001
00000100
,
00000001
00001000
00000010
00010000
00001000
00010000
00100000
01000000
,
00000000
00000000
02200000
00000000
00000000
00000000
03300000
00000000
00010000
10000000
00010000
10000000
00010000
10000000
00010000
10000000
,
00010000
01000000
10000000
01000000
00010000
00000000
00010000
00001000
,
00000100
00000001
00000100
00001000
00020000
00000000
00000000
00000000
,
00031000
00000100
00000001
00000100
00001000
00000000
00001000
00010000
,
01000000
00000000
00000000
10000000
00000000
00000000
01000000
00000000
00000000
00010000
00000000
00000000
00001000
00000000
00000000
00000000
00001000
00000000
00000000
00000000
00001000
00000000
00000000
00000000
,
00001000
00000010
00000001
00000010
00001000
00000000
00001000
00010000
,
00100000
10000000
00100000
00010000
00002000
00000000
00000000
00000000
,
00013000
00100000
10000000
00100000
00010000
00000000
00010000
00001000
,
00000010
00000000
00000000
00000001
00000000
00000000
00000010
00000000
00000000
00001000
00000000
00000000
00010000
00000000
00001000
00000000
00100000
00000000
00001000
00000000
00010000
00000000
00000010
00000000
,
00010000
00000000
00011000
00000000
00001000
00000010
00000000
00000110
,
00000000
00000000
00000000
00000000
00000000
00000000
00000100
00000000
00000000
00000001
00000000
00000000
00000100
00000000
00000000
00000000
00000000
00000000
00000010
00000000
00000000
00000000
00000000
00000000
00001000
00000000
00000000
00000000
00000100
00000000
00000000
00000000
00000010
00000000
00000000
00000000
00000001
00000000
00000000
00000000
00000100
00000000
00000000
00000000
00000010
00000000
00000000
00000000
,
00001000
00000000
00010100
00000000
00010000
00001000
00000000
00011000
,
00000000
00000000
00001000
00100000
00010000
00000000
01000000
00000000
02200000
00000000
00000000
00000000
03300000
00000000
00000000
00000000
,
01100000
00000000
10010000
00000000
01000000
00100000
00000000
01100000
,
00000000
00000000
00000000
00000000
00000000
00000000
00100000
00000000
00000000
00001000
00000000
00000000
00100000
00000000
00000000
00000000
00000000
00000000
00001000
00000000
00000000
00000000
00000000
00000000
00010000
00000000
00000000
00000000
00001000
00000000
00000000
00000000
00000100
00000000
00000000
00000000
00000001
00000000
00000000
00000000
00001000
00000000
00000000
00000000
00000100
00000000
00000000
00000000
,
00000010
00000000
00000110
00000000
00001000
00010000
00000000
02200000
,
00000000
00000000
00000000
00000000
00000000
00000000
00000000
00000000
00000000
03300000
00000000
00000000
00010000
00000000
00100000
00000000
01000000
00000000
10000000
00000000
00100000
00000000
01000000
00000000
,
00010000
01020000
10000000
00130000
,
01200000
00000000
00000000
00000000
01000000
00000000
00000000
00000000
00320000
00000000
00000000
00000000
00031000
00010000
00000010
00010000
,
00001000
00010020
00001000
00000130
,
00000210
00000000
00000000
00000010
00000000
00000000
00000302
00000000
00000000
00001003
00000100
00000010
,
00000001
00000201
00001000
00010300
,
00021000
00000000
00000000
00000000
00100000
00000000
00000000
00000000
02030000
00000000
00000000
00000000
03010000
01000000
00100000
10000000
,
01000000
12000000
00010000
03100000
,
01100000
00011000
00000220
00000330
,
00001000
00000000
00011000
00000000
00010000
00100000
00000000
01100000
,
00000000
00000000
00000000
00000000
00000000
00000000
01000000
00000000
00000000
10000000
00000000
00000000
01000000
00000000
00000000
00000000
00000000
00000000
00100000
00000000
00000000
00000000
00000000
00000000
00010000
00000000
00000000
00000000
01000000
00000000
00000000
00000000
00100000
00000000
00000000
00000000
10000000
00000000
00000000
00000000
01000000
00000000
00000000
00000000
00100000
00000000
00000000
00000000
,
00010000
00000000
01001000
00000000
00001000
00010000
00000000
00011000
,
00000000
00000000
00010000
00000010
00001000
00000000
00000100
00000000
00000220
00000000
00000000
00000000
00000330
00000000
00000000
00000000
,
00000110
00000000
00001001
00000000
00000100
00000010
00000000
00000110
,
00000000
00000000
00000000
00000000
00000000
00000000
00000010
00000000
00000000
00010000
00000000
00000000
00000010
00000000
00000000
00000000
00000000
00000000
00010000
00000000
00000000
00000000
00000000
00000000
00001000
00000000
00000000
00000000
00010000
00000000
00000000
00000000
01000000
00000000
00000000
00000000
10000000
00000000
00000000
00000000
00010000
00000000
00000000
00000000
01000000
00000000
00000000
00000000
,
00100000
00000000
01100000
00000000
00010000
00001000
00000000
00000220
,
00000000
00000000
00000330
00000000
,
00000001
00000000
00000000
00000000
,
00001000
00000000
00000000
00000000
,
00010000
00000000
00000000
00000000
,
10000000
00000000
00000000
00000000
,
01000000
00000000
00100000
00000000
,
00010000
00000000
00001000
00000000
,
00000010
00000000
00000000
00000000
,
00000220
00000000
00000000
00000000
00000330
00000000
00000001
00000100
,
00001000
00000000
00010000
00001000
00000100
00000000
00000001
00000100
,
00001000
00010000
01000000
10000000
00010000
00000000
10000000
00100000
,
00010000
00000000
00001000
00010000
00100000
00000000
10000000
00100000
,
00010000
00001000
00000010
00000001
00000100
00000000
00001000
00010000
,
01000000
00000000
10000000
01000000
00010000
00000000
00001000
00000100
,
00000001
00001000
00000010
00000100
00000001
00000010
00001000
00010000
,
00001000
00001000
00010000
00100000
01000000
01000000
00100000
00010000
,
10000000
10000000
00010000
00010000
10010000
00000000
00100000
00001000
,
00010000
00010000
01000000
00100000
00001000
00001000
00000100
00000010
,
00000001
00000100
00001000
00000100
00000001
00001000
00001000
00000010
,
00001000
00001000
00100000
01000000
00010000
00010000
00000010
00000100
,
00001000
00000001
00000100
00001000
00010000
01000000
00100000
01000000
,
00100000
00100000
00001000
00010000
00000010
00000010
00010000
00001000
,
00000100
00000100
00010000
00001000
00100000
00100000
00001000
00000010
,
00000001
00000010
00001000
00000100
00010000
01000000
00010000
00000100
,
00010000
00001000
00100000
00010000
10020000
00000000
10030000
01000000
,
01100000
00000000
00110000
00100000
01100000
00000000
10100000
00100000
,
01200000
00000000
00010000
00000000
00301000
00000000
00010010
00010000
,
00011000
00000000
00001000
00000010
00000110
00000100
00000001
00001000
,
00002100
00000000
00010000
00000000
01003000
00000000
01100000
00100000
,
00101000
00000000
00011000
00010000
00010010
00000000
00001010
00001000
,
00000001
00000100
00001000
00000100
00001000
00010000
01000000
00100000
,
10100000
01000000
00100000
00001000
00011000
00010000
00001000
00000100
,
00000110
00000010
00000011
00000001
00001001
00000000
00000010
00000100
,
00000110
00000000
00000001
00001000
00001010
00000000
00000100
00001000
,
00011000
00010000
00110000
00010000
10010000
00000000
00011000
00000000
,
00011000
00010000
00001000
00000010
00000110
00000100
00001000
00000010
,
00000110
00000100
00000001
00001000
00002001
00000000
00000100
00003000
,
00000110
00000100
00010000
00001000
00011000
00001000
01000000
00100000
,
01100000
01000000
10000000
00010000
00110000
00100000
00001000
00000010
,
00000100
00000100
00000010
00000010
00000001
00000001
00001000
00001000
,
00010000
00010000
01000000
01000000
20020000
00000000
30030000
00000000
,
00010000
00000000
00011000
00000000
00001000
00000100
00000000
00000110
,
00000000
00000000
00000000
00000000
00000000
00000000
00000010
00000000
00000000
00000001
00000000
00000000
00000010
00000000
00000000
00000000
00000000
00000000
00000100
00000000
00000000
00000000
00000000
00000000
00001000
00000000
00000000
00000000
00000010
00000000
00000000
00000000
00000100
00000000
00000000
00000000
00000001
00000000
00000000
00000000
00000010
00000000
00000000
00000000
00000100
00000000
00000000
00000000
,
00001000
00000000
00010010
00000000
00010000
00001000
00000000
00011000
,
00000000
00000000
00001000
01000000
00010000
00000000
00100000
00000000
02200000
00000000
00000000
00000000
03300000
00000000
00000000
00000000
,
01100000
00000000
10010000
00000000
00100000
01000000
00000000
01100000
,
00000000
00000000
00000000
00000000
00000000
00000000
01000000
00000000
00000000
00001000
00000000
00000000
01000000
00000000
00000000
00000000
00000000
00000000
00001000
00000000
00000000
00000000
00000000
00000000
00010000
00000000
00000000
00000000
00001000
00000000
00000000
00000000
00000010
00000000
00000000
00000000
00000001
00000000
00000000
00000000
00001000
00000000
00000000
00000000
00000010
00000000
00000000
00000000
,
00000100
00000000
00000110
00000000
00001000
00010000
00000000
01100000
;
