#VERSION:0.83;
#TITLE:invoker;
#ARTIST:Caladborg;
#GENRE:TRIBE CORE;
#BANNER:invoker.png;
#BACKGROUND:invoker-bg.png;
#CDTITLE:./CDTitles/bm IIDX 21 SPADA.png;
#MUSIC:invoker.ogg;
#SAMPLESTART:11.076;
#SAMPLELENGTH:15;
#BPMS:0=195,64=97.5,66=195,191.5=97.5,192=195,255=97.5,271=195,275=97.5,276.5=195,281.5=97.5,283=195;
#STOPS:168.5=0.308,184=0.154,199=0.154,214.5=0.153;
#TIMESIGNATURES:0=4=4,64=2=4,66=4=4,166=3=4,169=4=4,181=3=4,184=4=4,196=3=4,199=4=4,275=2=4,277=4=4,281=3=4,284=4=4;
#BGSTAGE:28;

//--------------- dance-single - Fred-104 ----------------
#NOTEDATA:;
#STEPSTYPE:dance-single;
#DESCRIPTION:Fred-104;
#DIFFICULTY:Beginner;
#METER:6;
#CREDIT:Fred-104;
#NOTES:
0000
0000
0000
0000
,
0000
0000
0000
0000
,
0000
0000
0000
0000
,
0000
0000
0000
0000
,
0000
0000
0000
0000
,
0000
0000
0000
0000
,
0000
0000
0000
0000
,
0000
0000
0000
0000
,
0000
0000
0000
0000
,
1000
0000
0000
0000
,
0001
0000
0000
0000
,
2000
0000
0000
3000
,
0200
0000
0000
0300
,
0020
0000
0000
0030
,
0002
0000
0000
0003
,
2000
0000
0000
3000
,
1001
0000
0001
0000
,
0001
0000
1000
0000
,
0010
0010
0010
0000
,
1000
0000
0001
0000
,
1000
1000
1000
0000
,
0001
0000
1000
0000
,
0010
0010
0010
0000
,
1000
0000
0001
0001
,
0001
0001
0001
0001
,
0000
1000
0000
0010
,
0000
1000
0000
0001
,
0000
1000
0000
0001
,
0000
0001
0000
1000
,
0000
0010
0000
1000
,
0000
1000
0000
0001
,
0000
0001
1000
0000
,
0001
0000
2000
0000
,
3000
0000
0200
0000
,
0300
0000
0020
0000
,
0030
0000
0002
0000
,
0003
0000
2000
0000
,
0000
3000
0020
0000
,
0000
0030
0200
0000
,
0000
0300
0002
0000
,
0000
0003
1000
0000
,
0000
0001
0001
0000
,
0000
1000
0000
0010
,
0000
1000
0000
0001
,
0001
0001
0000
1000
,
0000
0000
0001
0000
0000
1000
0000
0000
,
0001
1000
0000
0000
0010
0000
0000
1000
,
0000
0001
0000
0000
1000
0000
0000
0000
,
0000
1000
0000
0001
,
0000
0000
0001
0000
0000
0000
0000
0001
,
0000
0000
0001
0000
0000
0000
0000
0001
,
0000
0000
0010
0000
0000
0000
0000
0001
,
0000
0000
0100
0000
0000
0000
0000
0010
,
0000
1000
0000
0000
,
0001
0000
1000
0000
,
0001
0000
1000
1001
,
0000
0000
0000
0000
,
0000
0000
0001
0001
,
0000
0000
0000
0000
,
0000
0000
0000
1001
,
0000
0000
0000
0000
,
0000
0000
1000
1000
,
0000
0000
0000
0000
,
0000
0000
0000
0001
,
0001
0100
0001
1000
,
0100
0010
0001
1000
,
1000
0010
0100
0001
,
0001
1000
0001
1000
,
0000
1000
0000
0001
,
0000
0000
0000
0001
0000
0000
0000
1000
,
0000
0000
0000
0010
0000
0010
0000
0000
,
1000
0000
0100
0000
,
0001
0000
0010
0000
,
1000
0000
0100
0000
,
0001
0000
0010
0000
,
1000
0000
0010
0000
,
0001
0000
0100
0000
,
1000
0000
0001
0000
,
1000
1000
1000
1000
,
1000
0000
0001
0000
,
0100
0000
0001
0000
,
1000
0000
0001
0000
,
1000
1000
1000
1000
,
1000
0000
0001
0000
,
0100
0000
0010
0000
,
0100
0000
0001
0000
,
1000
1000
1000
1000
,
1000
0000
0001
0000
,
1000
0000
0010
0010
,
0010
0000
1000
0000
,
0001
0000
1000
1000
,
1000
0000
0001
0000
,
1000
0000
0100
0000
,
1000
0000
0001
0000
,
2000
0000
0000
3000
,
2002
3003
0000
0000
0000
0000
0000
0000
;

//--------------- dance-single - Fred-104 ----------------
#NOTEDATA:;
#STEPSTYPE:dance-single;
#DESCRIPTION:Fred-104;
#DIFFICULTY:Easy;
#METER:10;
#CREDIT:Fred-104;
#NOTES:
0000
0000
0000
0000
,
0000
0000
0000
0000
,
0000
0000
0000
0000
,
0000
0000
0000
0000
,
0000
0000
0000
0000
,
0000
0000
0000
0000
,
0000
0000
0000
0000
,
0000
0000
0000
0000
,
0000
0000
0000
0000
,
0001
0001
0100
0001
,
0100
0100
0010
1000
,
0001
0010
0100
1000
,
0001
1000
0010
1000
,
0001
0011
1000
1010
,
0001
0101
1000
1100
,
0001
0010
0100
1000
,
0002
2003
3010
0010
,
1000
1000
0100
0100
,
0010
0001
0010
0000
0001
0000
0001
0000
,
1000
1000
0001
0100
,
0010
0100
0010
0000
1000
0000
1000
0000
,
0100
0100
0010
0010
,
0001
1000
0001
0000
0100
0000
0100
0000
,
0010
0000
0010
0000
1000
0010
1000
0000
,
0001
0100
0001
0000
1000
0000
0100
0000
,
0010
0100
1000
0001
,
1000
0001
1000
0000
0001
0000
0100
0000
,
0010
0100
0001
1000
,
0010
1000
0010
0000
1000
0100
1000
0000
,
0001
0010
0001
0000
1000
0010
1000
0000
,
0001
0100
0001
0000
1000
0000
0100
0000
,
0010
0000
0001
0000
0100
0010
0100
0000
,
0001
1000
0001
0000
2000
0000
0000
0000
,
3200
0000
0320
0000
,
0032
0000
2003
0000
,
3020
0000
0230
0000
,
0302
0000
1003
0100
,
0010
0001
1000
0001
,
0100
0000
0010
0000
1000
0000
0010
1000
,
0000
0001
0100
0001
1000
0100
0010
0000
,
0001
0100
0010
0000
1001
0000
0000
0001
,
0000
0000
0100
0000
0010
0000
0000
1000
,
0000
1001
0001
0000
0000
0100
0000
0000
,
0010
0000
1000
0000
0000
0100
0000
0010
,
0100
0000
1000
0000
0000
0001
0000
0000
,
0100
0000
0010
0000
0000
0100
0000
0000
,
0001
1000
0000
0000
0010
0000
0000
1000
,
0000
0100
0000
0000
0010
0000
0001
1000
,
1001
0001
0100
0010
,
1000
0000
0001
0000
1000
0010
1000
0001
,
0000
0000
1000
0000
0010
0100
0000
0001
,
0000
0010
0000
0001
1000
0002
0000
1003
,
0010
1000
0000
0010
0100
0010
0000
1000
,
0100
1000
0000
0001
0100
0001
1000
0000
,
0000
0010
0000
1000
0100
0000
0010
0001
,
1000
0000
0001
1000
0001
0000
1001
0000
,
0000
0000
0000
0000
,
0000
0000
0010
0110
,
0000
0000
0000
0000
,
0000
0000
0000
1010
,
0000
0000
0000
0000
,
0000
0000
1000
1100
,
0000
0000
0000
2002
,
0000
0000
0000
0000
3003
0000
0001
0010
,
0001
0000
0010
0000
0001
0000
1000
0000
0010
1000
0010
0000
1000
0000
0100
0000
,
0010
0000
0100
0000
1000
0000
0010
0000
1000
0100
1000
0000
0001
0000
0010
0000
,
0100
0000
1000
0000
0001
0000
0100
0000
0010
1000
0001
0000
1000
0000
0100
0000
,
0010
0000
0001
0000
0100
0010
0100
0010
0100
0000
0000
0000
0001
0000
0000
0000
,
0000
0000
1000
0000
0000
0000
0010
1000
,
0001
0200
0000
0310
0000
0000
0000
1000
,
0000
1000
0000
0001
0100
0010
2000
3000
,
1100
0000
0010
0000
,
0101
0000
0010
0000
,
1100
0000
0010
0000
,
0101
0000
0010
0000
,
1000
0000
0010
0000
,
0001
0000
0100
0000
,
1000
1000
0001
0001
,
1000
0001
1000
0001
1000
0001
1000
0000
,
0001
0001
0100
0010
,
0100
0000
0001
1000
,
0010
0000
1000
0000
,
0010
0000
0010
0000
1000
0001
1000
0000
,
0001
0000
0100
0000
,
0010
0000
0100
0000
0001
0010
0001
0000
,
0010
0000
0001
0000
,
1000
0000
0010
0000
1000
0100
1000
0000
,
0001
0001
0100
0010
,
0100
0000
0001
0000
1000
0001
1000
0000
,
0010
0010
0100
0001
,
1000
0000
0100
0000
0010
0100
0010
0000
,
0001
0100
0010
0000
,
1000
0100
0010
0000
,
0001
0010
0100
1000
,
0002
0000
0000
0000
1003
0001
1000
0000
,
2002
3003
0000
0000
0000
0000
0000
0000
;

//--------------- dance-single - Fred-104 ----------------
#NOTEDATA:;
#STEPSTYPE:dance-single;
#DESCRIPTION:Fred-104;
#DIFFICULTY:Medium;
#METER:14;
#CREDIT:Fred-104;
#NOTES:
0000
0000
0000
0000
,
0000
0000
0000
0000
,
0000
0000
0000
0000
,
0000
0000
0000
0000
,
0000
0000
0000
0000
,
0000
0000
0000
0000
,
0000
0000
0000
0000
,
0000
0000
0000
0000
,
0000
0000
0000
0000
,
1000
0010
1000
0010
1000
0010
0100
0000
,
0001
0010
0001
0010
0001
0100
0001
0000
,
0100
0010
0100
0010
1000
0001
1000
0000
,
0100
0010
0100
0010
0001
0010
0001
0000
,
1000
1100
0001
0101
,
1000
1010
0001
0011
,
1000
0100
0010
0001
1000
0010
0100
0001
,
2000
0000
0002
3003
1000
0100
1000
0010
,
1000
0100
0010
0000
0001
0100
0001
0010
,
0001
1000
0001
0000
1000
0100
0010
0001
,
0010
0100
1000
0000
0001
0100
0010
1000
,
0010
0100
0001
0000
1000
0010
1000
0100
,
1000
0010
1000
0010
0100
0010
0100
0001
,
0100
0001
0010
0001
0010
0100
1000
0010
,
0100
0010
1000
0001
2000
3200
0320
0032
,
0203
0320
0032
0000
0013
1000
0001
1000
,
0001
0100
0001
1000
0100
0010
0001
1000
,
0001
1000
0100
0000
1000
0010
0100
0010
,
1000
0100
0010
0001
1000
0010
1000
0100
,
0100
0001
0010
0000
0100
1000
0010
1000
,
0010
0100
0010
1000
0001
0010
0001
0100
,
0001
0010
0010
1000
0001
0100
0010
1000
,
0001
1000
0100
0100
0001
0010
0100
1000
,
0001
0000
1000
0001
1000
0000
0000
0000
0002
0000
0000
0000
0023
0000
0000
0000
,
0230
2300
3002
0203
,
0320
2030
3200
0302
,
0203
2300
3002
0023
,
2030
0000
3020
0000
0031
0100
0001
0000
,
0100
1000
0100
0000
0001
0010
0001
0000
,
0010
1000
0010
0000
0001
0100
0001
0100
,
0010
1000
0100
0010
0100
1000
0001
0100
,
0010
1000
1001
0000
1000
0000
0010
1010
,
0000
1000
0100
0010
0001
0000
0100
0110
,
0000
1010
1001
0000
0001
0101
0000
0100
,
0010
0100
0001
0000
0010
0100
0000
0100
,
1100
0000
1001
0000
0001
0101
0000
0100
,
0010
0100
0001
0000
0100
0010
0000
1000
,
1010
1001
0000
0001
0100
0000
0100
0010
,
1000
0000
0001
0000
0010
0000
0100
0000
1000
0000
0001
0000
1000
0000
0010
0010
,
0001
0100
0001
0100
0010
1000
0001
0000
,
1000
0100
0010
0001
0100
0010
0100
0011
,
0000
0000
0001
0000
0101
0000
0000
0000
0100
0000
0000
0010
0000
0000
1000
0000
,
0000
0100
0000
0000
1100
0000
0000
0000
0010
0000
0100
0000
0001
0000
0010
0000
,
0001
0010
0100
0010
0001
1000
0001
0100
,
1000
0100
0001
0010
0100
1000
1001
0000
,
1000
1100
0000
0100
0010
0100
0001
0010
,
0100
0000
1000
0000
0001
0000
0100
0000
0010
1000
0010
0000
1001
0000
0000
0000
,
0000
0000
0000
0000
,
0000
0000
0101
1001
,
0000
0000
0000
0000
,
0000
0000
0000
0110
,
0000
0000
0000
0000
,
0000
0000
1100
1010
,
0000
0000
0000
2002
,
0000
0000
0000
0000
0000
0000
0000
0000
3003
0000
0000
0000
0001
0100
0001
0100
,
0001
0010
0001
0010
0100
1000
0010
1000
0001
0100
0010
0000
1000
0100
1000
0100
,
0010
0100
1000
0001
0100
0010
1000
0100
0010
0001
1000
0000
0001
0100
0001
0100
,
1000
0100
1000
0100
0001
0010
0001
0010
1000
0010
1000
0010
0001
0100
0010
1000
,
0100
0010
0001
0010
0100
1000
0001
0100
0010
1000
0010
0000
0110
0000
0000
0000
,
0100
0000
0001
0000
1000
0000
0100
0000
0010
0000
0000
0000
0001
0100
0001
0100
,
0010
1000
0001
0000
0000
0000
1001
0000
0000
0000
1000
0000
0001
0000
0010
0000
,
0001
0000
0100
0000
0000
0000
0010
0100
0010
0100
0010
0000
1001
0000
0000
0000
,
2100
3010
0102
0013
,
1200
0310
0201
0310
,
2100
3010
0102
0013
,
1200
0310
0201
0310
,
1000
0010
1000
0000
0001
0100
0001
0000
,
1000
0100
1000
0000
0001
0010
0001
0000
,
1000
0100
0010
0001
0100
0010
0100
0010
,
0100
0001
0010
0001
1000
0001
1000
0000
,
0001
0010
0100
0010
0001
0100
0010
1000
,
0001
0010
1000
0000
0001
0100
1000
0000
,
0001
0100
0010
0100
1000
0100
0010
1000
,
0001
0100
1000
0000
0001
0010
1000
0000
,
0001
0010
0100
0010
0001
1000
0010
1000
,
0100
0010
0100
1000
0001
0100
0001
0000
,
1000
0100
0010
1000
0010
0001
1000
0001
,
0100
0010
1000
0001
0010
0100
1000
0000
,
0001
0100
0010
0100
0001
0010
0001
1000
,
0001
1000
0100
0010
0001
1000
0010
0000
,
0001
0010
1000
0001
0100
0010
1000
0100
,
0010
0100
1000
0010
1000
0001
1000
0000
,
0001
0100
0001
0100
0010
0100
0010
0100
,
0010
1000
0010
1000
0001
1000
0001
1000
,
0100
0000
0010
0000
0001
0000
1000
0000
0001
1000
0001
1000
0001
1000
0001
1000
,
0002
0000
0000
0000
1003
0001
0100
0010
,
0220
0330
0000
0000
0000
0000
0000
0000
;

//--------------- dance-single - Fred-104 ----------------
#NOTEDATA:;
#STEPSTYPE:dance-single;
#DESCRIPTION:Fred-104;
#DIFFICULTY:Hard;
#METER:17;
#CREDIT:Fred-104;
#NOTES:
0000
0000
0000
0000
,
0000
0000
0000
0000
,
0000
0000
0000
0000
,
0000
0000
0000
0000
,
0000
0000
0000
0000
,
0000
0000
0000
0000
,
0000
0000
0000
0000
,
0000
0000
0000
0000
,
0000
0000
0000
0000
,
1000
0100
1000
0010
1000
0100
0010
0001
,
0100
0001
0010
0001
0100
0001
0010
0100
,
2000
3000
0000
0000
0000
0000
0000
0000
0010
0000
0000
0000
0000
0000
0000
0000
0100
0000
0000
0000
0000
0000
0000
0000
0010
0000
0000
0000
0000
0000
0000
0000
1000
0000
0000
0000
0000
0000
0000
0000
0100
0000
0000
0000
0000
0000
0000
0000
0010
0000
0000
0000
0000
0000
0000
0000
0001
0000
0000
0000
0000
0000
0000
0000
,
2000
3000
0000
0000
0000
0000
0000
0000
0100
0000
0000
0000
0000
0000
0000
0000
0001
0000
0000
0000
0000
0000
0000
0000
0100
0000
0000
0000
0000
0000
0000
0000
1000
0000
0000
0000
0000
0000
0000
0000
0010
0000
0000
0000
0000
0000
0000
0000
0100
0000
0000
0000
0000
0000
0000
0000
0000
0000
0000
0000
0000
0000
0000
0000
,
0002
0003
0000
0000
0000
0000
0000
0000
0000
0000
0000
0000
0000
0000
0000
0000
0101
0000
0000
0000
0000
0000
0000
0000
0000
0000
0000
0000
0000
0000
0000
0000
1000
0000
0000
0000
0000
0000
0000
0000
0000
0000
0000
0000
0000
0000
0000
0000
1010
0000
0000
0000
0000
0000
0000
0000
0000
0000
0000
0000
0000
0000
0000
0000
,
0002
0003
0000
0000
0000
0000
0000
0000
0000
0000
0000
0000
0000
0000
0000
0000
0011
0000
0000
0000
0000
0000
0000
0000
0000
0000
0000
0000
0000
0000
0000
0000
1000
0000
0000
0000
0000
0000
0000
0000
0000
0000
0000
0000
0000
0000
0000
0000
1100
0000
0000
0000
0000
0000
0000
0000
0000
0000
0000
0000
0000
0000
0000
0000
,
0002
0003
0000
0000
0000
0000
0000
0000
0100
0000
0000
0000
0000
0000
0000
0000
0010
0000
0000
0000
0000
0000
0000
0000
1000
0000
0000
0000
0000
0000
0000
0000
0001
0000
0000
0000
0010
0000
0000
0000
0100
0000
0000
0000
1000
0000
0000
0000
0010
0000
0000
0000
0100
0000
0000
0000
0001
0000
0000
0000
0010
0000
0000
0000
,
0002
0000
2000
3003
1000
1100
0000
1010
,
0000
1100
0000
1010
0000
0101
0000
0011
,
0001
0100
0110
1010
0000
1100
0000
1010
,
0000
1100
0000
1001
0000
0101
0000
1001
,
0001
1000
0200
0000
1300
0001
0100
0001
,
1000
0010
1000
0100
0010
0001
0100
0001
,
0100
0100
0100
0010
1000
0100
0010
0100
,
0001
0100
1000
0001
2000
3200
0320
0032
,
2003
0000
3002
0000
0203
0000
0302
0000
1003
0000
0010
1000
0010
0000
1000
0000
,
0100
0000
0010
0100
0010
0000
0001
0000
1000
0000
0001
0100
0001
0000
0010
0000
,
0100
0000
0010
0100
0010
0000
0001
0000
1000
0000
0001
1000
0100
0000
1000
0000
,
0010
0000
1000
0100
0010
0000
0001
0000
1000
0000
0001
0100
0010
0000
0100
0000
,
0001
0000
0010
0100
1000
0000
0000
0000
0001
0100
0001
0000
0100
0010
0100
0000
,
0010
1000
0010
0000
1000
0100
1000
0000
0100
0010
0001
0000
0100
0010
1000
0000
,
0001
0010
0100
0000
1000
0010
0100
0000
0001
0100
0010
0000
1000
0001
0100
0000
,
0010
1000
0001
0010
0100
1000
0001
0000
0100
0000
0010
0000
0100
0000
0001
0000
,
1000
0000
0001
1000
0010
0100
0001
0000
1000
0000
0100
0000
1000
0000
0100
0000
,
0001
0100
0001
0100
0010
0100
0010
0100
,
0001
0100
1000
0001
1000
0010
1000
0010
,
0001
0010
0001
0010
0100
0010
1000
0001
,
1000
0010
0001
0010
1000
0001
1000
0010
,
0100
0010
0001
1000
0100
0010
1000
0100
,
0010
1000
0001
0100
0010
0001
1000
0010
,
0001
1000
0001
0010
2000
0000
0000
0002
,
0000
0000
3003
0000
0001
1000
0001
0000
1001
0000
0000
0000
1000
0000
1010
0000
,
0000
0000
1001
0000
0001
0100
0010
0000
1000
0000
0100
0000
0010
0000
0011
0000
,
0000
0000
0000
0000
0000
0000
0000
0000
0202
0303
0000
0000
0000
0000
0000
0000
1001
0000
0000
0000
0000
0000
0000
0000
0000
0000
0000
0000
0000
0000
0000
0000
1000
0000
0000
0000
0000
0000
0000
0000
1100
0000
0000
0000
0000
0000
0000
0000
0000
0000
0000
0000
0000
0000
0000
0000
0110
0000
0000
0000
0000
0000
0000
0000
,
0010
0001
0010
0000
0001
0000
1000
0000
0010
0000
0010
0000
0000
0000
0100
0000
,
0100
0001
1000
0000
1100
0000
0100
0000
0010
0000
0011
0000
0000
0000
1001
0000
,
0001
1000
0010
0000
1000
0000
0100
0000
0010
0000
0011
0000
0000
0000
0011
0000
,
2002
3003
0000
0000
0000
0000
0000
0000
1100
0000
0000
0000
0000
0000
0000
0000
0000
0000
0000
0000
0000
0000
0000
0000
0101
0000
0000
0000
0000
0000
0000
0000
1001
0000
0000
0000
0000
0000
0000
0000
0000
0000
0000
0000
0000
0000
0000
0000
1001
0000
0000
0000
0000
0000
0000
0000
0001
0000
0000
0000
1000
0000
0000
0000
,
0100
0000
0000
0000
1000
0000
0000
0000
0001
0000
0000
0000
0010
0000
0000
0000
1000
0000
0000
0000
0010
0000
0000
0000
0100
0000
1000
0000
0002
0000
0103
0010
,
0100
0000
0000
0000
0000
0000
0000
0000
0010
0000
0000
0000
1000
0000
0000
0000
0001
0000
0000
0000
0000
0000
0000
0000
1000
0000
0000
0000
0000
0000
0000
0000
0200
0300
0000
0000
0000
0000
0000
0000
0200
0300
0000
0000
0000
0000
0000
0000
0001
0000
0000
0000
1000
0000
0000
0000
0001
0000
0000
0000
0000
0000
0000
0000
,
0100
0000
0000
0000
0000
0000
0000
0000
0010
0000
0000
0000
0000
0000
0000
0000
1000
0000
0000
0000
0000
0000
0000
0000
0100
0000
0000
0000
0010
0000
0000
0000
0001
0000
0000
0000
0000
0000
0000
0000
1000
0000
0000
0000
0000
0000
0000
0000
0002
0003
0000
0000
0000
0000
0000
0000
1001
0000
0000
0000
0000
0000
0000
0000
,
0000
0000
1100
0000
1010
0000
0000
0000
0101
0000
0001
0010
0000
0000
0001
0000
,
0000
0000
0000
0101
0000
0000
0000
0000
0000
0000
0000
0000
1001
0000
0000
0000
0000
0000
0000
0000
0000
0000
0000
0000
1000
0000
0000
0000
0000
0000
0001
0000
0100
0000
0001
0000
0100
0000
0000
0000
0000
0000
0010
0000
0000
0000
0000
0000
,
1000
0100
0110
0001
1001
2000
3001
0100
,
0010
0000
0000
0000
0000
0000
0000
0000
1000
0000
0000
0000
0000
0000
0000
0000
0100
0000
0000
0000
0000
0000
0000
0000
0010
0000
0000
0000
0000
0000
0000
0000
0001
0000
0000
0000
1000
0000
0000
0000
0002
0003
0000
0000
0000
0000
0000
0000
1001
0000
0000
0000
0000
0000
0000
0000
1000
0000
0000
0000
0000
0000
0000
0000
,
0100
0000
0110
0000
0000
0000
0101
0000
0001
1000
0001
0000
0100
0000
0010
0000
,
0110
0000
0010
0000
1000
0000
0001
0000
1000
0100
0010
0000
1001
0000
0000
0000
,
0000
0000
0000
0000
,
0000
0000
1100
1010
,
0000
0000
0000
0101
,
0000
0000
0000
1001
,
0000
0000
0000
0000
,
0000
0000
1010
0011
,
0000
0000
0000
0220
,
0000
0000
0000
0000
0000
0000
0000
0000
0330
0000
0000
0000
0001
0100
0001
0100
,
1000
0100
1000
0100
0001
0010
0100
1000
0010
0100
1000
0100
0001
1000
0001
0010
,
0100
1000
0010
0100
1000
0100
0010
1000
0001
0010
0001
1000
0010
1000
0100
1000
,
0001
1000
0100
0001
0100
1000
0010
1000
0001
0010
0100
1000
0001
0010
0100
1000
,
0001
0000
1000
0000
0100
0000
0010
0000
0001
0100
0001
0100
0010
0100
0010
0100
0010
1000
0010
1000
0001
1000
0001
1000
0001
0000
0000
0000
0010
0000
0000
0000
,
0001
0000
1000
0000
0010
0000
1000
0000
0100
0000
0010
0000
0002
0203
2300
3002
,
0023
2030
3001
0000
1000
0000
0001
0000
1000
0000
0100
0000
1000
0000
0010
0000
,
0001
0000
0000
0000
0010
0000
0000
0000
2000
0000
0000
0000
3001
0100
0001
0100
0010
1000
0010
1000
0001
1000
0100
0010
0001
0000
0000
0000
1000
0000
0000
0000
,
1100
0100
0010
0000
0101
0100
0010
0000
,
1001
1000
0100
0000
1001
0001
0100
0000
,
0110
0010
1000
0000
0110
0010
0001
0000
,
1010
0010
0100
0000
0011
0010
0100
0000
,
1200
0310
0201
0310
,
2100
3010
0102
0013
,
1100
0101
1010
0011
,
1010
0010
0110
0100
0101
0001
1001
0000
,
0001
0000
1000
0001
0010
0000
0100
0000
0010
0000
0100
1000
0001
0000
0100
0000
,
0010
1000
0100
0000
0010
0001
1000
0000
1100
0000
1100
0000
1001
0000
0000
0000
,
0001
0000
1000
0001
0100
0000
0010
0000
1000
0000
0100
0010
0001
0000
1000
0000
,
0010
1000
0100
1000
0010
1000
0100
0010
0001
0000
1000
0000
1001
0000
0000
0000
,
1000
0000
0001
1000
0100
0000
0010
0000
0001
0000
0100
0001
0010
0000
0001
0000
,
1000
0010
0100
0000
0001
1000
0100
0000
0110
0000
0011
0000
1001
0000
0000
0000
,
1000
0010
1000
0100
1000
0010
0100
0001
0100
0000
0001
1000
0001
0000
1000
0000
,
1100
0000
0100
0000
0110
0000
0010
0000
0011
0000
0001
1000
0001
0000
0000
0000
,
1000
0000
0010
0100
0001
0000
1000
0000
0100
0010
0001
1000
0010
0100
0001
0000
,
1000
0100
1000
0100
0010
0000
0001
0000
0011
0000
0101
0000
1001
0000
0000
0000
,
1000
0001
0100
0001
1000
0100
1000
0010
0100
0000
0001
1000
0001
0000
0010
0000
,
0001
0100
0010
0000
1000
0100
0010
0000
0001
0100
0010
1000
0002
0000
0000
0000
,
1003
0010
1000
0100
0010
0001
1000
0001
,
0100
0001
0010
0100
1000
0010
0100
0001
,
1000
0010
0100
0001
0010
0100
1000
0010
0100
0001
1000
0100
0010
0001
0100
0010
,
0200
0000
0000
0000
1300
0100
0001
1000
,
2002
3003
0000
0000
0000
0000
0000
0000
;

//--------------- dance-single - Fred-104† ----------------
#NOTEDATA:;
#STEPSTYPE:dance-single;
#DESCRIPTION:Fred-104†;
#DIFFICULTY:Challenge;
#METER:18;
#CREDIT:Fred-104†;
#NOTES:
0000
0000
0000
0000
,
0000
0000
0000
0000
,
0000
0000
0000
0000
,
0000
0000
0000
0000
,
0000
0000
0000
0000
,
0000
0000
0000
0000
,
0000
0000
0000
0000
,
0000
0000
0000
0000
,
0000
0000
0000
0000
,
2002
0000
0000
0000
,
0000
0000
0000
3003
,
2020
0000
0000
3030
,
0202
0000
0303
0001
,
2200
0000
0000
3300
,
0022
0000
0000
0033
,
2002
0000
0000
3003
,
1000
0000
0010
0000
0100
0000
0001
0000
1000
0010
1000
0100
0010
0001
0100
0010
1000
0000
0000
0000
0010
0000
1000
0000
0100
0000
0000
0000
0010
0000
0001
0000
,
1000
0000
0010
1000
0100
0000
0010
0001
1000
0000
0001
0010
0100
0000
1000
0001
,
0100
0000
0110
0000
1001
0000
1000
0001
1000
0000
0001
1000
0100
0000
1000
0100
,
0010
0000
0001
1000
0010
0000
1000
0010
0100
0000
0001
1000
0100
0000
0010
0001
,
1000
0000
1010
0000
1001
0000
0000
0000
0001
0000
0100
0010
0001
0000
1000
0100
,
0010
0000
1000
0100
0010
0000
1000
0001
0100
0000
0010
0001
1000
0000
0001
0100
,
0010
0000
0110
0000
1001
0000
0001
1000
0001
0000
0010
0100
1000
0000
0001
0100
,
0010
0000
0001
1000
0100
0000
0010
1000
0002
0000
0203
0000
2300
0000
3200
0000
,
0320
0000
0032
0000
0023
0000
2030
0000
3001
0010
0001
1000
0001
0010
0001
1000
,
0001
0010
0100
1000
0001
0000
0100
0000
0010
1000
0001
1000
0010
1000
0001
1000
,
0100
0010
0001
1000
0001
0000
1000
0000
0001
0100
0010
0100
0001
0100
0010
0100
,
0001
1000
0100
0010
0001
0000
1000
0000
0001
1000
0010
1000
0001
0010
0001
1000
,
0010
0100
0001
1000
0001
0000
0000
0000
1000
0010
1000
0001
1000
0100
0010
0001
,
0010
0100
1000
0001
0100
0010
1000
0001
1000
0001
0010
0100
1000
0001
0100
0010
,
0100
0001
1000
0100
0010
0000
0001
0000
1000
0010
1000
0001
0010
0001
1000
0010
,
1000
0001
0100
0010
1000
0001
0010
0100
0010
0000
0001
1000
0001
0000
1000
0010
,
0100
1000
0100
0001
0100
0010
1000
0000
0001
0000
0010
0000
1000
0000
0010
0000
,
0001
0010
1000
0010
0100
0001
0100
1000
,
0100
0001
0100
1000
0001
0100
1000
0100
,
0010
0001
0010
1000
0001
1000
0100
0010
,
0002
2003
3002
0203
0302
0013
0200
1300
,
0020
0130
2000
3100
0002
1003
0200
0302
,
1003
0020
0130
0010
0002
1003
0010
2000
,
3100
0000
0020
0000
1030
0000
0010
0000
0002
0000
1003
0100
0010
0000
0001
1000
,
0010
1000
0001
0100
0010
1000
0001
0000
1001
0000
0000
0000
0110
0000
0110
0000
,
0000
0000
0001
0000
1000
0001
0100
0000
0001
0000
0010
0000
0100
0000
1100
0000
,
0000
0000
0000
0000
0000
0000
0000
0000
0202
0303
0000
0000
0000
0000
0000
0000
1010
0000
0000
0000
0000
0000
0000
0000
0000
0000
0000
0000
0000
0000
0000
0000
0011
0000
0000
0000
0000
0000
0000
0000
0011
0000
0000
0000
0000
0000
0000
0000
0000
0000
0000
0000
0000
0000
0000
0000
1010
0000
0000
0000
0000
0000
0000
0000
,
1000
0001
0010
0000
0001
0000
1000
0000
0001
0000
0101
0000
1000
0100
0100
0000
,
0001
0100
0100
0000
1000
0000
0010
0000
1000
0000
1100
0000
0000
0000
0110
0000
,
0010
0001
1000
0000
0001
0000
0100
0000
1000
0000
0100
0000
0001
0000
0010
0000
,
0200
0300
0000
0000
0000
0000
0000
0000
1100
0000
0000
0000
0000
0000
0000
0000
1000
0000
0000
0000
0000
0000
0000
0000
1000
0000
0000
0000
0000
0000
0000
0000
1010
0000
0000
0000
0000
0000
0000
0000
0000
0000
0000
0000
0000
0000
0000
0000
1001
0000
0000
0000
0000
0000
0000
0000
0001
0000
0000
0000
0100
0000
0000
0000
,
0010
0000
0000
0000
1000
0000
0000
0000
0001
0000
0000
0000
1000
0000
0000
0000
0100
0000
0000
0000
0010
0000
0001
0000
0100
0000
0010
0000
2000
0000
3001
0010
,
0002
0000
0203
0000
2300
0000
3200
0000
0320
0000
0032
0000
0013
1000
0010
0000
,
2000
0000
0000
0000
0000
0000
0000
0000
3200
0000
0000
0000
0000
0000
0000
0000
0320
0000
0000
0000
0000
0000
0000
0000
0032
0000
0000
0000
0000
0000
0000
0000
1003
0000
0000
0000
0010
0000
0000
0000
0100
0000
0000
0000
0001
0000
0000
0000
2000
3000
0000
0000
0000
0000
0000
0000
1001
0000
0000
0000
0000
0000
0000
0000
,
0001
0000
0100
0000
0101
0000
0000
0000
0110
0000
0010
1000
0000
0000
1100
0000
,
0000
0000
0000
0101
0000
0000
0000
0000
0000
0000
0000
0000
1100
0000
0000
0000
0000
0000
0020
0000
0000
0000
0000
0000
0130
0000
0000
0000
0000
0000
0001
0000
0010
0000
0001
0000
1000
0000
0000
0000
0000
0000
0010
0000
0000
0000
0000
0000
,
1000
0001
0100
0000
0010
0000
1000
0100
0010
0000
0001
0100
1000
0000
0100
0000
,
0010
0000
0000
0000
0000
0000
0000
0000
1000
0000
0000
0000
0000
0000
0000
0000
0100
0000
0000
0000
0000
0000
0000
0000
0010
0000
0000
0000
0001
0000
0000
0000
1000
0000
0000
0000
0001
0000
0000
0000
0200
0300
0000
0000
0000
0000
0000
0000
0001
0000
0000
0000
0000
0000
0000
0000
1000
0000
0000
0000
0100
0000
0000
0000
,
0001
0000
1000
0000
0001
0100
1000
0000
0001
0100
1000
0000
0100
0000
0001
1000
,
0001
0000
0010
0100
0001
0100
0010
0100
0001
0100
1000
0000
2002
0000
0000
0000
,
0000
0000
0000
0000
,
0000
3003
0101
2002
,
0000
0000
3003
0220
,
0000
0000
0330
2200
,
0000
0000
0000
0000
,
0000
3300
0011
0202
,
0000
0000
0303
2002
,
0000
0000
0000
0000
0000
0000
0000
0000
3003
0000
0000
0000
1000
0100
0020
0032
,
1003
0020
0130
2000
3200
0310
2000
3001
0020
0130
0002
0203
2300
3001
0020
0130
,
2000
3200
0320
0032
0203
0320
0032
0013
2000
3001
0200
0310
2000
3100
0002
0103
,
2000
0000
3020
0000
2030
0000
3002
0000
2003
0000
3010
0000
0002
0000
0013
0000
2000
0000
3001
0000
2000
0000
3100
0000
0010
0001
0100
0000
0010
1000
0100
0000
,
0010
0001
1000
0000
0100
1000
0001
0000
1000
0100
0010
0001
1000
0100
0010
0001
1000
0010
0100
0001
1000
0010
0100
0001
1000
0000
0000
0000
0010
0000
0000
0000
,
0001
0000
0000
0000
1000
0000
0100
0000
0001
0000
1000
0000
0002
0203
2300
3002
,
0023
2030
3001
0000
1000
0000
1001
0000
0001
0000
0100
0000
0010
0000
0100
0000
,
0001
0000
0000
0000
1000
0000
0000
0000
0100
0000
0000
0000
1000
0100
1000
0010
0100
0010
1000
0100
1000
0001
0100
0010
2000
0000
0000
0000
3100
0000
0000
0000
,
1001
0000
0001
0000
1000
0100
0001
0100
,
1100
0000
0010
0000
0001
0100
1000
0100
,
0101
0000
0010
0000
1000
0100
0001
0100
,
1100
0000
0010
0000
0001
0100
1000
0100
,
0101
0100
0010
0000
1100
0100
0010
0000
,
0101
0010
1000
0000
1100
0010
0001
0000
,
1000
1000
0100
0100
0010
0010
0001
0001
,
1000
0010
1000
0001
0010
0001
0100
0010
1000
0001
0010
0100
1000
0000
0000
0000
,
0001
0010
0100
1000
0001
0000
0100
0000
0010
0000
1000
0100
0010
0000
0001
0000
,
1000
0010
0100
0001
0010
0001
1000
0001
0010
0000
0010
0000
0010
0000
0001
0000
,
1000
0010
1000
0100
0010
0001
1000
0010
0100
0000
0001
1000
0001
0000
1000
0000
,
0100
0010
0001
1000
0001
0100
0001
0010
0100
0000
1000
0001
0100
0000
0000
0000
,
0001
0010
0100
1000
0001
0000
0100
0000
0010
0000
0100
1000
0100
0000
0001
0000
,
1000
0100
0010
0001
0100
0010
0001
0010
0100
0000
0010
0000
1000
0000
0001
0100
,
0010
1000
0100
0010
0001
1000
0001
0100
0010
0000
0001
0010
2000
0000
3200
0000
,
0310
0100
0001
0000
1000
0010
0001
0000
1000
0100
0010
0001
2000
0000
0000
0000
,
3001
0100
0010
0100
1000
0000
0100
0000
0001
0000
0010
0100
1000
0000
1001
0000
,
0001
0100
0001
0010
0100
1000
0010
0000
1010
0000
0110
0000
0101
0000
0001
1000
,
0001
0010
0001
0100
0010
0000
1000
0100
0001
0100
0010
0000
0002
0000
0103
0000
,
0010
1000
0001
0000
1000
0100
0010
0000
0001
1000
0010
0100
0002
0000
0000
0000
,
1003
0010
0100
0000
0010
0100
0001
0000
1000
0001
0100
0000
0001
1000
0010
0000
,
1000
0100
0010
0001
0010
0100
1000
0000
0001
0100
0010
1000
0010
0100
0001
0000
,
1000
0010
0100
0010
1000
0001
0010
0100
0010
0001
1000
0010
0100
0001
1000
0100
,
1000
0001
0010
0100
0001
0100
1000
0001
1000
0010
0100
1000
0001
0010
0100
0001
,
2002
3003
0000
0000
0000
0000
0000
0000
;

//--------------- dance-double - Fred-104 ----------------
#NOTEDATA:;
#STEPSTYPE:dance-double;
#DESCRIPTION:Fred-104;
#DIFFICULTY:Easy;
#METER:11;
#CREDIT:Fred-104;
#NOTES:
00000000
00000000
00000000
00000000
,
00000000
00000000
00000000
00000000
,
00000000
00000000
00000000
00000000
,
00000000
00000000
00000000
00000000
,
00000000
00000000
00000000
00000000
,
00000000
00000000
00000000
00000000
,
00000000
00000000
00000000
00000000
,
00000000
00000000
00000000
00000000
,
00000000
00000000
00000000
00000000
,
10000000
00100000
10000000
00010000
,
00100000
01000000
00100000
00010000
,
01000000
00010000
00001000
00000010
,
00000100
00000001
00001000
00000001
,
00001000
00000100
00001000
00000000
00000001
00000100
00000001
00000000
,
00001000
00000010
00010000
00000000
00001000
00010000
00000100
00000000
,
00010000
00001000
00010000
00000000
00100000
01000000
00010000
00000000
,
20000000
00000000
00020000
30030000
10000000
00000000
01000000
00000000
,
00100000
00001000
00010000
00001000
,
00000100
00000001
00001000
00000000
00000100
00000000
00010000
00000000
,
01000000
00010000
00000100
00000010
,
00000001
00001000
00000001
00000000
00001000
00000000
00000001
00000000
,
00000100
00001000
00010000
01000000
,
10000000
00010000
10000000
00000000
00100000
00000000
01000000
00000000
,
00100000
00010000
00001000
00000010
,
00000100
00001000
00000100
00000000
00001000
00000001
00000010
00000000
,
00000100
00000000
00010000
00000000
00001000
00010000
00001000
00000000
,
00100000
00010000
10000000
00000000
00100000
00000000
00010000
00000000
,
00001000
00000000
00010000
00000000
00100000
01000000
00100000
00000000
,
10000000
01000000
00100000
00000000
00001000
00010000
00100000
00000000
,
00010000
00100000
01000000
00000000
00100000
10000000
00010000
00000000
,
10000000
01000000
00010000
00000000
01000000
00010000
00001000
00000000
,
00010000
00001000
00000100
00000000
00001000
00000100
00000001
00000000
,
00000010
00000100
00001000
00000000
00000002
00000000
00000100
00000000
,
00000103
00001000
00020000
00001000
,
00031000
01000000
00020000
00100000
,
00130000
00001000
00020000
00001000
,
00031000
00010000
00001000
00000000
00010000
00000000
00100000
00000000
,
10000000
00010000
00100000
10000000
,
00010000
00000000
01000000
00000000
10000000
00000000
00100000
00010000
,
00000000
00001000
00010000
00001000
00010000
00000000
00001000
00000100
,
00000001
00000010
00000100
00000000
00001100
00000000
00000000
00000010
,
00000000
00010000
00001000
00000000
00101000
00000000
00000000
00100000
,
00000000
10010000
11000000
00000000
00000000
01010000
00000000
00000000
,
11000000
00000000
10000000
00000000
00100000
00010000
00000000
00001000
,
00010000
00000000
00011000
00000000
00000000
00010100
00000000
00000000
,
00001100
00000000
00001010
00000000
00000000
00000101
00000000
00000000
,
00001001
00000110
00000000
00000000
00011000
00000000
00000000
01100000
,
00000000
10000000
00000000
00010000
00000000
00100000
01000000
10000000
,
10010000
00000000
00010000
10000000
00000000
01000000
00100000
00000000
,
01000000
00000000
00010000
00000000
00001000
00000100
00000001
00001000
,
00000000
00000000
00000100
00000000
00000010
00000000
00000000
00000000
00000001
00000000
00000000
00000100
00000000
00000000
00001000
00000000
,
00000000
00010000
00000000
00000000
00001000
00000000
00000000
00000000
00010000
00000000
00010000
00000000
00000000
00000000
00001000
00000000
,
00000100
00000001
00000000
00000010
00000100
00001000
00000000
00000100
,
00000000
00010000
00000000
00001000
00010000
00001000
00001000
00000000
,
00010000
01000000
00000000
00100000
01000000
10000000
00100000
10000000
,
00100000
00000000
00010000
00001000
00010000
00000000
00011000
00000000
,
00000000
00000000
00000000
00000000
,
00000000
00000000
00000100
00000110
,
00000000
00000000
00000000
00000000
,
00000000
00000000
00000000
00001001
,
00000000
00000000
00000000
00000000
,
00000000
00000000
00010000
00011000
,
00000000
00000000
00000000
01100000
,
00000000
00000000
00000000
00000000
00000000
00000000
00001000
00100000
,
01000000
10000000
00100000
00010000
00001000
01000000
00001000
00000100
,
00000010
00001000
00000100
00000010
00000001
00000000
00001000
00000001
,
00000100
00000010
00000100
00001000
00010000
01000000
00100000
00010000
,
01000000
00000000
00100000
00000000
10000000
00100000
01000000
00000000
00010000
00100000
01000000
00000000
11000000
00000000
00000000
00000000
,
00000000
00000000
00010000
00000000
00000000
00000000
10000000
01000000
,
00010000
00001000
00000000
00011000
00000000
00000000
00000000
00010000
,
00000000
00000000
00000000
00001000
00000010
00000001
00000100
00000000
,
00000110
00000000
00010000
00000000
,
00011000
00000000
00001000
00000000
,
01100000
00000000
01000000
00000000
,
10010000
00000000
00010000
00000000
,
10000000
01000000
00010000
00001000
,
00010000
01000000
10000000
00010000
,
10000000
00100000
00010000
00001000
,
00010000
00001000
00010000
00001000
00010000
00001000
00010000
00000000
,
00001000
00010000
00000100
00001000
,
00000100
00000000
00000010
00000000
00000100
00000010
00000100
00000000
,
00000010
00000001
00001000
00000001
,
00000100
00000010
00000100
00000000
00001000
00010000
00001000
00000000
,
00010000
00001000
00010000
00100000
,
01000000
00010000
10000000
00000000
01000000
00100000
01000000
00000000
,
10000000
00100000
00010000
00001000
,
00010000
00001000
00010000
00000000
00000010
00001000
00000010
00000000
,
00001000
00000100
00000001
00000100
,
00001000
00000010
00000100
00000000
00000001
00001000
00000010
00000000
,
00000100
00001000
00010000
00100000
,
01000000
00010000
10000000
00000000
01000000
00100000
00010000
00000000
,
10000000
00000000
00100000
00000000
00010000
00001000
00010000
00000000
,
01000000
00000000
00010000
00000000
00001000
00000100
00000001
00000000
,
00001000
00000100
00000010
00000000
00000001
00000100
00000010
00000000
,
00000100
00001000
00010000
00001000
00000010
00000001
00001000
00000000
,
00001001
00000000
00000000
00000000
;

//--------------- dance-double - Fred-104 ----------------
#NOTEDATA:;
#STEPSTYPE:dance-double;
#DESCRIPTION:Fred-104;
#DIFFICULTY:Medium;
#METER:14;
#CREDIT:Fred-104;
#NOTES:
00000000
00000000
00000000
00000000
,
00000000
00000000
00000000
00000000
,
00000000
00000000
00000000
00000000
,
00000000
00000000
00000000
00000000
,
00000000
00000000
00000000
00000000
,
00000000
00000000
00000000
00000000
,
00000000
00000000
00000000
00000000
,
00000000
00000000
00000000
00000000
,
00000000
00000000
00000000
00000000
,
00001000
00010000
00001000
00100000
00010000
00100000
01000000
00000000
,
10000000
00100000
10000000
00100000
10000000
00100000
01000000
00000000
,
00100000
00010000
00001000
00010000
00000100
00001000
00000100
00000000
,
00000010
00000001
00000100
00001000
00010000
00001000
00000100
00000000
,
00000001
00000011
00001000
00001100
,
00000010
00011000
01000000
00011000
,
00010000
00001000
00000100
00000010
00000100
00001000
00010000
01000000
,
00020000
00000000
00002000
00033000
00001000
00101000
00000000
00011000
,
00000000
00101000
00000000
00011000
00000000
00010010
00000000
00011000
,
00000000
00000010
00001000
00000001
00000000
00000101
00000000
00000011
,
00000000
00000101
00000000
00001001
00000000
00000110
00000000
00011000
,
00000000
01000000
00100000
00000000
10000000
00100000
01000000
10000000
,
01000000
00100000
00010000
00000000
00001000
00010000
00001000
01000000
,
00001000
00010000
00001000
00000000
00010000
00001000
00000100
00000001
,
00000010
00000100
00001000
00000000
00000002
00000203
00000320
00000230
,
00002300
00023000
00032000
00000000
00013000
00001000
00000010
00000100
,
00000010
00000001
00001000
00000100
00000010
00000001
00000100
00001000
,
00010000
00001000
00010000
00000000
01000000
10000000
00010000
10000000
,
00100000
01000000
00100000
10000000
00010000
00100000
01000000
00010000
,
00001000
00000010
00000100
00000000
00001000
00000001
00000100
00000010
,
00001000
00000001
00000010
00000100
00001000
00000100
00010000
00001000
,
01000000
00001000
00010000
00100000
01000000
00100000
10000000
00100000
,
00010000
00001000
00010000
01000000
00100000
01000000
10000000
00010000
,
01000000
00000000
00100000
10000000
00100000
00000000
00000000
00000000
20000000
00000000
00000000
00000000
32000000
00000000
00000000
00000000
,
03020000
00032000
00003200
00000302
,
00002003
00003002
00000023
00002030
,
00023000
00230000
20300000
32000000
,
03010000
00001000
00000100
00000001
00001000
00000000
00000100
00000000
,
00000010
00000000
00001000
00000000
00010000
00000000
00001000
00010000
,
00000000
01000000
00100000
01000000
10000000
01000000
00100000
00001000
,
00000000
00010000
00001000
01000000
00001000
00010000
00001000
00000100
,
00001000
00010000
00011000
00000000
00010000
00000000
00000100
00010100
,
00000000
00010000
00001000
00000100
00000010
00001000
00000001
00000010
,
00000000
00000110
00011000
00000000
01000000
01100000
00000000
00010000
,
10000000
01000000
00100000
00000000
00010000
00100000
00001000
00010000
,
00100000
01000000
00100000
00000000
10100000
00000000
00000000
00000000
10000000
00000000
11000000
00000000
00000000
00000000
01000000
00000000
,
00010000
00001000
00000100
00000000
00000010
00001000
00000000
00000100
,
00000110
00011000
00000000
00010000
00001000
00000000
00000100
00000010
,
00001000
00000100
00000010
00001000
00010000
01000000
00100000
00020000
,
01030000
00100000
00010000
00001000
00010000
00000100
00010000
00000000
,
00001000
00000100
00000001
00000010
00000100
00010000
00001000
00001000
,
00010000
00000000
00000100
00000000
00001000
00000000
00000000
00000000
01000000
00000000
00000000
00010000
00000000
00000000
00000010
00000000
,
00000000
00001000
00000000
00000000
00100000
00000000
00000000
00000000
00010000
00000000
00001000
00000000
00001000
00000000
00010000
00000000
,
00001000
00010000
00100000
01000000
00100000
10000000
01000000
00100000
,
01000000
00010000
01000000
10000000
00010000
10000000
00100000
01000000
,
00100000
00010000
00001000
00000100
00000010
00000001
00000010
00000000
,
00001000
00000010
00010000
00011000
,
00000000
00000000
00000000
00000000
,
00000000
00000000
01001000
00011000
,
00000000
00000000
00000000
00000000
,
00000000
00000000
00000000
00001010
,
00000000
00000000
00000000
00000000
,
00000000
00000000
00000110
00001001
,
00000000
00000000
00000000
00002020
,
00000000
00000000
00000000
00000000
00000000
00000000
00000000
00000000
00003030
00000000
00000000
00000000
00000001
00001000
00000010
00010000
,
00001000
00100000
00010000
10000000
00100000
00000000
00010000
00000000
00001000
00000000
00010000
00000000
00001000
00010000
00100000
01000000
,
00010000
10000000
01000000
00100000
00001000
00000000
00010000
00000000
00001000
00000100
00000001
00000000
00001000
00000100
00000010
00000001
,
00001000
00000010
00010000
00001000
00010000
00100000
01000000
00000000
10000000
01000000
00100000
00000000
10000000
00010000
00100000
01000000
,
00010000
00001000
00010000
00000100
00000010
00000100
00001000
00000001
00000100
00001000
00010000
00000100
00010000
00000000
00001000
00000000
,
00010000
00000000
00000010
00000000
00010000
00000000
00001000
00000000
00100000
00000000
00010000
00000000
10000000
00100000
01000000
00100000
,
00010000
00001000
00010000
00000000
00000000
00000000
00011000
00000000
00000000
00000000
00010000
00000000
00001000
00000000
00000010
00000000
,
00000001
00000000
00000100
00000000
00000010
00000000
00001000
00000100
00000010
00000001
00000100
00000010
00000100
00000000
00000000
00000000
,
00001001
00000001
00000100
00001000
,
00011000
00010000
00100000
10000000
,
10010000
10000000
01000000
00010000
,
00011000
00001000
00000010
00000001
,
00001100
00000010
00000101
00000010
,
00011000
00100000
11000000
00100000
,
01010000
11000000
01010000
01100000
,
10000000
10000000
01000000
01000000
00010000
00001000
00011000
00000000
,
00001000
01000000
00100000
00010000
00001000
00000010
00000001
00001000
,
00000010
00000000
00010000
00000000
00001000
00010000
01000000
00100000
,
00010000
10000000
00100000
00010000
00001000
00010000
00000100
00010000
,
00001000
00001000
00010000
00010000
00001000
00010000
00011000
00000000
,
00010000
00000010
00010000
00000010
00001000
00010000
00100000
00001000
,
01000000
01000000
00001000
00001000
00010000
00000100
00010100
00000000
,
00010000
00001000
00000100
00000010
00000100
00001000
00010000
00000010
,
00010000
01000000
00010000
00001000
00100000
00001000
00010000
00000000
,
00001000
00010000
00100000
10000000
00010000
00100000
01000000
00010000
,
00001000
00010000
00001000
00000100
00000001
00000100
00001000
00010000
,
00000100
00010000
00001000
01000000
00001000
00010000
00001000
00100000
,
00010000
10000000
01000000
00100000
00001000
00010000
00000010
00000000
,
00001000
00000100
00000010
00001000
00010000
01000000
00100000
00000000
,
00010000
01000000
00100000
00010000
00001000
00000100
00000010
00000000
,
00001000
00000100
00000010
00000100
00001000
00000001
00000100
00001000
,
00010000
00100000
01000000
00010000
10000000
01000000
00100000
00010000
,
10010000
00000000
00000000
00000000
;

//--------------- dance-double - Fred-104 ----------------
#NOTEDATA:;
#STEPSTYPE:dance-double;
#DESCRIPTION:Fred-104;
#DIFFICULTY:Hard;
#METER:17;
#CREDIT:Fred-104;
#NOTES:
00000000
00000000
00000000
00000000
,
00000000
00000000
00000000
00000000
,
00000000
00000000
00000000
00000000
,
00000000
00000000
00000000
00000000
,
00000000
00000000
00000000
00000000
,
00000000
00000000
00000000
00000000
,
00000000
00000000
00000000
00000000
,
00000000
00000000
00000000
00000000
,
00000000
00000000
00000000
00000000
,
00000001
00001000
00000001
00001000
00000001
00000010
00001000
00000010
,
00001000
00010000
00001000
00010000
00100000
10000000
00010000
10000000
,
00020000
00030000
00000000
00000000
00000000
00000000
00000000
00000000
10000000
00000000
00000000
00000000
00000000
00000000
00000000
00000000
01000000
00000000
00000000
00000000
00000000
00000000
00000000
00000000
00010000
00000000
00000000
00000000
00000000
00000000
00000000
00000000
01000000
00000000
00000000
00000000
00000000
00000000
00000000
00000000
00010000
00000000
00000000
00000000
00000000
00000000
00000000
00000000
00001000
00000000
00000000
00000000
00000000
00000000
00000000
00000000
00010000
00000000
00000000
00000000
00000000
00000000
00000000
00000000
,
00002000
00003000
00000000
00000000
00000000
00000000
00000000
00000000
00000100
00000000
00000000
00000000
00000000
00000000
00000000
00000000
00000001
00000000
00000000
00000000
00000000
00000000
00000000
00000000
00000100
00000000
00000000
00000000
00000000
00000000
00000000
00000000
00000001
00000000
00000000
00000000
00000000
00000000
00000000
00000000
00001000
00000000
00000000
00000000
00000000
00000000
00000000
00000000
00000001
00000000
00000000
00000000
00000000
00000000
00000000
00000000
00000000
00000000
00000000
00000000
00000000
00000000
00000000
00000000
,
00000002
00000003
00000000
00000000
00000000
00000000
00000000
00000000
00000000
00000000
00000000
00000000
00000000
00000000
00000000
00000000
00001001
00000000
00000000
00000000
00000000
00000000
00000000
00000000
00000000
00000000
00000000
00000000
00000000
00000000
00000000
00000000
00000100
00000000
00000000
00000000
00000000
00000000
00000000
00000000
00000000
00000000
00000000
00000000
00000000
00000000
00000000
00000000
00011000
00000000
00000000
00000000
00000000
00000000
00000000
00000000
00000000
00000000
00000000
00000000
00000000
00000000
00000000
00000000
,
00200000
00300000
00000000
00000000
00000000
00000000
00000000
00000000
00000000
00000000
00000000
00000000
00000000
00000000
00000000
00000000
10010000
00000000
00000000
00000000
00000000
00000000
00000000
00000000
00000000
00000000
00000000
00000000
00000000
00000000
00000000
00000000
01000000
00000000
00000000
00000000
00000000
00000000
00000000
00000000
00000000
00000000
00000000
00000000
00000000
00000000
00000000
00000000
00011000
00000000
00000000
00000000
00000000
00000000
00000000
00000000
00000000
00000000
00000000
00000000
00000000
00000000
00000000
00000000
,
00000020
00000030
00000000
00000000
00000000
00000000
00000000
00000000
00000000
00000000
00000000
00000000
00000000
00000000
00000000
00000000
00001001
00000000
00000000
00000000
00000000
00000000
00000000
00000000
00000000
00000000
00000000
00000000
00000000
00000000
00000000
00000000
00001000
00000000
00000000
00000000
00000000
00000000
00000000
00000000
00000000
00000000
00000000
00000000
00000000
00000000
00000000
00000000
00000110
00000000
00000000
00000000
00000000
00000000
00000000
00000000
00000000
00000000
00000000
00000000
00000000
00000000
00000000
00000000
,
00000002
00000000
00002000
00003003
00000010
00000100
00001000
00010000
,
00100000
01000000
00010000
00000000
00100000
01000000
00010000
00001000
,
00000010
00000100
00001000
00000000
00000100
00000010
00001000
00010000
,
01000000
00100000
00010000
00000000
01000000
00100000
00010000
00001000
,
00000100
00000010
00001000
00000000
00010000
00001000
00000100
00000010
,
00000001
00001000
00010000
00000000
00001000
00010000
00100000
01000000
,
10000000
00010000
00001000
00000000
00010000
00001000
00000001
00000010
,
00000100
00001000
00010000
00000000
00002000
00023000
00230000
02300000
,
03200000
00000000
20300000
00000000
32000000
00000000
00000000
00000000
03010000
00000000
00001000
00010000
00001000
00000000
00010000
00000000
,
00001000
00000000
00000100
00000010
00000100
00000000
00000001
00000000
00001000
00000000
00000100
00000010
00000100
00000000
00010000
00000000
,
00001000
00000000
01000000
00010000
01000000
00000000
00001000
00000000
00010000
00000000
00001000
00010000
00001000
00000000
00010000
00000000
,
00100000
00000000
01000000
00010000
01000000
00000000
00010000
00000000
10000000
00000000
01000000
00010000
01000000
00000000
00010000
00000000
,
00001000
00000000
00000100
00000000
00000101
00000000
00000000
00000000
00000001
00000010
00000001
00000000
00001000
00000010
00001000
00000000
,
00000001
00000100
00000001
00000000
00001000
00000100
00001000
00000000
00000010
00001000
00000010
00000000
00010000
00001000
00010000
00000000
,
00000100
00001000
00000100
00000000
00010000
00001000
00010000
00000000
00001000
00100000
00001000
00000000
01000000
00100000
01000000
00000000
,
00010000
00100000
00010000
00000000
10000000
01000000
10000000
00000000
00010000
00000000
01000000
00100000
01000000
00000000
00010000
00000000
,
10000000
00000000
10000000
01000000
00100000
00010000
00100000
00000000
00001000
00000000
00010000
00000000
00100000
00000000
00010000
00000000
,
00001000
00100000
00010000
00100000
00001000
00010000
01000000
00010000
,
00001000
01000000
00010000
01000000
00001000
00010000
00100000
00010000
,
00001000
00100000
00001000
00010000
00001000
00000010
00001000
00010000
,
00000010
00010000
00001000
00010000
00001000
00010000
00100000
01000000
,
00010000
00100000
01000000
00010000
00001000
00010000
00000100
00000010
,
00000100
00001000
00000010
00000100
00001000
00010000
00001000
00100000
,
01000000
00010000
00001000
00010000
00022000
00000000
00000000
00000000
,
00000000
00000000
00033000
00000000
01100000
00000000
00010000
10010000
,
00000000
00000000
10000000
00000000
01000000
00100000
01000000
00000000
00010000
00000000
00001000
00000000
00010000
00000000
00011000
00000000
,
00000000
00000000
00000000
00000000
00000000
00000000
00000000
00000000
00020020
00030030
00000000
00000000
00000000
00000000
00000000
00000000
00011000
00000000
00000000
00000000
00000000
00000000
00000000
00000000
00000000
00000000
00000000
00000000
00000000
00000000
00000000
00000000
00010000
00000000
00000000
00000000
00000000
00000000
00000000
00000000
00010100
00000000
00000000
00000000
00000000
00000000
00000000
00000000
00000000
00000000
00000000
00000000
00000000
00000000
00000000
00000000
00000110
00000000
00000000
00000000
00000000
00000000
00000000
00000000
,
00000001
00001000
00000001
00000000
00001000
00000000
00000100
00000000
00000001
00000000
00000100
00000000
00000010
00000000
00000100
00000000
,
00010000
00001000
00010000
00000000
00011000
00000000
00001000
00000000
01000000
00000000
01001000
00000000
00000000
00000000
00011000
00000000
,
00010000
00001000
00010000
00000000
00001000
00000000
00100000
00000000
00001000
00000000
00011000
00000000
00000000
00000000
01001000
00000000
,
00022000
00033000
00000000
00000000
00000000
00000000
00000000
00000000
00010100
00000000
00000000
00000000
00000000
00000000
00000000
00000000
00000000
00000000
00000000
00000000
00000000
00000000
00000000
00000000
00000110
00000000
00000000
00000000
00000000
00000000
00000000
00000000
00001001
00000000
00000000
00000000
00000000
00000000
00000000
00000000
00000000
00000000
00000000
00000000
00000000
00000000
00000000
00000000
00000001
00000000
00000000
00000000
00000000
00000000
00000000
00000000
00000100
00000000
00000000
00000000
00000001
00000000
00000000
00000000
,
00000010
00000000
00000100
00000000
00000010
00000000
00000001
00000000
00000100
00000000
00001000
00010000
00001000
00010000
00002000
00000000
,
00013000
00000000
01000000
00000000
00100000
00000000
00010000
00000000
10000000
00000000
00100000
00000000
01000000
00100000
01000000
00000000
,
00100000
00000000
00000000
00000000
00000000
00000000
00000000
00000000
00010000
00000000
00000000
00000000
00000000
00000000
00000000
00000000
00001000
00000000
00000000
00000000
00000000
00000000
00000000
00000000
00010000
00000000
00000000
00000000
00000000
00000000
00000000
00000000
01000000
00000000
00000000
00000000
00000000
00000000
00000000
00000000
00100000
00000000
00000000
00000000
00010000
00000000
00000000
00000000
20000000
30000000
00000000
00000000
00000000
00000000
00000000
00000000
01100000
00000000
00000000
00000000
00000000
00000000
00000000
00000000
,
00000000
00000000
00010000
00000000
00011000
00000000
00000000
00000000
00000110
00000000
00000010
00000100
00000000
00000000
00000010
00000000
,
00000000
00000000
00000000
00001000
00000000
00000000
00000000
00000000
00000000
00000000
00000000
00000000
00001001
00000000
00000000
00000000
00000000
00000000
00000000
00000000
00000000
00000000
00000000
00000000
00000001
00000000
00000000
00000000
00000000
00000000
00000100
00000000
00000010
00000000
00000100
00000000
00000010
00000000
00000000
00000000
00000000
00000000
00001000
00000000
00000000
00000000
00000000
00000000
,
00000100
00000010
00000100
00010000
00001000
00000010
00000100
00000010
,
00001000
00000000
00000000
00000000
00000000
00000000
00000000
00000000
00010000
00000000
00000000
00000000
00000000
00000000
00000000
00000000
00100000
00000000
00000000
00000000
00000000
00000000
00000000
00000000
01000000
00000000
00000000
00000000
00000000
00000000
00000000
00000000
00010000
00000000
00000000
00000000
10000000
00000000
00000000
00000000
00020000
00030000
00000000
00000000
00000000
00000000
00000000
00000000
10010000
00000000
00000000
00000000
00000000
00000000
00000000
00000000
10000000
00000000
00000000
00000000
00000000
00000000
00000000
00000000
,
00100000
00000000
01100000
00000000
00000000
00000000
01000000
00000000
00001000
00010000
00001000
00000000
00010000
00000000
00000100
00000000
,
00001100
00000000
00001000
00000000
00000001
00000000
00000100
00000000
00000010
00001000
00000001
00000000
00001001
00000000
00000000
00000000
,
00000000
00000000
00000000
00000000
,
00000000
00000000
00011000
10010000
,
00000000
00000000
00000000
00000000
,
00000000
00000000
00000000
00011000
,
00000000
00000000
00000000
00000000
,
00000000
00000000
00001001
00011000
,
00000000
00000000
00000000
20020000
,
00000000
00000000
00000000
00000000
00000000
00000000
00000000
00000000
30030000
00000000
00000000
00000000
00010000
00100000
10000000
00100000
,
00010000
10000000
00100000
00010000
00001000
00000000
00010000
00000000
00000010
00010000
00100000
00010000
00001000
00100000
00001000
00010000
,
00001000
00000100
00000010
00001000
00000001
00000100
00001000
00000000
00010000
00100000
10000000
00000000
01000000
00100000
00001000
00000010
,
00000100
00000010
00001000
00010000
00001000
00010000
00100000
00000000
01000000
00100000
10000000
00000000
00010000
00100000
10000000
00100000
,
00001000
00000000
00100000
00000000
01000000
00000000
00010000
00000000
00001000
00010000
00001000
00010000
00000100
00010000
00000100
00010000
00000100
00001000
00000100
00001000
00000100
00000000
00000010
00000000
00000001
00000000
00000000
00000000
00001000
00000000
00000000
00000000
,
00000010
00000000
00000100
00000000
00001000
00000000
00010000
00000000
00001000
00000000
00000100
00000000
00000002
00000023
00002030
00023000
,
00230000
20300000
30010000
00000000
00000000
00000000
10000000
00000000
00100000
00000000
01000000
00000000
00100000
00000000
10000000
00000000
,
01000000
00000000
00000000
00000000
00100000
00000000
00000000
00000000
00010000
00000000
00000000
00000000
01000000
00000000
00001000
00010000
00001000
00000000
00010000
00000100
00001000
00000010
00001000
00000010
00000100
00000000
00000000
00000000
00000000
00000000
00000000
00000000
,
00001001
00000000
00000001
00000000
00000010
00001000
00010000
00000000
,
00011000
00000000
00001000
00000000
00010000
01000000
10000000
00000000
,
10010000
00000000
10000000
00000000
00100000
00010000
00001000
00000000
,
00011000
00000000
00010000
00000000
00001000
00000100
00000001
00000000
,
00001001
00000100
00011000
01000000
,
10010000
00100000
00011000
00000010
,
00001001
00001010
00000101
00001001
,
00000001
00000000
00000100
00000000
00000010
00000000
00001000
00000000
00000001
00000010
00000100
00010000
00001000
00000000
00000000
00000000
,
00010000
00000000
00000100
00001000
00000100
00000000
00010000
00000000
00000010
00000000
00001000
00000010
00001000
00000000
00000100
00000000
,
00010000
00001000
00100000
00000000
00010000
10000000
00100000
00000000
01000000
00000000
01100000
00000000
10010000
00000000
00000000
00000000
,
00010000
00000000
10000000
01000000
10000000
00000000
00100000
00000000
00010000
00000000
00001000
00010000
00001000
00000000
00000010
00000000
,
00000100
00001000
00000100
00001000
00000001
00000100
00000001
00000100
00000001
00000000
00001000
00000000
00001001
00000000
00000000
00000000
,
00000001
00000000
00000100
00000010
00000100
00000000
00000001
00000000
00001000
00000000
00000100
00000010
00000100
00000000
00001000
00000000
,
00000001
00000010
00000100
00000000
00010000
00001000
00010000
00000000
00001000
00000000
00011000
00000000
00011000
00000000
00000000
00000000
,
00001000
00100000
00001000
00100000
00001000
00010000
00001000
00010000
00100000
00000000
01000000
00010000
10000000
00000000
01000000
00000000
,
11000000
00000000
01000000
00000000
01100000
00000000
00100000
00000000
00101000
00000000
00001000
00010000
00001000
00000000
00000000
00000000
,
00010000
00000000
00000010
00001000
00000010
00000000
00001000
00000000
00000001
00000010
00000100
00001000
00000100
00000010
00000001
00000000
,
00001000
00000010
00010000
00001000
00010000
00000000
00001000
00000000
00001100
00000000
00000100
00000000
00000101
00000000
00000000
00000000
,
00000001
00000010
00000001
00000010
00001000
00010000
00001000
00010000
00001000
00000000
00100000
00010000
00100000
00000000
01000000
00000000
,
10000000
00100000
01000000
00000000
00100000
10000000
01000000
00000000
00100000
00001000
00010000
00001000
00020000
00000000
00000000
00000000
,
00031000
00010000
00100000
01000000
00001000
00010000
01000000
00100000
,
00010000
10000000
01000000
00100000
00001000
00010000
00000100
00001000
,
00000001
00001000
00000001
00001000
00000010
00000100
00000001
00001000
00000100
00000010
00000001
00001000
00000010
00010000
00001000
00010000
,
00002000
00000000
00010000
00000000
00000010
00000000
00013000
00001000
,
00022000
00033000
00000000
00000000
00000000
00000000
00000000
00000000
;

//--------------- dance-double - Fred-104† ----------------
#NOTEDATA:;
#STEPSTYPE:dance-double;
#DESCRIPTION:Fred-104†;
#DIFFICULTY:Challenge;
#METER:18;
#CREDIT:Fred-104†;
#NOTES:
00000000
00000000
00000000
00000000
,
00000000
00000000
00000000
00000000
,
00000000
00000000
00000000
00000000
,
00000000
00000000
00000000
00000000
,
00000000
00000000
00000000
00000000
,
00000000
00000000
00000000
00000000
,
00000000
00000000
00000000
00000000
,
00000000
00000000
00000000
00000000
,
00000000
00000000
00000000
00000000
,
00022000
00000000
00000000
00000000
,
00000000
00000000
00000000
00033000
,
00020020
00000000
00000000
00030030
,
00022000
00000000
00033000
00001000
,
00202000
00000000
00000000
00303000
,
00020200
00000000
00000000
00030300
,
02002000
00000000
00000000
03003000
,
00010000
00000000
00001000
00000000
00000010
00000000
00000001
00000000
00001000
00000010
00001000
00000010
00000100
00000001
00000100
00000001
00001000
00000000
00000000
00000000
00000001
00000000
00000010
00000000
00000001
00000000
00000000
00000000
00000100
00000000
00000010
00000000
,
00000100
00000000
00000010
00001000
00000010
00000000
00010000
00001000
00010000
00000000
00001000
01000000
00001000
00000000
00100000
00010000
,
00100000
00000000
00010000
10000000
00010000
00000000
01000000
00000000
00100000
00000000
10000000
01000000
10000000
00000000
01000000
00010000
,
01000000
00000000
00010000
00001000
00010000
00000000
00001000
00000010
00001000
00000000
00000010
00000001
00000010
00000000
00000001
00000100
,
00001000
00000000
00010000
00000000
00011000
00000000
00000000
00000000
00001000
00000000
01000000
00010000
01000000
00000000
00001000
00010000
,
00001000
00000000
00100000
00010000
00100000
00000000
00001000
00010000
00001000
00000000
00010000
00000010
00010000
00000000
00000100
00001000
,
00000100
00000000
00010000
00001000
00010000
00000000
00000010
00000000
00010000
00000000
00001000
00010000
00100000
00000000
01000000
00010000
,
10000000
00000000
00100000
00010000
00001000
00000000
00000100
00000000
00000002
00000000
00000023
00000000
00000230
00000000
00002300
00000000
,
00023000
00000000
00230000
00000000
02300000
00000000
23000000
00000000
30010000
01000000
00010000
10000000
01000000
10000000
00010000
00000000
,
10000000
00100000
10000000
00010000
00100000
00010000
10000000
00000000
01000000
00100000
00010000
00100000
00001000
00010000
00001000
00000000
,
00010000
00000100
00001000
00000100
00000010
00000001
00001000
00000000
00000001
00000100
00000010
00001000
00000001
00000010
00000100
00000000
,
00001000
00000010
00000100
00000010
00001000
00000001
00001000
00000000
00000001
00000010
00000001
00000010
00001000
00010000
01000000
00010000
,
01000000
10000000
00010000
10000000
00010000
00000000
00000000
00000000
10000000
00010000
10000000
01000000
00100000
01000000
10000000
00010000
,
00100000
01000000
10000000
00010000
01000000
00001000
00010000
00000000
00001000
00010000
00001000
01000000
00001000
00010000
00000100
00001000
,
00000001
00000100
00000010
00001000
00000001
00000010
00000100
00000000
00001000
00000001
00000010
00000100
00001000
00000100
00010000
00001000
,
00100000
00010000
00100000
01000000
10000000
00010000
01000000
00100000
10000000
00000000
00010000
01000000
00100000
00000000
00010000
00001000
,
00010000
00001000
00000010
00000100
00000010
00000001
00001000
00000000
00000001
00000000
00000100
00000000
00000010
00000000
00000001
00000000
,
00000010
00000100
00001000
00010000
00100000
01000000
00010000
01000000
,
10000000
01000000
00100000
10000000
00010000
00100000
01000000
00010000
,
00001000
00000010
00000100
00001000
00000010
00000100
00001000
00010000
,
00002000
00023000
02030000
23000000
30100000
10000000
02000000
03100000
,
02000000
03010000
00002000
00013000
00000020
00001030
00000002
00002003
,
00003100
00000020
00000031
00000100
00002000
00013000
00100000
20000000
,
31000000
00000000
00200000
00000000
00310000
00000000
00001000
00000000
00000200
00000000
00000310
00000001
00001000
00000000
00000001
00000100
,
00000010
00001000
00000010
00001000
00000001
00000010
00000100
00000000
00001100
00000000
00000000
00000000
00000110
00000000
00000110
00000000
,
00000000
00000000
00000001
00000000
00001000
00000100
00010000
00000000
00001000
00000000
00010000
00000000
01000000
00000000
00100000
00000000
,
00000000
00000000
00000000
00000000
00000000
00000000
00000000
00000000
20020000
30030000
00000000
00000000
00000000
00000000
00000000
00000000
10100000
00000000
00000000
00000000
00000000
00000000
00000000
00000000
00000000
00000000
00000000
00000000
00000000
00000000
00000000
00000000
01001000
00000000
00000000
00000000
00000000
00000000
00000000
00000000
00011000
00000000
00000000
00000000
00000000
00000000
00000000
00000000
00000000
00000000
00000000
00000000
00000000
00000000
00000000
00000000
00010100
00000000
00000000
00000000
00000000
00000000
00000000
00000000
,
00010000
00000100
00001000
00000000
00000100
00000000
00000010
00000000
00000001
00000000
00000011
00000000
00000010
00000100
00001000
00000000
,
00000010
00000100
00000001
00000000
00000010
00000000
00000100
00000000
00010000
00000000
00011000
00000000
00000000
00000000
01001000
00000000
,
00001000
00010000
01000000
00000000
00100000
00000000
00010000
00000000
10000000
00000000
00100000
00000000
00000000
00000000
00010000
00001000
,
00020000
00030000
00000000
00000000
00000000
00000000
00000000
00000000
00011000
00000000
00000000
00000000
00000000
00000000
00000000
00000000
00010000
00000000
00000000
00000000
00000000
00000000
00000000
00000000
00000010
00000000
00000000
00000000
00000000
00000000
00000000
00000000
00010010
00000000
00000000
00000000
00000000
00000000
00000000
00000000
00000000
00000000
00000000
00000000
00000000
00000000
00000000
00000000
00001010
00000000
00000000
00000000
00000000
00000000
00000000
00000000
00001000
00000000
00000000
00000000
00000001
00000000
00000000
00000000
,
00000010
00000000
00000000
00000000
00000100
00000000
00000000
00000000
00000010
00000000
00000000
00000000
00000001
00000000
00000000
00000000
00001000
00000000
00000000
00000000
00000010
00000000
00000100
00000000
00000010
00000000
00000100
00000000
00000020
00000000
00001030
00000001
,
00002000
00000000
00003200
00000000
00000320
00000000
00002030
00000000
00023000
00000000
02030000
00000000
03100000
00010000
10000000
00000000
,
00020000
00000000
00000000
00000000
00000000
00000000
00000000
00000000
02030000
00000000
00000000
00000000
00000000
00000000
00000000
00000000
03200000
00000000
00000000
00000000
00000000
00000000
00000000
00000000
00320000
00000000
00000000
00000000
00000000
00000000
00000000
00000000
00230000
00000000
00000000
00000000
00000000
00000000
00000000
00000000
01300000
00000000
00000000
00000000
00010000
00000000
00000000
00000000
20000000
30000000
00000000
00000000
00000000
00000000
00000000
00000000
10010000
00000000
00000000
00000000
00000000
00000000
00000000
00000000
,
10000000
00000000
01000000
00000000
01100000
00000000
00000000
00000000
00101000
00000000
00001000
00010000
00000000
00000000
00010010
00000000
,
00000000
00000000
00000000
01001000
00000000
00000000
00000000
00000000
00000000
00000000
00000000
00000000
00010100
00000000
00000000
00000000
00000000
00000000
00010000
00000000
00000000
00000000
00000000
00000000
00001000
00000000
00000000
00000000
00000000
00000000
00010000
00000000
00001000
00000000
00010000
00000000
00001000
00000000
00000000
00000000
00000000
00000000
00010000
00000000
00000000
00000000
00000000
00000000
,
00001000
00000010
00000001
00000100
00001000
00010000
00100000
10000000
,
01000000
00000000
00010000
00000000
00001000
00000000
00000010
00000000
00000001
00000000
00002001
00000000
00003001
00000000
00001000
00000100
,
00000010
00000000
00000001
00000000
00001000
00000010
00000100
00000000
00001000
00010000
00001000
00000000
00010000
00000000
01000000
00100000
,
00010000
00000000
01000000
00100000
10000000
01000000
00100000
00010000
00100000
00001000
00010000
00000000
00022000
00000000
00000000
00000000
,
00000000
00000000
00000000
00000000
,
00000000
00033000
00000110
00002002
,
00000000
00000000
00003003
00022000
,
00000000
00000000
00033000
20020000
,
00000000
00000000
00000000
00000000
,
00000000
30030000
00011000
00002002
,
00000000
00000000
00003003
00022000
,
00000000
00000000
00000000
00000000
00000000
00000000
00000000
00000000
00033000
00000000
00000000
00000000
00001000
00010000
00100000
00010000
,
00001000
00010000
00001000
00000010
00001000
00010000
00100000
01000000
10000000
00010000
00001000
00000100
00000001
00001000
00000100
00000010
,
00001000
00010000
01000000
00100000
10000000
00010000
00001000
00100000
00001000
00010000
00001000
00000010
00000001
00001000
00000010
00000100
,
00001000
00000000
00010000
00000000
00100000
00000000
01000000
00000000
00010000
00000000
01000000
00000000
10000000
00000000
01000000
00000000
00010000
00000000
10000000
00000000
00100000
00000000
01000000
00000000
00010000
10000000
01000000
00000000
00100000
00001000
00010000
00000000
,
00001000
00000100
00000010
00000000
00001000
00000001
00000010
00000000
00000100
00001000
00000100
00001000
00000100
00001000
00000100
00001000
00000001
00000100
00000001
00000100
00000001
00000100
00000001
00000100
00000001
00000000
00000000
00000000
00000100
00000000
00000000
00000000
,
00001000
00000000
00000000
00000000
00010000
00000000
00100000
00000000
10000000
00000000
00010000
00000000
20000000
32000000
03020000
00032000
,
00003020
00000000
00000032
00000003
00001001
00000000
00000000
00000000
00000000
00000000
00000000
00000000
00011000
00000000
00000000
00000000
00001000
00000000
00000000
00000000
00010000
00000000
00000000
00000000
00001000
00000000
00000000
00000000
00000010
00000000
00000000
00000000
,
00000100
00000000
00000000
00000000
00001000
00000000
00000000
00000000
00000001
00000000
00000000
00000000
00001000
00000010
00001000
00000010
00010000
00001000
00010000
00001000
00100000
00001000
00100000
00001000
00010000
00000000
00000000
00000000
00001000
00000000
00000000
00000000
,
00011000
00000000
00001010
00000000
00000010
00000001
00000100
00001000
,
00011000
00000000
01010000
00000000
01000000
10000000
00100000
00010000
,
00011000
00000000
00001100
00000000
00000100
00000001
00000010
00001000
,
00011000
00000000
00110000
00000000
00100000
10000000
01000000
00010000
,
00021000
00030010
00012000
00103000
,
00021000
00030100
00012000
01003000
,
00001000
00010000
00000010
00000100
00001000
00010000
00100000
01000000
,
00010000
10000000
01000000
00100000
00010000
10000000
01000000
00100000
00001000
00010000
00001000
00010000
00001000
00000000
00000000
00000000
,
01000000
00010000
10000000
01000000
00100000
00000000
01000000
00000000
00010000
00000000
00001000
00010000
00001000
00000000
00000100
00000000
,
00000001
00001000
00000001
00001000
00000100
00000010
00000001
00000010
00000100
00000000
00010000
00000000
00001000
00000000
00010000
00000000
,
00100000
01000000
00010000
01000000
00100000
10000000
00010000
10000000
01000000
00000000
00010000
00001000
00000100
00000000
00000001
00000000
,
00001000
00000100
00000010
00000001
00000100
00000010
00001000
00000100
00000010
00000000
00000001
00001000
00000001
00000000
00000000
00000000
,
00001000
00000001
00000100
00000010
00000100
00000000
00001000
00000000
00010000
00000000
00001000
00010000
01000000
00000000
00100000
00000000
,
00010000
10000000
01000000
00100000
00010000
01000000
00100000
00010000
00001000
00000000
00100000
00000000
00001000
00000000
00010000
00001000
,
01000000
00010000
00100000
00010000
00001000
00010000
00100000
00010000
01000000
00000000
00001000
00010000
00002000
00000000
00023000
00000000
,
00031000
00000100
00000010
00000000
00001000
00000001
00000010
00000000
00000100
00001000
00000100
00010000
00002000
00000000
00000000
00000000
,
00013000
00000100
00001000
00000001
00000100
00000000
00000010
00000000
00001000
00000000
00000001
00000010
00000100
00000000
00000010
00000000
,
00000001
00000100
00001000
00010000
00001000
01000000
00001000
00000000
00011000
00000000
00110000
00000000
10100000
00000000
10000000
00010000
,
10000000
00100000
01000000
00100000
00010000
00000000
00100000
10000000
00010000
10000000
01000000
00000000
00200000
00000000
00301000
00000000
,
00010000
00001000
00000100
00000000
00000001
00001000
00000100
00000000
00000010
00000000
00000001
00000000
00002001
00000000
00000000
00000000
,
00003001
00000100
00000010
00000100
00001000
00010000
01000000
00010000
,
00001000
01000000
00010000
00001000
00010000
01000000
00100000
10000000
,
00010000
10000000
01000000
00100000
00010000
00100000
00001000
00010000
00000100
00001000
00000100
00000010
00000001
00001000
00000010
00001000
,
00000001
00000010
00000100
00000010
00001000
00010000
01000000
00100000
01000000
10000000
00010000
01000000
00100000
10000000
00010000
00000000
,
20020000
30030000
00000000
00000000
00000000
00000000
00000000
00000000
;
