#VERSION:0.83;
#TITLE:glacia (STARDOM Remix);
#ARTIST:lapix;
#BANNER:glacia (STARDOM Remix).png;
#BACKGROUND:glacia (STARDOM Remix)-bg.png;
#CDTITLE:./CDTitles/DANCERUSH STARDOM.png;
#MUSIC:glacia (STARDOM Remix).ogg;
#SAMPLESTART:18.463;
#SAMPLELENGTH:15;
#BPMS:0=130;
#BGSTAGE:27;

//--------------- dance-single - Fred-104 ----------------
#NOTEDATA:;
#STEPSTYPE:dance-single;
#DESCRIPTION:Fred-104;
#DIFFICULTY:Beginner;
#METER:3;
#CREDIT:Fred-104;
#NOTES:
0000
0000
0000
0000
,
0000
0000
0000
0000
,
0000
0000
0000
0000
,
0000
0000
0000
0000
,
0000
0000
0000
0000
,
0001
0000
0000
0000
,
0001
0000
0000
0000
,
1000
0000
0000
0000
,
1000
0000
0000
0000
,
1001
0000
0000
0000
,
0001
0000
0000
0000
,
0001
0000
0000
0000
,
0010
0000
0000
0000
,
0010
0000
0000
0000
,
1000
0000
0000
0000
,
1000
0000
0000
0000
,
0100
0000
0000
0000
,
0100
0000
0000
0000
,
0001
0000
1000
0000
,
0200
0000
0000
0300
,
0100
0000
0001
0000
,
0200
0300
0020
0030
,
0100
0000
1000
0000
,
2000
0000
0000
3000
,
0002
0003
2000
3000
,
0002
0003
2000
3000
,
0000
0000
0001
0000
,
0010
0000
0010
0000
,
0100
0000
0000
0000
,
0100
0000
1000
0000
,
0001
0001
0001
0000
,
1000
0000
0010
0000
,
0100
0000
0100
0000
,
0001
0000
0001
0000
,
2000
0000
0000
0000
,
0000
0000
0000
0000
,
3002
0000
0000
0000
,
0000
0000
0000
0003
,
1000
0000
1000
0000
,
0100
0000
0100
0000
,
1000
0000
1000
0000
,
0001
0000
0001
0000
,
1001
0000
0000
0000
,
1000
0000
1000
0000
,
1000
0000
0010
0000
,
0010
0000
0010
0000
,
0010
0000
0001
0000
,
0001
0000
0001
0000
,
0001
0000
0100
0000
,
0010
0000
0100
0000
,
1000
1000
1000
1000
,
2002
0000
0000
0000
0000
0000
0000
0000
0000
0000
0000
0000
0000
0000
0000
3003
;

//--------------- dance-single - Fred-104 ----------------
#NOTEDATA:;
#STEPSTYPE:dance-single;
#DESCRIPTION:Fred-104;
#DIFFICULTY:Easy;
#METER:7;
#CREDIT:Fred-104;
#NOTES:
0000
0000
0000
0000
,
0000
0000
0000
0000
,
0000
0000
0000
0000
,
0000
0000
0000
0000
,
0000
0000
0000
0000
,
1000
0010
0001
0010
,
1000
0000
0010
0000
0001
0010
1000
0000
,
0001
0010
1000
0010
,
0001
0000
0010
0000
1000
0010
0001
0000
,
1000
0000
0001
0000
2002
0000
0000
3003
,
0001
0001
0100
0100
,
0010
0010
1000
1000
,
0100
0100
0010
0010
,
0001
1000
1001
0000
,
1000
0100
1000
0010
,
0100
0100
0001
1000
,
0100
0100
0010
0100
,
1000
0010
0110
0110
,
0001
0020
0230
2300
,
0002
0000
3003
0000
,
1000
0002
0023
2030
,
3020
0000
0000
0000
0031
0001
0001
0000
,
1001
0000
0001
1000
0200
0000
0320
0000
,
0032
1003
1000
2000
,
3010
0000
0000
0000
0100
0000
0000
0000
0001
0000
0000
0001
0000
0000
0001
0000
,
1001
0000
0000
0000
0100
0000
0000
0000
0100
0000
0000
0100
0000
0000
0100
0000
,
1001
0000
1000
0100
,
0001
0000
0001
0100
,
1000
0000
0001
0100
,
1000
0000
1000
0100
,
0001
0000
1000
0010
,
0001
0000
0001
0010
,
1000
0000
0001
0010
,
1000
1000
0010
0001
,
1001
0000
0000
0000
,
0000
0000
0000
0000
,
0002
0000
0023
0000
,
0130
0100
1000
1000
,
1001
0000
0001
0000
0100
0010
0100
0000
,
0001
0000
0001
0000
0010
0100
0010
0000
,
0100
0000
0100
0000
1000
0001
1000
0000
,
0010
0000
0010
0000
1000
0001
1000
0000
,
2002
0000
0000
3003
,
0001
0001
0010
0010
,
0100
0100
1000
1000
,
0010
0010
0100
0100
,
0001
1000
1001
0000
,
1000
0010
1000
0100
,
0010
0010
0001
1000
,
0010
0010
0100
0010
,
1000
0100
0110
0110
,
1001
0000
0000
0000
0000
0000
0000
0000
0000
0000
0000
0000
0000
0000
0000
1001
;

//--------------- dance-single - Fred-104 ----------------
#NOTEDATA:;
#STEPSTYPE:dance-single;
#DESCRIPTION:Fred-104;
#DIFFICULTY:Medium;
#METER:12;
#CREDIT:Fred-104;
#NOTES:
0000
0000
0000
0000
,
0000
0000
0000
0000
,
0000
0000
0000
0000
,
0000
0000
0000
0000
,
0000
0000
0000
0000
,
2000
0000
0100
0000
0100
0000
3100
0010
,
0002
0000
0100
0000
0100
0000
0103
0001
,
1000
0100
0010
0000
0001
0100
0001
0000
,
0010
0100
1000
0010
0100
0001
0010
0100
,
1000
0000
0010
0000
0001
0000
1000
0000
0100
0000
0001
0000
1000
0001
2000
0000
,
3001
0000
0000
0010
0000
0100
0000
0010
0000
0100
0000
1000
0000
0001
0100
0000
,
0010
0000
1000
0000
0001
0000
0010
0100
0000
1000
0000
0100
0000
1000
0001
0000
,
1000
0100
0001
1000
0010
0001
0010
0100
,
1000
0000
0010
0000
0100
0000
0010
1000
0000
1000
0000
1000
0000
0001
0010
0000
,
0100
0000
0000
1000
0000
0010
0000
1000
0000
0001
0000
0010
0000
0100
1000
0000
,
0010
0000
0100
0000
0001
0000
1000
0100
0000
0010
0000
0100
0000
1000
0001
0000
,
1000
0010
0001
1000
0100
0010
1000
0100
,
0010
0001
0010
0000
0001
0000
1000
0010
0000
0100
0000
0100
0000
0001
1000
0000
,
1001
0002
0023
0230
,
2300
0001
0100
3001
,
1001
2000
3020
0230
,
0302
0000
0000
0000
0000
0000
0000
0013
0000
0010
0010
0200
0000
0000
0300
0000
,
1100
0000
0001
1000
0200
0000
0302
0000
,
0203
0010
1000
0320
,
0031
0000
0000
0000
0100
0000
0001
0000
0010
0000
0000
0110
0000
0000
1100
0000
,
1001
0000
0000
0000
0100
0001
0100
0001
0100
0000
0000
0100
0000
0000
0100
0000
,
0110
0000
0000
0000
1001
0000
1000
0100
0000
1000
0100
0000
0010
0000
0001
0000
,
1000
0000
0001
0100
0000
0001
0100
0000
0010
0000
0100
0000
0001
0000
1000
0000
,
0100
0000
0100
0000
0010
0000
0001
1000
0000
0001
1000
0000
0010
0000
0100
0000
,
0001
0000
1000
0100
0000
1000
0100
0000
0010
0000
0100
0000
1000
0000
0001
0000
,
0100
0000
0100
0000
0001
0000
1000
0001
0000
0001
0010
0000
0100
0000
1000
0000
,
0010
0000
0100
0001
0000
1000
0001
0000
0010
0000
0100
0000
1000
0000
0001
0000
,
0010
0000
0010
0000
0001
0000
0100
0010
0000
1000
0010
0000
0100
0000
0001
0000
,
1000
0000
0001
0010
0000
0100
1000
0000
0001
0000
1000
0010
1000
0000
0001
0000
,
2001
0000
3002
0000
,
2003
0000
0002
3003
,
2000
0100
0001
3010
,
0100
0000
0001
0000
1000
0000
1000
0001
0000
1000
0000
0001
0000
1001
0000
0000
,
1000
0000
0100
0000
0001
0000
0100
0000
1000
0000
0100
0000
0010
0001
0010
0000
,
0001
0000
0100
0000
1000
0000
0100
0000
0001
0000
0100
0000
0010
1000
0010
0000
,
1000
0000
0001
0000
0010
0000
0100
0010
0000
0010
0001
0000
0100
0001
0100
0000
,
0010
0000
1000
0000
0001
0000
0010
0100
0000
0100
0000
1000
0000
0001
1000
0000
,
2002
0000
0000
3003
,
1000
0000
0000
0010
0000
0100
0000
0010
0000
0100
0000
0001
0000
1000
0100
0000
,
0010
0000
0001
0000
1000
0000
0010
0100
0000
0001
0000
0100
0000
0001
1000
0000
,
0001
0100
1000
0001
0010
1000
0010
0100
,
0001
0000
0010
0000
0100
0000
0010
0001
0000
0001
0000
0001
0000
1000
0010
0000
,
0100
0000
0000
0001
0000
0010
0000
0001
0000
1000
0000
0010
0000
0100
0001
0000
,
0010
0000
0100
0000
1000
0000
0001
0100
0000
0010
0000
0100
0000
0001
1000
0000
,
0001
0010
1000
0001
0100
0010
0001
0100
,
0010
1000
0010
0000
1000
0000
0001
0010
0000
0100
0000
0100
0000
1000
0001
0000
,
1001
0000
0000
0000
0000
0000
0000
0000
0000
0000
0000
0000
0000
0000
0000
0110
;

//--------------- dance-single - Fred-104 ----------------
#NOTEDATA:;
#STEPSTYPE:dance-single;
#DESCRIPTION:Fred-104;
#DIFFICULTY:Hard;
#METER:15;
#CREDIT:Fred-104;
#NOTES:
0000
0000
0000
0000
,
0000
0000
0000
0000
,
0000
0000
0000
0000
,
1000
0010
0000
1000
0000
0001
0010
0100
0000
1000
0000
1000
0001
1000
0010
0000
,
0100
0000
0001
1000
0001
0010
0001
0010
0000
0100
0000
0100
1000
0100
1000
0000
,
0020
0000
0001
0000
0100
0000
1030
0100
,
0020
0000
1000
0000
0100
0000
0031
1000
,
0001
0000
0010
0100
0000
1000
0001
0000
0010
0100
0000
1000
0001
0000
1000
0010
0000
0100
0001
0000
1000
0010
0000
0100
,
0001
0000
1000
0100
0000
0010
0001
0000
0010
0100
0000
1000
0001
0000
0100
0010
0000
1000
0010
0000
0100
0001
0000
0000
,
1001
0000
1000
0100
0010
0100
0010
0001
0000
0001
0100
0010
1000
0001
2000
0000
,
3002
0010
0000
0010
0000
0010
0000
0010
0000
0010
0000
0013
0100
1000
0100
0000
,
1000
0001
0100
0001
1000
0001
0100
0001
0000
0001
0000
0001
1000
0001
0010
0100
,
0000
0100
1000
0000
0001
1000
0000
0010
1000
0001
0100
0010
1000
0001
0010
0100
,
0000
1000
0001
0000
0100
0010
0100
0010
0000
1000
0000
0001
0010
0001
0010
0100
,
2000
0010
0000
0010
0000
0010
0000
0010
0000
0010
0000
3010
0100
0001
0100
0000
,
0001
1000
0100
1000
0001
1000
0100
1000
0000
1000
0000
1000
0100
0010
0001
1000
,
0000
1000
0010
0000
1000
0001
0000
1000
0100
0010
0100
1000
0001
0100
0010
1000
,
0000
0001
0010
0100
0010
0100
1000
0001
0000
0100
0001
1000
0100
0010
0001
1000
,
1001
0002
0023
0230
,
2300
0010
0001
3100
,
1001
2000
3020
0230
,
0302
0000
0000
0000
0010
0000
0000
0023
0000
0130
1000
0002
0000
0000
0000
0000
,
2003
0000
3010
0001
0020
0000
0100
0000
,
2030
0100
0001
3020
,
0230
0000
0000
0000
0301
0000
0100
0010
1000
0000
0000
1100
0000
0000
0101
0000
,
0110
0000
0000
0000
0001
1000
0001
0010
0001
0000
0000
1010
0000
0000
0101
0000
,
1001
0000
0000
0000
0110
0000
0001
1000
0000
0100
0010
0000
0001
0100
0010
1000
,
0001
0000
1000
0010
0000
0100
0001
0000
0010
0100
1000
0001
0100
0000
0010
0000
,
0110
0000
0001
1000
0001
0000
0010
0100
0000
1000
0001
0000
0100
0010
1000
0001
,
1000
0000
0100
1000
0000
0001
0100
0000
0010
1000
0001
0010
0001
0000
0011
0000
,
2001
3000
1002
0003
2001
3000
0001
1000
0000
0001
0010
0000
0100
0010
0001
1000
,
0001
0000
0010
1000
0000
0010
0001
0000
1000
0010
0100
0001
0100
0000
0110
0000
,
1001
0000
1000
0001
1000
0000
0100
0010
0000
0001
1000
0000
0010
1000
0100
1000
,
0010
0000
0100
0001
0000
0100
0010
0000
1000
0100
0010
0001
0100
0010
0100
0000
,
1001
0000
0000
0000
,
0000
0000
0000
0000
,
1000
1000
0001
1000
0000
0010
1000
0010
0000
0100
0001
1000
0001
0010
0100
1000
,
0001
0100
0010
1000
0100
0010
0001
1000
0000
1010
0000
0101
0000
2002
0000
3003
,
1000
0100
1000
0100
0000
0100
0010
0001
0000
1000
0010
0100
0001
1000
0001
1000
,
0000
0010
1000
0010
0000
0010
0100
0001
0000
1000
0100
0010
0001
1000
0001
1000
,
0000
0100
0010
0001
0000
0001
1000
0010
0000
1000
0001
0010
0100
0010
0001
1000
,
0010
0100
1000
0100
0010
0100
0001
0100
0000
0101
0000
1001
0000
1000
0100
0010
,
2002
0000
0000
0000
0000
0000
0000
0000
0000
0000
0000
0000
0000
0000
0000
0000
3003
0000
0000
0000
0000
0000
0000
0000
0001
1000
0001
1000
0001
0000
0000
0000
,
2000
0010
0000
0010
0000
0010
0000
0010
0000
0010
0000
3010
0100
0001
0100
0000
,
0001
1000
0100
1000
0001
1000
0100
1000
0000
1000
0000
1000
0001
1000
0010
0100
,
0000
0100
0001
0000
1000
0001
0000
0010
0001
1000
0100
0010
0001
1000
0010
0100
,
0000
0001
1000
0000
0100
0010
0100
0010
0000
0001
0000
1000
0010
1000
0010
0100
,
0002
0010
0000
0010
0000
0010
0000
0010
0000
0010
0000
0013
0100
1000
0100
0000
,
1000
0001
0100
0001
1000
0001
0100
0001
0000
0001
0000
0001
0100
0010
1000
0001
,
0000
0001
0010
0000
0001
1000
0000
0001
0100
0010
0100
0001
1000
0100
0010
0001
,
0000
1000
0010
0100
0010
0100
0001
1000
0000
0100
1000
0001
0100
0010
1000
0001
,
0100
0000
0000
0100
0001
0010
0100
1000
0000
0010
0000
0100
0000
0001
0010
0220
,
0000
0000
0000
0330
;

//--------------- dance-single - Fred-104† ----------------
#NOTEDATA:;
#STEPSTYPE:dance-single;
#DESCRIPTION:Fred-104†;
#DIFFICULTY:Challenge;
#METER:17;
#CREDIT:Fred-104†;
#NOTES:
0000
0000
0000
0000
,
0000
0000
0000
0000
,
0000
0000
0000
0000
,
0001
0000
0010
0000
0001
0000
0010
0000
0000
0000
0100
0000
0000
0000
1000
0000
0000
0000
0001
0000
0000
0000
0100
0010
0100
0000
0001
0000
1000
0000
0000
0000
,
0001
0000
0010
0000
0001
0000
0010
0000
0100
0000
1000
0000
0100
0000
1000
0000
0000
0000
1000
0000
0000
0000
0001
1000
0001
0000
0100
0000
0002
0000
0000
0000
,
1003
0000
0100
0000
0010
0000
0001
0000
0000
0000
1000
0000
0000
0000
0100
0000
0000
0000
0010
0000
0000
0000
0001
1000
0001
0000
1000
0000
0001
0000
0000
0000
,
1000
0000
0010
0000
0100
0000
0001
0000
0000
0000
1000
0000
0000
0000
0010
0000
0000
0000
0100
0000
0000
0000
0001
1000
0001
0000
1000
0000
0001
0000
0000
0000
,
1000
0000
0100
0000
0010
0000
0001
0000
0000
0000
1000
0000
0000
0000
0010
0000
0000
0000
0100
0000
0000
0000
0001
1000
0001
0000
0010
0000
0100
0000
0000
0000
,
1000
0000
0010
0000
1000
0000
0010
0000
0100
0000
0001
0000
0100
0000
0001
0000
0100
0000
0010
0000
1000
0000
0001
0010
0001
0000
0100
0000
0010
0000
1000
0000
,
0001
1000
0001
1000
0001
0000
0010
0000
0100
0000
1000
0000
0100
0000
1000
0000
0000
0000
1000
0001
1000
0001
1000
0000
0010
0000
0100
0000
0002
0000
0000
0000
,
1003
0000
0001
0000
0010
0000
0100
0000
0000
0000
0101
0000
0000
0000
1100
0000
0000
0000
1001
0000
0000
0000
1000
0001
1000
0000
0010
0000
0100
0000
0001
0000
,
1000
0000
0100
0000
0010
0000
0001
0000
1000
0000
0100
0000
1000
0000
0001
0000
0000
0000
1001
0000
0000
0000
1000
0001
1000
0000
0001
0000
0010
0000
0100
0000
,
1000
0000
0100
0000
0010
0000
0001
0000
0100
0000
0010
0000
1000
0000
0100
0000
0010
0000
0001
0000
0100
0000
0010
0000
0100
0000
0001
1000
0001
0000
1000
0000
,
0001
0000
0100
0010
0100
0010
0100
0000
0001
0000
0010
0000
0100
0000
1000
0000
0000
0000
1100
0000
0000
0000
1000
0000
0100
0000
0010
0000
0001
0000
0010
0000
,
0001
0000
1000
0000
0010
0000
0100
0000
0000
0000
1100
0000
0000
0000
0101
0000
0000
0000
1001
0000
0000
0000
0001
0010
0001
0000
1000
0000
0100
0000
0010
0000
,
0001
0000
1000
0000
0010
0000
0100
0000
0001
0000
0100
0000
0010
0000
1000
0000
0000
0000
1001
0000
0000
0000
0001
0100
0001
0000
1000
0000
0010
0000
0100
0000
,
0001
0000
0010
0000
0100
0000
1000
0000
0010
0000
0100
0000
0001
0000
0100
0000
0010
0000
1000
0000
0100
0000
0010
0000
0001
0000
1000
0001
1000
0000
0001
0000
,
0100
0000
0010
1000
0010
1000
0010
0000
1000
0000
0100
0000
1000
0000
0001
0000
0000
0000
0001
0010
0001
0010
0001
0000
1000
0010
1000
0010
0100
0000
0001
0000
,
1000
0000
0000
0000
0020
0000
0001
0000
2030
0000
0100
0000
3002
0000
0103
0001
,
0200
0000
0010
0000
1300
0100
0001
1000
,
1001
0000
2000
0010
3002
0100
0023
0100
,
0230
0000
0000
0000
0010
0000
0000
0310
0000
0001
0100
0020
0000
0000
0030
0000
,
1000
0000
0200
0001
0320
0100
0032
1000
,
0203
0000
0000
0000
1000
0000
0000
0000
0010
0000
0000
0000
0301
1000
0001
1000
,
0200
0000
0000
0000
0000
0000
0000
0000
0010
0000
0000
0000
0000
0000
0310
0001
0010
0000
0000
0000
0000
0000
1100
0000
0000
0000
0000
0000
0101
0000
0000
0000
,
1001
0000
0000
0000
1000
0000
0000
0000
0001
0000
0010
0000
0001
0000
1000
0000
1010
0000
0000
0000
0000
0000
0101
0000
0000
0000
0000
0000
0001
1000
0001
1000
,
0002
0000
0000
0000
1003
0100
0010
0001
0000
1000
0001
0000
1000
0001
0100
0010
,
1000
0000
0001
0010
1000
0010
0001
0000
1000
0010
0001
0010
1010
0000
0101
0000
,
1001
0000
0001
1000
0100
0000
0010
0001
0000
1000
0001
0000
0100
0010
1000
0001
,
0100
0000
1000
0100
0010
0100
0001
0000
1000
0100
0001
0100
1100
0000
0011
0000
,
2000
3002
2003
3002
1003
0000
0001
0100
0000
0010
1000
0000
0001
1000
0100
0010
,
0100
0000
0001
0100
0010
0100
1000
0000
0001
0100
1000
0100
0101
0000
1010
0000
,
1001
0000
1000
0001
0100
0000
0010
1000
0000
0001
1000
0000
0100
0010
0001
1000
,
0010
0000
0100
0010
0001
0010
1000
0001
0010
1000
0010
0001
1001
0000
0000
0000
,
1000
1000
0100
0010
0000
0001
0100
0001
0000
1000
0100
0010
0001
1000
0001
0010
,
0100
0100
0010
0001
0000
0100
0010
1000
0000
1001
0000
1000
0001
0100
0010
1000
,
0010
0010
0100
0001
0000
1000
0100
0010
0000
0010
0001
1000
0001
1000
0001
0010
,
0100
0010
0100
0000
1000
0000
0010
0000
0001
0000
1000
0000
0100
0000
0110
0000
0000
0000
1010
0000
0000
0000
0101
0000
0000
0000
1000
0000
0001
0000
1000
0000
,
0001
0000
0010
0000
0100
0000
0010
0000
0001
0000
0010
0000
0100
0000
2000
0000
0000
0000
3001
0100
0001
0100
0001
0100
0001
0000
1000
0000
0001
0000
1000
0000
,
0001
0000
0100
0000
0010
0000
0100
0000
0001
0000
1000
0000
0010
0000
1000
0000
0000
0000
2001
0000
0000
0000
3001
0010
0001
0000
1000
0000
0100
0000
1000
0000
,
0001
0000
0100
0000
0010
0000
2000
0000
0000
0000
3001
0010
0001
0000
0020
0000
0000
0000
0130
0000
1000
0100
1000
0100
1000
0000
0001
0000
0100
0000
0001
0000
,
1000
0000
0100
0000
0010
0000
0001
0000
0100
0000
0010
0000
1000
0000
0001
0000
0000
0000
1001
0000
0000
0000
0110
0000
0000
0000
0001
1000
0001
0000
1000
0000
,
0100
0000
0100
0000
0100
0000
0100
0000
0000
0000
0011
0000
0000
0000
1100
0000
0000
0000
0001
0000
0010
0000
0100
0000
1000
0001
1000
0001
2000
0000
0000
0000
,
3001
0000
1000
0000
0001
0000
0010
0000
0000
0000
0110
0000
0000
0000
0101
0000
0000
0000
1100
0000
0000
0000
1000
0001
1000
0000
0010
0000
0100
0000
0001
0000
,
1000
0000
0001
0000
0010
0000
0001
0000
1000
0000
0010
0000
1000
0000
0001
0000
0000
0000
0011
0000
0000
0000
0010
0001
0010
0000
0100
0000
1000
0000
0001
0000
,
0000
0000
1000
0010
1000
0000
0001
0000
0010
0001
0010
0000
0001
0000
1000
0100
1000
0100
1000
0000
0001
0000
0100
0000
0020
0000
0230
0000
0302
0000
0203
0000
,
0310
0000
1000
0001
1000
0001
1000
0000
0100
0000
0010
0000
0001
0000
0010
0000
0000
0000
0011
0000
0000
0000
0001
1000
0001
0000
0100
0000
0010
0000
1000
0000
,
0001
0000
1000
0000
0100
0000
0001
0000
0000
0000
0101
0000
0000
0000
0110
0000
0000
0000
1100
0000
0000
0000
1000
0001
1000
0000
0001
0000
0100
0000
0010
0000
,
1000
0000
0001
0000
0010
0000
0100
0000
0010
0000
0001
0000
1000
0000
0010
0000
0000
0000
1010
0000
0000
0000
1000
0001
1000
0000
0001
0000
0010
0000
0100
0000
,
0000
0000
1000
0001
1000
0000
0010
0000
1000
0001
1000
0000
0100
0000
0010
0001
0010
0001
0010
0000
0100
0000
1000
0000
0002
0000
0203
0000
0302
0000
2003
0000
,
3100
0000
0010
0001
0010
0001
0010
0000
0001
0000
1000
0000
0010
0000
0110
0000
0000
0000
0101
0000
0000
0000
1001
0000
0000
0000
0001
1000
0001
1000
0001
1000
,
0002
0000
0000
0013
1000
0001
0100
1000
0000
0010
0000
0100
0000
0001
1000
2002
,
0000
0000
0000
3003
;

//--------------- dance-double - Fred-104 ----------------
#NOTEDATA:;
#STEPSTYPE:dance-double;
#DESCRIPTION:Fred-104;
#DIFFICULTY:Easy;
#METER:7;
#CREDIT:Fred-104;
#NOTES:
00000000
00000000
00000000
00000000
,
00000000
00000000
00000000
00000000
,
00000000
00000000
00000000
00000000
,
00000000
00000000
00000000
00000000
,
00000000
00000000
00000000
00000000
,
00010000
00001000
00000010
00001000
,
00010000
00000000
00001000
00000000
00000010
00001000
00010000
00000000
,
00001000
00010000
00100000
00010000
,
00001000
00000000
00010000
00000000
00100000
00010000
00001000
00000000
,
00010000
00000000
00001000
00000000
00000100
00000001
00001001
00000000
,
00000001
00000000
00000010
00000000
00000100
00001000
00000100
00000000
,
00010000
00000000
00001000
00000000
01000000
00010000
01000000
00000000
,
00010000
00000000
00100000
00000000
01000000
10000000
01000000
00000000
,
00100000
00000000
00001000
00000000
00010000
00001000
00010000
00000000
,
00011000
00000000
00010000
00000000
00000100
00000010
00000001
00000000
,
00001000
00000000
00000001
00000000
00000100
00000010
00000100
00000000
,
00001000
00000000
00010000
00000000
00001000
00100000
00001000
00000000
,
00010000
00000000
00100000
00000000
10000000
00010000
10000000
00000000
,
10010000
00020000
20030000
32000000
,
00200000
00000000
03300000
00000000
,
00001000
00020000
00030200
00000320
,
00000032
00000000
00000000
00000000
00001003
00001000
00000100
00000000
,
00011000
00000000
00010000
00001000
00020000
00000000
00032000
00000000
,
02003000
00000000
03010000
20000000
,
32000000
00000000
00000000
00000000
00000000
00000000
00000000
00000000
03100000
00000000
00000000
00100000
00000000
00000000
00100000
00000000
,
00001000
00000000
00000000
00000000
00010000
00000000
00000000
00000000
00001000
00000000
00000000
00001000
00000000
00000000
00001000
00000000
,
00011000
00000000
00010000
00001000
,
00000010
00000000
00001000
00000000
00010000
00001000
00010000
00000000
,
00011000
00000000
00001000
00010000
,
00100000
00000000
00010000
00000000
00001000
00010000
00001000
00000000
,
00011000
00000000
00010000
00001000
,
00000100
00000000
00001000
00000000
00010000
00001000
00010000
00000000
,
00011000
00000000
00001000
00010000
,
01000000
00000000
00010000
00000000
00001000
00010000
00001000
00000000
,
00021000
00000000
00032000
00000000
,
00023000
00000000
00002000
00033000
,
00002000
00000000
00023000
00000000
,
00130000
00000000
10000000
00000000
01000000
00100000
00001000
00000000
,
00010000
00000000
00001000
00000000
00010000
00010000
00010000
00000000
,
00001000
00000000
01000000
00000000
00010000
00010000
10000000
00000000
,
01000000
00000000
00010000
00000000
00001000
00010000
00001000
00000000
,
00100000
00000000
00010000
00000000
01000000
00100000
01000000
00000000
,
20020000
00000000
00000000
30030000
,
10000000
00000000
00100000
00000000
01000000
00010000
01000000
00000000
,
00001000
00000000
00010000
00000000
00000100
00001000
00000100
00000000
,
00001000
00000000
00000010
00000000
00000100
00000001
00000100
00000000
,
00000010
00000000
00010000
00000000
00001000
00010000
00001000
00000000
,
00011000
00000000
00001000
00000000
01000000
00100000
10000000
00000000
,
00010000
00000000
10000000
00000000
01000000
00100000
01000000
00000000
,
00010000
00000000
00001000
00000000
00010000
00000010
00010000
00000000
,
00001000
00000000
00000010
00000000
00000001
00001000
00000001
00000000
,
00001001
00000000
00000000
00000000
00000000
00000000
00000000
00000000
00000000
00000000
00000000
00000000
00000000
00000000
00000000
00001001
;

//--------------- dance-double - Fred-104 ----------------
#NOTEDATA:;
#STEPSTYPE:dance-double;
#DESCRIPTION:Fred-104;
#DIFFICULTY:Medium;
#METER:12;
#CREDIT:Fred-104;
#NOTES:
00000000
00000000
00000000
00000000
,
00000000
00000000
00000000
00000000
,
00000000
00000000
00000000
00000000
,
00000000
00000000
00000000
00000000
,
00000000
00000000
00000000
00000000
,
00010000
00000000
00001000
00000000
00000010
00000001
00001000
00000000
,
00000001
00000000
00000100
00000000
00001000
00010000
00001000
00000000
,
00010000
00100000
10000000
00000000
00010000
10000000
01000000
00000000
,
00010000
00001000
00000010
00001000
00010000
00001000
00000100
00000001
,
00000010
00000000
00000100
00000000
00001000
00000000
00000001
00000100
00000000
00001000
00000000
00010000
00001000
00010000
00001000
00000000
,
00010000
00000000
00000000
00001000
00000000
01000000
00000000
00010000
00000000
01000000
00000000
00001000
00000000
00010000
00000010
00000000
,
00001000
00000000
00000010
00000000
00000100
00000000
00000001
00001000
00000000
00000100
00000000
00001000
00000000
00000001
00000100
00000000
,
00000001
00000010
00001000
00010000
01000000
10000000
00100000
00010000
,
00001000
00000000
00010000
00000000
00000010
00000000
00000100
00000001
00000000
00001000
00000000
00000001
00000000
00000010
00000100
00000000
,
00001000
00000000
00000000
00000001
00000000
00000100
00000000
00000010
00000000
00001000
00000000
00000010
00000000
00010000
00001000
00000000
,
01000000
00000000
00010000
00000000
10000000
00000000
01000000
00100000
00000000
10000000
00000000
00100000
00000000
00010000
10000000
00000000
,
00100000
01000000
00001000
00010000
01000000
10000000
00100000
00010000
,
00001000
00000000
00010000
00000000
00000010
00000000
00000100
00000001
00000000
00001000
00000000
00000100
00000000
00010000
00001000
00000000
,
00011000
00002000
00203000
02300000
,
23000000
00100000
00010000
31000000
,
10010000
00020000
00230000
00302000
,
00003200
00000000
00000000
00000000
00000000
00000000
00000000
00000310
00000000
00001000
00001000
00000002
00000000
00000000
00000003
00000000
,
00000101
00000000
00000100
00001000
00020000
00000000
02030000
00000000
,
23000000
00000000
00100000
00000000
00010000
00000000
31000000
00100000
,
00020000
00000000
00000000
00000000
01030000
00000000
00001000
00000000
00010000
00000000
00000000
00010100
00000000
00000000
00001100
00000000
,
00011000
00000000
00000000
00000000
00010000
00001000
00010000
00001000
00010000
00000000
00000000
00100000
00000000
00000000
10000000
00000000
,
10010000
00000000
00000000
00000000
00010000
00000000
10000000
01000000
00000000
00100000
00010000
00000000
10000000
00000000
00100000
00000000
,
01000000
00000000
00010000
00100000
00000000
00001000
00010000
00000000
00001000
00000000
00000100
00000000
00000001
00000000
00000010
00000000
,
00000100
00000000
00001000
00000000
00000001
00000000
00000100
00000010
00000000
00001000
00000010
00000000
00000100
00000000
00001000
00000000
,
00010000
00000000
00001000
00100000
00000000
00010000
01000000
00000000
00010000
00000000
10000000
00000000
01000000
00000000
00010000
00000000
,
00001000
00000000
00001000
00000000
00010000
00000000
01000000
10000000
00000000
00010000
10000000
00000000
00100000
00000000
01000000
00000000
,
00100000
00000000
00010000
00001000
00000000
00010000
00001000
00000000
00000100
00000000
00000010
00000000
00001000
00000000
00000001
00000000
,
00000010
00000000
00000100
00000000
00001000
00000000
00000001
00000100
00000000
00000010
00001000
00000000
00000100
00000000
00010000
00000000
,
00001000
00000000
01000000
00010000
00000000
01000000
00100000
00000000
01000000
00000000
00001000
00000000
00010000
00000000
00000100
00000000
,
00000120
00000000
00000032
00000000
,
00000203
00000000
00002300
00000000
,
00023000
00001000
00000010
00031000
,
00010000
00000000
00001000
00000000
00010000
00000000
00001000
00100000
00000000
00100000
00000000
00100000
00000000
10010000
00000000
00000000
,
00010000
00000000
10000000
00000000
00100000
00000000
00010000
00000000
00001000
00000000
00000100
00000000
00000001
00001000
00000001
00000000
,
00001000
00000000
00000001
00000000
00000010
00000000
00001000
00000000
00010000
00000000
01000000
00000000
10000000
00010000
10000000
00000000
,
00010000
00000000
10000000
00000000
01000000
00000000
00010000
00000000
00001000
00000000
00000010
00000000
00000001
00001000
00000001
00000000
,
00001000
00000000
00000010
00000000
00000100
00000000
00001000
00010000
00000000
00001000
00000000
00100000
00000000
00001000
00010000
00000000
,
00022000
00000000
00000000
00033000
,
00010000
00000000
00000000
00001000
00000000
00100000
00000000
00010000
00000000
00100000
00000000
00001000
00000000
00010000
00000100
00000000
,
00001000
00000000
00000100
00000000
00000010
00000000
00000001
00001000
00000000
00000010
00000000
00001000
00000000
00000001
00000010
00000000
,
00000001
00000100
00001000
00010000
00100000
10000000
01000000
00010000
,
00001000
00000000
00010000
00000000
00000100
00000000
00000010
00000001
00000000
00001000
00000000
00000001
00000000
00000100
00000010
00000000
,
00001000
00000000
00000000
00000001
00000000
00000010
00000000
00000100
00000000
00001000
00000000
00000100
00000000
00010000
00001000
00000000
,
00100000
00000000
00010000
00000000
10000000
00000000
00100000
01000000
00000000
10000000
00000000
01000000
00000000
00010000
10000000
00000000
,
01000000
00100000
00001000
00010000
00100000
10000000
01000000
00010000
,
00001000
00000000
00010000
00000000
00000100
00000000
00000010
00000001
00000000
00001000
00000000
00000010
00000000
00010000
00001000
00000000
,
00011000
00000000
00000000
00000000
00000000
00000000
00000000
00000000
00000000
00000000
00000000
00000000
00000000
00000000
00000000
10010000
;

//--------------- dance-double - Fred-104 ----------------
#NOTEDATA:;
#STEPSTYPE:dance-double;
#DESCRIPTION:Fred-104;
#DIFFICULTY:Hard;
#METER:15;
#CREDIT:Fred-104;
#NOTES:
00000000
00000000
00000000
00000000
,
00000000
00000000
00000000
00000000
,
00000000
00000000
00000000
00000000
,
00000001
00000010
00000000
00000100
00000000
00010000
00001000
00010000
00000000
00001000
00000000
01000000
00010000
00100000
01000000
00000000
,
00100000
00010000
00100000
00001000
00010000
00000010
00001000
00000010
00000000
00001001
00000000
00001000
00000001
00000100
00002000
00000000
,
00023000
00001000
01000000
00001000
,
00030200
00000010
00000001
00001000
,
00010300
00000000
00010000
00001000
00000000
00001000
01000000
00000000
01000000
00010000
00000000
00010000
10000000
00000000
10000000
01000000
00000000
01000000
00100000
00000000
00100000
00002000
00000000
00000000
,
00013000
00000000
00001000
00010000
00000000
00001000
00000010
00000000
00000100
00000010
00000000
00000100
00000010
00000000
00000001
00000010
00000000
00000001
00001000
00000000
00000001
00000100
00000000
00000000
,
00001000
00000000
00010000
00000000
00001000
00010000
01000000
00100000
00000000
00100000
01000000
10000000
00100000
01000000
00020000
00000000
,
10030000
01000000
00000000
01000000
00000000
00010000
00000000
00001000
00000000
00010000
00000000
00000010
00001000
00000010
00001000
00000000
,
00000100
00001000
00000100
00001000
00000001
00001000
00000001
00001000
00000000
00000010
00000000
00000100
00000001
00001000
00000100
00000010
,
00000000
00000001
00000100
00000001
00001000
00000100
00001000
00000001
00000100
00000010
00001000
00000010
00010000
00001000
00010000
00001000
,
00000000
01000000
00010000
10000000
00010000
01000000
00100000
10000000
00000000
10010000
00000000
01010000
00000000
00001000
00010000
00000000
,
00001000
00010000
00001000
00010000
00000000
01000000
00000000
10000000
00000000
00010000
00000000
10000000
00010000
00100000
00001000
00000000
,
00010000
00000100
00010000
00000100
00001000
00000010
00000100
00000001
00000000
00000011
00000000
00001000
00000100
00001000
00000001
00000100
,
00000000
00000010
00001000
00000010
00010000
00001000
00010000
00000100
00001000
00000100
00010000
00001000
01000000
00100000
10000000
00010000
,
00000000
10000000
01000000
00100000
00010000
01000000
00100000
00010000
00000000
00011000
00000000
00010000
00001000
00000100
00000010
00001000
,
00000001
00000020
00000230
00020300
,
00032000
00000000
01000000
00000000
00000100
00000000
00013000
00001000
,
00011000
00200000
00320000
20030000
,
32000000
00000000
00000000
00000000
00100000
00000000
00000000
03200000
00000000
00301000
00010000
00000200
00000000
00000000
00000000
00000000
,
00010300
00000000
00001000
01000000
00200000
00000000
00310000
00001000
,
00020000
00000000
00001000
00000000
00100000
00000000
00031000
00010000
,
00000020
00000000
00000000
00000000
00000130
00000000
00001000
00000100
00000001
00000000
00000000
00000011
00000000
00000000
00001010
00000000
,
00011000
00000000
00000000
00000000
00010000
00001000
00000100
00000001
00001000
00000000
00000000
00000100
00000000
00000000
00000010
00000000
,
00001001
00000000
00000000
00000000
00000110
00000000
00000001
00001000
00000000
00000010
00000100
00000000
00001000
00010000
00001000
00010000
,
00001000
00000000
01000000
00010000
00000000
10000000
01000000
00000000
00100000
00001000
00010000
00001000
00000010
00000000
00000001
00000000
,
00001001
00000000
00001000
00000100
00001000
00000000
00000001
00000100
00000000
00000010
00001000
00000000
00000001
00000010
00001000
00010000
,
00001000
00000000
00100000
00010000
00000000
10000000
00010000
00000000
00100000
01000000
00010000
00001000
00010000
00000000
00001000
00000000
,
00021000
00030000
00012000
00003000
00021000
00030000
00001000
01000000
00000000
00010000
00100000
00000000
00001000
01000000
00010000
01000000
,
00001000
00000000
00010000
00000100
00000000
00001000
00000010
00000000
00010000
00001000
00010000
00100000
01000000
00000000
00100000
00000000
,
10010000
00000000
10000000
01000000
10000000
00000000
00010000
01000000
00000000
00100000
00010000
00000000
00001000
00010000
00001000
00010000
,
00001000
00000000
00000100
00000010
00000000
00001000
00000001
00000000
00001000
00000100
00000010
00001000
00010000
00000000
00000000
00000000
,
00011000
00000000
00000000
00000000
,
00000000
00000000
00000000
00000000
,
00010000
00010000
00001000
00100000
00000000
00010000
10000000
00010000
00000000
01000000
00100000
10000000
00010000
00100000
01000000
10000000
,
00010000
00010000
01000000
00100000
00010000
00001000
00010000
00000100
00000000
00001100
00000000
00010100
00000000
00022000
00000000
00033000
,
00001000
00010000
00001000
00010000
00000000
00100000
10000000
00100000
00000000
10000000
01000000
10000000
00010000
01000000
00100000
10000000
,
00000000
01000000
00100000
00010000
00000000
01000000
00100000
00010000
00000000
00011000
00000000
00001000
00010000
00000010
00001000
00000010
,
00000000
00000100
00000001
00001000
00000000
00000100
00000010
00000001
00000000
00001000
00000010
00000100
00001000
00010000
00001000
00100000
,
00010000
10000000
00100000
01000000
00010000
10000000
01000000
00100000
00000000
00101000
00000000
00011000
00000000
00010000
00001000
00010000
,
00020200
00000000
00000000
00000000
00000000
00000000
00000000
00000000
00000000
00000000
00000000
00000000
00000000
00000000
00000000
00000000
00030300
00000000
00000000
00000000
00000000
00000000
00000000
00000000
00001000
00000001
00001000
00000001
00001000
00000000
00000000
00000000
,
00000001
00000100
00000000
00000100
00000000
00001000
00000000
00010000
00000000
00001000
00000000
00100000
00010000
00100000
00010000
00000000
,
01000000
00010000
01000000
00010000
10000000
00010000
10000000
00010000
00000000
00100000
00000000
01000000
10000000
00010000
01000000
00100000
,
00000000
10000000
01000000
10000000
00010000
01000000
00010000
10000000
01000000
00100000
00010000
00100000
00001000
00010000
00001000
00010000
,
00000000
00000100
00001000
00000001
00001000
00000100
00000010
00000001
00000000
00001001
00000000
00001100
00000000
00010000
00001000
00000000
,
00010000
00001000
00010000
00001000
00000000
00000100
00000000
00000001
00000000
00001000
00000000
00000001
00001000
00000010
00010000
00000000
,
00001000
01000000
00001000
01000000
00010000
00100000
01000000
10000000
00000000
10100000
00000000
00010000
01000000
00010000
10000000
01000000
,
00000000
00100000
00010000
00100000
00001000
00010000
00001000
01000000
00010000
01000000
00001000
00010000
00000100
00000010
00000001
00001000
,
00000000
00000001
00000100
00000010
00001000
00000100
00000010
00001000
00000000
00011000
00000000
00010000
00001000
00010000
00100000
01000000
,
00010000
00000000
00000000
10000000
01000000
00010000
00001000
00000010
00000000
00000001
00000000
00000100
00000000
00001000
00010000
00022000
,
00000000
00000000
00000000
00033000
;

//--------------- dance-double - Fred-104† ----------------
#NOTEDATA:;
#STEPSTYPE:dance-double;
#DESCRIPTION:Fred-104†;
#DIFFICULTY:Challenge;
#METER:17;
#CREDIT:Fred-104†;
#NOTES:
00000000
00000000
00000000
00000000
,
00000000
00000000
00000000
00000000
,
00000000
00000000
00000000
00000000
,
00010000
00001000
00010000
00001000
00000000
00000100
00000000
00000001
00000000
00001000
00000000
00000100
00000010
00000001
00001000
00000000
,
00000001
00000100
00000010
00000100
00001000
00010000
00100000
01000000
00100000
10000000
00010000
00100000
01000000
10000000
00020000
00000000
,
10030000
01000000
00100000
00010000
00000000
10000000
00000000
00100000
00000000
00010000
00000000
00001000
00000100
00000001
00001000
00000000
,
00000001
00000100
00000010
00001000
00000000
00000001
00000000
00000010
00000000
00001000
00000000
00010000
01000000
10000000
00010000
00000000
,
10000000
00100000
01000000
00010000
00000000
10000000
00000000
01000000
00000000
00010000
00000000
00001000
00000010
00000001
00001000
00000000
,
00000001
00000100
00000001
00000100
00001000
00010000
00001000
00010000
00100000
01000000
00100000
01000000
00010000
10000000
01000000
00100000
,
00010000
00100000
00010000
00100000
00010000
00000000
00100000
00000000
00001000
00000000
00010000
00000000
00001000
00000000
00000010
00000000
00000000
00000000
00000010
00000001
00000010
00000001
00000010
00000000
00000100
00000000
00010000
00000000
00002000
00000000
00000000
00000000
,
00013000
00000000
00001000
00000000
01000000
00000000
00010000
00000000
00000000
00000000
01010000
00000000
00000000
00000000
11000000
00000000
00000000
00000000
01010000
00000000
00000000
00000000
00010000
10000000
00010000
00000000
10000000
00000000
01000000
00000000
00100000
00000000
,
00000000
00000000
00001000
00000000
00010000
00000000
00000100
00000000
00010000
00000000
00001000
00000000
00010000
00000000
00000010
00000000
00000000
00000000
00001010
00000000
00000000
00000000
00001000
00000001
00001000
00000000
00000100
00000000
00000010
00000000
00000001
00000000
,
00000000
00000001
00000100
00000010
00000100
00001000
00010000
00001000
00010000
00100000
01000000
10000000
01000000
00100000
10000000
00010000
,
10000000
01000000
00100000
00010000
01000000
00100000
00010000
00001000
00000000
00011000
00000000
00010000
00000100
00001000
00000001
00001000
,
00000001
00000100
00000010
00000100
00000000
00001100
00000000
00000101
00000000
00001001
00000000
00000001
00000100
00001000
00010000
00001000
,
00000000
00100000
00010000
00100000
01000000
10000000
00100000
01000000
00000000
01010000
00000000
00010000
10000000
01000000
00100000
00010000
,
00000000
10000000
01000000
00010000
00001000
00010000
00000100
00010000
00001000
00010000
00000100
00000010
00000001
00001000
00000010
00001000
,
00000001
00001000
00000100
00010000
00001000
01000000
00010000
00100000
01000000
10000000
00100000
00010000
00001000
00000100
00000001
00001000
,
00001001
00000000
00000002
00000100
00000203
00001000
00002300
00010000
,
00023000
00000000
00001000
00000000
01000000
00000000
00031000
00010000
,
00011000
00000000
00020000
01000000
02030000
10000000
23000000
00100000
,
30200000
00000000
00000000
00000000
01000000
00000000
00000000
01300000
00000000
00001000
00100000
00020000
00000000
00000000
00000000
00000000
,
10030000
00000000
00200000
10000000
02300000
10000000
03020000
00100000
,
02030000
00000000
00000000
00000000
00100000
00000000
00000000
00000000
00010000
00000000
00000000
00000000
03001000
00010000
00001000
00010000
,
00002000
00000000
00000000
00000000
00000000
00000000
00000000
00000000
00010000
00000000
00000000
00000000
00000000
00000000
00013000
00001000
00010000
00000000
00000000
00000000
00000000
00000000
00011000
00000000
00000000
00000000
00000000
00000000
00010010
00000000
00000000
00000000
,
00001010
00000000
00000000
00000000
00001000
00000000
00000000
00000000
00000001
00000000
00000010
00000000
00000100
00000000
00001000
00000000
00000100
00000000
00000000
00000000
00000000
00000000
00010100
00000000
00000000
00000000
00000000
00000000
00010000
00001000
00010000
00001000
,
00020000
00000000
00000000
00000000
00031000
00000000
00001000
00010000
00000000
00100000
10000000
00000000
00010000
00100000
01000000
10000000
,
00010000
00000000
10000000
00100000
01000000
00100000
00010000
00000000
00001000
00000100
00000010
00000100
00000001
00000000
00000101
00000000
,
00001001
00000000
00000001
00000010
00000100
00000000
00001000
00000001
00000000
00000100
00001000
00000000
00010000
00001000
01000000
00001000
,
00010000
00000000
00001000
00010000
00100000
00010000
00001000
00000000
00010000
00001000
00000010
00001000
00010000
00000000
00011000
00000000
,
00002000
00023000
00032000
00023000
00031000
00000000
00001000
00010000
00000000
01000000
00100000
00000000
00010000
10000000
00100000
01000000
,
00010000
00000000
10000000
01000000
00100000
01000000
00010000
00000000
00001000
00000010
00000100
00000010
00000001
00000000
00000011
00000000
,
00001001
00000000
00001000
00000010
00010000
00000000
00001000
00010000
00000000
00001000
01000000
00000000
00010000
00100000
00001000
00010000
,
00000100
00000000
00000010
00000001
00001000
00000010
00010000
00001000
00100000
01000000
10000000
00010000
10010000
00000000
00000000
00000000
,
00010000
00010000
01000000
00100000
00000000
10000000
01000000
00010000
00000000
00001000
00010000
00100000
00010000
00001000
00000100
00000010
,
00000100
00000000
00000100
00000000
00000010
00000000
00001000
00000000
00000000
00000000
00000001
00000000
00000100
00000000
00001000
00000000
00000000
00000000
00011000
00000000
00000000
00000000
00010000
00001000
00010000
00000000
01000000
00000000
10000000
00000000
00010000
00000000
,
00100000
00000000
01000000
00000000
00010000
00000000
00001000
00000000
01000000
00000000
00100000
00000000
00010000
00000000
00001000
00000000
00000000
00000000
00010000
00001000
00010000
00001000
00010000
00000000
00001000
00000000
00000010
00000000
00000001
00000000
00000010
00000000
,
00000100
00001000
00000001
00000000
00000100
00000000
00000010
00000000
00000100
00000000
00001000
00000000
00010000
00000000
00010100
00000000
00000000
00000000
00001100
00000000
00000000
00000000
00000011
00000000
00000000
00000000
00001000
00000000
00000100
00000000
00000010
00000000
,
00000001
00000000
00001000
00000000
00000010
00000000
00000100
00000000
00001000
00000000
00010000
00000000
00001000
00000000
00020000
00000000
00000000
00000000
00031000
00010000
00001000
00010000
00001000
00010000
00001000
00000000
00100000
00000000
00010000
00000000
10000000
00000000
,
00100000
00000000
01000000
00000000
00100000
00000000
01000000
00000000
10000000
00000000
01000000
00000000
00010000
00000000
10000000
00000000
00000000
00000000
10020000
00000000
00000000
00000000
10030000
00010000
10000000
00000000
01000000
00000000
00010000
00000000
00001000
00000000
,
00010000
00000000
00001000
00000000
00010000
00000000
00000100
00000000
00001000
00000000
00000100
00000000
00000010
00000000
00000002
00000000
00000000
00000000
00001003
00000010
00001000
00000010
00001000
00000010
00001000
00000000
00000001
00000000
00000010
00000000
00000100
00000000
,
00001000
00000000
00000010
00000000
00010000
00000000
00001000
00000000
00100000
00000000
00010000
00000000
00100000
00000000
00001000
00000000
00000000
00000000
00011000
00000000
00000000
00000000
01001000
00000000
00000000
00000000
00001000
00010000
00001000
00000000
00000100
00000000
,
00000010
00000000
00000010
00000000
00000010
00000000
00000010
00000000
00000000
00000000
00000110
00000000
00000000
00000000
00001100
00000000
00000000
00000000
00010000
00000000
00001000
00000000
00011000
00000000
00010000
00001000
00010000
00001000
00020000
00000000
00000000
00000000
,
00031000
00000000
00010000
00000000
00000100
00000000
00000010
00000000
00000000
00000000
00000011
00000000
00000000
00000000
00001010
00000000
00000000
00000000
00000011
00000000
00000000
00000000
00000001
00001000
00000001
00000000
00000100
00000000
00000010
00000000
00001000
00000000
,
00000001
00000000
00000010
00000000
00000100
00000000
00000010
00000000
00001000
00000000
00010000
00000000
01000000
00000000
00100000
00000000
00000000
00000000
00110000
00000000
00000000
00000000
00010000
10000000
00010000
00000000
01000000
00000000
00100000
00000000
10000000
00000000
,
00000000
00000000
00010000
00100000
00010000
00000000
10000000
00000000
00010000
00100000
00010000
00000000
10000000
00000000
00100000
01000000
00100000
01000000
00100000
00000000
00010000
00000000
00001000
00000000
00020000
00000000
00030200
00000000
00000320
00000000
00000230
00000000
,
00001300
00000000
00000001
00001000
00000001
00001000
00000001
00000000
00000100
00000000
00000010
00000000
00000100
00000000
00001000
00000000
00000000
00000000
00011000
00000000
00000000
00000000
00010000
00001000
00010000
00000000
00001000
00000000
01000000
00000000
00010000
00000000
,
10000000
00000000
01000000
00000000
00010000
00000000
00001000
00000000
00000000
00000000
00011000
00000000
00000000
00000000
00001010
00000000
00000000
00000000
00000011
00000000
00000000
00000000
00000001
00001000
00000001
00000000
00000100
00000000
00000010
00000000
00001000
00000000
,
00000100
00000000
00000010
00000000
00001000
00000000
00010000
00000000
00001000
00000000
00000100
00000000
00001000
00000000
00010000
00000000
00000000
00000000
00011000
00000000
00000000
00000000
00001000
01000000
00001000
00000000
00010000
00000000
00001000
00000000
00000100
00000000
,
00000000
00000000
00000010
00001000
00000010
00000000
00000100
00000000
00000001
00001000
00000001
00000000
00000010
00000000
00000100
00001000
00000100
00001000
00000100
00000000
00010000
00000000
00001000
00000000
00020000
00000000
00230000
00000000
20300000
00000000
30020000
00000000
,
00130000
00000000
01000000
10000000
01000000
10000000
01000000
00000000
10000000
00000000
00100000
00000000
00010000
00000000
00011000
00000000
00000000
00000000
00010010
00000000
00000000
00000000
01001000
00000000
00000000
00000000
00001000
00010000
00001000
00010000
00001000
00010000
,
00002000
00000000
00000000
00013000
00001000
00100000
00010000
01000000
00000000
00100000
00000000
00010000
00000000
00001000
00010000
00022000
,
00000000
00000000
00000000
00033000
;
