#VERSION:0.83;
#TITLE:fallen leaves;
#ARTIST:猫叉Master;
#ARTISTTRANSLIT:Nekomata Master;
#GENRE:WORLD/ELECTRONICA;
#BANNER:fallen leaves.png;
#BACKGROUND:fallen leaves-bg.png;
#CDTITLE:./CDTitles/RB colette -Autumn-.png;
#MUSIC:fallen leaves.ogg;
#SAMPLESTART:73.637;
#SAMPLELENGTH:15;
#BPMS:0=165;
#BGSTAGE:29;

//--------------- dance-single - Fred-104 ----------------
#NOTEDATA:;
#STEPSTYPE:dance-single;
#DESCRIPTION:Fred-104;
#DIFFICULTY:Beginner;
#METER:3;
#CREDIT:Fred-104;
#NOTES:
0000
0000
0000
0000
,
0000
0000
0000
0000
,
0000
0000
0000
0000
,
0000
0000
0000
0000
,
0000
0000
0000
0000
,
0000
0000
0000
0000
,
0000
0000
0000
0000
,
0000
0000
0000
0000
,
0000
0000
0000
0000
,
0000
0000
0000
0000
,
2000
0000
0000
3000
,
0002
0000
0000
0003
,
0200
0000
0000
0300
,
0020
0000
0000
0030
,
1000
0000
1000
0000
,
0001
0000
0001
0000
,
1000
0000
0001
0000
,
2002
0000
0000
3003
,
0000
1000
0000
1000
,
0000
0010
0000
1000
,
0000
0001
0000
1000
,
0000
0001
0000
0001
,
0001
0000
0001
0000
,
1000
0000
0010
0000
,
1000
0000
0001
0000
,
0200
0000
0000
0300
,
0001
0000
0001
0000
,
1000
0000
1000
0000
,
0010
0000
0000
0000
,
1000
0000
0000
0000
,
0100
0000
0100
0000
,
1000
0000
0001
0000
,
1000
0000
0000
0000
,
0002
0000
0000
0003
,
1000
0000
0010
0000
,
1000
0000
0100
0000
,
0010
0000
0000
0000
,
0001
0000
0000
0000
,
1000
0000
0001
0000
,
0100
0000
0010
0000
,
1000
0000
0000
0000
,
0002
0000
0000
0003
,
1000
0000
0000
1000
,
0000
0000
1000
0000
,
0001
0000
0000
0001
,
0000
0000
0001
0000
,
0100
0000
0000
0100
,
0000
0000
0100
0000
,
0010
0000
0000
0010
,
0000
0000
0010
0000
,
0000
0000
0000
0000
,
1000
0000
1000
1000
,
1000
0000
0001
0000
,
0100
0000
0100
0100
,
0100
0000
0010
0000
,
1000
0000
0001
0000
,
1000
0000
0001
0000
,
1000
0000
1000
0000
,
0002
0000
0000
0003
,
1000
0000
0010
0010
,
0010
0000
1000
0000
,
0001
0000
0100
0100
,
0100
0000
0001
0000
,
2000
0000
0000
3000
,
0002
0000
0000
0003
,
2000
0000
0000
3000
,
0002
0000
0000
0003
,
1001
0000
0000
0000
,
0100
0000
0000
0000
,
0100
0000
0000
0000
,
0100
0000
0000
0000
,
1000
0000
1000
0000
,
0001
0000
0001
0000
,
1000
0000
1000
0000
,
0001
0000
0000
1001
0000
0000
0000
0000
;

//--------------- dance-single - Fred-104 ----------------
#NOTEDATA:;
#STEPSTYPE:dance-single;
#DESCRIPTION:Fred-104;
#DIFFICULTY:Easy;
#METER:8;
#CREDIT:Fred-104;
#NOTES:
0000
0000
0000
0000
,
0000
0000
0000
0000
,
0000
0000
0000
0000
,
0000
0000
0000
0000
,
0000
0000
0000
0000
,
0000
0000
0000
0000
,
0000
0000
0000
0000
,
0000
0000
0000
0000
,
0000
0000
0000
0000
,
0000
0000
0000
0000
,
1000
0000
0010
0001
,
1000
0100
0100
0010
,
1000
0001
0002
0000
,
2003
0000
3020
0000
,
0130
0100
0010
0010
,
1000
1000
0001
0001
,
1000
0000
0010
0000
0100
0001
1000
0000
,
2002
0000
0000
0000
3003
0000
0001
1000
,
0001
0010
0001
0010
,
0010
0001
1000
0010
,
1000
0100
0100
1000
,
0001
1000
2002
3003
,
1000
0100
0100
0010
,
0001
1000
0100
0100
,
1000
0000
0001
0000
1000
0001
1000
0000
,
2002
0000
0000
0000
3003
0001
1000
0001
,
0200
0000
0000
0310
0000
0000
0001
0000
,
2000
0000
0000
3100
0000
0000
1000
0000
,
0010
1000
1000
0100
,
1000
0001
0200
0000
,
0302
0000
0000
0013
0000
0000
0001
0000
,
0200
0000
0000
0310
0000
0000
0100
0000
,
0001
0001
0010
1000
,
0100
0100
0002
0000
,
2003
0000
0000
3100
0000
0000
0010
0000
,
0200
0000
0000
1300
0000
0000
0001
0000
,
1000
0010
1000
0100
,
1000
0001
2002
3003
,
0002
0000
0000
0013
0000
0000
0100
0000
,
0020
0000
0000
0031
0000
0000
0100
0000
,
0010
1000
0100
0100
,
1000
0001
2002
3003
,
0100
0000
0000
0100
0000
0000
0010
0000
,
0000
1000
0000
0000
0100
0000
0100
0000
,
0010
0000
0000
0001
0000
0000
1000
0000
,
0000
0100
0000
0000
1000
0000
1000
0000
,
0010
0000
0000
1000
0000
0000
0100
0000
,
0000
1000
0000
0000
0001
0000
0001
0000
,
0010
0000
0000
0001
0000
0000
1000
0000
,
0000
0000
0100
0000
0000
0000
0000
0000
1000
0000
0000
0100
0000
0000
1100
0000
,
0000
0000
0000
0000
,
2000
3020
0230
0320
,
1030
1000
0100
0010
,
0002
0023
0032
0203
,
0301
0000
0010
0000
0001
1000
0001
1000
,
1000
0010
0010
0100
,
0001
0010
0010
0100
,
1000
0001
1000
1000
,
0001
0100
0220
0330
,
2000
3020
0032
0023
,
1030
0001
0100
0100
,
0002
0023
2030
3020
,
0031
0000
1000
0000
0010
0100
0010
0100
,
0100
0100
0010
0010
,
1000
1000
0001
0001
,
0100
0000
0000
0100
0000
0000
0010
0000
0100
0000
0000
0000
0001
0000
0000
0000
,
1000
0000
0010
0000
1000
0001
1000
0100
,
2000
0000
3020
0000
,
0032
0000
0203
0000
,
2300
0000
3200
0000
,
0302
0000
0023
0000
,
1030
0000
1000
0000
0010
0000
1000
0001
,
1000
0000
0010
0000
0100
0000
0010
0100
,
0010
0000
0001
0000
1000
0000
0001
1000
,
0001
0000
1000
1001
0000
0000
0000
0000
;

//--------------- dance-single - Fred-104 ----------------
#NOTEDATA:;
#STEPSTYPE:dance-single;
#DESCRIPTION:Fred-104;
#DIFFICULTY:Medium;
#METER:13;
#CREDIT:Fred-104;
#NOTES:
0000
0000
0000
0000
,
0000
0000
0000
0000
,
0000
0000
0000
0000
,
0000
0000
0000
0000
,
0000
0000
0000
0000
,
0000
0000
0000
0000
,
0000
0000
0000
0000
,
0000
0000
0000
0000
,
0000
0000
0000
0000
,
0000
0000
0000
0000
,
1000
0000
0000
1000
0100
0000
0010
0000
0001
0000
0000
0100
0010
0000
0100
0000
,
0001
0000
0000
0001
0010
0000
0100
0000
0010
0000
0000
0001
1000
0000
0010
0000
,
1000
0000
0000
1000
0001
0000
0100
0000
0010
0000
0000
0100
0010
0000
1000
0000
,
0100
0000
0000
0100
0010
0000
0001
0000
1000
0000
0000
0001
0010
0000
0001
0000
,
0101
0000
0101
0000
0101
0000
0001
1000
,
1100
0000
0000
0000
1100
0000
0000
0000
1001
0000
0000
0001
0100
0000
0010
0000
,
0110
0000
0000
0000
0110
0000
0000
0000
0011
0000
0000
1000
0001
0000
0100
0000
,
0220
0000
0000
0000
0330
0000
0001
1000
,
0001
0010
0001
0010
0001
1000
0001
0010
,
0001
0010
0100
1000
0100
1000
0002
0000
,
1003
0100
1000
0100
0001
0100
1000
0100
,
1000
0010
0100
0010
1000
0100
0001
0000
,
1100
0000
0101
0000
1100
0000
0010
0100
,
0101
0000
0000
0000
1100
0000
0000
0000
0101
0000
0000
0100
0010
0000
1000
0000
,
0001
0010
1000
0010
0001
0010
0100
1000
,
0001
0000
0000
1000
0010
0000
0100
0000
0010
0000
1000
0001
1000
0001
1000
0000
,
0001
0000
0010
0000
0001
0000
2000
0000
0000
0000
3100
0000
0010
0000
0001
0100
,
0001
0100
0010
2000
0000
3100
0001
0100
,
1000
0200
0001
0000
1000
0000
0301
0000
,
0001
0020
1000
0030
0001
0100
1000
0100
,
0001
0000
1000
0000
0100
0000
2000
0000
0000
0000
3100
0000
0010
0000
0100
1000
,
0100
0000
0010
0000
0001
0000
1000
0000
0001
0000
0100
0000
0001
0010
0001
0000
,
1000
0020
0001
0000
1000
0000
0031
1000
,
0001
0100
0010
1000
0001
1000
2002
3003
,
1000
0000
0100
0000
0010
0000
0200
0000
0000
0000
0301
0000
0100
0000
0010
0100
,
0010
0000
1000
0000
0010
0000
0200
0000
0000
0000
1300
0000
0001
1000
0001
0000
,
1000
0010
0002
0000
0100
0000
1003
0000
,
0001
0010
0001
1000
0100
0100
0010
0010
,
0001
0000
0100
0000
1000
0000
0200
0000
0000
0000
0301
0000
0010
0000
0100
0010
,
0100
1000
0010
0100
0001
0010
1000
0010
,
0001
0100
0020
1000
0000
1030
0001
0100
,
0001
0010
0100
0100
0001
1000
0100
1000
,
1010
0000
0000
1010
0000
0000
1010
0000
1001
0000
0000
0000
0110
0000
0000
0110
,
0000
0210
0000
0301
1000
0010
0100
0001
,
0011
0000
0000
0011
0000
0000
0011
0000
1001
0000
0000
0000
1100
0000
0000
1100
,
0000
1200
0000
0310
0100
0001
1000
0100
,
1100
0000
0000
1100
0000
0000
1001
0000
1001
0000
0000
0000
0101
0000
0000
0101
,
0000
0110
0010
0100
0010
1000
0001
0010
,
0001
0000
0000
0010
0000
0000
1000
0000
1100
0000
0000
0000
1000
0000
0000
0010
,
0000
0000
0001
0000
0000
0100
0000
0000
1000
0000
0000
0001
0000
0000
1001
0000
,
0000
0000
0000
0000
,
1000
0100
1000
0001
0100
0010
1000
0100
,
0002
0100
1000
0103
,
0001
0010
0100
1000
0010
0100
0010
1000
,
0200
0000
0000
0000
1000
0000
0000
0000
0301
0000
0100
0010
0100
0000
0001
0000
,
1000
0200
0010
0000
1000
0000
0310
0000
,
0001
0200
0010
0000
0001
0000
0310
0000
,
1000
0000
0000
0010
0000
0000
1000
0000
0001
0000
0000
0100
0000
0000
0001
0000
,
0010
0001
0001
0001
1000
0100
0100
0100
,
0010
0001
1000
0010
0100
0010
1000
0010
,
0002
0000
0100
0000
1000
1000
2003
0000
,
3100
0001
0010
0100
1000
0010
0100
0010
,
2000
0000
0010
0000
0001
0001
3002
0000
,
0103
0000
0110
0000
0110
0000
0001
1000
,
0100
0000
0000
0000
1100
0000
0000
0000
0101
0000
0000
0001
1000
0000
0010
0000
,
0100
0010
1000
0010
0100
0001
1000
0100
,
0010
0001
1000
0001
1000
0010
0100
0010
,
2000
0100
3020
0100
,
2030
0010
3002
0100
,
0023
1000
0230
0001
,
2300
0100
3002
0010
,
1003
0010
1000
1000
0000
0010
1000
0100
,
0010
0001
0001
0100
0000
0010
1000
0100
,
1000
1000
0010
0100
0000
0001
1000
0010
,
0100
0000
0001
1000
0001
0000
1001
0000
0000
0000
0000
0000
0000
0000
0000
0000
;

//--------------- dance-single - Fred-104 ----------------
#NOTEDATA:;
#STEPSTYPE:dance-single;
#DESCRIPTION:Fred-104;
#DIFFICULTY:Hard;
#METER:16;
#CREDIT:Fred-104;
#NOTES:
0000
0000
0000
0000
,
0000
0000
0000
0000
,
0000
0000
0000
0000
,
0000
0000
0000
0000
,
0000
0000
0000
0000
,
0000
0000
0000
0000
,
0000
0000
0000
0000
,
0000
0000
0000
0000
,
0000
0000
0000
0000
,
0000
0000
0000
0000
,
0020
0000
1000
0001
0000
0000
0001
1000
0000
0000
1000
0001
0030
0000
0001
1000
,
0200
0000
1000
0001
0000
0000
0001
1000
0000
0000
1000
0001
0300
0000
0001
1000
,
0200
0000
1000
0010
0000
0000
0001
0010
0000
0000
1000
0010
0300
0000
0001
0100
,
0020
0000
1000
0100
0000
0000
0001
0100
0000
0000
1000
0100
0030
0000
0001
0100
,
0010
0000
1010
0000
0101
0000
1001
0001
,
0100
0000
0000
0000
0110
0000
0000
0000
1100
0000
0000
0001
0100
0000
0010
0000
,
1000
0000
0100
0000
1000
0000
0000
0000
0001
0100
0000
0010
0100
0000
0001
0000
,
2002
0000
0000
0000
0000
0000
0000
0000
3003
0000
0000
0001
0100
0000
0010
0000
,
1000
0000
0001
0010
0001
0000
1000
0010
1000
0000
0001
0100
0001
0000
1000
0100
,
1000
0000
0010
0100
0010
0000
1000
0001
1000
0000
0001
0010
0001
0000
0100
0010
,
0100
0000
0001
1000
0001
0000
1000
0100
1000
0000
0010
1000
0010
0000
1000
0100
,
1000
0000
0001
0100
0001
0000
1000
0100
1000
0100
0010
0100
0010
0000
0001
0000
,
0100
0001
0100
0000
0001
0010
0001
0000
1000
0010
1000
0000
0001
0010
0100
1000
,
0001
0000
1000
0010
0100
0010
1000
0000
0001
1000
0001
1000
0100
1000
0100
1000
,
0001
0000
1000
0010
0100
0010
1000
0000
0001
1000
0100
0010
0001
0000
1000
0000
,
0001
0000
0000
0100
1000
0000
0100
0000
0001
0000
0010
0100
0010
0100
0010
0000
,
0001
0000
0100
0010
0100
0000
0001
0000
1000
0000
0010
1000
0010
0000
1000
0100
,
1000
0000
0001
0010
0001
0000
0100
0000
0001
0000
0001
0010
0001
1000
0001
1000
,
0100
0000
0010
0100
0010
0000
0001
0000
1000
0000
0100
1000
0100
0000
0010
0000
,
0001
0100
0001
1000
0100
0000
0010
0000
0002
0000
2003
0000
3020
0000
2030
0000
,
3001
0000
0100
1000
0100
0000
0001
0000
1000
0000
0100
0010
0001
0000
0010
0100
,
1000
0000
0010
0001
0010
0000
1000
0000
0001
0000
1000
0000
0010
1000
0001
0010
,
0100
0000
1000
0001
0100
0000
0001
0000
1000
0000
0001
0000
0010
0000
0100
1000
,
0100
0000
0010
0000
0001
0000
1000
0000
0001
1000
0010
0100
0001
1000
0100
1000
,
0001
0000
0100
1000
0100
0000
0010
0000
0100
0000
1000
0000
0100
0000
0001
0100
,
0001
0000
0010
1000
0010
0000
0100
0000
0010
0000
1000
0000
0010
0001
0010
0001
,
1000
0000
0001
0010
0001
0000
1000
0000
0001
0000
1000
0100
1000
0000
0001
0000
,
1000
0000
0010
0100
0001
0000
1000
0000
2000
0000
3200
0000
0302
0000
0203
0000
,
1300
0000
0001
0010
0001
0000
0100
0000
0010
0000
1000
0100
1000
0000
0001
0100
,
0001
0000
1000
0001
1000
0000
0001
0000
0200
0000
0320
0000
0032
0000
0023
0000
,
1030
0000
0001
0100
0010
0000
1000
0000
0001
0000
0010
0000
0100
0000
1000
0000
,
0001
0100
0001
0100
0001
1000
0001
1000
0100
0000
0010
0000
0001
0000
1000
0000
,
1100
0000
0000
0101
0000
0000
1001
0000
1010
0000
0000
0010
0100
0000
0000
0110
,
0000
0000
0102
0000
0000
0000
1003
0001
0100
0000
0001
1000
0010
0000
1000
0000
,
1100
0000
0000
0101
0000
0000
1100
0000
1001
0000
0000
0001
0100
0000
0000
0110
,
0000
0000
2010
0000
0000
0000
3001
1000
0010
0000
1000
0001
0010
0000
0100
0000
,
1100
0000
0000
0101
0000
0000
1010
0000
0011
0000
0000
1000
0001
0000
0000
0110
,
0000
0000
1001
0000
0001
0000
1000
0001
0100
0000
0010
1000
0100
0000
1000
0001
,
0100
0000
0000
0110
0000
0000
1010
0000
0101
0000
0000
0001
0100
0000
0000
0110
,
0000
0000
1001
0000
0000
0010
0100
0001
1000
0000
0000
1100
0000
0000
0011
0000
,
0000
0000
0000
0000
,
0001
0000
1000
0100
1000
0000
0010
0100
0010
0000
1000
0001
1000
0000
0100
0000
,
0010
0001
0010
0000
0001
0100
0001
0000
1000
0010
1000
0000
0001
1000
0001
0000
,
0010
0000
0001
1000
0001
0000
0100
0010
0100
0000
0001
0010
0001
0000
1000
0000
,
0100
0010
0100
0000
1000
0001
1000
0000
0001
0000
0100
0001
0010
0000
0100
1000
,
0010
0000
1000
0100
1000
0000
0001
1000
0001
0000
0100
0010
0100
0000
0001
0000
,
1000
0000
0100
1000
0001
1000
0100
0000
0010
0001
1000
0000
0001
1000
0001
0000
,
1100
0000
0000
0101
0000
0000
1100
0000
0011
0000
0000
1000
0010
0000
0001
0010
,
0100
0000
0010
0000
1000
0000
0001
1000
0001
0000
1000
0100
1000
0000
0001
0100
,
0010
0000
1000
0100
0010
0000
0001
0010
0100
0000
1000
0001
1000
0000
0001
0000
,
0020
0000
0001
1000
0000
0000
1000
0001
0000
0000
0001
1000
0030
0000
1000
0001
,
0100
0000
0010
1000
0100
0000
0001
0100
1000
0000
0010
1000
0100
0000
0010
0000
,
0001
0000
1000
0100
0001
0000
1000
0010
0001
0000
1000
0100
0010
0000
0001
0100
,
0010
0000
0000
1000
0100
0000
0000
0100
0010
0000
0000
0010
0001
0000
1000
0000
,
0001
0000
0100
0001
1000
0000
0001
0000
0010
0001
0000
0001
1000
0000
0010
0000
,
1010
0000
0000
0101
0000
0000
1100
0000
1001
0000
0000
1000
0010
0000
0100
0001
,
0100
0000
0001
0000
1000
0000
0100
0000
0010
0001
0100
0010
1000
0100
0010
0001
,
1000
0000
0100
0010
0001
0000
1000
0010
0100
0001
0100
0010
2000
0000
0000
0000
,
3001
0010
0000
0100
0010
0000
0001
1000
0010
0100
0010
1000
0002
0000
0000
0000
,
1003
0000
0001
0100
0010
0000
1000
0001
0100
0001
1000
0100
0020
0000
0000
0000
,
0031
0000
0010
0001
1000
0010
0100
0000
0001
1000
0100
0010
0001
1000
0010
0100
,
0001
0000
0100
0010
1000
0100
0010
0000
0001
1000
0001
0000
1000
0100
1000
0100
,
0010
0000
0001
0100
0001
0100
0010
0000
1000
0001
0100
0000
0010
0100
0001
1000
,
0100
0000
0001
0100
1000
0010
0100
0000
0001
0010
0100
0010
0001
0100
0010
1000
,
0001
0100
0010
1000
0100
0010
0001
0000
0000
0000
0000
0000
0000
0000
0000
0000
;

//--------------- dance-single - Fred-104 -IIDX edition- ----------------
#NOTEDATA:;
#STEPSTYPE:dance-single;
#DESCRIPTION:Fred-104 -IIDX edition-;
#DIFFICULTY:Challenge;
#METER:18;
#BPMS:0=165;
#BANNER:../fallen leaves -IIDX edition-/fallen leaves -IIDX edition-.png;
#JACKET:../fallen leaves -IIDX edition-/fallen leaves -IIDX edition--jacket.png;
#MUSIC:../fallen leaves -IIDX edition-/fallen leaves -IIDX edition-.ogg;
#CREDIT:Fred-104 -IIDX edition-;
#NOTES:
0000
0000
0000
0000
,
0000
0000
0000
0000
,
0000
0000
0000
0000
,
0000
0000
0000
0000
,
0000
0000
0000
0000
,
0000
0000
0000
0000
,
0000
0000
0000
0000
,
0000
0000
0000
0000
,
0000
0000
0000
0000
,
0000
0000
0000
0000
,
1000
0000
0000
0000
0000
0000
0000
0000
0200
0000
0000
0000
0010
0000
0000
0000
0001
0000
0000
0000
0000
0000
0000
0300
0200
0000
0000
0000
0010
0000
0000
0000
1000
0000
0000
0000
0000
0000
0000
0300
0100
0000
0000
0000
0010
0000
0000
0000
0001
0000
0000
0000
0000
0000
0000
0000
1000
0000
0000
0000
0000
0000
0000
0000
,
0001
0000
0000
0000
0000
0000
0000
0000
0020
0000
0000
0000
0100
0000
0000
0000
1000
0000
0000
0000
0000
0000
0000
0030
0020
0000
0000
0000
0100
0000
0000
0000
0001
0000
0000
0000
0000
0000
0000
0030
0010
0000
0000
0000
0100
0000
0000
0000
1000
0000
0000
0000
0000
0000
0000
0000
0001
0000
0000
0000
0000
0000
0000
0000
,
0200
0000
0000
0000
0000
0000
0000
0000
0001
0000
0000
0000
1000
0000
0000
0300
0200
0000
0000
0000
0000
0000
0000
0000
1000
0000
0000
0000
0001
0000
0000
0300
0200
0000
0000
0000
0000
0000
0000
0000
1000
0000
0000
0000
0001
0000
0000
0300
0100
0000
0000
0000
0000
0000
0000
0000
0001
0000
0000
0000
0000
0000
0000
0000
,
0020
0000
0000
0000
0000
0000
0000
0000
0001
0000
0000
0000
1000
0000
0000
0030
0020
0000
0000
0000
0000
0000
0000
0000
1000
0000
0000
0000
0001
0000
0000
0030
0010
0000
0000
0000
0001
0000
0000
0000
1000
0000
0000
0000
0010
0000
0000
0000
0100
0000
0000
0000
0000
0000
0000
0000
0001
0000
0000
0000
0000
0000
0000
0000
,
0101
0000
1100
0000
0101
0000
0011
0010
,
0110
0000
0100
1000
0010
0000
0100
0001
1000
0100
0000
0100
0010
0000
0001
0000
,
1000
0100
1000
0100
0010
0001
0010
0001
1000
0010
0100
0001
0100
0010
1000
0001
,
2002
0000
0000
0000
0000
0000
0000
0000
3003
0000
0100
0100
0001
0000
1001
0000
,
0001
0100
0001
0100
0010
0000
1000
0000
0100
0010
0100
0010
0001
0000
1000
0000
,
0001
0010
0001
0010
0001
0000
1000
0000
0001
1000
0100
0010
0001
0100
0010
1000
,
0100
1000
0010
0100
0001
0000
1000
0000
0001
0010
0100
1000
0001
0000
0100
0000
,
0010
0001
0010
0100
0001
0000
1000
0001
0010
0000
0100
1000
0001
0000
0100
0010
,
1000
0000
0100
0100
0001
1000
0100
0000
1000
0010
0100
0000
0001
0100
1000
0100
,
0001
0000
1000
0100
0100
0001
1000
0000
0001
0010
0100
1000
0010
0100
0001
1000
,
0001
0000
0010
0010
1000
0001
0100
0000
0001
0010
0100
0010
0001
0100
0010
1000
,
0001
0000
0000
0000
0000
0000
1000
0000
0100
0000
0010
0000
0001
0000
0010
0000
0100
0000
1000
0000
0000
0000
0000
0000
0020
0000
0000
0000
0000
0000
1000
0000
0000
0001
0000
0000
0030
0000
0000
0001
0000
0000
1000
0000
0000
0000
0000
0000
,
0101
0000
0100
1000
0100
0000
0001
0000
1000
0000
0100
0001
0100
0000
1000
0001
,
1000
0000
0010
0001
0010
0000
1000
0000
0001
0000
0010
1000
0010
0001
1000
0000
,
0001
0000
1000
0100
1000
0000
0010
1000
0100
0000
0010
0001
1000
0000
0001
0010
,
0100
0000
0000
0000
0000
0000
0000
0000
0000
0000
0000
0000
0000
0000
0000
0000
0000
0000
0000
0000
0000
0000
0000
0000
1000
0000
0000
0000
0000
0000
0000
0000
0010
0000
0000
0000
0000
0000
0000
0000
0100
0000
0000
0000
0000
0000
0000
0000
0001
0000
0000
0000
0000
0000
0000
0000
0000
0000
0000
0000
0000
0000
0000
0000
0000
0000
0000
0000
0000
0000
0000
0000
1000
0000
0000
0000
0000
0000
0000
0000
0001
0000
0000
0000
0000
0000
0000
0000
0010
0000
0000
0000
0000
0000
0000
0000
0002
0000
0000
0000
0000
0000
0000
0000
0000
0000
0000
0000
0000
0000
0000
0000
0000
0000
0000
0000
0000
0000
0000
0000
0203
0000
0000
0000
0000
0000
0000
0000
0000
0000
0000
0000
0000
0000
0000
0000
0000
0000
0000
0000
0000
0000
0000
0000
0320
0000
0000
0000
0000
0000
0000
0000
0000
0000
0000
0000
0000
0000
0000
0000
0000
0000
0000
0000
0000
0000
0000
0000
2030
0000
0000
0000
0000
0000
0000
0000
0000
0000
0000
0000
0000
0000
0000
0000
0000
0000
0000
0000
0000
3000
0000
0000
,
0101
0000
0100
1000
0100
0000
0001
0000
0010
0000
1000
0010
0001
0000
1000
0001
,
1000
0000
0100
0001
0100
0000
1000
0000
0010
0000
0001
0010
1000
0001
0100
0010
,
1000
0000
0001
1000
0100
0000
1000
0010
0100
0000
0001
0010
0100
0000
1000
0001
,
2000
0000
3020
0000
0230
0000
0302
0000
1003
0000
0100
0100
0001
0000
1001
0000
,
1000
0010
1000
0100
0020
0000
0032
0000
0103
0001
0100
0010
0100
0000
0001
0100
,
0010
1000
0100
0010
0200
0000
2300
0000
3001
0010
0100
1000
0001
1000
0010
0100
,
0001
0000
0100
1000
0001
0000
0010
0100
0001
0000
1000
0010
0100
0000
1000
0001
,
0010
0000
0000
1000
0001
0100
0001
0000
0000
1000
0100
0010
0002
0000
0000
0023
0000
0000
0230
0000
0000
2300
0000
0000
,
3001
0010
0100
1000
0010
0000
1010
0000
1000
0001
0100
0001
1000
0000
0001
1000
,
0100
1000
0010
0100
0001
0000
0011
0000
0010
0001
1000
0100
0010
0001
0100
0010
,
0001
0000
0010
0100
0001
0000
0010
0100
0001
0000
1000
0010
0100
0000
1000
0000
,
0001
0010
0100
1000
0100
0010
0001
0000
0000
1000
0000
0000
1010
0000
0000
1100
0000
0000
1001
0000
0000
0101
0000
0000
,
1001
0000
0000
1100
0000
0000
0101
0000
1010
0000
0000
0010
0110
0000
0000
0101
,
0000
0000
2001
0000
0000
0000
3001
0010
1000
0000
0001
0100
1000
0000
0001
0100
,
0110
0000
0000
1010
0000
0000
0011
0000
1100
0000
0000
0001
1001
0000
0000
0110
,
0000
0000
0102
0000
0000
0000
1003
0100
0010
0000
0001
0100
0110
0000
1000
0100
,
0110
0000
0000
0101
0000
0000
0110
0000
1100
0000
0000
1000
1010
0000
0000
0011
,
0000
0000
1010
0000
1001
0000
0001
0010
0100
0000
1000
0010
0100
0000
0001
1000
,
1100
0000
0000
0101
0000
0000
1010
0000
0011
0000
0000
0001
1001
0000
0000
0110
,
0000
0000
1010
0000
0000
0100
0001
1000
0001
0000
0100
0010
0000
1000
0001
0000
,
0000
0000
0000
0000
,
0000
0000
0000
0000
0000
0000
0000
0000
0000
0000
1000
0010
0100
0001
1000
0100
,
0010
0000
0001
1000
0010
0000
1000
0001
0100
0000
0010
1000
0100
0000
0010
0000
,
0001
0000
0010
0100
1000
0010
0100
0001
1000
0000
0100
0010
0001
0100
0010
1000
,
0001
0000
1000
0010
0100
0000
0001
1000
0100
0000
1000
0010
0100
0000
0001
0000
,
1000
0000
0001
0010
0100
0000
1000
0001
0100
0001
1000
0100
0010
0001
1000
0010
,
0100
0000
0001
0010
0100
0000
1000
0001
0100
0000
0010
1000
0100
0000
1000
0010
,
0100
0000
0001
0100
0100
1000
0001
0000
1000
0100
0010
0100
1000
0010
0100
0001
,
1000
0000
0000
1010
0000
0000
0101
0000
1100
0000
0000
0001
0100
0000
0010
1000
,
0100
0000
0001
0100
1000
0000
0100
0010
0001
0100
0010
1000
0100
0010
0001
1000
,
0010
0000
1000
0001
0010
0000
0100
1000
0001
1000
0100
0010
0001
0000
1000
0000
,
0001
0000
0000
0000
0000
0000
0000
0000
0020
0000
0000
0000
0100
0000
0000
0000
1000
0000
0000
0000
0000
0000
0000
0030
0020
0000
0000
0000
0100
0000
0000
0000
0001
0000
0000
0000
0000
0000
0000
0030
0020
0000
0000
0000
0100
0000
0000
0000
1000
0000
0000
0000
0000
0000
0000
0030
0010
0000
0000
0000
0100
0000
0000
0000
,
0001
0000
1000
0001
0100
0000
0001
0010
0100
1000
0010
1000
0100
0000
1000
0000
,
0001
0000
1000
0001
0010
0000
0001
1000
0010
1000
0001
0100
0001
1000
0100
0010
,
0200
0000
0000
0000
0000
0000
0000
0000
1000
0000
0000
0000
0010
0000
0000
0300
0200
0000
0000
0000
0000
0000
0000
0000
0001
0000
0000
0000
0010
0000
0000
0300
0200
0000
0000
0000
0000
0000
0000
0000
1000
0000
0000
0000
0010
0000
0000
0300
0100
0000
0000
0000
0000
0000
0000
0000
0101
0000
0000
0000
0000
0000
0000
0000
,
1001
0000
0001
0010
0100
0000
1100
0000
1000
0010
0000
0100
0001
0000
1000
0000
,
1100
0000
0000
0101
0000
0000
1010
0000
0011
0000
0000
1000
0010
0000
0100
0001
,
0010
0000
0100
1000
0001
0000
1000
0001
0010
0001
0100
0010
1000
0100
1000
0010
,
0100
0000
0001
1000
0100
0000
1000
0100
0010
0001
0010
0100
2000
0000
0000
0000
,
3001
0010
0000
0010
0100
0000
1000
0001
0100
0001
1000
0100
0010
0000
1000
0001
,
0100
0000
1000
0001
0100
0000
0001
0100
0010
0100
0001
1000
0100
0000
1000
0010
,
0100
0000
0001
0100
0100
1000
0001
0100
0001
1000
0100
0100
0001
0010
1000
0010
,
0001
0000
1000
0100
0100
0001
1000
0000
0001
0100
0010
0001
1000
0100
0001
1000
,
0100
0000
1000
0010
0010
0001
1000
0000
0001
0100
1000
0001
0010
0100
0001
1000
,
0001
0000
1000
0001
0100
0100
1000
0000
0100
0010
0001
0100
0010
1000
0100
0010
,
0001
0100
1000
0001
0010
1000
1001
0000
0000
0000
0000
0000
0000
0000
0000
0000
;

//--------------- dance-double - Fred-104 ----------------
#NOTEDATA:;
#STEPSTYPE:dance-double;
#DESCRIPTION:Fred-104;
#DIFFICULTY:Easy;
#METER:8;
#CREDIT:Fred-104;
#NOTES:
00000000
00000000
00000000
00000000
,
00000000
00000000
00000000
00000000
,
00000000
00000000
00000000
00000000
,
00000000
00000000
00000000
00000000
,
00000000
00000000
00000000
00000000
,
00000000
00000000
00000000
00000000
,
00000000
00000000
00000000
00000000
,
00000000
00000000
00000000
00000000
,
00000000
00000000
00000000
00000000
,
00000000
00000000
00000000
00000000
,
00001000
00000000
00000001
00000010
,
00000010
00000001
00000100
00000010
,
00000100
00001000
00020000
00000000
,
00230000
00000000
02300000
00000000
,
03010000
10000000
01000000
00100000
,
00001000
00010000
00000100
00001000
,
00000001
00000000
00000100
00000000
00000010
00000100
00000010
00000000
,
00002002
00000000
00000000
00000000
00003003
00000000
00000001
00001000
,
00000001
00000010
00000001
00001000
,
00000001
00000010
00000001
00000010
,
00001000
00010000
01000000
00100000
,
00010000
10000000
22000000
33000000
,
10000000
00010000
10000000
00100000
,
01000000
00100000
01000000
00001000
,
00010000
00000000
00000100
00000000
00001000
00000001
00001000
00000000
,
00002002
00000000
00000000
00000000
00003003
00000001
00001000
00000100
,
00000020
00000000
00000000
00000032
00000000
00000000
00000103
00000000
,
00000020
00000000
00000000
00002030
00000000
00000000
00003100
00000000
,
00010000
00001000
00010000
00000000
,
00100000
01000000
00010000
00100000
,
02000000
00000000
00000000
03200000
00000000
00000000
00301000
00000000
,
00020000
00000000
00000000
00032000
00000000
00000000
00003100
00000000
,
00000010
00001000
00000001
00000000
,
00000100
00000100
00000220
00000330
,
00000002
00000000
00000000
00000203
00000000
00000000
00001300
00000000
,
00020000
00000000
00000000
00230000
00000000
00000000
20300000
00000000
,
30010000
10000000
01000000
00010000
,
00001000
00010000
00022000
00033000
,
00020000
00000000
00000000
00032000
00000000
00000000
00003020
00000000
,
00000230
00000000
00000000
00002300
00000000
00000000
00003001
00000000
,
00000100
00001000
00010000
00100000
,
01000000
00010000
20020000
30030000
,
10000000
00000000
00000000
00100000
00000000
00000000
10000000
00000000
,
00000000
01000000
00000000
00000000
00100000
00000000
00001000
00000000
,
00010000
00000000
00000000
00001000
00000000
00000000
00000100
00000000
,
00000000
00000001
00000000
00000000
00000010
00000000
00000010
00000000
,
00000001
00000000
00000000
00000100
00000000
00000000
00000010
00000000
,
00000000
00000100
00000000
00000000
00000001
00000000
00000010
00000000
,
00001000
00000000
00000000
00010000
00000000
00000000
01000000
00000000
,
00000000
00000000
10000000
00000000
00000000
00000000
00000000
00000000
00010000
00000000
00000000
10000000
00000000
00000000
10010000
00000000
,
00000000
00000000
00000000
00000000
,
00002000
00023000
00230000
20300000
,
31000000
00100000
00100000
00001000
,
00020000
00032000
00003020
00000230
,
00001300
00000000
00000010
00000000
00000100
00000001
00000100
00000000
,
00000001
00000001
00000010
00001000
,
00010000
01000000
00100000
00010000
,
01000000
00001000
01000000
00001000
,
00010000
00001000
00022000
00033000
,
00020000
00030100
00002000
00003100
,
00010000
00001000
00000010
00001000
,
00020000
00031000
00000200
00001300
,
00010000
00000000
00001000
00000000
00010000
00001000
00010000
00001000
,
00010000
00000010
00001000
00000010
,
00001000
00000001
00000010
00000001
,
00001000
00000000
00000000
00000100
00000000
00000000
00000010
00000000
00000001
00000000
00000000
00000000
00000100
00000000
00000000
00000000
,
00001000
00000000
00010000
00000000
00001000
00100000
00001000
00100000
,
00020000
00000000
02030000
00000000
,
03200000
00000000
20300000
00000000
,
32000000
00000000
03020000
00000000
,
00032000
00000000
00003020
00000000
,
00000031
00000000
00000001
00000000
00000001
00000000
00000100
00000010
,
00000100
00000000
00000010
00000000
00010000
00000000
00001000
00010000
,
00001000
00000000
00100000
00000000
00010000
10000000
01000000
00100000
,
00001000
00000000
00010000
00011000
00000000
00000000
00000000
00000000
;

//--------------- dance-double - Fred-104 ----------------
#NOTEDATA:;
#STEPSTYPE:dance-double;
#DESCRIPTION:Fred-104;
#DIFFICULTY:Medium;
#METER:13;
#CREDIT:Fred-104;
#NOTES:
00000000
00000000
00000000
00000000
,
00000000
00000000
00000000
00000000
,
00000000
00000000
00000000
00000000
,
00000000
00000000
00000000
00000000
,
00000000
00000000
00000000
00000000
,
00000000
00000000
00000000
00000000
,
00000000
00000000
00000000
00000000
,
00000000
00000000
00000000
00000000
,
00000000
00000000
00000000
00000000
,
00000000
00000000
00000000
00000000
,
00010000
00000100
00000010
00000001
00000000
00000100
00000010
00001000
,
00000000
00000100
00010000
01000000
00000000
00100000
00010000
10000000
,
10000000
00100000
01000000
00001000
00000000
00010000
00001000
00000100
,
00000000
00000010
00001000
00000100
00000000
00000010
00000001
00001000
,
00001001
00000000
00001100
00000000
00010010
00000000
00001000
00010000
,
00011000
00000000
00000000
00000000
00101000
00000000
00000000
00000000
00110000
00000000
00000000
00100000
00010000
00000000
01000000
00000000
,
00100000
00000000
10000000
00000000
01000000
00000000
00100000
00000000
01000000
00000000
00000000
01000000
10000000
00000000
00010000
00000000
,
20020000
00000000
00000000
00000000
30030000
00000000
00010000
10000000
,
00100000
10000000
00100000
10000000
00100000
00010000
00001000
00010000
,
00001000
00000010
00000001
00001000
00000010
00000100
00000002
00000000
,
00000103
00000001
00001000
00000001
00000010
00000100
00001000
00000100
,
00010000
00001000
00010000
00100000
01000000
00010000
10000000
00000000
,
11000000
00000000
01010000
00000000
11000000
00000000
00100000
00001000
,
00011000
00000000
00000000
00000000
00010010
00000000
00000000
00000000
00001010
00000000
00000000
00000010
00000100
00000000
00000010
00000000
,
00001000
00000100
00000010
00000001
00001000
00000001
00000010
00001000
,
00010000
00000000
00000000
01000000
00100000
00000000
00010000
00000000
10000000
00000000
00100000
01000000
00100000
01000000
00100000
00000000
,
10000000
00000000
01000000
00000000
00100000
00000000
02000000
00000000
00000000
00000000
13000000
00000000
10000000
00000000
00100000
01000000
,
00100000
00010000
00001000
00000200
00000000
00000310
00001000
00000001
,
00000100
00000020
00001000
00000000
00000100
00000000
00001030
00000000
,
00000001
00000100
00001000
00010000
00100000
01000000
00010000
10000000
,
00010000
00000000
01000000
00000000
00100000
00000000
20000000
00000000
00000000
00000000
31000000
00000000
00100000
00000000
00001000
00010000
,
00001000
00100000
00001000
00010000
00000010
00001000
00000100
00000010
,
00000001
00000200
00000010
00000000
00000001
00000000
00000310
00000100
,
00000001
00000010
00000100
00001000
00000010
00001000
00002200
00003300
,
00010000
00000000
00001000
00000000
00100000
00000000
00002000
00000000
00000000
00000000
00013000
00000000
00001000
00000000
01000000
00100000
,
01000000
00000000
00010000
00000000
00100000
00000000
02000000
00000000
00000000
00000000
13000000
00000000
00100000
01000000
00100000
00000000
,
10000000
01000000
00020000
00000000
00032000
00000000
00023000
00000000
,
00030010
00000100
00000001
00000010
00000100
00000100
00001000
00000001
,
00001000
00000000
00000010
00000000
00010000
00000000
00002000
00000000
00000000
00000000
00103000
00000000
00010000
00000000
10000000
01000000
,
10000000
00010000
01000000
00100000
01000000
00010000
10000000
01000000
,
00010000
00001000
00000010
00000200
00000000
00001300
00000100
00001000
,
00000001
00000100
00001000
00010000
00100000
01000000
01010000
00000000
,
11000000
00000000
00000000
11000000
00000000
00000000
11000000
00000000
10010000
00000000
00000000
00000000
00101000
00000000
00000000
00101000
,
00000000
00021000
00000000
00030010
00000100
00000010
00001000
00000001
,
00000101
00000000
00000000
00000101
00000000
00000000
00000101
00000000
00001001
00000000
00000000
00000000
00011000
00000000
00000000
00011000
,
00000000
02001000
00000000
03001000
00100000
00010000
10000000
00010000
,
00110000
00000000
00000000
00110000
00000000
00000000
10010000
00000000
10010000
00000000
00000000
00000000
01001000
00000000
00000000
01001000
,
00000000
00011000
00001000
00010000
00001000
00000010
00000100
00001000
,
00001001
00000000
00000000
00001001
00000000
00000000
00000011
00000000
00000011
00000000
00000000
00000000
00001010
00000000
00000000
00001010
,
00000000
00000000
00011000
00000000
00000000
00011000
00000000
00000000
01000000
00000000
00000000
00100000
00000000
00000000
10010000
00000000
,
00000000
00000000
00000000
00000000
,
00001000
00010000
00100000
01000000
00010000
00100000
01000000
10000000
,
02000000
03020000
00032000
00003020
,
00000130
00001000
00000001
00000100
00000010
00001000
00000100
00000010
,
00000002
00000000
00000000
00000000
00000100
00000000
00000000
00000000
00000103
00000000
00000001
00000010
00000100
00000000
00000010
00000000
,
00000001
00000200
00000010
00000000
00000001
00000000
00000310
00000000
,
00010000
00002000
00000010
00000000
00010000
00000000
00003010
00000000
,
00001000
00000000
00000000
00010000
00000000
00000000
00000100
00000000
00001000
00000000
00000000
00000001
00000000
00000000
00000010
00000000
,
00000001
00001000
00000100
00000010
00010000
00100000
01000000
00010000
,
00001000
00010000
00100000
10000000
00010000
01000000
00100000
01000000
,
00020000
00100000
10000000
01030000
,
00010000
10000000
01000000
00010000
00001000
00010000
00000100
00000010
,
00000002
00000000
00000100
00000000
00000103
00000001
00001000
00000000
,
00001010
00000000
00011000
00000000
00101000
00000000
00100000
00010000
,
10010000
00000000
00000000
00000000
01100000
00000000
00000000
00000000
10010000
00000000
00000000
00010000
01000000
00000000
00100000
00000000
,
10000000
00000000
00000000
01000000
00100000
00000000
01000000
00000000
00100000
00000000
00001000
00000000
00010000
00000000
00001000
00000000
,
00000100
00000010
00001000
00000100
00000010
00000001
00000100
00000010
,
00002000
00000010
00000001
00003100
,
00002000
00000100
00010000
00003100
,
00020000
00000100
01000000
00030100
,
00020000
00001000
00100000
00031000
,
00010000
00001000
00010000
00011000
00000000
00010000
00000100
00000010
,
00000001
00000100
00000010
00000110
00000000
00000001
00000010
00001000
,
00010000
00001000
00010000
01000000
00100000
00010000
01000000
00100000
,
10000000
00000000
00010000
10000000
00010000
00000000
01100000
00000000
00000000
00000000
00000000
00000000
00000000
00000000
00000000
00000000
;

//--------------- dance-double - Fred-104 ----------------
#NOTEDATA:;
#STEPSTYPE:dance-double;
#DESCRIPTION:Fred-104;
#DIFFICULTY:Hard;
#METER:17;
#CREDIT:Fred-104;
#NOTES:
00000000
00000000
00000000
00000000
,
00000000
00000000
00000000
00000000
,
00000000
00000000
00000000
00000000
,
00000000
00000000
00000000
00000000
,
00000000
00000000
00000000
00000000
,
00000000
00000000
00000000
00000000
,
00000000
00000000
00000000
00000000
,
00000000
00000000
00000000
00000000
,
00000000
00000000
00000000
00000000
,
00000000
00000000
00000000
00000000
,
00000200
00000000
00000001
00001000
00000000
00000000
00001000
00000001
00000000
00000000
00000001
00001000
00000300
00000000
00001000
00000100
,
00020000
00000000
00001000
00100000
00000000
00000000
00100000
00001000
00000000
00000000
00001000
00100000
00030000
00000000
01000000
00010000
,
00200000
00000000
00010000
01000000
00000000
00000000
10000000
01000000
00000000
00000000
00010000
01300000
00000000
00000000
10000000
00010000
,
02000000
00000000
00010000
00100000
00000000
00000000
10000000
00100000
00000000
00000000
00010000
00100000
03000000
00000000
10000000
00100000
,
01000000
00000000
01010000
00000000
01001000
00000000
00011000
00010000
,
00000010
00000000
00000000
00000000
00001010
00000000
00000000
00000000
00001100
00000000
00000000
00000100
00000010
00000000
00000001
00000000
,
00000100
00000000
00000001
00000000
00000010
00000000
00000000
00000000
00000100
00010000
00000000
00001000
00010000
00000000
00010000
00000000
,
00022000
00000000
00000000
00000000
00000000
00000000
00000000
00000000
00033000
00000000
00000000
00001000
00010000
00000000
00010000
00000000
,
00001000
00000000
00100000
00010000
01000000
00000000
00010000
10000000
01000000
00000000
00100000
00001000
00010000
00000000
00001000
00010000
,
00100000
00000000
01000000
00001000
00010000
00000000
00100000
01000000
00001000
00000000
00010000
00000100
00001000
00000000
00000010
00010000
,
00001000
00000000
00000100
00000010
00010000
00000000
00001000
00000100
00000010
00000000
00001000
00000100
00000010
00000000
00000001
00000100
,
00001000
00000000
00010000
00100000
01000000
00000000
00010000
00100000
01000000
10000000
00100000
01000000
00010000
00000000
00010000
00000000
,
10000000
00010000
01000000
00000000
00100000
10000000
01000000
00000000
10000000
00010000
01000000
00000000
00100000
01000000
00001000
00010000
,
00001000
00000000
00100000
00001000
00010000
00000010
00001000
00000000
00000100
00000010
00000001
00001000
00000010
00000100
00000010
00000000
,
00001000
00000000
00000001
00000100
00000010
00000100
00000001
00000000
00001000
00000100
00000010
00000100
00001000
00000000
00000100
00000000
,
00010000
00000000
00000000
00001000
01000000
00000000
00100000
00000000
10000000
00000000
00010000
00100000
01000000
00100000
00010000
00000000
,
10000000
00000000
01000000
00100000
00010000
00000000
01000000
00000000
00001000
00000000
00010000
00000010
00001000
00000000
00000001
00000010
,
00001000
00000000
00000010
00000001
00001000
00000000
00000001
00000000
00000010
00000000
00000100
00001000
00000001
00001000
00000100
00001000
,
00000001
00000000
00000100
00000010
00000100
00000000
00001000
00000000
00010000
00000000
00100000
01000000
00010000
00000000
10000000
00000000
,
01000000
00000000
01000000
00100000
00010000
00000000
10000000
00100000
00020000
00000000
00032000
00000000
00023000
00000000
00230000
00000000
,
10300000
00000000
01000000
00100000
00010000
00000000
00100000
00000000
00001000
00000000
00010000
00001000
00000100
00000000
00000010
00010000
,
00001000
00000000
00000010
00000100
00001000
00000000
00000001
00000000
00000100
00000000
00000010
00000000
00010000
00001000
00100000
00001000
,
00010000
00000000
00001000
00010000
00100000
00000000
01000000
00000000
00001000
00000000
00010000
00001000
00000100
00000000
00000010
00010000
,
00001000
00000000
00000100
00000000
00000010
00000000
00000100
00000000
00000001
00001000
00000100
00000010
00000001
00001000
00000100
00000000
,
00001000
00000000
00000100
00000001
00000100
00000000
00001000
00000000
00000010
00000000
00010000
00000000
00001000
00000000
00010000
00100000
,
01000000
00000000
00010000
10000000
01000000
00000000
00010000
00000000
01000000
00000000
10000000
00000000
01000000
00100000
00001000
00010000
,
00001000
00000000
00000100
00000010
00001000
00000000
00000100
00000000
00000010
00000000
00000001
00001000
00000001
00000000
00000010
00000000
,
00000100
00000000
00000010
00000001
00001000
00000000
00000010
00000000
00000200
00000000
00002300
00000000
00023000
00000000
00032000
00000000
,
00013000
00000000
00100000
01000000
00010000
00000000
00100000
00000000
00010000
00000000
01000000
00100000
01000000
00000000
00010000
10000000
,
00010000
00000000
10000000
01000000
00100000
00000000
00001000
00000000
00020000
00000000
00032000
00000000
00003200
00000000
00002300
00000000
,
00013000
00000000
00000100
00001000
00000010
00000000
00000100
00000000
00000010
00000000
00001000
00000000
00000001
00000000
00000010
00000000
,
00000100
00000010
00000001
00000100
00000010
00000100
00000001
00001000
00000100
00000000
00000010
00000000
00000001
00000000
00000100
00000000
,
00000101
00000000
00000000
00001100
00000000
00000000
00011000
00000000
00110000
00000000
00000000
00010000
00100000
00000000
00000000
10100000
,
00000000
00000000
10020000
00000000
00000000
00000000
10030000
01000000
00100000
00000000
00001000
00000000
00010000
00000000
00001000
00000000
,
01001000
00000000
00000000
00010010
00000000
00000000
00011000
00000000
00010100
00000000
00000000
00000100
00001000
00000000
00000000
00001010
,
00000000
00000000
00000102
00000000
00000000
00000000
00001003
00000100
00000001
00000000
00000001
00000100
00001000
00000000
00000100
00000000
,
00000010
00000000
00000000
00000011
00000000
00000000
00001010
00000000
00010010
00000000
00000000
00010000
00001000
00000000
00000000
00101000
,
00000000
00000000
00011000
00000000
00001000
00000000
00010000
00100000
01000000
00000000
00001000
00010000
00100000
00000000
10000000
00010000
,
00100000
00000000
00000000
01001000
00000000
00000000
00110000
00000000
00101000
00000000
00000000
00100000
00001000
00000000
00000000
00010100
,
00000000
00000000
00001100
00000000
00000000
00010000
00001000
00000100
00000010
00000000
00000000
00001010
00000000
00000000
00001001
00000000
,
00000000
00000000
00000000
00000000
,
00000001
00000000
00000010
00001000
00010000
00000000
01000000
00100000
00010000
00000000
10000000
00100000
01000000
00000000
00010000
00000000
,
01000000
00001000
00010000
00000000
00000100
00001000
00000010
00000000
00001000
00000100
00000010
00000000
00000001
00000010
00000100
00000000
,
00001000
00000000
00000001
00000100
00000010
00000000
00000100
00001000
00010000
00000000
00100000
01000000
00010000
00000000
10000000
00000000
,
00010000
00100000
01000000
00000000
10000000
00100000
01000000
00000000
00010000
10000000
00010000
10000000
00010000
00000000
10000000
00000000
,
01000000
00000000
00100000
00010000
01000000
00000000
00001000
00010000
00001000
00000000
00010000
00000010
00001000
00000000
00000010
00000000
,
00000100
00000000
00000001
00000100
00000010
00001000
00000001
00000000
00000010
00000100
00001000
00000000
00001000
00000100
00000010
00000000
,
00001001
00000000
00000000
00000110
00000000
00000000
00001001
00000000
00001100
00000000
00000000
00000100
00010000
00000000
00010000
00001000
,
00010000
00000000
00001000
00000000
00100000
00000000
00010000
00000000
10000000
00000000
01000000
00100000
01000000
00000000
10000000
00000000
,
00010000
00000000
01000000
00001000
00010000
00000000
00000100
00000000
00001000
00000100
00000010
00000000
00000001
00000100
00000010
00000000
,
00000200
00000000
00000001
00001000
00000000
00000000
00001000
00000001
00000000
00000000
00000001
00001000
00000300
00000000
00001000
00000001
,
00000010
00000000
00000100
00000010
00001000
00000000
00010000
01000000
10000000
00000000
00100000
00000000
01000000
00000000
00010000
00000000
,
10000000
00000000
01000000
00100000
00010000
00000000
01000000
00001000
00010000
00000000
00000100
00001000
00000100
00000000
00000010
00000000
,
00001001
00000000
00000000
00000001
00000010
00000000
00000000
00000010
00001000
00000000
00000000
00001000
00010000
00000000
00001000
00000000
,
00010000
00000000
01000000
00100000
00010000
00000000
10000000
00000000
00010000
01000000
00000000
00100000
10000000
00000000
01000000
00000000
,
01100000
00000000
00000000
01001000
00000000
00000000
00011000
00000000
00010010
00000000
00000000
00001000
00000100
00000000
00000010
00000001
,
00001000
00000000
00000100
00000000
00000010
00000000
00000001
00000000
00000100
00000001
00000010
00000100
00001000
00000100
00010000
00001000
,
01000000
00000000
00010000
00100000
01000000
00000000
10000000
00010000
00100000
00000000
10000000
00100000
02000000
00000000
00000000
00000000
,
13000000
00010000
00000000
01000000
00001000
00000000
00010000
00000100
00001000
00000000
00000001
00000100
00000020
00000000
00000000
00000000
,
00001030
00000000
00000001
00000010
00001000
00000000
00010000
00001000
00010000
00000000
01000000
00100000
00020000
00000000
00000000
00000000
,
10030000
00000000
01000000
00100000
00010000
00100000
00001000
00000000
00010000
00000010
00001000
00000010
00000100
00000001
00000010
00000001
,
00000100
00000000
00000001
00000010
00000100
00000010
00001000
00000000
00010000
01000000
00100000
00000000
00010000
10000000
00100000
01000000
,
00010000
00000000
10000000
01000000
00100000
01000000
00010000
00000000
00001000
00000010
00000100
00000000
00001000
00000001
00000100
00000010
,
00001000
00000000
00000001
00000010
00000100
00000010
00001000
00000000
00000001
00000100
00000010
00000100
00001000
00000001
00000100
00001000
,
00010000
00100000
01000000
00010000
10000000
01000000
00100000
00000000
00000000
00000000
00000000
00000000
00000000
00000000
00000000
00000000
;

//--------------- dance-double - Fred-104 -IIDX edition- ----------------
#NOTEDATA:;
#STEPSTYPE:dance-double;
#DESCRIPTION:Fred-104 -IIDX edition-;
#DIFFICULTY:Challenge;
#METER:18;
#BPMS:0=165;
#BANNER:../fallen leaves -IIDX edition-/fallen leaves -IIDX edition-.png;
#JACKET:../fallen leaves -IIDX edition-/fallen leaves -IIDX edition--jacket.png;
#MUSIC:../fallen leaves -IIDX edition-/fallen leaves -IIDX edition-.ogg;
#CREDIT:Fred-104 -IIDX edition-;
#NOTES:
00000000
00000000
00000000
00000000
,
00000000
00000000
00000000
00000000
,
00000000
00000000
00000000
00000000
,
00000000
00000000
00000000
00000000
,
00000000
00000000
00000000
00000000
,
00000000
00000000
00000000
00000000
,
00000000
00000000
00000000
00000000
,
00000000
00000000
00000000
00000000
,
00000000
00000000
00000000
00000000
,
00000000
00000000
00000000
00000000
,
00000001
00000000
00000000
00000000
00000000
00000000
00000000
00000000
00000200
00000000
00000000
00000000
00000001
00000000
00000000
00000000
00000010
00000000
00000000
00000000
00000000
00000000
00000000
00000300
00000200
00000000
00000000
00000000
00001000
00000000
00000000
00000000
00000010
00000000
00000000
00000000
00000000
00000000
00000000
00000300
00000200
00000000
00000000
00000000
00000001
00000000
00000000
00000000
00000010
00000000
00000000
00000000
00000000
00000000
00000000
00000300
00000100
00000000
00000000
00000000
00000000
00000000
00000000
00000000
,
00020000
00000000
00000000
00000000
00000000
00000000
00000000
00000000
00001000
00000000
00000000
00000000
00100000
00000000
00000000
00030000
00020000
00000000
00000000
00000000
00000000
00000000
00000000
00000000
00100000
00000000
00000000
00000000
00001000
00000000
00000000
00030000
00020000
00000000
00000000
00000000
00000000
00000000
00000000
00000000
00001000
00000000
00000000
00000000
00100000
00000000
00000000
00030000
00010000
00000000
00000000
00000000
00000000
00000000
00000000
00000000
01000000
00000000
00000000
00000000
00000000
00000000
00000000
00000000
,
00200000
00000000
00000000
00000000
00000000
00000000
00000000
00000000
10000000
00000000
00000000
00000000
01000000
00000000
00000000
00300000
00200000
00000000
00000000
00000000
00000000
00000000
00000000
00000000
00010000
00000000
00000000
00000000
01000000
00000000
00000000
00300000
00200000
00000000
00000000
00000000
00000000
00000000
00000000
00000000
10000000
00000000
00000000
00000000
01000000
00000000
00000000
00300000
00100000
00000000
00000000
00000000
00000000
00000000
00000000
00000000
00001000
00000000
00000000
00000000
00000000
00000000
00000000
00000000
,
00010000
00000000
00000000
00000000
00000000
00000000
00000000
00000000
00000200
00000000
00000000
00000000
00001000
00000000
00000000
00000000
00000010
00000000
00000000
00000000
00000000
00000000
00000000
00000300
00000200
00000000
00000000
00000000
00000001
00000000
00000000
00000000
00000010
00000000
00000000
00000000
00000000
00000000
00000000
00000300
00000200
00000000
00000000
00000000
00001000
00000000
00000000
00000000
00000010
00000000
00000000
00000000
00000000
00000000
00000000
00000300
00000100
00000000
00000000
00000000
00000000
00000000
00000000
00000000
,
00000101
00000000
00011000
00000000
11000000
00000000
00010000
01000000
,
01100000
00000000
00100000
10000000
01000000
00000000
00100000
00000000
00001000
00010000
00000000
00010000
00000100
00000000
00001000
00000000
,
00000001
00000100
00000010
00000100
00001000
00010000
00100000
01000000
00010000
10000000
01000000
00100000
00010000
01000000
00100000
00010000
,
00002000
00000000
00000000
00000000
00000000
00000000
00000000
00000000
00003000
00000000
00010000
01000000
00100000
00000000
00010000
00000000
,
10000000
00010000
00000000
10000000
01000000
00000000
10000000
01000000
00100000
00010000
01000000
00100000
10000000
00000000
00100000
00000000
,
01000000
00010000
00000000
00100000
00001000
00000000
00010000
00001000
00010000
00000010
00001000
00000010
00010000
00000000
00001000
00000000
,
00000010
00000100
00000000
00001000
00000001
00000000
00001000
00000100
00000010
00000100
00001000
00000010
00000100
00000000
00000100
00000000
,
00000001
00000100
00000000
00000001
00000010
00000000
00000100
00001000
00000010
00000000
00000100
00000001
00000010
00000100
00001000
00000100
,
00010000
00000000
00001000
00100000
00100000
10000000
00010000
00000000
10000000
01000000
00010000
00000000
00001000
00010000
00100000
01000000
,
00010000
00000000
10000000
00100000
00100000
00001000
00010000
00000000
00001000
00010000
00000010
00000000
00001000
00000100
00000010
00000001
,
00001000
00000000
00000100
00010000
00010000
01000000
00001000
00000000
00010000
00001000
00000010
00000100
00001000
00000010
00000100
00001000
,
00010000
00000000
00100000
01000000
00010000
10000000
00010000
00000000
02000000
00000000
00010000
10000000
03000000
10000000
00010000
00000000
,
10010000
00000000
10000000
01000000
10000000
00000000
01000000
00000000
00010000
00000000
01000000
00000000
10000000
00000000
00010000
01000000
,
00001000
00000000
00010000
00001000
00010000
00000000
00001000
00000000
00000100
00000000
00000001
00000000
00001000
00000100
00000010
00000001
,
00000100
00000000
00000100
00000010
00000100
00000000
00000001
00000000
00000010
00000000
00000100
00001000
00000100
00000000
00000010
00000000
,
00000001
00000000
00000000
00000000
00000000
00000000
00000000
00000000
00000000
00000000
00000000
00000000
00000000
00000000
00000000
00000000
00000000
00000000
00000000
00000000
00000000
00000000
00000000
00000000
00000100
00000000
00000000
00000000
00000000
00000000
00000000
00000000
00000010
00000000
00000000
00000000
00000000
00000000
00000000
00000000
00001000
00000000
00000000
00000000
00000000
00000000
00000000
00000000
00000100
00000000
00000000
00000000
00000000
00000000
00000000
00000000
00000000
00000000
00000000
00000000
00000000
00000000
00000000
00000000
00000000
00000000
00000000
00000000
00000000
00000000
00000000
00000000
00010000
00000000
00000000
00000000
00000000
00000000
00000000
00000000
00001000
00000000
00000000
00000000
00000000
00000000
00000000
00000000
00010000
00000000
00000000
00000000
00000000
00000000
00000000
00000000
00002000
00000000
00000000
00000000
00000000
00000000
00000000
00000000
00000000
00000000
00000000
00000000
00000000
00000000
00000000
00000000
00000000
00000000
00000000
00000000
00000000
00000000
00000000
00000000
00203000
00000000
00000000
00000000
00000000
00000000
00000000
00000000
00000000
00000000
00000000
00000000
00000000
00000000
00000000
00000000
00000000
00000000
00000000
00000000
00000000
00000000
00000000
00000000
00320000
00000000
00000000
00000000
00000000
00000000
00000000
00000000
00000000
00000000
00000000
00000000
00000000
00000000
00000000
00000000
00000000
00000000
00000000
00000000
00000000
00000000
00000000
00000000
20030000
00000000
00000000
00000000
00000000
00000000
00000000
00000000
00000000
00000000
00000000
00000000
00000000
00000000
00000000
00000000
00000000
00000000
00000000
00000000
00000000
30000000
00000000
00000000
,
10100000
00000000
00100000
00010000
00100000
00000000
10000000
00000000
00100000
00000000
00010000
00000000
00001000
00000000
00000010
00000100
,
00001000
00000000
00000001
00000100
00001000
00000000
00010000
00000000
00100000
00000000
01000000
00000000
00010000
10000000
00010000
10000000
,
01000000
00000000
00100000
00001000
00010000
00000000
00001000
00000000
01000000
00000000
00001000
00010000
00000100
00000000
00001000
00000010
,
00000200
00000000
00000302
00000000
00002003
00000000
00003020
00000000
00001030
00000000
00000100
00000100
00000001
00000000
00001001
00000000
,
00000001
00000100
00000010
00001000
00000002
00000000
00000023
00000000
00001030
00010000
00001000
00010000
00001000
00000000
00010000
00100000
,
01000000
00010000
01000000
00100000
20000000
00000000
32000000
00000000
03100000
00000000
00001000
00010000
00001000
00010000
00000010
00001000
,
00000100
00000000
00010000
00000100
00001000
00000000
00000001
00000100
00000010
00000000
00001000
00000100
00000010
00000000
00000001
00001000
,
00000010
00000000
00000000
00001000
00000100
00010000
00001000
00000000
00000000
00010000
00001000
00010000
00002000
00000000
00000000
02003000
00000000
00000000
03020000
00000000
00000000
00230000
00000000
00000000
,
00301000
00010000
00001000
00010000
00100000
00000000
01000000
00000000
00010000
10000000
01000000
00100000
00001000
00010000
00000100
00001000
,
00000100
00000010
00000001
00001000
00000001
00000000
00001000
00000000
00000001
00000010
00000001
00000100
00000010
00001000
00000010
00010000
,
00001000
00000000
00010000
00100000
01000000
00000000
00010000
10000000
01000000
00000000
00100000
00001000
00010000
00000000
00001000
00000000
,
00010000
00000000
00000100
00000000
00001000
00000000
00000100
00000000
00000000
00000010
00000000
00000000
00000001
00000000
00000000
00000000
00000000
00000000
00001000
00000000
00000000
00000000
00000000
00000000
00001010
00000000
00000000
00000000
00000000
00000000
00001000
00000000
00000000
00000000
00000000
00000000
00001001
00000000
00000000
00000000
00000000
00000000
00000001
00000000
00000000
00000000
00000000
00000000
,
00000101
00000000
00000000
00001100
00000000
00000000
00011000
00000000
01010000
00000000
00000000
10000000
10100000
00000000
00000000
01010000
,
00000000
00000000
01200000
00000000
00000000
00000000
10300000
01000000
00010000
00000000
00001000
00000010
00000001
00000000
00001000
00000001
,
00001001
00000000
00000000
00000110
00000000
00000000
00001100
00000000
00000101
00000000
00000000
00000001
00001001
00000000
00000000
00001010
,
00000000
00000000
00020010
00000000
00000000
00000000
00031000
00010000
00100000
00000000
01000000
00010000
10010000
00000000
10000000
01000000
,
01100000
00000000
00000000
11000000
00000000
00000000
01010000
00000000
00011000
00000000
00000000
00000010
00001010
00000000
00000000
00000101
,
00000000
00000000
00001100
00000000
00001001
00000000
00000001
00000010
00000100
00000000
00010000
00001000
00010000
00000000
00001000
00010000
,
00011000
00000000
00000000
00101000
00000000
00000000
00010010
00000000
00011000
00000000
00000000
00000100
00010100
00000000
00000000
00011000
,
00000000
00000000
01001000
00000000
00000000
00010000
10000000
01000000
00100000
00000000
00000000
00011000
00000000
00000000
00001001
00000000
,
00000000
00000000
00000000
00000000
,
00000000
00000000
00000000
00000000
00000000
00000000
00000000
00000000
00000000
00000000
00000001
00000100
00001000
00010000
00100000
01000000
,
00100000
00000000
10000000
00010000
00100000
00000000
00010000
10000000
01000000
00000000
00010000
00001000
00000010
00000000
00000100
00000000
,
00002000
00000000
00000000
00000000
00000000
00000000
00000000
00000000
00000100
00000000
00000000
00000000
00010000
00000000
00000000
00003000
00002000
00000000
00000000
00000000
00000000
00000000
00000000
00000000
00010000
00000000
00000000
00000000
00000100
00000000
00000000
00003000
00002000
00000000
00000000
00000000
00000000
00000000
00000000
00000000
00000100
00000000
00000000
00000000
00010000
00000000
00000000
00003000
00002000
00000000
00000000
00000000
00000000
00000000
00000000
00000000
00010000
00000000
00000000
00000000
00000100
00000000
00000000
00003000
,
00001000
00000000
00000010
00000100
00000001
00000000
00001000
00000100
00010000
00000000
00001000
00100000
00010000
00000000
10000000
00010000
,
00100000
00000000
01000000
10000000
01000000
00000000
00100000
00010000
01000000
00100000
00010000
10000000
01000000
00010000
10000000
01000000
,
00010000
00000000
00001000
00010000
00001000
00000000
00100000
00001000
00010000
00000000
00000010
00001000
00000100
00000000
00010000
00000000
,
00000010
00000000
00001000
00000100
00000100
00000001
00001000
00000000
00000001
00000010
00000100
00001000
00000001
00000000
00000100
00000000
,
00000101
00000000
00000000
00001100
00000000
00000000
00000011
00000000
00001010
00000000
00000000
00010000
00001000
00000000
00100000
00010000
,
10000000
00000000
00010000
00100000
01000000
00000000
10000000
00100000
01000000
00010000
10000000
01000000
00100000
00010000
01000000
00001000
,
00010000
00000000
00000100
00001000
00000010
00000000
00010000
00001000
00010000
00000010
00001000
00000100
00010000
00000000
00001000
00000000
,
00020000
00000000
00000000
00000000
00000000
00000000
00000000
00000000
00001000
00000000
00000000
00000000
00100000
00000000
00000000
00030000
00020000
00000000
00000000
00000000
00000000
00000000
00000000
00000000
00100000
00000000
00000000
00000000
00001000
00000000
00000000
00030000
00020000
00000000
00000000
00000000
00000000
00000000
00000000
00000000
00001000
00000000
00000000
00000000
00100000
00000000
00000000
00030000
00020000
00000000
00000000
00000000
00000000
00000000
00000000
00000000
00100000
00000000
00000000
00000000
00001000
00000000
00000000
00030000
,
00010000
00000000
00000010
00010000
00001000
00000000
00010000
00000100
00001000
00000100
00000010
00000001
00000010
00000000
00000001
00000000
,
00001000
00000000
00000001
00000100
00001000
00000000
00010000
00100000
01000000
00010000
01000000
00100000
10000000
01000000
00100000
01000000
,
00200000
00000000
00000000
00000000
00000000
00000000
00000000
00000000
00010000
00000000
00000000
00000000
01000000
00000000
00000000
00300000
00200000
00000000
00000000
00000000
00000000
00000000
00000000
00000000
10000000
00000000
00000000
00000000
01000000
00000000
00000000
00300000
00200000
00000000
00000000
00000000
00000000
00000000
00000000
00000000
00010000
00000000
00000000
00000000
01000000
00000000
00000000
00300000
00100000
00000000
00000000
00000000
00000000
00000000
00000000
00000000
01100000
00000000
00000000
00000000
00000000
00000000
00000000
00000000
,
01010000
00000000
01000000
00001000
00010000
00000000
00011000
00000000
00010000
00001000
00000000
00010000
00000100
00000000
00001000
00000000
,
00001100
00000000
00000000
00001010
00000000
00000000
00000101
00000000
00000011
00000000
00000000
00000100
00000001
00000000
00000100
00000010
,
00001000
00000000
00000001
00000010
00001000
00000000
00010000
00100000
10000000
00000000
10000000
01000000
00010000
00001000
00000100
00000001
,
00001000
00000000
00000001
00000100
00000010
00000000
00001000
00000001
00000010
00000100
00001000
00000100
00020000
00000000
00000000
00000000
,
00031000
00010000
00000000
00000010
00001000
00000000
00000100
00010000
00001000
00100000
00001000
00010000
00001000
00000000
00001000
00000000
,
00100000
00000000
00010000
00100000
01000000
00000000
10000000
00100000
01000000
00010000
10000000
01000000
00100000
00000000
00001000
00000000
,
00010000
00000000
00000010
00001000
00000001
00000010
00000100
00001000
00000100
00010000
00001000
00100000
00010000
10000000
00010000
00100000
,
01000000
00000000
10000000
00100000
00100000
00001000
00010000
00000000
00000100
00010000
00001000
00000000
00010000
00001000
00000100
00000010
,
00010000
00000000
00000100
00010000
00010000
01000000
00001000
00000000
00010000
00000100
00001000
00000000
00000010
00010000
00001000
00010000
,
00000100
00000000
00001000
00000010
00000010
00000001
00001000
00000000
00000001
00000100
00000010
00000100
00001000
00010000
00100000
01000000
,
00010000
10000000
01000000
00010000
00001000
00000010
00000001
00000000
00000000
00000000
00000000
00000000
00000000
00000000
00000000
00000000
;
