#VERSION:0.83;
#TITLE:era (nostalmix);
#ARTIST:TaQ;
#GENRE:DRUM'N'BASS;
#BANNER:era (nostalmix).png;
#BACKGROUND:era (nostalmix)-bg.png;
#CDTITLE:./CDTitles/bm IIDX 3rd style.png;
#MUSIC:era (nostalmix).ogg;
#SAMPLESTART:13.333;
#SAMPLELENGTH:15;
#DISPLAYBPM:90:180;
#BPMS:0=180.036,168=90.018,200=180.036,264=90.018;
#BGSTAGE:22;

//--------------- dance-single - Fred-104 ----------------
#NOTEDATA:;
#STEPSTYPE:dance-single;
#DESCRIPTION:Fred-104;
#DIFFICULTY:Beginner;
#METER:4;
#CREDIT:Fred-104;
#NOTES:
0000
0000
0000
0000
,
0000
0000
0000
0000
,
0000
0000
0000
0000
,
0000
0000
0000
0000
,
0000
0000
0000
0000
,
0000
0000
0000
0000
,
1000
1000
1000
0000
,
0001
0000
1000
0000
,
0001
0000
0100
0000
,
0110
0000
0000
0000
,
1000
0000
1000
0000
,
0010
0000
1000
0000
,
0001
0001
0001
0001
,
0001
0000
1000
0000
,
0001
0000
1000
0000
,
0010
0000
0100
0000
,
0001
0000
1000
0000
,
1001
0000
0000
0000
,
1000
1000
1000
1000
,
1000
0000
0001
0000
,
0100
0000
0010
0000
,
0100
0000
0001
0000
,
0100
0100
0100
0100
,
0100
0000
0001
0000
,
1000
0000
0001
0000
,
1001
0000
0000
0000
,
0010
0010
0010
0010
,
0010
0000
0001
0000
,
1000
0000
0001
0000
,
1000
0000
1000
0000
,
0001
0001
0001
0001
,
0001
0000
1000
0000
,
0001
0000
1000
0000
,
1001
0000
0000
0000
,
2000
0000
0000
0000
,
0000
0000
0000
0000
,
0000
0000
0000
0000
,
0000
0000
3000
0000
,
0002
0000
0000
0000
,
0000
0000
0000
0000
,
0000
0000
0000
0000
,
0000
0000
0003
0000
,
1000
1000
0010
0000
,
0100
0001
0100
0000
,
0001
1000
0001
0000
,
1000
1000
0001
0000
,
1000
0010
0100
0100
,
0001
1000
0001
0000
,
0100
0100
0010
1000
,
0001
1000
2002
3003
,
0001
0000
1000
0000
,
0010
0010
0010
0000
,
0100
0000
0010
0000
,
1000
1000
1000
0000
,
0001
0000
1000
0000
,
0001
0001
0001
0000
,
0100
0000
0010
0000
,
0100
0100
0100
0000
,
0001
0000
1000
0000
,
0001
0000
1000
0000
,
0100
0000
1000
0000
,
0001
0001
0001
0001
,
0001
0000
1000
0000
,
0001
0000
0001
0000
,
1000
0000
0001
0000
,
2000
0000
3000
0000
,
2002
0000
0000
0000
,
3003
0100
0100
0100
,
2002
0000
0000
0000
,
3003
0100
0100
0200
,
0300
0000
0000
0000
;

//--------------- dance-single - Fred-104 ----------------
#NOTEDATA:;
#STEPSTYPE:dance-single;
#DESCRIPTION:Fred-104;
#DIFFICULTY:Easy;
#METER:7;
#CREDIT:Fred-104;
#NOTES:
0000
0000
0000
0000
,
0000
0000
0000
0000
,
0000
0000
0000
0000
,
0000
0000
0000
0000
,
0000
0000
0000
0000
,
0000
0000
0000
0000
,
1000
0000
1000
0000
0010
0000
0000
0100
,
0000
0000
0001
0000
0000
0100
0000
0000
,
0010
0000
0000
1000
0000
0000
0000
0001
,
0000
1000
1000
0000
,
0001
0000
1000
0000
,
0001
0000
0100
0000
,
0010
0010
0100
0010
,
1000
0001
1000
0000
,
0001
0000
1000
0000
,
0010
0010
1000
0001
,
0100
0010
0100
0100
,
0001
1000
1001
0000
,
0001
0001
1000
0001
,
0100
0100
0010
0000
,
1000
1000
0010
1000
,
0010
0100
0001
0000
,
1000
0100
0100
1000
,
0100
0010
0001
1000
,
0001
0100
0100
0010
,
1000
0100
0110
0000
,
0002
0023
0230
2300
,
3010
0100
0100
0010
,
1000
1000
0010
0100
,
0100
0001
1001
0000
,
2000
3020
0230
0302
,
1003
0100
0100
0010
,
0001
1000
0010
0100
,
0001
1000
0001
0001
,
0200
0000
0000
0000
,
0000
0000
0000
0000
,
0000
0000
0000
0000
,
0000
0000
0000
0300
,
0020
0000
0000
0000
,
0000
0000
0000
0000
,
0000
0000
0000
0000
,
0000
0000
0000
0030
,
1000
0000
0010
0000
1000
1000
0001
0000
,
0100
0000
0010
0000
0100
0010
1000
0000
,
0001
0000
1000
0000
0100
0100
1000
0000
,
0001
0000
0100
0000
0010
0100
0001
0000
,
1000
0000
0010
0000
1000
0001
0100
0100
,
0010
0000
1000
0000
0001
0001
0100
0010
,
1000
0000
0100
0000
1000
0100
0100
0001
,
0010
0100
1000
0001
0100
0010
0200
0000
,
1300
1000
0010
0100
,
0010
1000
0001
0000
,
1000
1000
0100
0010
,
0001
1000
0001
0000
,
0100
0100
0010
0100
,
0001
1000
0001
0000
,
1000
1000
0010
0100
,
0010
1000
1001
0000
,
0001
0001
0100
0100
,
1000
1000
0010
0010
,
0100
0100
0001
0001
,
0010
1000
0001
0100
,
0010
0010
1000
0100
,
1000
0100
0010
0001
,
1000
0001
0100
0100
,
0010
0100
0100
0010
,
2002
0000
0000
0000
,
3003
0000
0020
2030
3200
0320
0032
1003
,
2002
0000
0000
0000
,
3003
0000
0200
0320
2030
3002
0023
0230
,
0300
0000
0000
0000
;

//--------------- dance-single - Fred-104 ----------------
#NOTEDATA:;
#STEPSTYPE:dance-single;
#DESCRIPTION:Fred-104;
#DIFFICULTY:Medium;
#METER:12;
#CREDIT:Fred-104;
#NOTES:
0000
0000
0000
0000
,
0000
0000
0000
0000
,
0000
0000
0000
0000
,
0000
0000
0000
0000
,
0000
0000
0000
0000
,
0000
0000
0000
0000
,
0001
0000
0100
0000
0002
0000
0000
2003
,
0000
0000
3200
0000
0000
0320
0000
0000
,
0031
1000
0000
0001
0000
0100
0000
0001
,
1000
0000
0010
0100
0010
0000
0100
0000
,
0001
0000
0100
0000
0010
1000
0100
0000
,
0010
0000
0001
0000
1000
0001
0100
0000
,
0002
0023
0230
2300
,
3010
0000
0100
0000
0010
0100
0010
0000
,
1000
0000
0100
0000
1000
0001
0100
0000
,
0001
0000
0100
0000
0010
0100
0010
1000
,
0010
0000
1000
0000
0100
1000
0001
0000
,
1000
0100
1000
0000
0001
0100
0001
0000
,
1000
0100
0010
0001
1000
0010
0100
0000
,
0001
0001
0100
0010
1000
0100
0010
0000
,
0002
0100
0010
0103
,
0010
0000
1000
0000
0001
0100
0001
0000
,
1000
0100
0010
1000
0100
0010
0001
0000
,
0001
0100
0010
0001
0100
0010
1000
0000
,
0020
1000
0100
1030
,
0001
0100
0010
1000
,
0001
0100
0001
1000
0100
0010
0001
0000
,
1000
0010
0100
0010
0010
1000
0001
0000
,
1000
0100
0010
0001
0100
0010
1000
0000
,
0002
0100
1003
1001
,
0001
0100
0010
1000
0001
0010
0100
0000
,
1000
0100
0010
1000
0010
0001
1000
0000
,
0001
0100
0010
0100
1000
0100
0010
0000
,
0001
1000
0010
0100
,
2020
0000
0000
0000
,
0000
0000
0000
0000
,
0000
0000
0000
0000
,
0000
0000
0000
3030
,
0202
0000
0000
0000
,
0000
0000
0000
0000
,
0000
0000
0000
0000
,
0000
0000
0000
0303
,
0001
0000
0100
0000
0010
0000
1000
0100
1000
0100
0010
0100
1000
0000
0001
0000
,
0100
0000
0010
0000
0100
0000
0010
1000
0010
0100
0010
1000
0010
0000
0100
0000
,
0001
0000
0010
0000
0100
0000
1000
0001
0100
0001
1000
0100
0010
0000
0001
0000
,
1000
0000
0010
0000
0100
0000
0010
1000
0010
0100
0001
1000
0010
0000
0100
0000
,
0001
0000
0100
0000
0110
0000
0010
1000
0100
0010
0001
1000
0001
0000
0100
0000
,
1000
0000
0100
0000
0110
0000
0010
0001
1000
0100
0001
0100
1000
0000
0010
0000
,
0100
0000
0001
0000
1001
0000
0001
0100
1000
0100
0010
0100
0001
0000
1000
0000
,
0001
0000
0100
0000
0010
1000
0100
0010
0001
0100
0010
1000
0200
0000
0000
0000
,
0310
0010
1000
0001
0010
0100
1000
0000
,
0001
0001
0100
0010
1000
0100
0010
0000
,
0001
0001
1000
0100
0010
0001
0100
0000
,
0010
0010
1000
0100
0010
0001
0100
0000
,
0010
0010
1000
0100
0010
0001
1000
0000
,
0100
0100
0010
0001
0100
0010
1000
0000
,
0001
0001
0010
0100
1000
0010
0100
0000
,
0001
0001
1000
0100
0010
0001
1000
0000
,
0010
0010
0100
0001
1000
0100
0010
0001
,
1000
0001
0100
0010
1000
0100
0010
0001
,
0100
0001
1000
0010
0100
0001
0010
0100
,
0010
0100
1000
0010
0100
0001
1001
0000
,
0100
0100
0010
0001
1000
0010
0100
0001
,
0010
0001
1000
0100
0010
0001
0100
0010
,
0001
0010
1000
0001
0100
0010
1000
0001
,
0100
0010
1000
0100
,
2002
0000
0000
0000
,
3003
0000
0002
0023
0230
0320
0032
1003
,
2002
0000
0000
0000
,
3003
0000
2000
3200
0320
0032
2003
3020
,
0030
0000
0000
0000
;

//--------------- dance-single - Fred-104 ----------------
#NOTEDATA:;
#STEPSTYPE:dance-single;
#DESCRIPTION:Fred-104;
#DIFFICULTY:Hard;
#METER:16;
#CREDIT:Fred-104;
#NOTES:
0000
0000
0000
0000
,
0000
0000
0000
0000
,
0000
0000
0000
0000
,
0000
0000
0000
0000
,
0000
0000
0000
0000
,
0000
0000
0000
0000
,
1000
0000
1000
0000
2000
0000
0000
3002
,
0000
0000
0203
0000
0000
0320
0000
0000
,
0130
0100
0000
0010
0000
1000
0000
0001
,
1000
0100
0001
0100
0000
1000
0001
0000
,
1000
0000
0100
0000
1000
0000
0010
0000
0100
0000
0001
0000
1000
0100
1000
0000
,
0001
0000
0100
0000
0001
0000
1000
0000
0010
0000
0100
0000
0001
0010
0001
0000
,
1000
0000
0100
0000
0100
0000
0001
0000
0100
0000
0100
0000
1000
0010
0100
0000
,
0001
0000
0100
0000
0100
0000
1000
0000
0100
0000
0100
0000
0001
1000
0001
0000
,
1000
0000
0001
0100
0001
0000
1000
0000
0001
0010
0001
0000
1000
0000
0001
0100
,
0001
0000
1000
0100
0010
0000
0001
1000
0001
0000
1000
0000
0001
0000
0010
0000
,
0100
0000
0010
0000
0001
0000
1000
0100
1000
0000
0001
0000
1000
0000
0100
0010
,
0100
0000
1000
0000
0002
0000
0000
0000
1003
0000
0001
0100
0001
1000
0100
1000
,
0002
0000
0103
0000
0020
0000
1030
0000
0200
0000
0310
0000
0001
0100
0001
0100
,
0001
0000
0010
0000
0100
0000
1000
0000
0001
0000
0100
0000
0010
0000
1000
0001
,
1000
0000
0100
0000
0100
0000
0001
0000
0100
0000
0100
0000
1000
0000
0001
0100
,
0001
0000
0100
0000
0010
0000
1000
0000
0001
0000
1000
0010
1000
0000
0001
1000
,
0002
0000
0103
0000
2000
0000
3100
0000
0002
0000
0013
0000
0200
0000
1300
0001
,
1000
0000
0100
0000
0010
0000
0100
0000
1000
0000
0001
0000
0100
0000
0001
0010
,
0001
0000
1000
0000
0010
0000
0100
0000
0001
0000
1000
0000
0001
0000
0100
0001
,
0100
0000
0001
0000
1001
0000
0000
0000
1000
0000
0001
1000
0010
0100
0001
1000
,
0200
0000
1300
0000
0001
1000
0001
0000
0200
0000
0310
1000
0100
0010
0001
0100
,
0001
0000
1000
0000
0100
0000
0010
0100
0010
0000
0001
0000
1000
0000
0001
0100
,
0001
0000
1000
0000
0010
0100
0001
0100
0010
0000
1000
0000
0001
0010
0100
1000
,
0001
0000
0100
0000
0010
0000
1000
0100
1000
0000
0001
0000
1001
0000
0000
0000
,
0002
0000
1003
0000
0200
0000
1300
0000
0010
1000
0010
0000
0200
0000
0301
1000
,
0001
0000
0100
0000
0010
1000
0001
1000
0100
0000
0010
0000
0001
0000
1000
0001
,
0100
0000
0001
0000
1000
0100
1000
0000
0001
0100
0010
0100
0001
0000
0100
0010
,
0100
0000
0010
0000
1000
0010
0100
0000
0001
0000
0001
0000
1000
0100
0010
0001
,
2000
0000
0000
0000
,
0000
0000
0000
0000
,
0000
0000
0000
0000
,
0000
0000
0000
3000
,
0002
0000
0000
0000
,
0000
0000
0000
0000
,
0000
0000
0000
0000
,
0000
0000
0000
0003
,
0100
0000
0010
0000
0110
0000
1000
0010
0100
0010
1000
0010
0100
0000
0001
0000
,
1000
0000
0100
0000
0110
0000
0001
0100
0010
0100
0001
0100
0010
0000
1000
0000
,
0001
0000
0010
0000
0011
0000
0010
0100
1000
0100
0010
0001
1000
0000
0001
0000
,
1000
0000
0010
0000
1010
0000
0010
1000
0010
0001
0010
0100
0010
0000
1000
0000
,
0001
0000
0000
0000
0100
0000
0000
0000
0110
0000
0000
0000
0010
0000
1000
0001
1000
0000
0100
0000
0010
0000
0001
0000
1000
0000
0000
0000
0010
0000
0010
0000
,
0100
0000
0000
0000
0001
0000
0000
0000
1001
0000
0000
0000
1000
0000
0010
0100
0010
0000
0001
0000
0010
0000
1000
0000
0001
0000
0000
0000
0100
0000
0010
0000
,
1000
0000
0100
0000
0010
0000
0001
0000
0101
0000
0000
0000
0100
0000
0010
1000
0010
0000
1000
0000
0001
0000
0100
0000
0010
0000
1000
0000
0100
0000
1000
0000
,
0001
0000
0000
0000
0100
0000
0000
0000
0001
0000
0000
0000
0010
0000
0000
0000
0100
0000
0000
0000
1000
0000
0000
0000
0010
0000
0000
0000
0100
0000
0001
0000
1000
0000
0000
0000
0100
0000
0000
0000
0001
0000
0000
0000
0100
0000
0000
0000
2000
0000
0000
0000
0000
0000
0000
3000
1000
0000
0001
0000
1000
0000
0001
0000
,
1000
0000
0010
0000
0100
0000
0001
0000
1000
0100
0010
0001
1000
0000
0010
0100
,
0010
0000
1000
0000
0010
0000
0100
0000
0001
0100
0010
0000
0100
0000
0010
0100
,
0001
0000
1000
0000
0100
0000
0010
0100
0020
0000
0130
0000
1000
0001
0010
0001
,
0100
0000
0010
0000
1000
0000
0010
0100
0010
0000
1000
0000
0001
0000
1000
0001
,
1000
0000
0010
0000
0100
0000
0010
0000
1000
0100
1000
0001
0100
0000
0010
1000
,
0001
0000
0010
0000
0100
0000
1000
0000
0010
0100
0010
0000
0100
0000
0001
1000
,
0100
0010
0001
1000
0020
0130
0020
0031
,
0010
1000
0001
0100
0010
1000
1001
0000
,
0001
0000
0100
0000
0010
0000
1000
0000
0001
0010
0100
1000
0010
0000
0100
0001
,
1000
0000
0010
0000
0100
0000
0010
1000
0001
0000
0010
0000
0100
0000
1000
0010
,
0100
0000
0010
0000
1000
0010
0100
0000
0001
0010
0001
0100
0010
0000
1000
0001
,
0200
0000
0301
0000
0200
0000
0310
0000
0200
0000
1300
0000
0200
0000
0310
1000
,
0001
0000
0001
0000
0010
0000
0100
0000
1000
0010
0100
0001
0100
0000
0001
1000
,
0100
0000
1000
0000
0010
0000
0100
0010
0100
0000
0001
0000
1000
0001
0010
0001
,
1000
0000
0010
0000
0100
0000
0001
0100
0010
0000
1000
0000
0100
0010
0001
1000
,
0001
0000
1000
0100
0010
0001
0100
0010
1000
0001
0100
0001
1000
0000
0000
0000
,
2002
0000
0000
0000
,
3003
0000
0002
0203
2300
3020
0032
2003
,
3020
0000
0000
0000
,
0000
0000
0032
0203
2300
3020
0230
0302
,
0003
0000
0000
0000
;

//--------------- dance-single - Fred-104 (step mix) ----------------
#NOTEDATA:;
#STEPSTYPE:dance-single;
#DESCRIPTION:Fred-104 (step mix);
#DIFFICULTY:Challenge;
#METER:18;
#DISPLAYBPM:90:180;
#BPMS:0=180.016,168=90.008,200=180.016,264=90.008;
#BANNER:../era (step mix)/era (step mix).png;
#JACKET:../era (step mix)/era (step mix)-jacket.png;
#MUSIC:../era (step mix)/era (step mix).ogg;
#CREDIT:Fred-104 (step mix);
#NOTES:
0000
0000
0000
0000
,
0000
0000
0000
0000
,
0000
0000
0000
0000
,
0000
0000
0000
0000
,
0000
0000
0000
0000
,
0000
0000
0000
0000
,
1000
0000
0010
0000
0100
0000
0001
0000
1001
0000
0000
0000
0001
0100
0010
0000
,
1000
0000
0001
0000
0100
0000
1000
0100
0010
0000
0000
0000
1000
0000
0100
0000
,
0010
0000
0001
0000
0100
0000
0010
0000
1010
0000
0000
0000
0100
0010
0100
0000
,
0001
0000
0000
0000
0000
0000
0000
0000
2000
0000
0000
0000
0000
0000
0000
0000
0000
0000
0000
0000
0000
0000
0000
0000
0000
0000
0000
0000
0000
0000
0000
0000
0000
0000
0000
0000
0000
0000
0000
0000
0000
0000
0000
0000
0000
0000
0000
3000
1001
0000
0000
0000
0000
0000
0000
0000
0000
0000
0000
0000
0000
0000
0000
0000
,
0001
0000
0000
0000
0000
0000
0000
0000
0200
0300
0000
0000
0000
0000
0000
0000
0200
0300
0000
0000
0000
0000
0000
0000
1000
0000
0000
0000
0000
0000
0000
0000
0001
0000
0000
0000
0000
0000
0000
0000
1000
0000
0000
0000
0000
0000
0000
0000
0020
0030
0000
0000
0000
0000
0000
0000
0020
0030
0000
0000
0000
0000
0000
0000
,
0001
0000
0000
0000
0000
0000
0000
0000
0020
0030
0000
0000
0000
0000
0000
0000
0020
0030
0000
0000
0000
0000
0000
0000
1000
0000
0000
0000
0100
0000
0000
0000
1000
0000
0000
0000
0000
0000
0000
0000
0200
0300
0000
0000
0000
0000
0000
0000
0200
0300
0000
0000
0000
0000
0000
0000
0001
0000
0000
0000
0000
0000
0000
0000
,
1000
0000
0000
0000
0000
0000
0000
0000
0200
0300
0000
0000
0000
0000
0000
0000
0200
0300
0000
0000
0000
0000
0000
0000
0001
0000
0000
0000
0000
0000
0000
0000
1000
0000
0000
0000
0000
0000
0000
0000
0001
0000
0000
0000
0000
0000
0000
0000
1000
0000
0000
0000
0000
0000
0000
0000
0200
0300
0000
0000
0000
0000
0000
0000
,
0200
0300
0000
0000
0000
0000
0000
0000
0001
0000
0000
0000
0000
0000
0000
0000
1000
0000
0000
0000
0000
0000
0000
0000
0100
0000
0000
0000
0000
0000
0000
0000
0010
0000
0000
0000
0001
0000
0000
0000
1000
0000
0000
0000
0000
0000
0000
0000
0020
0030
0000
0000
0000
0000
0000
0000
0020
0030
0000
0000
0000
0000
0000
0000
,
0001
0000
0000
0000
0000
0000
0000
0000
0020
0030
0000
0000
0000
0000
0000
0000
0020
0030
0000
0000
0000
0000
0000
0000
1000
0000
0000
0000
0000
0000
0000
0000
0001
0000
0000
0000
0010
0000
0000
0000
0100
0000
0000
0000
1000
0000
0000
0000
0001
0000
0000
0000
0000
0000
0000
0000
1000
0000
0000
0000
0010
0000
0000
0000
,
0100
0000
0000
0000
0000
0000
0000
0000
0001
0000
0000
0000
0010
0000
0000
0000
0100
0000
0000
0000
0000
0000
0000
0000
1000
0000
0000
0000
0001
0000
0000
0000
2000
0000
0000
0000
0000
0000
0000
0000
0000
0000
0000
0000
0000
0000
0000
0000
3200
0300
0000
0000
0000
0000
0000
0000
0200
0300
0000
0000
0000
0000
0000
0000
,
0001
1000
0001
1000
0100
0000
0010
0000
0001
0000
1000
0000
0001
0000
0100
0010
,
1000
0000
0001
1000
0100
0000
1000
0000
0001
0000
0001
0000
1000
0100
1000
0010
,
0100
0000
0001
0000
0001
0000
1000
0000
0001
0000
0010
0000
0001
0010
0100
1000
,
0001
0000
0000
0000
0100
0000
0000
0000
0001
0000
0000
0000
0000
0000
0000
0000
0200
0300
0000
0000
0000
0000
0000
0000
0200
0300
0000
0000
0000
0000
0000
0000
1000
0000
0000
0000
0000
0000
0000
0000
0200
0300
0000
0000
0000
0000
0000
0000
0200
0300
0000
0000
0001
0000
0000
0000
1000
0000
0000
0000
0000
0000
0000
0000
,
0001
0000
1000
0001
0100
0000
0010
0000
0100
0000
0100
0000
0001
0010
0100
1000
,
0001
0000
0100
0010
1000
0000
0010
0100
0001
0010
0100
0000
1000
0001
0100
0001
,
0010
0000
0010
0001
0010
0000
0001
0000
1001
0000
1000
0010
0100
0001
1000
0000
,
0001
0100
0010
0100
1000
0100
0010
0000
1001
0000
0000
0000
0001
0000
0100
0001
,
0100
0000
0010
1000
0010
0100
0010
0000
1010
0000
0000
0000
1000
0001
0100
0010
,
1000
0000
0001
0000
0100
0010
1000
0000
0001
0100
0001
0100
0001
0010
0100
1000
,
0001
0000
0100
0000
0010
0000
1000
0000
1100
0000
0100
0000
0010
0001
0100
0010
,
1000
0000
0000
0000
0000
0000
0000
0000
0100
0000
0000
0000
1000
0000
0000
0000
0100
0000
0000
0000
0010
0000
0000
0000
0001
0000
0000
0000
1000
0000
0000
0000
0001
0000
0000
0000
0000
0000
0000
0000
0200
0300
0000
0000
0000
0000
0000
0000
0200
0300
0000
0000
1000
0000
0000
0000
0001
0000
0000
0000
0100
0000
0000
0000
,
0002
0000
0103
0010
1000
0100
0010
0001
2000
0000
3010
0100
0001
1000
0200
0000
,
1300
0000
0000
0000
0001
0000
0000
0000
0010
0000
0000
0000
0100
0000
0000
0000
1000
0000
0000
0000
0000
0000
0000
0000
0001
0000
0000
0000
0100
0000
0000
0000
0001
0000
0000
0000
0000
0000
0000
0000
1000
0000
0000
0000
0000
0000
0000
0000
0020
0030
0000
0000
0000
0000
0000
0000
0020
0030
0000
0000
0001
0000
0000
0000
,
1000
0000
0010
1000
0001
0000
0100
0000
0110
0000
0010
0000
1000
0001
0100
0010
,
1000
0000
0000
0000
0000
0000
0000
0000
0001
0000
0000
0000
1000
0000
0000
0000
0100
0000
0000
0000
1000
0000
0000
0000
0010
0000
0000
0000
0100
0000
0000
0000
0001
0000
0000
0000
0000
0000
0000
0000
0020
0030
0000
0000
0000
0000
0000
0000
0020
0030
0000
0000
1000
0000
0000
0000
0001
0000
0000
0000
0010
0000
0000
0000
,
0200
0300
0000
0000
0000
0000
0000
0000
0200
0300
0000
0000
0000
0000
0000
0000
0001
0000
0000
0000
0100
0000
0000
0000
0010
0000
0000
0000
1000
0000
0000
0000
0100
0000
0000
0000
0010
0000
0000
0000
0001
0000
0000
0000
0100
0000
0000
0000
0010
0000
0000
0000
0100
0000
0000
0000
0001
0000
0000
0000
0000
0000
0000
0000
,
1000
0000
0100
0000
0110
0000
0000
0000
0001
0100
0010
0100
0001
0010
0100
1000
,
0002
0000
0000
0000
,
0203
0000
0000
0000
,
0320
0000
0000
0000
,
2030
0000
0000
0000
,
3200
0320
0032
0203
,
0320
0032
0023
2030
,
3002
2003
3200
0320
,
2030
3020
0032
2003
,
3001
0000
0000
0000
0020
0030
0000
0000
0020
0030
0000
0000
1000
0000
0000
0000
0200
0300
0000
0000
0200
0300
0000
0000
0001
0000
0000
0000
0020
0030
0000
0000
0020
0030
0000
0000
1000
0000
0000
0000
0200
0300
0000
0000
0200
0300
0000
0000
0001
0000
0000
0000
0010
0000
0000
0000
0100
0000
0000
0000
1000
0000
0000
0000
,
0200
0300
0000
0000
0200
0300
0000
0000
1000
0000
0000
0000
0020
0030
0000
0000
0020
0030
0000
0000
0001
0000
0000
0000
0200
0300
0000
0000
0200
0300
0000
0000
1000
0000
0000
0000
0020
0030
0000
0000
0020
0030
0000
0000
0001
0000
0000
0000
1000
0000
0000
0000
0010
0000
0000
0000
0100
0000
0000
0000
0001
0000
0000
0000
,
1000
0100
0001
1000
0001
0100
1000
0001
1000
0100
0001
1000
0001
0100
1000
0100
,
0001
0010
1000
0001
1000
0010
0001
1000
0001
0010
1000
0001
1000
0010
0001
0010
,
1000
0000
0000
0000
1010
0000
0000
0000
0001
0100
0001
0100
0001
0010
0100
1000
0001
0100
0010
0000
0110
0000
0000
0000
1000
0010
0100
0010
1000
0000
0100
0000
,
0010
0000
0001
0000
1000
0000
0010
0000
0100
0000
0001
0000
1000
0000
0100
0000
0010
0001
0100
0001
0010
0001
0100
0010
1000
0000
0000
0000
0002
0000
0203
0000
,
0301
0000
0010
0100
1000
0000
1000
0000
1000
0000
0010
0100
0001
0000
0001
0000
1000
0100
0010
0001
1000
0000
0010
0000
0100
0001
1000
0010
0100
0000
0010
0000
,
1000
0100
1000
0100
0010
0001
0010
0001
1000
0010
1000
0010
0100
0001
0100
0001
1000
0100
0010
0001
0010
0100
1000
0001
0100
0010
0100
0001
1000
0100
0010
0001
,
0010
0000
0001
0100
0001
0000
0001
0000
1000
0000
1000
0010
0100
0000
0001
0000
,
1000
0100
0010
0001
1000
0010
0100
0000
0001
0100
0010
0100
0001
1000
0001
0000
,
1000
0100
1000
0010
0100
0001
1000
0000
0001
0010
0100
1000
0010
0100
0001
0000
,
1000
0100
1000
0010
0100
0001
0010
0001
0100
0010
1000
0100
1000
0010
0100
0001
,
0100
0000
0000
0000
0000
0000
0000
0000
0001
0000
0000
0000
1000
0000
0000
0000
0001
0000
0000
0000
0000
0000
0000
0000
0020
0030
0000
0000
0000
0000
0000
0000
0020
0030
0000
0000
0000
0000
0000
0000
1000
0000
0000
0000
0000
0000
0000
0000
0001
0000
0000
0000
1000
0000
0000
0000
0100
0000
0000
0000
0010
0000
0000
0000
,
0001
0000
0000
0000
0000
0000
0000
0000
1000
0000
0000
0000
0010
0000
0000
0000
0200
0300
0000
0000
0000
0000
0000
0000
0200
0300
0000
0000
0000
0000
0000
0000
1000
0000
0000
0000
0000
0000
0000
0000
0001
0000
0000
0000
0010
0000
0000
0000
0200
0300
0000
0000
0000
0000
0000
0000
0200
0300
0000
0000
0000
0000
0000
0000
,
0001
0010
0001
1000
0001
0100
0001
1000
0001
0010
0001
1000
0001
0100
0010
0000
,
1020
0000
0000
0000
0000
0000
0000
0000
0000
0000
0000
0000
0000
0000
0000
0030
0021
0000
0000
0000
0000
0000
0000
0000
0000
0000
0000
0000
0000
0000
0000
0030
1020
0000
0000
0000
0000
0000
0000
0000
0000
0000
0000
0000
0000
0000
0000
0030
0011
0000
0000
0000
0000
0000
0000
0000
0001
0000
0000
0000
0000
0000
0000
0000
,
1000
0010
0100
0010
1000
0100
0010
0000
0001
0010
0100
0010
0001
0100
0001
0000
,
1000
0000
0100
0010
0001
0000
1000
0000
0001
0100
0010
0000
1000
0000
0001
0000
,
1000
0100
0010
0000
0001
0010
0100
0000
1000
0010
0100
0000
0001
0100
0010
0000
,
2100
3010
0102
0013
1200
0310
0201
0310
,
1000
0010
0100
0000
0010
0100
0001
0000
1000
0100
0010
0000
0001
0010
1000
0000
,
0010
0001
0100
0000
0001
0100
1000
0000
0100
0001
0010
0000
0100
1000
0001
0000
,
1000
0100
0010
0001
0010
0100
1000
0010
0100
0001
0100
0010
1000
0001
0010
0100
,
1000
0001
0100
0010
0100
1000
0100
0001
2000
0000
3020
0000
0032
0000
2003
0000
,
3001
0010
1000
0001
1000
0010
0001
1000
0001
0010
1000
0001
1000
0010
0001
0010
,
1000
0100
0001
1000
0001
0100
1000
0001
1000
0100
0002
1003
0002
0103
2000
3001
,
2000
3100
0010
1000
0010
0100
1000
0010
1000
0100
0010
1000
0010
0100
1000
1000
,
0001
0100
0010
0001
0010
0100
0001
0100
0010
0001
0010
0100
0001
1000
0001
0002
,
0003
0000
0000
0000
;

//--------------- dance-double - Fred-104 ----------------
#NOTEDATA:;
#STEPSTYPE:dance-double;
#DESCRIPTION:Fred-104;
#DIFFICULTY:Easy;
#METER:7;
#CREDIT:Fred-104;
#NOTES:
00000000
00000000
00000000
00000000
,
00000000
00000000
00000000
00000000
,
00000000
00000000
00000000
00000000
,
00000000
00000000
00000000
00000000
,
00000000
00000000
00000000
00000000
,
00000000
00000000
00000000
00000000
,
00001000
00000000
00001000
00000000
00010000
00000000
00000000
00000010
,
00000000
00000000
00001000
00000000
00000000
00000100
00000000
00000000
,
00010000
00000000
00000000
00000000
00010000
00000000
00000000
00001000
,
00000000
00000000
00000000
00100000
00000000
00100000
00000000
00000000
,
00010000
10000000
01000000
01000000
,
00100000
00001000
00001000
00000000
,
00010000
00000010
00000100
00000100
,
00000001
00000100
00001000
00000000
,
00000100
00010000
00001000
00001000
,
00100000
00100000
01000000
00000000
,
10000000
00010000
01000000
01000000
,
00001000
00010000
00022000
00033000
,
00000010
00001000
00000001
00000001
,
00000100
00000010
00010000
00001000
,
00100000
00010000
10000000
01000000
,
00100000
01000000
00001000
00010000
,
00000010
00001000
00000001
00000001
,
00000010
00000100
00010000
00001000
,
00100000
00100000
00010000
00010000
,
10000000
00010000
20020000
30030000
,
00100000
01000000
00001000
00010000
,
00000010
00001000
00000001
00001000
,
00000010
00000100
00010000
00001000
,
00100000
00010000
10000000
10000000
,
00100000
01000000
00010000
10000000
,
01000000
00100000
00010000
00001000
,
01000000
00001000
00010000
00000010
,
00001000
00000001
00000100
00001000
,
00022000
00000000
00000000
00000000
,
00000000
00000000
00000000
00000000
,
00000000
00000000
00000000
00000000
,
00000000
00000000
00000000
00033000
,
20020000
00000000
00000000
00000000
,
00000000
00000000
00000000
00000000
,
00000000
00000000
00000000
00000000
,
00000000
00000000
00000000
30030000
,
00010000
00000000
01000000
00000000
00100000
10000000
01000000
00000000
,
00100000
00000000
00010000
00000000
00001000
00001000
00000100
00000000
,
00000010
00000000
00000001
00000000
00001000
00000001
00000100
00000000
,
00000010
00000000
00001000
00000000
00010000
00010000
00100000
00000000
,
10000000
00000000
00010000
00000000
01000000
01000000
00100000
10000000
,
01000000
00000000
00100000
00000000
00001000
00010000
00001000
00000010
,
00000001
00000000
00001000
00000000
00000001
00000001
00000100
00001000
,
00010000
01000000
10000000
00010000
01000000
00100000
20000000
00000000
,
31000000
00100000
00001000
00001000
,
00010000
00000100
00000010
00000010
,
00000001
00001000
00000100
00000010
,
00010000
00001000
00200000
00300000
,
00010000
01000000
00001000
00001000
,
00010000
00000010
00001000
00001000
,
00000100
00010000
00001000
00100000
,
00100000
00010000
10010000
00000000
,
01000000
00100000
00001000
00010000
,
00010000
00001000
00000100
00000100
,
00000010
00000001
00001000
00000001
,
00000200
00000302
00000203
00000320
,
00010030
00001000
00001000
00100000
,
00010000
00010000
10000000
01000000
,
00100000
00010000
10000000
00100000
,
01000000
00010000
00001000
00000100
,
00000020
00000000
00000000
00000000
,
00000030
00000000
00000002
00000023
00000230
00002300
00003020
00020030
,
00032000
00000000
00000000
00000000
,
00003000
00000000
00200000
00320000
20030000
30200000
02300000
03020000
,
00030000
00000000
00000000
00000000
;

//--------------- dance-double - Fred-104 ----------------
#NOTEDATA:;
#STEPSTYPE:dance-double;
#DESCRIPTION:Fred-104;
#DIFFICULTY:Medium;
#METER:12;
#CREDIT:Fred-104;
#NOTES:
00000000
00000000
00000000
00000000
,
00000000
00000000
00000000
00000000
,
00000000
00000000
00000000
00000000
,
00000000
00000000
00000000
00000000
,
00000000
00000000
00000000
00000000
,
00000000
00000000
00000000
00000000
,
00000001
00000000
00000100
00000000
00000020
00000000
00000000
00020030
,
00000000
00000000
00000000
00032000
00000000
00203000
00000000
00000000
,
00301000
00000000
00000000
01000000
00000000
00100000
00000000
00000000
,
10000000
10000000
00100000
01000000
,
00100000
00000000
01000000
00001000
00010000
00000010
00001000
00000000
,
00000010
00000000
00001000
00000001
00000010
00000100
00001000
00000000
,
00000200
00002300
00023000
02030000
,
03100000
00000000
00010000
10000000
00100000
01000000
00010000
00000000
,
00010000
00000000
01000000
00001000
00010000
00000010
00001000
00000000
,
00000010
00000000
00001000
00000001
00000100
00000010
00001000
00000000
,
00001000
00000000
00000100
00010000
00001000
00100000
00010000
00000000
,
00100000
00000000
00010000
10000000
00100000
01000000
00010000
01000000
,
00100000
00001000
00010000
00000010
00001000
00000010
00000100
00000000
,
00000010
00000100
00001000
00000010
00010000
00001000
00010000
00000000
,
01000000
00010000
10000000
01000000
00100000
00001000
00010000
00000000
,
00010000
00000010
00001000
00000001
00000010
00000100
00000010
00000000
,
00002000
00023000
00230000
20300000
,
30010000
01000000
00100000
10000000
01000000
00010000
00001000
00000000
,
00010000
00000010
00001000
00000000
00000001
00000010
00000100
00000000
,
00002000
00000010
00023000
00100000
,
01030000
00100000
10000000
01000000
00100000
00001000
00010000
00000000
,
00001000
00010000
00000010
00001000
00000001
00000100
00000100
00000000
,
00000010
00010000
00001000
01000000
00010000
10000000
10000000
00000000
,
01000000
00100000
00010000
01000000
00001000
00010000
00010000
00000000
,
00000010
00001000
00000001
00000100
00000010
00001000
00001000
00000000
,
00000100
00010000
00001000
00100000
00010000
10000000
10000000
00000000
,
00100000
01000000
00010000
00100000
00001000
00010000
00010000
00000000
,
00000010
00001000
00000001
00000100
,
00000020
00000000
00000000
00000000
,
00000000
00000000
00000000
00000000
,
00000000
00000000
00000000
00000000
,
00000000
00000000
00000000
00000030
,
00020000
00000000
00000000
00000000
,
00000000
00000000
00000000
00000000
,
00000000
00000000
00000000
00000000
,
00000000
00000000
00000000
00030000
,
00001000
00000000
00100000
00000000
00110000
00000000
00010000
10000000
00010000
01000000
00010000
01000000
00100000
00000000
00000000
00000000
,
10000000
00000000
01000000
00000000
01100000
00000000
00100000
00001000
00010000
00001000
00000010
00001000
00010000
00000000
00000000
00000000
,
00001000
00000000
00000100
00000000
00000110
00000000
00000010
00000001
00001000
00000001
00000100
00000010
00001000
00000000
00000000
00000000
,
00000001
00000000
00000100
00000000
00000110
00000000
00000010
00001000
00010000
00001000
00010000
00100000
01000000
00000000
00000000
00000000
,
00100000
00000000
10000000
00000000
10010000
00000000
00010000
01000000
00010000
01000000
00100000
10000000
00010000
00000000
01000000
00000000
,
00100000
00000000
10000000
00000000
11000000
00000000
01000000
00010000
00100000
00001000
00010000
00000100
00000010
00000000
00000100
00000000
,
00001000
00000000
00000001
00000000
00000101
00000000
00000100
00000010
00001000
00000010
00000001
00000010
00000100
00000000
00000010
00000000
,
00001000
00000000
00001000
00000000
00000010
00001000
00000100
00010000
00001000
01000000
00010000
00100000
00002000
00000000
00000000
00000000
,
00013000
00000000
00000010
00001000
00000001
00000000
00000100
00000000
,
00000010
00001000
00000100
00010000
00001000
00100000
00010000
00000000
,
10000000
00000000
00100000
01000000
00010000
00000000
00100000
00000000
,
00001000
00010000
00000010
00001000
00000001
00000100
00000010
00000000
,
00001000
00000000
00000100
00010000
00001000
00000000
00100000
00000000
,
00010000
10000000
00100000
01000000
00010000
00100000
00001000
00000000
,
00010000
00000000
00000010
00001000
00000001
00000000
00000100
00000000
,
00000010
00010000
00001000
01000000
00010000
10000000
01000000
00000000
,
00100000
00010000
01000000
00000000
00001000
00010000
00000010
00001000
,
00000001
00000100
00000010
00000000
00001000
00000100
00010000
00001000
,
00100000
00010000
10000000
00000000
00100000
01000000
00010000
00100000
,
00001000
00010000
00000010
00000000
00001000
00000100
00000010
00000001
,
00000100
00000010
00001000
00000000
00000100
00010000
00001000
01000000
,
00010000
10000000
01000000
00000000
00100000
00010000
01000000
00001000
,
00010000
00000010
00001000
00000000
00000001
00000100
00000010
00001000
,
00000100
00010000
00001000
00000000
00110000
00000000
10100000
00000000
,
02200000
00000000
00000000
00000000
,
03300000
00000000
00200000
20300000
32000000
03020000
00032000
00003200
,
00000302
00000000
00000000
00000000
,
00000003
00000000
00000020
00000032
00000203
00002300
00023000
02030000
,
03000000
00000000
00000000
00000000
;

//--------------- dance-double - Fred-104 ----------------
#NOTEDATA:;
#STEPSTYPE:dance-double;
#DESCRIPTION:Fred-104;
#DIFFICULTY:Hard;
#METER:16;
#CREDIT:Fred-104;
#NOTES:
00000000
00000000
00000000
00000000
,
00000000
00000000
00000000
00000000
,
00000000
00000000
00000000
00000000
,
00000000
00000000
00000000
00000000
,
00000000
00000000
00000000
00000000
,
00000000
00000000
00000000
00000000
,
00000001
00000100
00001000
00000000
,
00010000
00000000
00000000
01000000
00000000
00100000
00000000
00000000
,
00100000
00000000
00000000
00000000
10000000
00000000
00000000
01000000
,
00000000
00000000
00100000
00001000
00010000
00001000
00000000
00000000
,
00010000
00001000
00000100
00000001
00001000
00000100
00000010
00001000
,
00010000
00100000
10000000
00010000
00100000
01000000
10000000
00010000
,
01000000
00001000
00000100
00001000
00010000
00000100
00001000
00000010
,
00000100
00000001
00000010
00001000
00010000
00001000
00000001
00000000
,
00000100
00001000
00010000
00001000
00010000
01000000
10000000
01000000
,
00010000
00001000
00000010
00000001
00000100
00000010
00010000
01000000
,
00010000
00001000
00000100
00000010
00010000
00100000
10000000
01000000
,
00010000
00001000
00000100
00000001
00001000
00000010
00000100
00000000
,
00000002
00000000
00001003
00000000
00020000
00000000
00031000
00000000
00000200
00000000
00000301
00000000
00000200
00000000
00000310
00000100
,
00000010
00000000
00001000
00000000
00010000
00000000
00100000
00000000
00001000
00000000
00010000
00000000
01000000
00000000
00100000
01000000
,
00100000
10000000
00100000
00010000
10000000
01000000
00010000
00001000
,
00010000
00001000
00000100
00000010
00000001
00000010
00001000
00000000
,
00000100
00000000
00000010
00000000
00001000
00000000
00010000
00000000
00100000
00000000
10000000
00000000
00010000
00000000
01000000
00100000
,
01000000
00000000
00100000
00000000
10000000
00000000
00100000
00000000
00001000
00000000
00010000
00000000
00000010
00000000
00001000
00000010
,
00000100
00000010
00001000
00000001
00001000
00010000
00001000
00000100
,
00000010
00000000
00001000
00000000
00010000
00000000
00100000
00000000
10000000
00000000
00010000
10000000
00010000
10000000
00010000
10000000
,
01000000
00000000
00100000
00000000
00010000
00100000
00010000
00000000
00100000
00000000
00001000
00010000
00001000
00000000
00010000
00000010
,
00010000
00000000
00001000
00000000
00000100
00000000
00000010
00000000
00001000
00000001
00001000
00000000
00000001
00000000
00000100
00000010
,
00000100
00000000
00000001
00000000
00001000
00000000
00000001
00000100
00000001
00000000
00001000
00000000
00000100
00000010
00000100
00000000
,
00000010
00000000
00000001
00000000
00000100
00000000
00001000
00010000
00001000
00000000
00010000
00000000
01000000
10000000
01000000
10000000
,
01000000
00000000
10000000
00000000
00100000
00000000
01000000
00000000
00100000
00010000
00100000
00000000
00001000
00000000
00010000
00000100
,
00010000
00000000
00001000
00000000
00010000
00000010
00001000
00000100
00010000
00000000
00001000
00000000
00000100
00000000
00000010
00000100
,
00000010
00000000
00000001
00000000
00001000
00000010
00000100
00000000
00000001
00000010
00000100
00001000
00000100
00000000
00010000
00001000
,
00010000
00000000
00001000
00000000
00100000
00010000
10000000
00000000
00010000
00000000
10000000
00000000
01000000
10000000
00010000
01000000
,
00200000
00000000
00000000
00000000
,
00000000
00000000
00000000
00000000
,
00000000
00000000
00000000
00000000
,
00000000
00000000
00000000
00300000
,
00000020
00000000
00000000
00000000
,
00000000
00000000
00000000
00000000
,
00000000
00000000
00000000
00000000
,
00000000
00000000
00000000
00000030
,
00000001
00000000
00000100
00000000
00000110
00000000
00000010
00001000
00000001
00000100
00001000
00010000
01000000
00000000
00100000
00000000
,
00010000
00000000
10000000
00000000
10010000
00000000
01000000
00100000
10000000
00100000
00010000
00001000
00010000
00000000
00000010
00000000
,
00001000
00000000
00000100
00000000
00000110
00000000
00000001
00000100
00001000
00010000
00000100
00001000
00000010
00000000
00000100
00000000
,
00000010
00000000
00000100
00000000
00000101
00000000
00000001
00000100
00001000
00010000
01000000
10000000
00010000
00000000
01000000
00000000
,
00100000
00000000
00000000
00000000
10000000
00000000
00000000
00000000
11000000
00000000
00000000
00000000
01000000
00000000
00010000
10000000
00010000
00000000
00100000
00000000
01000000
00000000
00010000
00000000
00001000
00000000
00000000
00000000
00000100
00000000
00000100
00000000
,
00000010
00000000
00000000
00000000
00001000
00000000
00000000
00000000
00001001
00000000
00000000
00000000
00000001
00000000
00000100
00000010
00000100
00000000
00000001
00000000
00000100
00000000
00001000
00000000
00010000
00000000
00000000
00000000
00001000
00000000
00001000
00000000
,
00100000
00000000
00000000
00000000
00010000
00000000
00000000
00000000
10010000
00000000
00000000
00000000
01000000
00000000
00100000
10000000
00100000
00000000
10000000
00000000
01000000
00000000
00100000
00000000
00001000
00000000
00010000
00000000
00010000
00000000
00001000
00000000
,
00010000
00000000
00001000
00000000
00000100
00000000
00000001
00000000
00001000
00000000
00000001
00000000
00000100
00000000
00000010
00000100
00000010
00000000
00001000
00000000
00000100
00000000
00010000
00000000
00002000
00000000
00000000
00000000
00013000
00001000
00010000
00001000
,
00010000
00000000
00001000
00000000
00100000
00000000
00010000
00000000
10000000
00010000
01000000
00010000
10000000
00000000
00100000
01000000
,
00010000
00000000
10000000
00000000
01000000
00000000
00100000
00000000
00001000
00010000
00001000
00000000
00000010
00000000
00001000
00010000
,
00001000
00000000
00000100
00000000
00000010
00000000
00000001
00001000
00000002
00000000
00000103
00000000
00000010
00001000
00000001
00000100
,
00000010
00000000
00001000
00000000
00000100
00000000
00000010
00000100
00001000
00000000
00000010
00000000
00000100
00000000
00000100
00000000
,
00000001
00000000
00000010
00000000
00000100
00000000
00010000
00000000
00001000
00010000
00001000
00010000
00001000
00000000
00100000
00010000
,
00100000
00000000
01000000
00000000
10000000
00000000
00010000
00000000
01000000
00001000
00010000
00000000
00001000
00000000
00010000
00001000
,
00010000
00100000
10000000
00010000
02000000
13000000
02000000
03010000
,
10000000
01000000
00010000
00001000
00000010
00000001
00001001
00000000
,
00000010
00000000
00000010
00000000
00001000
00000000
00000001
00000000
00000100
00000010
00001000
00000100
00010000
00000000
00000100
00001000
,
00000100
00010000
00001000
00100000
10000000
00100000
00001000
00001000
,
00010000
00001000
00000100
00000001
00001000
00000010
00000001
00000010
,
00002000
00013000
00002000
00003001
00002000
00003010
00002000
00013000
,
00100000
00000000
10000000
00000000
00010000
00000000
01000000
00100000
10000000
00100000
01000000
00100000
10000000
00000000
00010000
01000000
,
00100000
00000000
01000000
00000000
00100000
00000000
00010000
00001000
00010000
00000000
00000100
00000000
00010000
00000100
00001000
00000010
,
00010000
00000000
00001000
00000000
00000100
00000000
00000001
00000100
00000010
00000000
00000100
00000000
00000001
00001000
00000100
00010000
,
00001000
00000000
00010000
00001000
00100000
00010000
10000000
00100000
01000000
00000000
00100000
00000000
00001000
00000000
00010000
00000000
,
00022000
00000000
00000000
00000000
,
00033000
00000000
20000000
32000000
03020000
00032000
00003020
00000032
,
00002003
00000000
00000000
00000000
,
00003000
00000000
00000002
00000203
00002300
00023000
00230000
20300000
,
30000000
00000000
00000000
00000000
;

//--------------- dance-double - Fred-104 (step mix) ----------------
#NOTEDATA:;
#STEPSTYPE:dance-double;
#DESCRIPTION:Fred-104 (step mix);
#DIFFICULTY:Challenge;
#METER:18;
#DISPLAYBPM:90:180;
#BPMS:0=180.016,168=90.008,200=180.016,264=90.008;
#BANNER:../era (step mix)/era (step mix).png;
#JACKET:../era (step mix)/era (step mix)-jacket.png;
#MUSIC:../era (step mix)/era (step mix).ogg;
#CREDIT:Fred-104 (step mix);
#NOTES:
00000000
00000000
00000000
00000000
,
00000000
00000000
00000000
00000000
,
00000000
00000000
00000000
00000000
,
00000000
00000000
00000000
00000000
,
00000000
00000000
00000000
00000000
,
00000000
00000000
00000000
00000000
,
00001000
00000000
00010000
00000000
00010000
00000000
00001000
00010000
,
00000010
00001000
00010000
10000000
00010000
00100000
01000000
10000000
,
00010000
00000000
01000000
00000000
00001000
00000000
00010000
00001000
,
00000100
00000001
00000010
00001000
00010000
00001000
00000001
00000000
,
00001000
00000000
00000000
00000000
00000000
00000000
00000000
00000000
00000020
00000030
00000000
00000000
00000000
00000000
00000000
00000000
00000020
00000030
00000000
00000000
00000000
00000000
00000000
00000000
00000001
00000000
00000000
00000000
00000000
00000000
00000000
00000000
00000200
00000300
00000000
00000000
00000000
00000000
00000000
00000000
00000200
00000300
00000000
00000000
00000000
00000000
00000000
00000000
00001000
00000000
00000000
00000000
00000000
00000000
00000000
00000000
00000001
00000000
00000000
00000000
00000000
00000000
00000000
00000000
,
00001000
00000000
00000000
00000000
00000000
00000000
00000000
00000000
00000010
00000000
00000000
00000000
00000000
00000000
00000000
00000000
00010000
00000000
00000000
00000000
00000000
00000000
00000000
00000000
00001000
00000000
00000000
00000000
00010000
00000000
00000000
00000000
00001000
00000000
00000000
00000000
00000000
00000000
00000000
00000000
00020000
00030000
00000000
00000000
00000000
00000000
00000000
00000000
00020000
00030000
00000000
00000000
00000000
00000000
00000000
00000000
01000000
00000000
00000000
00000000
00000000
00000000
00000000
00000000
,
00001000
00000000
00000000
00000000
00000000
00000000
00000000
00000000
00020000
00030000
00000000
00000000
00000000
00000000
00000000
00000000
00020000
00030000
00000000
00000000
00000000
00000000
00000000
00000000
00100000
00000000
00000000
00000000
00000000
00000000
00000000
00000000
00001000
00000000
00000000
00000000
00000000
00000000
00000000
00000000
00010000
00000000
00000000
00000000
00000000
00000000
00000000
00000000
01000000
00000000
00000000
00000000
00000000
00000000
00000000
00000000
00001000
00000000
00000000
00000000
00000000
00000000
00000000
00000000
,
00010000
00000000
00001000
00000000
00000100
00000000
00000010
00000000
00010000
00001000
00010000
00000000
00001000
00000000
00010000
00000000
,
01000000
00000000
00000000
00000000
00000000
00000000
00000000
00000000
00200000
00300000
00000000
00000000
00000000
00000000
00000000
00000000
00200000
00300000
00000000
00000000
00000000
00000000
00000000
00000000
00010000
00000000
00000000
00000000
00000000
00000000
00000000
00000000
10000000
00000000
00000000
00000000
01000000
00000000
00000000
00000000
00100000
00000000
00000000
00000000
00000000
00000000
00000000
00000000
00010000
00000000
00000000
00000000
00000000
00000000
00000000
00000000
00100000
00000000
00000000
00000000
01000000
00000000
00000000
00000000
,
10000000
00000000
01000000
00010000
00001000
00000000
00000100
00001000
00020000
00000000
00000000
00000000
01030000
00000000
00010000
00000000
,
00001000
00000000
00000000
00000000
00000100
00000000
00000000
00000000
00000010
00000000
00000000
00000000
00000001
00000000
00000000
00000000
00001000
00000000
00000000
00000000
00000000
00000000
00000000
00000000
00000200
00000300
00000000
00000000
00000000
00000000
00000000
00000000
00000200
00000300
00000000
00000000
00000000
00000000
00000000
00000000
00000001
00000000
00000000
00000000
00000000
00000000
00000000
00000000
00001000
00000000
00000000
00000000
00000000
00000000
00000000
00000000
00000100
00000000
00000000
00000000
00000010
00000000
00000000
00000000
,
00000001
00000000
00000000
00000000
00000000
00000000
00000000
00000000
00000100
00000000
00000000
00000000
00000010
00000000
00000000
00000000
00001000
00000000
00000000
00000000
00000000
00000000
00000000
00000000
00000001
00000000
00000000
00000000
00000000
00000000
00000000
00000000
00000200
00000300
00000000
00000000
00000000
00000000
00000000
00000000
00000200
00000300
00000000
00000000
00000000
00000000
00000000
00000000
00001000
00000000
00000000
00000000
00000010
00000000
00000000
00000000
00000100
00000000
00000000
00000000
00000001
00000000
00000000
00000000
,
00000100
00000000
00000010
00000000
00000010
00000000
00000100
00000000
00000001
00000000
00000100
00000000
00001000
00010000
00001000
00010000
,
01000000
00000000
00000000
00000000
10000000
00000000
00000000
00000000
01000000
00000000
00000000
00000000
00000000
00000000
00000000
00000000
00200000
00300000
00000000
00000000
00000000
00000000
00000000
00000000
00200000
00300000
00000000
00000000
00000000
00000000
00000000
00000000
10000000
00000000
00000000
00000000
00000000
00000000
00000000
00000000
02000000
03000000
00000000
00000000
00000000
00000000
00000000
00000000
02000000
03000000
00000000
00000000
00010000
00000000
00000000
00000000
10000000
00000000
00000000
00000000
00000000
00000000
00000000
00000000
,
00100000
00000000
01000000
00010000
00100000
00000000
00001000
00000000
00010000
00000000
00010000
00000000
00000010
00001000
00000100
00010000
,
00001000
00000000
00100000
00001000
00010000
00000000
00001000
00010000
00000010
00001000
00000100
00000000
00001000
00000001
00000100
00000010
,
00001000
00000000
00000000
00000000
00000000
00000000
00000000
00000000
00000100
00000000
00000000
00000000
00000010
00000000
00000000
00000000
00000001
00000000
00000000
00000000
00000000
00000000
00000000
00000000
00000200
00000300
00000000
00000000
00000000
00000000
00000000
00000000
00000200
00000300
00000000
00000000
00000000
00000000
00000000
00000000
00001000
00000000
00000000
00000000
00000001
00000000
00000000
00000000
00001000
00000000
00000000
00000000
00000001
00000000
00000000
00000000
00000010
00000000
00000000
00000000
00000000
00000000
00000000
00000000
,
00000001
00000100
00000010
00001000
00000100
00010000
00001000
00000000
00011000
00000000
00000000
00000000
01000000
00000000
00100000
00010000
,
00100000
00000000
00100000
10000000
00100000
01000000
00100000
00000000
10010000
00000000
00000000
00000000
01000000
00010000
00100000
00001000
,
00010000
00000000
00010000
00000000
00000010
00001000
00000010
00000000
00001000
00000100
00000010
00000001
00000010
00000100
00001000
00000001
,
00000100
00000000
00000010
00000000
00001000
00000000
00000100
00000000
00000110
00000000
00000010
00000000
00000001
00000100
00000010
00000100
,
00000001
00000000
00000100
00000010
00001000
00000001
00000010
00000100
00010000
00000000
00001000
00000000
00010000
00001000
00100000
00010000
,
20000000
31000000
00020000
00031000
00000200
00000301
00000020
00001030
,
00010000
00000000
00100000
00000000
10000000
00000000
00000000
00000000
00010000
01000000
00100000
01000000
00010000
00000000
10000000
00100000
,
01000000
00000000
00100000
00001000
00010000
00000000
00001000
00000000
00011000
00000000
00010000
00000000
00000100
00001000
00000100
00000010
,
00000001
00000000
00000000
00000000
00000000
00000000
00000000
00000000
00001000
00000000
00000000
00000000
00000010
00000000
00000000
00000000
00000100
00000000
00000000
00000000
00000001
00000000
00000000
00000000
00000100
00000000
00000000
00000000
00000010
00000000
00000000
00000000
00001000
00000000
00000000
00000000
00000000
00000000
00000000
00000000
00000200
00000300
00000000
00000000
00000000
00000000
00000000
00000000
00000200
00000300
00000000
00000000
00000001
00000000
00000000
00000000
00001000
00000000
00000000
00000000
00000100
00000000
00000000
00000000
,
00000020
00000030
00000000
00000000
00000000
00000000
00000000
00000000
00000020
00000030
00000000
00000000
00000000
00000000
00000000
00000000
00001000
00000000
00000000
00000000
00000001
00000000
00000000
00000000
00000010
00000000
00000000
00000000
00000100
00000000
00000000
00000000
00001000
00000000
00000000
00000000
00000100
00000000
00000000
00000000
00010000
00000000
00000000
00000000
00001000
00000000
00000000
00000000
00100000
00000000
00000000
00000000
00010000
00000000
00000000
00000000
01000000
00000000
00000000
00000000
00000000
00000000
00000000
00000000
,
00010000
00000000
10000000
00000000
10010000
00000000
00000000
00000000
10000000
01000000
00100000
00001000
00010000
00000100
00000010
00000001
,
00000200
00000000
00000000
00000000
,
00020300
00000000
00000000
00000000
,
00032000
00000000
00000000
00000000
,
02003000
00000000
00000000
00000000
,
03020000
00230000
20300000
32000000
,
03020000
00032000
00003200
00000302
,
00000023
00002030
00023000
00230000
,
20300000
30020000
02030000
03200000
,
10300000
00000000
00000000
00000000
02000000
03000000
00000000
00000000
02000000
03000000
00000000
00000000
00010000
00000000
00000000
00000000
00200000
00300000
00000000
00000000
00200000
00300000
00000000
00000000
10000000
00000000
00000000
00000000
02000000
03000000
00000000
00000000
02000000
03000000
00000000
00000000
00010000
00000000
00000000
00000000
00200000
00300000
00000000
00000000
00200000
00300000
00000000
00000000
10000000
00000000
00000000
00000000
01000000
00000000
00000000
00000000
00100000
00000000
00000000
00000000
00001000
00000000
00000000
00000000
,
00100000
00000000
00000000
00000000
00002000
00003000
00000000
00000000
00002000
00003000
00000000
00000000
00000010
00000000
00000000
00000000
00020000
00030000
00000000
00000000
00020000
00030000
00000000
00000000
00100000
00000000
00000000
00000000
00002000
00003000
00000000
00000000
00002000
00003000
00000000
00000000
00000010
00000000
00000000
00000000
00020000
00030000
00000000
00000000
00020000
00030000
00000000
00000000
00100000
00000000
00000000
00000000
00010000
00000000
00000000
00000000
00001000
00000000
00000000
00000000
00010000
00000000
00000000
00000000
,
00001000
00000100
00000001
00001000
00000001
00000100
00001000
00010000
01000000
10000000
00010000
10000000
01000000
00010000
00001000
00000100
,
00001000
00000010
00000001
00001000
00000001
00000010
00001000
00010000
00100000
10000000
00010000
10000000
00100000
00010000
00001000
00000010
,
00000001
00000000
00000000
00000000
00001001
00000000
00000000
00000000
00000001
00000100
00000010
00000000
00001000
00000100
00010000
00001000
00010000
00001000
00010000
00000000
00011000
00000000
00000000
00000000
00001000
00100000
00001000
00100000
00010000
00000000
10000000
00000000
,
00010000
00000000
10000000
00000000
01000000
00000000
00100000
00000000
00001000
00000000
00010000
00000000
00000100
00000000
00000010
00000000
00000001
00000010
00000001
00000100
00000001
00000010
00000001
00000100
00000001
00000000
00000000
00000000
00001001
00000000
00001000
00000000
,
00000001
00000000
00000100
00000010
00000100
00000000
00000010
00000000
00001000
00000000
00000100
00010000
00000100
00000000
00010000
00000000
00001000
00000000
00100000
00010000
00100000
00000000
00010000
00000000
10000000
00000000
00100000
01000000
00100000
00000000
10000000
00000000
,
00100000
10000000
00100000
10000000
00100000
01000000
00100000
01000000
00010000
01000000
00010000
01000000
00010000
00001000
00010000
00001000
00000100
00000010
00000100
00000010
00000001
00000100
00000001
00000100
00000001
00000010
00000100
00001000
00000010
00000100
00000001
00001000
,
00000001
00000000
00000010
00000100
00001000
00000000
00000100
00000000
00001000
00000000
00000010
00000100
00000001
00000000
00000100
00000000
,
00000001
00000100
00001000
00000000
00010000
01000000
10000000
00000000
00010000
01000000
00100000
00000000
10000000
00100000
01000000
00000000
,
00010000
00100000
01000000
10000000
00100000
00000000
01000000
00000000
00010000
00100000
00001000
00010000
00000100
00000000
00010000
00000000
,
00001000
00010000
00000010
00001000
00000010
00000100
00000001
00000010
00000100
00000010
00000001
00001000
00000010
00000100
00000010
00010000
,
00001000
00000000
00000000
00000000
00000000
00000000
00000000
00000000
00100000
00000000
00000000
00000000
00010000
00000000
00000000
00000000
00100000
00000000
00000000
00000000
00000000
00000000
00000000
00000000
02000000
03000000
00000000
00000000
00000000
00000000
00000000
00000000
02000000
03000000
00000000
00000000
00000000
00000000
00000000
00000000
00010000
00000000
00000000
00000000
10000000
00000000
00000000
00000000
00200000
00300000
00000000
00000000
00000000
00000000
00000000
00000000
00200000
00300000
00000000
00000000
00000000
00000000
00000000
00000000
,
00010000
00000000
00100000
01000000
00100000
00000000
00010000
00000000
00001000
00000000
00000100
00000010
00000100
00000000
00001000
00000000
,
00010000
00001000
00100000
00010000
10000000
00100000
01000000
00010000
10000000
01000000
00100000
00001000
00010000
00000100
00001000
00000100
,
00000020
00000000
00000032
00000000
00002003
00000000
00003001
00000100
,
00001000
00000000
00010000
00001000
00100000
00000000
00010000
01000000
00100000
00000000
10000000
01000000
00100000
00000000
00001000
00000000
,
00010000
00100000
01000000
00000000
10000000
00010000
01000000
00000000
10000000
01000000
00100000
00000000
10000000
00100000
01000000
00010000
,
00100000
00000000
00001000
00000000
00010000
00000000
00001000
00000000
00000010
00000000
00000001
00001000
00000001
00000000
00000010
00000000
,
00000021
00000000
00000000
00000000
00000000
00000000
00000000
00000000
00000000
00000000
00000000
00000000
00000000
00000000
00000000
00000030
00002010
00000000
00000000
00000000
00000000
00000000
00000000
00000000
00000000
00000000
00000000
00000000
00000000
00000000
00000000
00003000
00021000
00000000
00000000
00000000
00000000
00000000
00000000
00000000
00000000
00000000
00000000
00000000
00000000
00000000
00000000
00030000
01010000
00000000
00000000
00000000
00000000
00000000
00000000
00000000
01000000
00000000
00000000
00000000
00000000
00000000
00000000
00000000
,
10000000
00000000
00100000
10000000
01000000
00100000
00010000
00100000
01000000
00000000
00001000
00010000
00100000
00001000
00010000
00000010
,
00001000
00000000
00000010
00000100
00000010
00001000
00000010
00000100
00000001
00000000
00001000
00000100
00000010
00000000
00000001
00000000
,
00000100
00000001
00000100
00000010
00000100
00000001
00000010
00000100
00001000
00000100
00010000
00001000
00100000
00010000
10000000
00100000
,
01000000
00010000
10000000
01000000
00100000
01000000
00100000
00001000
00020000
00000000
00032000
00000000
00003200
00000000
00000302
00000000
,
00001003
00000100
00000001
00001000
00000001
00000100
00001000
00010000
01000000
10000000
00010000
10000000
01000000
00010000
00001000
00000100
,
00001000
00000010
00000001
00001000
00000001
00000010
00001000
00010000
00100000
10000000
00010000
10000000
00100000
00010000
00001000
00000010
,
00001000
00000100
00000100
00000001
00000010
00000010
00001000
00010000
00010000
00100000
10000000
10000000
01000000
00010000
00001000
00000100
,
00000001
00000010
00000010
00001000
00010000
00010000
01000000
10000000
10000000
00100000
00010000
00010000
00001000
00000010
00000001
00001000
;
