#TITLE:encounter;
#ARTIST:猫叉Master+;
#ARTISTTRANSLIT:Nekomata Master+;
#BANNER:encounter.png;
#BACKGROUND:encounter-bg.png;
#CDTITLE:./CDTitles/jubeat saucer fulfill.png;
#MUSIC:encounter.ogg;
#SAMPLESTART:94.737;
#SAMPLELENGTH:15;
#DISPLAYBPM:190;
#BPMS:0=190,68=380,71.5=190,71.75=95,72=190;
#STOPS:68=0.079,68.5=0.079,69=0.079,69.5=0.079,70=0.039,70.25=0.039,70.5=0.039,70.75=0.04;
#TIMESIGNATURES:0=4=4,104=3=4,116=4=4;
#STAGE:3;

//--------------- dance-single - Fred-104-bSP ----------------
#NOTES:
     dance-single:
     Fred-104:
     Beginner:
     5:
     :
0000
0000
0000
0000
,
0000
0000
0000
0000
,
0000
0000
0000
0000
,
0000
0000
0000
0000
,
0000
0000
0000
0000
,
0000
0000
0000
0000
,
1000
0000
0000
1000
,
0100
0000
0000
0100
,
0010
0000
0000
0010
,
0001
0000
0000
0001
,
1000
0000
1000
0000
,
0010
0010
0010
0000
,
1000
0000
0100
0000
,
1000
0100
1000
0000
,
0001
0000
0010
0000
,
0001
0001
1000
0000
,
0001
0000
1000
0000
,
2002
0000
0000
3003
,
1000
0000
0000
1000
0000
0000
1000
0000
,
0000
1000
0000
0000
1000
0000
0000
0000
,
0001
0000
0000
0001
0000
0000
0001
0000
,
0000
0001
0000
0000
0001
0000
0000
0000
,
0100
0000
0000
0100
0000
0000
0100
0000
,
0000
0100
0000
0000
0100
0000
0000
0000
,
0010
0000
0000
0010
0000
0000
0010
0000
,
0000
0010
0000
0000
0010
0000
0000
0000
,
1000
0000
0000
1000
0000
0000
0100
0000
,
0000
0100
0000
0000
0010
0000
0000
0010
,
0000
0000
0001
0000
0000
0001
0000
0000
,
1000
0000
0000
1000
0000
0000
0001
0000
,
1001
0000
0000
0000
,
0000
0000
0000
0000
,
1000
0000
0001
0000
,
1000
0000
0010
0010
,
1000
0000
0000
0100
0000
0000
0100
0000
,
1000
0000
0001
0000
,
0100
0000
0000
0100
0000
0000
0010
0000
,
0100
0000
0001
0000
,
1000
0000
0000
1000
0000
0000
1000
0000
,
0001
0000
1000
0000
,
0001
0000
0000
0002
0000
0000
0003
0000
,
1000
0000
0000
2000
0000
0000
3000
0000
,
0001
0000
0000
1000
0000
0000
0001
0000
,
1000
0000
0010
0000
,
0100
0000
0000
0010
0000
0000
0100
0000
,
0100
0000
0001
0000
,
1000
0000
0000
0010
0000
0000
1000
0000
,
0100
0000
0010
0000
,
0001
0000
0000
0010
0000
0000
0000
0000
,
1000
0000
0000
0100
0000
0000
0000
0000
,
0002
0000
0003
2000
,
0000
3000
0001
0000
,
0200
0000
0300
0020
,
0000
0030
0100
0000
,
0020
0000
0030
0200
,
0000
0300
0010
0000
,
2000
0000
3000
0002
,
0000
0003
1000
0000
,
0001
0000
0010
0010
,
0000
0100
0100
0000
,
1000
0000
0010
0010
,
0000
1000
1000
0000
,
0001
0000
1000
1000
,
0000
0001
0001
0000
,
0100
0000
0010
0010
,
0000
0100
0100
0000
,
1001
0000
0000
0000
,
0000
0000
0000
0000
,
1000
0000
0000
0000
,
0001
0000
0000
0000
,
1000
0000
0000
0000
,
0001
0000
0000
0000
,
1000
0000
0010
0000
,
1000
0000
0001
0000
,
0200
0000
0000
0300
,
0100
0000
0100
0000
,
0010
0010
0010
0000
,
0001
0000
1000
0000
,
0010
0010
0010
0000
,
1000
0000
0100
0000
,
1000
1000
1000
0000
,
0001
0000
0000
0002
0000
0000
0003
0000
,
1000
0000
0000
2000
0000
0000
3000
0000
,
0001
0000
0010
0000
,
0100
0100
0010
0000
,
0001
0000
1000
0000
,
0010
0010
1000
0000
,
0100
0000
1000
0000
,
0001
0001
0100
0100
,
0001
0000
0000
0002
0000
0000
0003
0000
,
1000
0000
0000
2000
0000
0000
3000
0000
,
1001
0000
0000
0000
,
0000
0000
0000
0000
,
2002
0000
0000
0000
,
0000
0000
0000
0000
,
0000
0000
3003
0000
;

//--------------- dance-single - Fred-104-BSP ----------------
#NOTES:
     dance-single:
     Fred-104:
     Easy:
     8:
     :
0000
0000
0000
0000
,
0000
0000
0000
0000
,
0000
0000
0000
0000
,
0000
0000
0000
0000
,
0000
0000
0000
0000
,
0000
0000
0000
0000
,
1000
0100
1000
0010
,
1000
0000
0000
0100
0000
0000
0100
0000
,
0010
0001
1000
0001
,
0100
0000
0000
0100
0000
0000
0010
0000
,
1000
0100
0010
0001
,
1000
0000
0000
0010
0000
0000
0100
0000
,
0001
0100
1000
0010
,
0100
0000
0000
0100
0000
0000
0100
0000
,
0001
0000
0000
0010
0000
0000
0001
0000
,
1001
0000
0000
0100
0000
0000
0010
0000
,
0100
0000
0000
1000
0000
0000
0010
0000
,
0200
0300
0200
0300
0100
0010
0200
0000
,
1300
0000
0000
0010
0000
0000
0001
0000
,
0000
0100
0000
0000
1000
0000
0001
0000
,
0100
0000
0000
0001
0000
0000
1000
0000
,
0000
0010
0000
0000
0100
0000
0010
0000
,
1000
0000
0000
0010
0000
0000
0001
0000
,
0000
0100
0000
0000
1000
0000
0001
0000
,
0010
0000
0000
0001
0000
0000
0100
0000
,
0000
0001
0000
0000
0010
0000
0001
0000
,
1000
0000
0000
1000
0000
0000
0010
0000
,
0000
0010
0000
0000
0001
0000
0000
0001
,
0000
0000
0100
0000
0000
0100
0000
0000
,
1000
0001
1000
0001
,
2002
0000
0000
0000
,
0000
0000
0000
3003
,
1000
0000
1000
0000
1000
0000
0001
0000
0001
0000
0001
0000
,
1000
0000
1000
0000
1000
0000
0002
0000
0000
0000
0000
0000
,
1003
0000
0000
0100
0000
0000
0010
0000
,
1000
0001
0100
0010
,
0110
0000
0000
0001
0000
0000
1000
0000
,
0010
1000
0100
0100
,
1000
0000
0000
0010
0000
0000
0001
0000
,
0010
1000
0001
1000
,
0001
0000
0000
0022
0000
0000
0033
0000
,
1000
0000
0000
2020
0000
0000
3030
0000
,
0001
0000
0000
1000
0000
0000
0100
0000
,
0010
0000
0001
0000
1000
0001
1000
0000
,
0010
0000
0000
0100
0000
0000
0010
0000
,
1000
0000
0100
0000
0010
0100
0010
0000
,
0001
0000
0000
0100
0000
0000
0010
0000
,
1000
0000
0100
0000
0001
0100
0001
0000
,
0010
0000
0000
0022
0000
0000
0033
0000
,
0010
0000
0000
2020
0000
0000
3030
0000
,
1000
0000
0000
1000
0000
0000
1000
0000
0000
0000
0000
0000
0001
0000
0000
0001
,
0000
0001
0000
0000
1000
0000
0010
0000
,
0100
0000
0000
0100
0000
0000
0100
0000
0000
0000
0000
0000
0010
0000
0000
0010
,
0000
0010
0000
0000
0001
0000
1000
0000
,
0001
0000
0000
0001
0000
0000
0001
0000
0000
0000
0000
0000
0010
0000
0000
0010
,
0000
0010
0000
0000
0100
0000
1000
0000
,
0100
0000
0000
0100
0000
0000
0100
0000
0000
0000
0000
0000
1000
0000
0000
1000
,
0000
1000
0000
0000
0001
0000
1000
0000
,
0001
0000
0000
0010
0000
0000
0001
0000
0000
0000
0000
0000
1000
0000
0000
0010
,
0000
1000
0000
0000
0001
0000
0100
0000
,
0010
0000
0000
0100
0000
0000
0010
0000
0000
0000
0000
0000
1000
0000
0000
0100
,
0000
1000
0000
0000
0001
0000
0010
0000
,
0100
0000
0000
0010
0000
0000
0001
0000
0000
0000
0000
0000
0100
0000
0000
0010
,
0000
1000
0000
0000
0001
0000
1000
0000
,
0100
0000
0000
0010
0000
0000
0001
0000
0000
0000
0000
0000
1000
0000
0000
0100
,
0000
0010
0000
0001
1000
0000
0001
0000
,
2002
0000
0000
0000
,
0000
0000
0000
3003
,
0200
0000
0000
0000
,
0020
0000
0330
0000
,
1000
0000
1010
0000
0000
0001
0000
1000
,
0001
0000
0101
0000
0000
0010
0000
0100
,
1000
0000
1100
0000
0000
0001
0000
1000
,
0100
0010
0100
0010
,
2002
0000
3003
0000
,
1000
0000
0000
0010
0000
0000
1000
0000
,
0000
0100
0000
0000
0010
0000
0001
0000
,
0100
0000
0000
0001
0000
0000
0010
0000
,
0000
0001
0000
0000
0100
0000
0010
0000
,
1000
0000
0000
0100
0000
0000
0001
0000
,
0000
0100
0000
0000
1000
0000
0010
0000
,
0100
0000
0000
0220
0000
0000
0330
0000
,
0001
0000
0000
2002
0000
0000
3003
0000
,
1000
0000
0100
0100
0000
0000
0001
0000
,
0010
0010
0000
0000
1000
0001
1000
0000
,
0010
0000
0001
0001
0000
0000
0100
0000
,
1000
1000
0000
0000
0010
1000
0010
0000
,
0100
0000
0001
0001
0000
0000
1000
0000
,
0100
0100
0000
0000
0010
0100
0010
0000
,
0001
0000
0000
0202
0000
0000
0303
0000
,
1000
0000
0000
2020
0000
0000
3030
0000
,
1001
0000
0000
0000
,
0000
0000
0000
0000
,
1000
0000
0100
0000
0010
0000
0001
0000
1000
0000
0010
0000
,
0220
0000
0000
0000
,
0000
0000
0330
0000
;

//--------------- dance-single - Fred-104-DSP ----------------
#NOTES:
     dance-single:
     Fred-104:
     Medium:
     12:
     :
0000
0000
0000
0000
,
0000
0000
0000
0000
,
0000
0000
0000
0000
,
0000
0000
0000
0000
,
0000
0000
0000
0000
,
0000
0000
0000
0000
,
1000
0010
1000
0010
0100
0010
1000
0000
,
0001
0010
0010
0100
0010
0010
0001
0000
,
1000
0001
0010
0001
0100
0001
1000
0000
,
0001
0100
0100
1000
0100
0100
0002
0000
,
1003
0010
0001
1000
0001
0100
0010
0000
,
1000
0100
0100
0010
0001
0001
1000
0000
,
0001
0010
1000
0001
0100
0010
0100
0000
,
0001
0010
0010
1000
0010
0010
0001
0000
,
1000
0100
0001
1000
0010
0001
1000
0000
,
0001
0100
1000
0001
0010
1000
0001
0000
,
1000
0100
0001
1000
0010
0001
1000
0000
,
0001
1000
0001
1000
0002
2003
3002
0003
,
1001
0000
1000
0100
0000
1000
0001
0000
,
0100
0001
0000
0100
0010
0000
0110
0000
,
0101
0000
0010
1000
0000
0001
0100
0000
,
0010
1000
0000
0100
0010
0000
0101
0000
,
1100
0000
0100
0001
0000
0010
1000
0000
,
0010
0001
0000
1000
0010
0000
1010
0000
,
0011
0000
0100
0010
0000
1000
0010
0000
,
0100
0001
0000
0010
0100
0000
1001
0000
,
0001
0010
0000
0100
0010
0000
1000
0010
,
0000
0100
0010
0000
0001
0100
0000
1000
,
0100
0000
0001
0010
0000
1000
0010
0000
,
0001
0100
0000
1000
0100
0001
0100
0010
,
2002
0000
0000
0000
,
0000
0000
0000
3003
,
1000
0000
0100
0000
0001
0000
1000
0000
0010
0000
0100
0000
,
0001
0000
0000
0000
0100
0000
0001
0000
0100
0000
0001
0000
1000
0000
0000
0100
0000
0000
0010
0000
0000
0001
0000
0000
,
1001
0000
0100
0001
0000
0100
1000
0000
,
0010
0000
0001
1000
0010
0100
0001
0000
,
1000
0000
0100
0001
0000
1000
0010
0000
,
0001
0000
1000
0100
0010
0010
0010
0000
,
1001
0000
0001
0100
0000
1000
0100
0000
,
0001
0000
0010
1000
0010
0100
0001
0000
,
0010
0000
0100
0220
0000
0000
0330
0000
,
0001
0000
1000
2002
0000
0000
3003
0000
,
1100
0000
0001
0100
0000
0010
1000
0000
,
0001
0010
0100
1000
0010
1000
0001
0000
,
1010
0000
0100
0001
0000
1000
0010
0000
,
0100
0001
1000
0001
0001
0010
0100
0000
,
0110
0000
0010
0001
0000
1000
0001
0000
,
0010
0001
0001
1000
0100
0100
0010
0000
,
1001
0000
0000
0220
0000
0000
0330
0000
,
0110
0000
0000
2002
0000
0000
3003
0000
,
1000
0000
0000
1000
0000
0000
1010
0000
0000
0000
0000
0000
0001
0000
0000
0001
,
0000
0011
0000
0000
1000
0000
0001
0000
,
0100
0000
0000
0100
0000
0000
0110
0000
0000
0000
0000
0000
0001
0000
0000
0001
,
0000
1001
0000
0000
0020
0030
0020
0030
,
0100
0000
0000
0010
0000
0000
0110
0000
0000
0000
0000
0000
1000
0000
0000
0100
,
0000
1100
0000
0000
0001
0000
0100
0000
,
0010
0000
0000
0001
0000
0000
0011
0000
0000
0000
0000
0000
0001
0000
0000
1000
,
0000
1001
0000
0000
0200
0300
0200
0300
,
0001
0000
0000
0010
0000
0000
0110
0000
0000
0000
0000
0000
1000
0000
0000
0010
,
0000
0110
0000
0000
0001
1000
0100
0010
,
0001
0000
0000
0100
0000
0000
0110
0000
0000
0000
0000
0000
1000
0000
0000
0010
,
0000
0000
0110
0000
0000
0100
0000
0000
0001
0000
0000
1000
0000
0000
0100
0000
,
0010
0000
0000
0100
0000
0000
0101
0000
0000
0000
0000
0000
0010
0000
0000
0100
,
0000
1100
0000
0000
0001
0010
0001
1000
,
0100
0000
0000
0010
0000
0000
0011
0000
0000
0000
0000
0000
0010
0000
0000
0100
,
0000
1100
0000
0001
1000
0010
0100
0000
,
0220
0000
0000
0000
,
0000
0000
0000
0000
0000
0000
0330
0000
0001
0000
1000
0000
,
2002
0000
0000
3003
,
0220
0000
0330
0000
,
1000
0000
1001
0000
0000
0100
0010
0100
,
0001
0000
0101
0000
0000
0100
0010
1000
,
0001
0010
0001
0000
1000
0100
0010
0000
,
0001
1000
0100
0010
0100
1000
0001
0100
,
0020
0000
0000
0000
0000
0000
0000
0000
0130
0000
0000
0100
0000
0000
0100
0000
,
0001
0010
0100
0010
0100
1000
0100
0010
,
0100
0001
0100
1000
0001
0010
0001
0000
,
1000
0100
0010
0100
0010
0001
0100
0010
,
1000
0001
0010
0001
1000
0100
0001
0000
,
0100
1000
0010
0100
0010
1000
0010
1000
,
0001
0010
1000
0010
0001
1000
0001
0000
,
0011
0000
0000
2002
0000
0000
3003
0000
,
1010
0000
0000
2002
0000
0000
3003
0000
,
0100
0010
1000
0100
0010
0100
1000
0010
,
0100
0010
1000
0001
0010
0100
0010
0000
,
0001
0010
0001
1000
0010
1000
0100
0010
,
0001
0100
0010
1000
0001
0100
1000
0000
,
0010
0100
0010
0001
1000
0010
0100
0010
,
1000
0100
0010
0001
1000
0010
0100
0000
,
0011
0000
0000
0202
0000
0000
0303
0000
,
1010
0000
0000
2200
0000
0000
3300
0000
,
0110
0000
0000
0000
,
0000
0000
0000
0000
,
1000
0000
0100
0000
0010
0000
0001
0000
0010
0000
0100
0000
,
2002
0000
0000
0000
,
0000
0000
3003
0000
;

//--------------- dance-single - Fred-104-ESP ----------------
#NOTES:
     dance-single:
     Fred-104:
     Hard:
     16:
     :
0000
0000
0000
0000
,
0000
0000
0000
0000
,
0000
0000
0000
0000
,
0000
0000
0000
0000
,
0000
0000
0000
0000
,
0000
0000
0000
0000
,
1000
0010
0010
1000
0001
1000
0100
0000
,
1000
0010
1000
0010
1000
0000
0001
1000
0001
1000
0001
0000
0100
0000
0000
0000
,
0010
1000
0001
0001
0100
0010
0100
0000
,
0001
0100
0001
0100
0001
0000
1000
0010
1000
0010
1000
0000
0100
0000
0000
0000
,
1000
0010
0100
0010
1000
0100
0010
0001
,
0100
0010
0100
0010
0100
0000
0010
0100
0010
0100
0010
0000
1000
0000
0000
0000
,
0001
0010
0100
0010
0001
1000
0010
0100
,
0010
1000
0010
1000
0010
0000
1000
0010
1000
0010
1000
0000
0001
0000
0000
0000
,
1000
0100
0100
0010
0001
0001
1000
0010
,
0100
0100
0001
0010
0100
0100
0010
0001
,
1000
1000
0010
0100
0001
0001
1000
0001
,
2000
3000
0000
0000
0000
0000
0000
0000
0020
0030
0000
0000
0000
0000
0000
0000
0200
0300
0000
0000
0000
0000
0000
0000
0002
0003
0000
0000
0000
0000
0000
0000
2000
3000
0000
0000
0200
0300
0000
0000
0020
0030
0000
0000
0002
0003
0000
0000
2000
0000
0000
0000
0000
0000
0000
0000
0000
0000
0000
0000
0000
0000
0000
0000
,
3001
0000
0000
0000
0000
0000
0000
0000
0010
0000
0000
0000
0000
0000
0000
0000
0020
0030
0000
0000
0000
0000
0000
0000
0001
0000
0000
0000
0000
0000
0000
0000
0100
0000
0000
0000
0000
0000
0000
0000
0200
0300
0000
0000
0000
0000
0000
0000
0010
0000
0000
0000
0000
0000
0000
0000
0100
0000
0000
0000
0000
0000
0000
0000
,
0200
0300
0000
0000
0000
0000
0000
0000
0010
0000
0000
0000
0000
0000
0000
0000
1000
0000
0000
0000
0000
0000
0000
0000
2000
3000
0000
0000
0000
0000
0000
0000
0001
0000
0000
0000
0000
0000
0000
0000
1000
0000
0000
0000
0000
0000
0000
0000
0001
0000
0000
0000
0000
0000
0000
0000
0000
0000
0000
0000
0000
0000
0000
0000
,
1000
0000
0000
0000
0000
0000
0000
0000
0100
0000
0000
0000
0000
0000
0000
0000
0200
0300
0000
0000
0000
0000
0000
0000
0010
0000
0000
0000
0000
0000
0000
0000
0100
0000
0000
0000
0000
0000
0000
0000
0200
0300
0000
0000
0000
0000
0000
0000
0001
0000
0000
0000
0000
0000
0000
0000
0100
0000
0000
0000
0000
0000
0000
0000
,
0200
0300
0000
0000
0000
0000
0000
0000
0010
0000
0000
0000
0000
0000
0000
0000
0001
0000
0000
0000
0000
0000
0000
0000
0002
0003
0000
0000
0000
0000
0000
0000
1000
0000
0000
0000
0000
0000
0000
0000
0001
0000
0000
0000
0000
0000
0000
0000
1000
0000
0000
0000
0000
0000
0000
0000
0000
0000
0000
0000
0000
0000
0000
0000
,
0200
0300
0000
0000
0000
0000
0000
0000
0200
0300
0000
0000
0000
0000
0000
0000
1000
0000
0000
0000
0000
0000
0000
0000
0200
0300
0000
0000
0000
0000
0000
0000
0200
0300
0000
0000
0000
0000
0000
0000
0010
0000
0000
0000
0000
0000
0000
0000
0200
0300
0000
0000
0000
0000
0000
0000
0200
0300
0000
0000
0000
0000
0000
0000
,
0001
0000
0000
0000
0000
0000
0000
0000
0200
0300
0000
0000
0000
0000
0000
0000
0200
0300
0000
0000
0000
0000
0000
0000
0010
0000
0000
0000
0000
0000
0000
0000
0100
0000
0000
0000
0000
0000
0000
0000
0001
0000
0000
0000
0000
0000
0000
0000
1000
0000
0000
0000
0000
0000
0000
0000
0000
0000
0000
0000
0000
0000
0000
0000
,
0002
0003
0000
0000
0000
0000
0000
0000
0002
0003
0000
0000
0000
0000
0000
0000
0010
0000
0000
0000
0000
0000
0000
0000
2000
3000
0000
0000
0000
0000
0000
0000
2000
3000
0000
0000
0000
0000
0000
0000
0010
0000
0000
0000
0000
0000
0000
0000
0002
0003
0000
0000
0000
0000
0000
0000
0002
0003
0000
0000
0000
0000
0000
0000
,
0100
0000
0000
0000
0000
0000
0000
0000
2000
3000
0000
0000
0000
0000
0000
0000
2000
3000
0000
0000
0000
0000
0000
0000
0100
0000
0000
0000
0000
0000
0000
0000
0001
0000
0000
0000
0000
0000
0000
0000
1000
0000
0000
0000
0000
0000
0000
0000
1001
0000
0000
0000
0000
0000
0000
0000
0000
0000
0000
0000
0000
0000
0000
0000
,
2000
3000
0000
0000
0000
0000
0000
0000
0010
0000
0000
0000
0000
0000
0000
0000
1000
0000
0000
0000
0000
0000
0000
0000
0020
0030
0000
0000
0000
0000
0000
0000
0001
0000
0000
0000
0000
0000
0000
0000
0010
0000
0000
0000
0000
0000
0000
0000
0002
0003
0000
0000
0000
0000
0000
0000
0100
0000
0000
0000
0000
0000
0000
0000
,
0001
0000
0000
0000
0000
0000
0000
0000
0200
0300
0000
0000
0000
0000
0000
0000
1000
0000
0000
0000
0000
0000
0000
0000
0100
0000
0000
0000
0000
0000
0000
0000
2000
3000
0000
0000
0000
0000
0000
0000
0100
0000
0000
0000
0000
0000
0000
0000
0001
0000
0000
0000
0000
0000
0000
0000
2000
3000
0000
0000
0000
0000
0000
0000
,
0010
0000
0000
0000
0000
0000
0000
0000
0001
0000
0000
0000
0000
0000
0000
0000
0002
0003
0000
0000
0000
0000
0000
0000
0100
0000
0000
0000
0000
0000
0000
0000
1000
0000
0000
0000
0000
0000
0000
0000
0002
0003
0000
0000
0000
0000
0000
0000
0010
0000
0000
0000
0000
0000
0000
0000
1000
0000
0000
0000
0000
0000
0000
0000
,
0002
0000
0000
0003
0000
0000
0000
0000
0000
0000
0000
0000
0000
0000
0000
0000
0000
0000
0000
0000
0000
0000
0000
0000
0010
0000
0000
0000
0000
0000
0000
0000
0000
0000
0000
0000
0000
0000
0000
0000
0000
0000
0000
0000
0000
0000
0000
0000
0100
0000
0000
0000
0000
0000
0000
0000
0000
0000
0000
0000
0000
0000
0000
0000
0000
0000
0000
0000
0000
0000
0000
0000
2000
0000
0000
3000
0000
0000
0000
0000
0000
0000
0000
0000
0000
0000
0000
0000
0000
0000
0000
0000
0000
0000
0000
0000
0001
0000
0000
0000
0000
0000
0000
0000
0000
0000
0000
0000
0000
0000
0000
0000
0100
0000
0000
0000
0000
0000
0000
0000
0000
0000
0000
0000
0000
0000
0000
0000
0001
0000
0000
0000
0000
0000
0000
0000
0000
0000
0000
0000
0000
0000
0000
0000
1000
0000
0000
0000
0000
0000
0000
0000
0000
0000
0000
0000
0000
0000
0000
0000
0100
0000
0000
0000
0000
0000
0000
0000
0000
0000
0000
0000
0000
0000
0000
0000
1000
0000
0000
0000
0000
0000
0000
0000
0000
0000
0000
0000
0000
0000
0000
0000
,
0020
0000
0000
0000
,
0000
0000
0000
0000
,
0130
0000
0010
0000
0011
0000
0100
0000
0010
0000
1010
0000
,
1000
0000
0000
0000
0000
0000
0000
0000
0001
0000
0000
0000
0100
0000
0000
0000
0001
0000
0000
0000
0100
0000
0000
0000
0001
0000
0000
0000
0000
0000
1000
0000
0000
0010
0000
0000
0100
0000
0000
0000
0000
0000
0001
0000
0000
0000
0000
0000
,
1000
0000
0010
0100
0000
1000
0001
0000
,
1000
0000
0000
0000
0010
0000
0100
0000
0001
0000
0010
0100
0010
0000
0000
0000
,
0001
0000
0100
0010
0000
1000
0010
0000
,
1000
0000
0100
0000
0010
0000
0100
0010
0100
0000
0001
0000
1000
0000
0000
0000
,
0001
0000
0100
0010
0000
1000
0010
0000
,
0100
0000
0010
0000
1000
0000
0001
0010
0001
0000
0010
0000
0100
0000
0000
0000
,
1000
0000
0100
0022
0000
0000
0033
0000
,
0001
0000
0100
2020
0000
0000
3030
0000
,
0002
0000
0100
0203
0000
1000
2300
0000
,
3100
0000
0000
0100
0001
0000
0010
0000
0100
0000
1000
0001
1000
0000
0000
0000
,
2000
0000
0010
3020
0000
0001
0032
0000
,
0013
0000
1000
0000
0001
0000
1000
0001
1000
0000
0100
0000
0010
0000
0000
0000
,
0002
0000
0010
0023
0000
1000
2030
0000
,
3100
0001
0100
0001
0010
1000
0001
0100
,
0010
0000
1000
2200
0000
0000
3300
0000
,
0010
0000
0001
0202
0000
0000
0303
0000
,
1010
0000
0000
1010
0000
0000
1010
0000
0000
0000
0000
0000
0101
0000
0000
0101
,
0000
0101
0000
0000
0001
0000
1000
0000
,
0011
0000
0000
0011
0000
0000
0011
0000
0000
0000
0000
0000
1100
0000
0000
1100
,
0000
1100
0000
0000
0020
0030
0200
0300
,
1010
0000
0000
1010
0000
0000
1001
0000
0000
0000
0000
0000
0011
0000
0000
0011
,
0000
1001
0000
0000
1000
0000
0001
0000
,
1100
0000
0000
1100
0000
0000
0110
0000
0000
0000
0000
0000
0101
0000
0000
0101
,
0000
0110
0000
0000
2000
3000
0002
0003
,
1010
0000
0000
1001
0000
0000
1010
0000
0000
0000
0000
0000
0011
0000
0000
1001
,
0000
1010
0000
0010
0100
0010
1000
0001
,
0101
0000
0000
1001
0000
0000
1100
0000
0000
0000
0000
0000
0101
0000
0000
1001
,
0000
0000
1100
0000
0000
0010
0000
0000
0100
0000
0000
0010
0000
0000
0001
0000
,
0011
0000
0000
0110
0000
0000
1100
0000
0000
0000
0000
0000
1010
0000
0000
0110
,
0000
0000
0000
0101
0000
0000
0001
0000
0010
0000
0001
0000
1000
0000
0010
0000
0100
0000
0001
0000
0000
0000
0000
0000
,
0011
0000
0000
1010
0000
0000
0011
0000
0000
0000
0000
0000
1100
0000
0000
0101
,
0000
0000
1100
0000
0000
0000
0001
0000
1000
0000
0010
0100
0001
0000
1000
0000
,
2002
0000
0000
0000
,
0000
0000
0000
0000
0000
0000
3003
0000
0100
0000
0100
0000
,
0200
0000
0000
0000
,
0020
0000
0330
0000
,
0001
0000
0010
0000
0100
0010
0001
0000
,
1000
0000
0010
0000
0001
0100
1000
0000
,
0001
0010
0100
1000
0010
0100
0010
1000
,
0001
1000
0001
1000
0001
0000
0000
0000
0100
0010
0100
0010
0100
0010
0100
0000
,
2002
0000
0000
0000
0000
0000
3003
0000
1000
0000
0000
1000
0000
0000
0001
0000
,
1000
0000
0000
0000
0000
0000
0000
0000
0200
0300
0000
0000
0000
0000
0000
0000
0200
0300
0000
0000
0000
0000
0000
0000
0010
0000
0000
0000
0000
0000
0000
0000
0200
0300
0000
0000
0000
0000
0000
0000
0200
0300
0000
0000
0000
0000
0000
0000
0010
0000
0000
0000
0000
0000
0000
0000
0002
0003
0000
0000
0000
0000
0000
0000
,
0002
0003
0000
0000
0000
0000
0000
0000
0010
0000
0000
0000
0000
0000
0000
0000
0200
0300
0000
0000
0000
0000
0000
0000
0200
0300
0000
0000
0000
0000
0000
0000
1000
0000
0000
0000
0001
0000
0000
0000
1000
0000
0000
0000
0001
0000
0000
0000
0010
0000
0000
0000
0000
0000
0000
0000
0100
0000
0000
0000
0000
0000
0000
0000
,
0010
0000
0000
0000
0000
0000
0000
0000
0200
0300
0000
0000
0000
0000
0000
0000
0200
0300
0000
0000
0000
0000
0000
0000
0001
0000
0000
0000
0000
0000
0000
0000
0200
0300
0000
0000
0000
0000
0000
0000
0200
0300
0000
0000
0000
0000
0000
0000
1000
0000
0000
0000
0000
0000
0000
0000
0200
0300
0000
0000
0000
0000
0000
0000
,
0200
0300
0000
0000
0000
0000
0000
0000
0010
0000
0000
0000
0000
0000
0000
0000
0002
0003
0000
0000
0000
0000
0000
0000
0002
0003
0000
0000
0000
0000
0000
0000
1000
0000
0000
0000
0010
0000
0000
0000
1000
0000
0000
0000
0010
0000
0000
0000
0100
0000
0000
0000
0000
0000
0000
0000
0001
0000
0000
0000
0000
0000
0000
0000
,
2000
3000
0000
0000
0000
0000
0000
0000
2000
3000
0000
0000
0000
0000
0000
0000
0001
0000
0000
0000
0000
0000
0000
0000
2000
3000
0000
0000
0000
0000
0000
0000
2000
3000
0000
0000
0000
0000
0000
0000
0010
0000
0000
0000
0000
0000
0000
0000
2000
3000
0000
0000
0000
0000
0000
0000
2000
3000
0000
0000
0000
0000
0000
0000
,
0100
0000
0000
0000
0000
0000
0000
0000
2000
3000
0000
0000
0000
0000
0000
0000
2000
3000
0000
0000
0000
0000
0000
0000
0010
0000
0000
0000
0000
0000
0000
0000
0100
0000
0000
0000
0001
0000
0000
0000
0100
0000
0000
0000
0001
0000
0000
0000
0010
0000
0000
0000
0000
0000
0000
0000
0100
0000
0000
0000
0000
0000
0000
0000
,
2000
0000
0000
0000
0000
0000
3020
0000
0000
0000
0000
0000
0000
0000
0130
0001
,
0100
0000
0000
0000
0010
2000
0002
0000
0000
0000
0000
0000
3003
0000
0000
0000
,
1000
0000
0010
1000
0010
0000
0100
0000
0001
0100
0001
0000
1000
0000
0001
0010
,
0001
0000
1000
0000
0010
1000
0010
0000
0100
0000
0010
0000
0010
0000
0010
0000
,
0001
0000
1000
0100
1000
0000
0001
0000
1000
0010
1000
0000
0100
0000
0010
0100
,
0010
0000
0001
0000
1000
0010
1000
0000
0001
0000
0001
0000
0001
0000
0001
0000
,
1000
0000
0100
0010
0100
0000
0001
0000
0100
0010
0100
0000
1000
0000
0010
0100
,
0010
0000
0001
0000
0010
0100
0010
0000
1000
0001
1000
0001
1000
0000
0010
0000
,
0200
0000
0000
0000
0000
0000
0302
0000
0000
0000
0000
0000
0000
0000
0013
0001
,
1000
0000
0000
0000
0010
0200
0020
0000
0000
0000
0000
0000
0330
0000
0000
0000
,
1001
0000
0000
0000
,
0000
0000
0000
0000
,
0001
0000
0100
0000
0110
0000
1000
0000
0100
0000
0110
0000
,
0001
0000
0000
0010
0000
0000
0100
0000
0000
0000
0000
0000
0000
0100
0000
0000
0000
0100
0000
0000
0000
0000
0000
0000
0000
0000
0010
0000
0000
0000
0000
0010
,
0000
0000
0000
0000
0000
0000
0000
0000
1000
0000
0000
0000
0000
0000
0000
0000
0000
0000
0000
0000
0000
1001
0000
0000
0000
0000
0000
0000
0000
0000
0000
0000
;

//--------------- dance-single - Fred-104-CSP ----------------
#NOTES:
     dance-single:
     Fred-104:
     Challenge:
     17:
     :
0000
0000
0000
0000
,
0000
0000
0000
0000
,
0000
0000
0000
0000
,
0000
0000
0000
0000
,
0000
0000
0000
0000
,
0000
0000
0000
0000
,
1000
0000
0100
0000
0100
0000
0010
0000
0001
1000
0001
0000
0100
0000
0000
0000
,
0001
0000
0000
0010
0000
0000
0001
0000
0000
0010
0000
0000
0001
0000
0000
0000
0000
0000
1000
0000
0000
0010
0000
0000
1000
0000
0000
0010
0000
0000
1000
0000
0000
0000
0000
0000
0001
0000
0000
0000
0100
0000
0000
0000
0010
0000
0000
0000
,
1000
0000
0010
0000
0010
0000
1000
0000
0001
0010
0100
0000
1000
0000
0000
0000
,
0010
0100
0010
0100
0010
0000
1000
0001
1000
0001
1000
0000
1001
0000
0000
0000
,
0001
0000
0010
0001
0010
0000
0100
0000
1000
0001
1000
0000
0010
0000
0100
0000
,
0001
0100
0001
0100
0001
0000
1000
0100
1000
0100
1000
0000
0002
0000
0000
0000
,
0013
0000
1000
0100
1000
0000
0001
0000
1000
0100
1000
0000
0010
0000
0100
0000
,
0001
0010
0001
0010
0001
0000
1000
0010
1000
0010
1000
0000
0001
0000
0100
0000
,
0001
0010
0100
1000
0010
0000
0100
0001
1000
0100
0010
0000
1000
0000
0000
0000
,
0010
0100
1000
0001
0100
0000
0010
1000
0001
0010
0001
0000
0100
0000
0000
0000
,
0001
0010
0100
1000
0001
0000
0100
0010
1000
0001
0100
0000
0001
0000
0000
0000
,
2000
3000
0000
0000
0000
0000
0000
0000
2020
3030
0000
0000
0000
0000
0000
0000
0002
0003
0000
0000
0000
0000
0000
0000
0202
0303
0000
0000
0000
0000
0000
0000
2000
3000
0000
0000
0002
0003
0000
0000
0020
0030
0000
0000
0200
0300
0000
0000
2000
0000
0000
0000
0000
0000
0000
0000
0000
0000
0000
0000
0000
0000
0000
3000
,
1001
0000
0100
0110
0000
0001
0101
0000
,
0100
0110
0000
0010
1000
0100
1001
0000
,
1000
0000
0001
0101
0000
0010
1010
0000
,
1000
0000
1100
0000
0000
0000
0010
0000
0100
0000
0001
0010
0001
0000
1000
0010
,
1000
0000
0000
0000
0000
0000
0000
0000
0200
0300
0000
0000
0000
0000
0000
0000
0200
0300
0000
0000
0000
0000
0000
0000
0010
0000
0000
0000
0000
0000
0000
0000
0200
0300
0000
0000
0000
0000
0000
0000
0200
0300
0000
0000
0000
0000
0000
0000
0001
0000
0000
0000
0000
0000
0000
0000
0020
0030
0000
0000
0000
0000
0000
0000
,
0020
0030
0000
0000
0000
0000
0000
0000
0100
0000
0000
0000
0000
0000
0000
0000
0020
0030
0000
0000
0000
0000
0000
0000
0020
0030
0000
0000
0000
0000
0000
0000
0001
0000
0000
0000
0000
0000
0000
0000
1000
0000
0000
0000
0010
0000
0000
0000
1000
0000
0000
0000
0010
0000
0000
0000
0100
0000
0000
0000
0001
0000
0000
0000
,
1000
0000
0000
0000
0000
0000
0000
0000
0200
0300
0000
0000
0000
0000
0000
0000
0200
0300
0000
0000
0000
0000
0000
0000
0010
0000
0000
0000
0000
0000
0000
0000
0200
0300
0000
0000
0000
0000
0000
0000
0200
0300
0000
0000
0000
0000
0000
0000
1000
0000
0000
0000
0000
0000
0000
0000
0020
0030
0000
0000
0000
0000
0000
0000
,
0020
0030
0000
0000
0000
0000
0000
0000
0100
0000
0000
0000
0000
0000
0000
0000
0020
0030
0000
0000
0000
0000
0000
0000
0020
0030
0000
0000
0000
0000
0000
0000
0100
0000
0000
0000
0000
0000
0000
0000
0001
0000
0000
0000
1000
0000
0000
0000
0010
0000
0000
0000
0100
0000
0000
0000
0001
0000
0000
0000
1000
0000
0000
0000
,
0200
0300
0000
0000
0000
0000
0000
0000
0100
0000
0000
0000
0000
0000
0000
0000
0100
0000
0000
0000
0000
0000
0000
0000
0020
0030
0000
0000
0000
0000
0000
0000
0010
0000
0000
0000
0000
0000
0000
0000
0010
0000
0000
0000
0000
0000
0000
0000
2000
3000
0000
0000
0000
0000
0000
0000
1000
0000
0000
0000
0000
0000
0000
0000
,
1000
0000
0000
0000
0000
0000
0000
0000
0002
0003
0000
0000
0000
0000
0000
0000
0001
0000
0000
0000
0000
0000
0000
0000
0001
0000
0000
0000
0000
0000
0000
0000
2000
3000
0000
0000
0000
0000
0000
0000
0100
0000
0000
0000
0000
0000
0000
0000
0001
0000
0000
0000
0000
0000
0000
0000
2000
3000
0000
0000
0000
0000
0000
0000
,
0010
0000
0000
0000
0000
0000
0000
0000
0001
0000
0000
0000
0000
0000
0000
0000
0002
0003
0000
0000
0000
0000
0000
0000
0100
0000
0000
0000
0000
0000
0000
0000
1000
0000
0000
0000
0000
0000
0000
0000
0002
0003
0000
0000
0000
0000
0000
0000
0010
0000
0000
0000
0000
0000
0000
0000
1000
0000
0000
0000
0000
0000
0000
0000
,
0002
0000
0000
0003
0000
0000
0000
0000
0000
0000
0000
0000
0000
0000
0000
0000
0000
0000
0000
0000
0000
0000
0000
0000
0100
0000
0000
0000
0000
0000
0000
0000
0000
0000
0000
0000
0000
0000
0000
0000
0000
0000
0000
0000
0000
0000
0000
0000
1000
0000
0000
0000
0000
0000
0000
0000
0000
0000
0000
0000
0000
0000
0000
0000
0000
0000
0000
0000
0000
0000
0000
0000
0200
0000
0000
0300
0000
0000
0000
0000
0000
0000
0000
0000
0000
0000
0000
0000
0000
0000
0000
0000
0000
0000
0000
0000
0001
0000
0000
0000
0000
0000
0000
0000
0000
0000
0000
0000
0000
0000
0000
0000
0010
0000
0000
0000
0000
0000
0000
0000
0000
0000
0000
0000
0000
0000
0000
0000
0100
0000
0000
0000
0000
0000
0000
0000
0000
0000
0000
0000
0000
0000
0000
0000
1000
0000
0000
0000
0000
0000
0000
0000
0000
0000
0000
0000
0000
0000
0000
0000
0010
0000
0000
0000
0000
0000
0000
0000
0000
0000
0000
0000
0000
0000
0000
0000
0100
0000
0000
0000
0000
0000
0000
0000
0000
0000
0000
0000
0000
0000
0000
0000
,
2002
0000
0000
0000
,
0000
0000
0000
3003
,
0001
0000
0011
0000
1010
0000
1000
0000
1100
0000
0101
0000
,
0001
0000
0000
0000
0000
0000
0000
0000
0100
0000
0000
0000
0010
0000
0000
0000
1000
0000
0000
0000
0010
0000
0000
0000
1000
0000
0000
0010
0000
0000
0100
0000
0000
0010
0000
0000
0100
0000
0000
0000
0000
0000
0001
0000
0000
1000
0000
0000
,
0001
0000
0000
0000
1000
0100
0020
0000
0000
0000
1030
0100
0020
0000
0000
0000
,
0031
0000
0000
0001
0100
0000
0010
0000
1000
0000
0001
1000
0002
0000
0000
0000
,
1003
0000
0000
0000
0001
0100
0020
0000
0000
0000
0031
0100
0020
0000
0000
0000
,
1030
0000
0100
0000
0010
0000
0001
1000
0100
0010
0100
0000
1000
0000
0000
0000
,
1001
0000
0000
0000
0010
1000
0200
0000
0000
0000
0310
1000
0200
0000
0000
0000
,
0310
0010
0001
1000
0010
0100
0110
0000
,
1000
0000
0010
0202
0000
0000
0000
0303
,
0001
0000
0010
2200
0000
0000
0000
3300
,
1001
0000
0000
0000
2000
0100
0001
0000
3000
0000
0002
0100
1000
0000
0003
0000
,
1000
0000
0100
1000
0001
0000
0010
0100
1000
0000
0010
0100
0001
0000
0000
0000
,
0110
0000
0000
0000
2000
0010
0001
0000
3000
0000
0002
0010
1000
0000
0003
0000
,
1000
0000
0010
0100
0001
0000
1000
0100
0010
0001
0010
0001
1000
0000
0000
0000
,
1001
0000
0000
0000
0001
0010
2000
0000
0000
0000
3001
0100
2000
0000
0000
0000
,
3001
0010
0010
1000
0100
0100
1001
0000
,
0022
0000
0033
2020
0000
3030
1001
0000
,
0202
0000
0303
2200
0000
3300
0110
0000
,
0011
0000
0000
1001
0000
0000
1010
0000
0000
0000
0000
0000
1100
0000
0000
1001
,
0000
0101
0000
0000
0110
0000
1001
0000
,
1010
0000
0000
1001
0000
0000
0011
0000
0000
0000
0000
0000
0101
0000
0000
1001
,
0000
1100
0000
0000
2002
3003
0220
0330
,
1100
0000
0000
0101
0000
0000
1010
0000
0000
0000
0000
0000
0101
0000
0000
1100
,
0000
0011
0000
0000
0110
0000
1001
0000
,
0101
0000
0000
1100
0000
0000
0011
0000
0000
0000
0000
0000
1010
0000
0000
0101
,
0000
1100
0000
0000
2002
3003
0220
0330
,
1010
0000
0000
0011
0000
0000
1010
0000
0100
0000
0001
0000
0101
0000
0000
1100
,
0000
0000
0101
0000
0000
0001
1000
0100
0010
0100
1000
0100
0010
0000
0000
0000
,
0101
0000
0000
1100
0000
0000
0101
0000
0010
0000
1000
0000
1010
0000
0000
0011
,
0000
0000
0000
0000
0000
0000
0000
0000
1010
0000
0000
0000
0000
0000
0000
0000
0000
0000
0000
0000
2000
0000
0000
0000
0000
0000
0000
0000
0000
0000
0000
0000
3020
0000
0000
0000
0000
0000
0000
0000
0000
0000
0000
0000
0230
0000
0000
0000
0000
0000
0000
0000
0000
0000
0000
0000
0302
0000
0000
0000
0000
0000
0000
0003
,
0011
0000
0000
1010
0000
0000
0101
0000
0100
0000
0010
0000
1010
0000
0000
0011
,
0000
0000
0000
1100
0000
0000
0001
0000
1000
0000
0010
0000
0100
0000
0010
0000
1000
0000
0100
0000
0010
0000
0001
0000
,
1000
0000
0000
1010
0000
0000
0011
0000
0001
0000
1000
0000
0001
0000
0000
0101
,
0000
0000
1100
0000
1000
0000
0001
0100
0001
0000
1000
0100
1000
0000
0001
0100
,
0002
0000
1000
0000
,
1000
0000
0000
0000
0000
0000
0010
0000
0023
0000
2030
0000
,
3200
0000
0010
0300
,
2002
0000
0000
3003
0220
0000
0000
0330
,
1000
0000
1001
0000
0010
0100
1000
0001
,
0100
0000
0110
0000
0010
0001
1000
0001
,
0100
0010
1000
0010
0001
0010
1000
0001
,
1000
0010
0100
0001
1000
0000
0001
0000
0100
0001
0100
0001
1000
0010
0100
0000
,
0220
0000
0000
0000
0000
0000
0330
0000
0100
0000
0000
0100
0000
0000
0100
0000
,
0001
0100
0001
0100
0001
0000
1000
0100
1000
0100
1000
0000
0001
0010
0001
0010
,
0001
0000
1000
0010
1000
0010
1000
0000
0001
1000
0001
1000
0001
0000
0100
0000
,
0010
1000
0010
1000
0100
0000
0010
0001
0010
0001
0100
0000
0001
1000
0001
1000
,
0100
0000
0010
0100
0010
0100
1000
0000
0001
1000
0001
1000
0001
0000
0100
0000
,
0010
0100
0010
0100
0010
0000
1000
0100
1000
0100
1000
0000
0001
0100
0001
0100
,
0001
0000
1000
0010
1000
0010
1000
0000
0001
0010
0001
0010
0100
0000
0010
0000
,
0001
0000
0000
0000
0100
0000
0220
0000
0000
0000
0000
0000
0330
0000
1000
0001
,
0100
0000
0000
0000
0010
2000
0002
0000
0000
0000
0000
0000
3003
0000
0000
0000
,
1000
0010
1000
0010
0100
0000
0001
0010
0001
0010
0100
0000
1000
0001
1000
0001
,
0010
0000
0100
1000
0100
1000
0001
0000
1000
0010
0100
0010
1000
0100
0010
0000
,
0001
0100
0001
0100
0010
0000
1000
0100
1000
0100
0010
0000
0001
0100
0010
0100
,
0001
0000
1000
0100
0010
0100
1000
0000
0001
0010
0100
1000
0100
0010
0001
0000
,
1000
0010
0100
0010
1000
0000
0001
0010
0100
1000
0001
0000
0100
0010
1000
0010
,
0100
0000
0001
0010
0001
1000
0001
1000
0100
0010
1000
0001
0010
0100
1000
0001
,
1000
0000
0000
0000
0010
0000
0220
0000
0000
0000
0000
0000
0330
0000
1000
0001
,
0100
0000
0000
0000
0010
0200
0020
0000
0000
0000
0000
0000
0330
0000
0000
0000
,
1001
0000
0000
0000
,
0000
0000
0000
0000
,
1000
0000
1100
0000
0101
0000
0001
0000
0011
0000
1010
0000
,
1000
0000
0000
0010
0000
0000
0100
0000
0000
0000
0000
0000
0000
0001
0000
0000
0000
1000
0000
0000
0000
0000
0000
0000
0000
0000
0100
0000
0000
0000
0000
0001
,
0000
0000
0000
0000
0000
0000
0000
0000
1000
0000
0000
0000
0000
0000
0000
0001
0000
0000
1000
0000
0000
1001
0000
0000
0000
0000
0000
0000
0000
0000
0000
0000
;

//--------------- dance-double - Fred-104-BDP ----------------
#NOTES:
     dance-double:
     Fred-104:
     Easy:
     8:
     :
00000000
00000000
00000000
00000000
,
00000000
00000000
00000000
00000000
,
00000000
00000000
00000000
00000000
,
00000000
00000000
00000000
00000000
,
00000000
00000000
00000000
00000000
,
00000000
00000000
00000000
00000000
,
00010000
00000000
00000000
00100000
00000000
00000000
00100000
00000000
,
01000000
00000000
00000000
00100000
00000000
00000000
00100000
00000000
,
00010000
00000000
00000000
00001000
00000000
00000000
00001000
00000000
,
00000010
00000000
00000000
00000001
00000000
00000000
00000001
00000000
,
00000100
00000000
00000000
00001000
00000000
00000000
00010000
00000000
,
00100000
00000000
00000000
10000000
00000000
00000000
01000000
00000000
,
00010000
00000000
00000000
00001000
00000000
00000000
00010000
00000000
,
00001000
00000000
00000000
00000100
00000000
00000000
00000010
00000000
,
00001000
00000000
00000000
00010000
00000000
00000000
00100000
00000000
,
10000000
00000000
00000000
00010000
00000000
00000000
01000000
00000000
,
00100000
00000000
00000000
01000000
00000000
00000000
00010000
00000000
,
20000000
30000000
20000000
30000000
00020000
20030000
30010000
00000000
,
01000000
00000000
00000000
01010000
00000000
00000000
00001000
00000000
,
00000000
00011000
00000000
00000000
00001000
00000000
00000100
00000000
,
00000010
00000000
00000000
00000011
00000000
00000000
00000001
00000000
,
00000000
00001001
00000000
00000000
00001000
00000000
00000010
00000000
,
00010000
00000000
00000000
00011000
00000000
00000000
00001000
00000000
,
00000000
00101000
00000000
00000000
00100000
00000000
00010000
00000000
,
10000000
00000000
00000000
11000000
00000000
00000000
01000000
00000000
,
00000000
01010000
00000000
00000000
00001000
00000000
00010000
00000000
,
00001000
00000000
00000000
00000010
00000000
00000000
00000001
00000000
,
00000000
00000100
00000000
00000000
00001000
00000000
00000000
00010000
,
00000000
00000000
00100000
00000000
00000000
10000000
00000000
00000000
,
01000000
00000000
00000000
00010000
00000000
00000000
00001000
00000000
,
00022000
00000000
00000000
00000000
,
00000000
00000000
00000000
00033000
,
00010000
00000000
00010000
00000000
00010000
00000000
00001000
00000000
00001000
00000000
00001000
00000000
,
00010000
00100000
01000000
01000000
,
10010000
00000000
00000000
01000000
00000000
00000000
00100000
00000000
,
00001000
00000000
00010000
00000000
00001000
00010000
00001000
00000000
,
00000010
00000000
00000000
00000100
00000000
00000000
00000010
00000000
,
00000001
00000000
00001000
00000000
00000100
00001000
00000100
00000000
,
00010000
00000000
00000000
00001000
00000000
00000000
01000000
00000000
,
00010000
00100000
01000000
10000000
,
00100000
00000000
00000000
00200000
00000000
00000000
00300000
00000000
,
00001000
00000000
00000000
00002000
00000000
00000000
00003000
00000000
,
00011000
00000000
00000000
00001000
00000000
00000000
00000100
00000000
,
00000010
00000000
00000001
00000000
00001000
00000010
00001000
00000000
,
00000010
00000000
00000000
00010000
00000000
00000000
00001000
00000000
,
00010000
00000000
00001000
00000000
00100000
01000000
00100000
00000000
,
00010000
00000000
00000000
10000000
00000000
00000000
01000000
00000000
,
00100000
00000000
00001000
00000000
00010000
00001000
00010000
00000000
,
00011000
00000000
00000000
00022000
00000000
00000000
00033000
00000000
,
00011000
00000000
00000000
00022000
00000000
00000000
00033000
00000000
,
00001000
00000000
00000000
00001000
00000000
00000000
00001000
00000000
00000000
00000000
00000000
00000000
00000001
00000000
00000000
00000001
,
00000000
00000001
00000000
00000000
00000100
00000000
00001000
00000000
,
00010000
00000000
00000000
00010000
00000000
00000000
00010000
00000000
00000000
00000000
00000000
00000000
00001000
00000000
00000000
00001000
,
00000000
00001000
00000000
00000000
01000000
00000000
01000000
00000000
,
00100000
00000000
00000000
00100000
00000000
00000000
00100000
00000000
00000000
00000000
00000000
00000000
00010000
00000000
00000000
00010000
,
00000000
00010000
00000000
00000000
10000000
00000000
10000000
00000000
,
01000000
00000000
00000000
01000000
00000000
00000000
01000000
00000000
00000000
00000000
00000000
00000000
00010000
00000000
00000000
00010000
,
00000000
00010000
00000000
00000000
00001000
00000000
00001000
00000000
,
00000010
00000000
00000000
00000100
00000000
00000000
00000010
00000000
00000000
00000000
00000000
00000000
00000100
00000000
00000000
00000001
,
00000000
00000100
00000000
00000000
00000010
00000000
00010000
00000000
,
00001000
00000000
00000000
00010000
00000000
00000000
00001000
00000000
00000000
00000000
00000000
00000000
00100000
00000000
00000000
00010000
,
00000000
00100000
00000000
00000000
00010000
00000000
01000000
00000000
,
00100000
00000000
00000000
10000000
00000000
00000000
00010000
00000000
00000000
00000000
00000000
00000000
01000000
00000000
00000000
00100000
,
00000000
00010000
00000000
00000000
00001000
00000000
00010000
00000000
,
00000100
00000000
00000000
00001000
00000000
00000000
00000010
00000000
00000000
00000000
00000000
00000000
00000100
00000000
00000000
00000001
,
00000000
00000010
00000000
00010000
00001000
00000000
00010000
00000000
,
00022000
00000000
00000000
00000000
,
00000000
00000000
00000000
00033000
,
00200000
00000000
00000000
00000000
,
02000000
00000000
03300000
00000000
,
10000000
11000000
00100000
00001000
,
00010000
00011000
00001000
00000100
,
00000001
00001001
00000100
00000010
,
00001000
00000001
00000100
00001000
,
00022000
00000000
00033000
00000000
,
00001000
00000000
00000000
00010000
00000000
00000000
00100000
00000000
,
00000000
01000000
00000000
00000000
00100000
00000000
00100000
00000000
,
00010000
00000000
00000000
10000000
00000000
00000000
01000000
00000000
,
00000000
00100000
00000000
00000000
00001000
00000000
00010000
00000000
,
00000100
00000000
00000000
00000100
00000000
00000000
00000010
00000000
,
00000000
00000001
00000000
00000000
00000100
00000000
00000010
00000000
,
00001000
00000000
00000000
00002020
00000000
00000000
00003030
00000000
,
00010000
00000000
00000000
00220000
00000000
00000000
00330000
00000000
,
00010000
00000000
00000000
00001000
00000000
00000000
00000010
00000000
,
00000000
00000100
00000000
00000000
00000010
00000000
00000010
00000000
,
00001000
00000000
00000000
00000001
00000000
00000000
00000100
00000000
,
00000000
00000010
00000000
00000000
00010000
00000000
00001000
00000000
,
01000000
00000000
00000000
01000000
00000000
00000000
00100000
00000000
,
00000000
10000000
00000000
00000000
01000000
00000000
00100000
00000000
,
00010000
00000000
00000000
00220000
00000000
00000000
00330000
00000000
,
00001000
00000000
00000000
00002020
00000000
00000000
00003030
00000000
,
00001001
00000000
00000000
00000000
,
00000000
00000000
00000000
00000000
,
00010000
00000000
00010000
00000000
00010000
00000000
00001000
00000000
00001000
00000000
00001000
00000000
,
00022000
00000000
00000000
00000000
,
00000000
00000000
00033000
00000000
;

//--------------- dance-double - Fred-104-DDP ----------------
#NOTES:
     dance-double:
     Fred-104:
     Medium:
     13:
     :
00000000
00000000
00000000
00000000
,
00000000
00000000
00000000
00000000
,
00000000
00000000
00000000
00000000
,
00000000
00000000
00000000
00000000
,
00000000
00000000
00000000
00000000
,
00000000
00000000
00000000
00000000
,
00010000
00100000
00010000
00100000
00010000
10000000
00100000
00000000
,
01000000
00100000
00100000
01000000
00100000
00100000
01000000
00000000
,
00010000
00100000
00001000
00010000
00001000
00000100
00001000
00000000
,
00000010
00000100
00000100
00000010
00000100
00000100
00000010
00000000
,
00000001
00000100
00000001
00000100
00001000
00010000
00001000
00000000
,
00010000
00001000
00001000
00010000
00001000
00001000
00010000
00000000
,
00001000
00010000
00100000
10000000
00010000
01000000
00100000
00000000
,
10000000
00010000
00010000
10000000
00010000
00010000
10000000
00000000
,
01000000
00100000
00010000
00001000
00000100
00000010
00010000
00000000
,
00001000
00010000
00010000
00001000
00010000
00010000
00001000
00000000
,
00000100
00000010
00000001
00000100
00000001
00000100
00001000
00000000
,
00010000
00001000
01000000
00010000
00100000
01000000
10000000
00000000
,
10010000
00000000
01000000
00100000
00000000
10000000
01000000
00000000
,
00100000
00001000
00000000
00010000
00000100
00000000
00000010
00000000
,
00001001
00000000
00000010
00000001
00000000
00001000
00000010
00000000
,
00000100
00000010
00000000
00001000
00000100
00000000
00010000
00000000
,
00011000
00000000
00001000
00010000
00000000
00100000
01000000
00000000
,
00100000
00010000
00000000
01000000
00100000
00000000
10000000
00000000
,
10100000
00000000
01000000
00100000
00000000
00001000
00010000
00000000
,
00000100
00000010
00000000
00000001
00001000
00000000
00001001
00000000
,
00000001
00000010
00000000
00001000
00010000
00000000
00100000
00010000
,
00000000
00001000
00000010
00000000
00001000
00010000
00000000
01000000
,
00010000
00000000
00001000
00000100
00000000
00001000
00010000
00000000
,
01000000
10000000
00000000
01000000
00010000
00001000
00010000
00000000
,
00022000
00000000
00000000
00000000
,
00000000
00000000
00000000
00033000
,
00010000
00000000
00010000
00000000
00001000
00000000
00001000
00000000
00010000
00000000
00010000
00000000
,
00011000
00000000
00000000
00000000
00100000
00000000
00010000
00000000
00100000
00000000
00010000
00000000
10000000
00000000
00000000
01000000
00000000
00000000
00100000
00000000
00000000
01000000
00000000
00000000
,
00010000
00000000
20000000
01000000
00000000
31000000
10000000
00000000
,
00100000
01000000
00010000
00001000
00010000
00001000
00000100
00000000
,
00000010
00000000
00002000
00000001
00000000
00003001
00001000
00000000
,
00000001
00000000
00000010
00000100
00001000
00000010
00010000
00000000
,
00001000
00000000
00020000
00001000
00000000
00031000
00010000
00000000
,
00001000
00010000
00100000
00000000
10000000
00100000
01000000
00000000
,
00010000
00000000
10000000
02000000
00000000
00000000
03000000
00000000
,
00010000
00000000
00001000
00000200
00000000
00000000
00000300
00000000
,
00001001
00000000
00000010
00000001
00000000
00001000
00000001
00000000
,
00000100
00000010
00001000
00000100
00010000
00000100
00001000
00000000
,
00001100
00000000
00000100
00010000
00000000
00001000
01000000
00000000
,
00100000
10000000
01000000
00100000
01000000
10000000
00010000
00000000
,
01010000
00000000
00100000
00001000
00000000
00010000
00000010
00000000
,
00001000
00000100
00000010
00000100
00000001
00000100
00001000
00000000
,
00011000
00000000
00100000
02000000
00000000
00000000
03000000
00000000
,
00011000
00000000
00000010
00000200
00000000
00000000
00000300
00000000
,
00000001
00000000
00000000
00000001
00000000
00000000
00000101
00000000
00000000
00000000
00000000
00000000
00000100
00000000
00000000
00000100
,
00000000
00001100
00000000
00000000
00010000
00000000
00001000
00000000
,
00100000
00000000
00000000
00100000
00000000
00000000
00110000
00000000
00000000
00000000
00000000
00000000
00010000
00000000
00000000
00010000
,
00000000
10010000
00000000
00000000
20000000
30000000
00020000
00030000
,
10000000
00000000
00000000
01000000
00000000
00000000
01100000
00000000
00000000
00000000
00000000
00000000
00010000
00000000
00000000
00001000
,
00000000
00011000
00000000
00000000
00000100
00000000
00000010
00000000
,
00000001
00000000
00000000
00000010
00000000
00000000
00000110
00000000
00000000
00000000
00000000
00000000
00001000
00000000
00000000
00000010
,
00000000
00000110
00000000
00000000
00020000
00030000
00002000
00003000
,
00010000
00000000
00000000
00011000
00000000
00000000
00011000
00000000
00000000
00000000
00000000
00000000
00001000
00000000
00000000
00011000
,
00000000
00011000
00000000
00010000
00100000
01000000
10000000
00000000
,
10100000
00000000
00000000
10100000
00000000
00000000
10100000
00000000
00000000
00000000
00000000
00000000
00110000
00000000
00000000
00110000
,
00000000
00000000
00110000
00000000
00000000
10000000
00000000
00000000
00020000
00000000
00000000
02030000
00000000
00000000
03100000
00000000
,
00110000
00000000
00000000
00110000
00000000
00000000
00011000
00000000
00000000
00000000
00000000
00000000
00001010
00000000
00000000
00001010
,
00000000
00011000
00000000
00001000
00000010
00000000
00000100
00000000
,
00000011
00000000
00000000
00000101
00000000
00000000
00000110
00000000
00000000
00000000
00000000
00000000
00001010
00000000
00000000
00001100
,
00000000
00000110
00000000
00000100
00001000
00010000
00001000
00000000
,
00022000
00000000
00000000
00000000
,
00000000
00000000
00000000
00000000
00000000
00000000
00033000
00000000
00010000
00000000
00010000
00000000
,
00220000
00000000
00000000
00330000
,
20200000
00000000
30300000
00000000
,
01000000
00000000
01100000
00000000
00000000
00010000
00000000
00010000
,
00001000
00000000
00011000
00000000
00000000
00000010
00000000
00000100
,
00000010
00000000
00000011
00000000
00000000
00000001
00000000
00000001
,
00000100
00000000
00000010
00000000
00001000
00000100
00010000
00000000
,
00022000
00000000
00000000
00000000
00000000
00000000
00033000
00000000
00001000
00000000
00000000
00001000
00000000
00000000
00001000
00000000
,
00010000
00001000
00100000
00001000
00010000
00100000
00010000
00100000
,
01000000
00100000
10000000
00100000
01000000
00010000
00001000
00010000
,
00001000
00000100
00000010
00000001
00000100
00000010
00001000
00000100
,
00010000
00001000
00010000
00100000
00010000
00100000
10000000
00100000
,
00010000
00100000
00010000
00001000
00010000
00001000
00000010
00001000
,
00000010
00000001
00000010
00000001
00000010
00001000
00010000
01000000
,
00100000
00000000
00000000
20020000
00000000
00000000
30030000
00000000
,
00000100
00000000
00000000
00002002
00000000
00000000
00003003
00000000
,
00001000
00010000
00000010
00010000
00001000
00000010
00001000
00000010
,
00000100
00000010
00000001
00000010
00000100
00001000
00010000
00001000
,
00010000
01000000
00100000
10000000
01000000
00100000
00010000
01000000
,
00001000
00010000
00001000
00000010
00001000
00000010
00000001
00000010
,
00001000
00000010
00001000
00010000
00001000
00010000
00100000
00010000
,
00100000
10000000
00100000
10000000
00100000
00010000
00001000
00000100
,
00000010
00000000
00000000
00002002
00000000
00000000
00003003
00000000
,
01000000
00000000
00000000
20020000
00000000
00000000
30030000
00000000
,
00011000
00000000
00000000
00000000
,
00000000
00000000
00000000
00000000
,
00000001
00000000
00000010
00000000
00001000
00000000
00010000
00000000
01000000
00000000
10000000
00000000
,
20020000
00000000
00000000
00000000
,
00000000
00000000
30030000
00000000
;

//--------------- dance-double - Fred-104-EDP ----------------
#NOTES:
     dance-double:
     Fred-104:
     Hard:
     16:
     :
00000000
00000000
00000000
00000000
,
00000000
00000000
00000000
00000000
,
00000000
00000000
00000000
00000000
,
00000000
00000000
00000000
00000000
,
00000000
00000000
00000000
00000000
,
00000000
00000000
00000000
00000000
,
00010000
00100000
00100000
00010000
01000000
01000000
00010000
00000000
,
10000000
01000000
10000000
01000000
10000000
00000000
00010000
01000000
00010000
01000000
00010000
00000000
10000000
00000000
00000000
00000000
,
00100000
01000000
00100000
00001000
00010000
00001000
00010000
00000000
,
00000100
00001000
00000100
00001000
00000100
00000000
00000010
00000100
00000010
00000100
00000010
00000000
00000001
00000000
00000000
00000000
,
00000100
00001000
00010000
00001000
00010000
01000000
00100000
00000000
,
10000000
00100000
10000000
00100000
10000000
00000000
00010000
01000000
00010000
01000000
00010000
00000000
01000000
00000000
00000000
00000000
,
00100000
00010000
00001000
00000010
00010000
00001000
00010000
00000000
,
00001000
00010000
00001000
00010000
00001000
00000000
00010000
00000010
00010000
00000010
00010000
00000000
00001000
00000000
00000000
00000000
,
00010000
00001000
00001000
00000100
00000010
00000010
00000100
00000001
,
00000010
00000100
00000100
00010000
00001000
00001000
00100000
00010000
,
01000000
00100000
00100000
10000000
00100000
00100000
01000000
00100000
,
00002000
00003000
00000000
00000000
00000000
00000000
00000000
00000000
00020000
00030000
00000000
00000000
00000000
00000000
00000000
00000000
00002000
00003000
00000000
00000000
00000000
00000000
00000000
00000000
00020000
00030000
00000000
00000000
00000000
00000000
00000000
00000000
00002000
00003000
00000000
00000000
00020000
00030000
00000000
00000000
00002000
00003000
00000000
00000000
00020000
00030000
00000000
00000000
00002000
00000000
00000000
00000000
00000000
00000000
00000000
00000000
00000000
00000000
00000000
00000000
00000000
00000000
00000000
00003000
,
00011000
00000000
00010000
00001000
00000000
00000010
00000001
00000000
,
00000001
00000100
00000000
00001000
00010000
00001000
00010000
00000000
,
00011000
00000000
00001000
00010000
00000000
00100000
10000000
00000000
,
10000000
01000000
00000000
01000000
00010000
00001000
00010000
00000000
,
00011000
00000000
00001000
00000010
00000000
00000001
00000100
00000000
,
00000100
00001000
00000000
00010000
00100000
10000000
01000000
00000000
,
01100000
00000000
00100000
00010000
00000000
00001000
00000010
00000000
,
00000001
00000100
00000000
00000010
00001000
00000100
00010100
00000000
,
00001000
00000000
00000000
00000000
00000000
00000000
00000000
00000000
00020000
00030000
00000000
00000000
00000000
00000000
00000000
00000000
00020000
00030000
00000000
00000000
00000000
00000000
00000000
00000000
00001000
00000000
00000000
00000000
00000000
00000000
00000000
00000000
00200000
00300000
00000000
00000000
00000000
00000000
00000000
00000000
00200000
00300000
00000000
00000000
00000000
00000000
00000000
00000000
00010000
00000000
00000000
00000000
00000000
00000000
00000000
00000000
20000000
30000000
00000000
00000000
00000000
00000000
00000000
00000000
,
20000000
30000000
00000000
00000000
00000000
00000000
00000000
00000000
00010000
00000000
00000000
00000000
00000000
00000000
00000000
00000000
02000000
03000000
00000000
00000000
00000000
00000000
00000000
00000000
02000000
03000000
00000000
00000000
00000000
00000000
00000000
00000000
00010000
00000000
00000000
00000000
00000000
00000000
00000000
00000000
00200000
00300000
00000000
00000000
00000000
00000000
00000000
00000000
00200000
00300000
00000000
00000000
00000000
00000000
00000000
00000000
00001000
00000000
00000000
00000000
00000000
00000000
00000000
00000000
,
00020000
00030000
00000000
00000000
00000000
00000000
00000000
00000000
00020000
00030000
00000000
00000000
00000000
00000000
00000000
00000000
00001000
00000000
00000000
00000000
00000000
00000000
00000000
00000000
00000020
00000030
00000000
00000000
00000000
00000000
00000000
00000000
00000020
00000030
00000000
00000000
00000000
00000000
00000000
00000000
00001000
00000000
00000000
00000000
00000000
00000000
00000000
00000000
00000002
00000003
00000000
00000000
00000000
00000000
00000000
00000000
00000002
00000003
00000000
00000000
00000000
00000000
00000000
00000000
,
00000100
00000000
00000000
00000010
00000000
00000000
00001000
00000000
00000000
00000100
00000000
00000000
00010000
00000000
00001000
00000000
00100000
00000000
00001000
00000000
00010000
00000000
00001000
00000000
,
00020000
00000000
00000000
00000000
,
00000000
00000000
00000000
00000000
,
00031000
00000000
00100000
00000000
00100000
00000000
00001000
00000000
00010000
00000000
00010000
00000000
,
00001000
00000000
00000000
00000000
00000000
00000000
00000000
00000000
00010000
00000000
00000000
00000000
00000100
00000000
00000000
00000000
00001000
00000000
00000000
00000000
00000001
00000000
00000000
00000000
00000100
00000000
00000000
00000000
00000000
00000000
00000010
00000000
00000000
00000100
00000000
00000000
00000010
00000000
00000000
00000000
00000000
00000000
00001000
00000000
00000000
00000000
00000000
00000000
,
00001001
00000000
00000010
00001000
00000000
00000100
00010000
00000000
,
00001000
00000000
00000000
00000000
00100000
00000000
00010000
00000000
10000000
00000000
01000000
00100000
01000000
00000000
00000000
00000000
,
10010000
00000000
01000000
00100000
00000000
00001000
00010000
00000000
,
00000100
00000000
00001000
00000000
00000001
00000000
00000100
00000010
00000100
00000000
00000001
00000000
00001001
00000000
00000000
00000000
,
00011000
00000000
00010000
10000000
00000000
01000000
00100000
00000000
,
00001000
00010000
00000100
00010000
00010000
00100000
01000000
10000000
,
00100000
00000000
00010000
00022000
00000000
00000000
00033000
00000000
,
00000010
00000000
00010000
00022000
00000000
00000000
00033000
00000000
,
00001001
00000000
00000010
00000200
00000000
00010300
00001000
00000000
,
00100000
00000000
00000000
00100000
10000000
00000000
00010000
01000000
00010000
00000000
00100000
00000000
00001000
00000000
00000000
00000000
,
00011000
00000000
00100000
00020000
00000000
00030100
00010000
00000000
,
00000100
00000000
00010000
00000000
00001000
00000000
00010000
00000010
00001000
00000000
00000001
00000000
00000100
00000000
00000000
00000000
,
00001001
00000000
00000010
00020000
00000000
00031000
00100000
00000000
,
00010000
00100000
10000000
00100000
00001000
00010000
00000010
00001000
,
00000001
00000000
00000100
00000220
00000000
00000000
00000330
00000000
,
00010000
00000000
00001000
00202000
00000000
00000000
00303000
00000000
,
00110000
00000000
00000000
00110000
00000000
00000000
00110000
00000000
00000000
00000000
00000000
00000000
00011000
00000000
00000000
00011000
,
00000000
00011000
00000000
00000000
00000010
00001000
00000001
00000100
,
00000110
00000000
00000000
00000110
00000000
00000000
00000110
00000000
00000000
00000000
00000000
00000000
00001010
00000000
00000000
00001010
,
00000000
00001010
00000000
00000000
00020000
00031000
00200000
00310000
,
10010000
00000000
00000000
01010000
00000000
00000000
10010000
00000000
00000000
00000000
00000000
00000000
00011000
00000000
00000000
00010100
,
00000000
00011000
00000000
00000000
00001000
00000001
00000100
00000010
,
00000110
00000000
00000000
00000101
00000000
00000000
00000110
00000000
00000000
00000000
00000000
00000000
00001100
00000000
00000000
00010100
,
00000000
00001100
00000000
00000000
00020000
00031000
00200000
00301000
,
00011000
00000000
00000000
00101000
00000000
00000000
00011000
00000000
00000000
00000000
00000000
00000000
00010010
00000000
00000000
00011000
,
00000000
00010100
00000000
00010000
00001000
00100000
00010000
10000000
,
11000000
00000000
00000000
01010000
00000000
00000000
11000000
00000000
00000000
00000000
00000000
00000000
01010000
00000000
00000000
00011000
,
00000000
00000000
01010000
00000000
00000000
00001000
00000000
00000000
00020000
00000000
00000000
00032000
00000000
00000000
00003010
00000000
,
00001010
00000000
00000000
00000101
00000000
00000000
00001010
00000000
00000000
00000000
00000000
00000000
00010010
00000000
00000000
00001010
,
00000000
00000000
00000000
00010010
00000000
00000000
00010000
00000000
00001000
00000000
00010000
00000000
00100000
00000000
00010000
00000000
01000000
00000000
00100000
00000000
00000000
00000000
00000000
00000000
,
11000000
00000000
00000000
01010000
00000000
00000000
10010000
00000000
00000000
00000000
00000000
00000000
00101000
00000000
00000000
00011000
,
00000000
00000000
00010010
00000000
00000000
00000000
00001000
00000000
00000010
00000000
00000100
00000001
00000100
00000000
00000010
00000000
,
00000220
00000000
00000000
00000000
,
00000000
00000000
00000000
00000000
00000000
00000000
00000330
00000000
00001000
00000000
00010000
00000000
,
00022000
00000000
00000000
00033000
,
00202000
00303000
20020000
30030000
,
10000000
00000000
10010000
00000000
00000000
01000000
00100000
00001000
,
00010000
00000000
00011000
00000000
00000000
00001000
00000100
00000001
,
00001000
00000000
00001001
00000000
00000000
00000001
00000100
00001000
,
00010000
00001000
00010000
00001000
00010000
00000000
01000000
00000000
00100000
01000000
00100000
00000000
10000000
00010000
10000000
00000000
,
20020000
00000000
00000000
00000000
00000000
00000000
30030000
00000000
00010000
00000000
00000000
00010000
00000000
00000000
00010000
00000000
,
10000000
01000000
00100000
00001000
00010000
00100000
10000000
01000000
,
00100000
00000000
00001000
00000000
00010000
00000000
00100000
00000000
10000000
00010000
10000000
00000000
00010000
00100000
00010000
00000000
,
01000000
00010000
00001000
00100000
00010000
00001000
00100000
00001000
,
00010000
00000000
00000100
00000000
00001000
00000000
00010000
00000000
00000100
00001000
00000100
00000000
00000010
00000001
00000010
00000000
,
00000001
00000100
00001000
00000010
00000100
00001000
00000010
00010000
,
00001000
00000000
00100000
00000000
00010000
00000000
01000000
00000000
00010000
10000000
00010000
00000000
01000000
00100000
01000000
00000000
,
00010000
00000000
00000000
00000000
10000000
00000000
02000000
00000000
00000000
00000000
00000000
00000000
00000000
00000000
03010000
00100000
,
00010000
00000000
00000000
00000000
00001000
00020000
00002000
00000000
00000000
00000000
00000000
00000000
00033000
00000000
00000000
00000000
,
00010000
00001000
00010000
00000000
00000100
00000000
00010000
00001000
00010000
00000000
00000010
00000000
00010000
00001000
00010000
00000000
,
00000100
00000000
00010000
00001000
00010000
00000000
00001000
00000000
00100000
00010000
00100000
00000000
01000000
00100000
01000000
00000000
,
00001000
00010000
00001000
00000000
00100000
00000000
00001000
00010000
00001000
00000000
01000000
00000000
00001000
00010000
00001000
00000000
,
00100000
00000000
00001000
00010000
00001000
00000000
01000000
00000000
00001000
00010000
00001000
00000000
00000100
00000010
00000100
00000000
,
00000001
00000100
00000001
00000000
00000100
00000000
00000010
00001000
00000010
00000000
00010000
00000000
00001000
00010000
00001000
00000000
,
00100000
00000000
00010000
10000000
00010000
00000000
01000000
00000000
00100000
01000000
00100000
01000000
00100000
01000000
00100000
00000000
,
10010000
00000000
00000000
00000000
00100000
00000000
00002000
00000000
00000000
00000000
00000000
00000000
00000000
00000000
00013000
00001000
,
00010000
00000000
00000000
00000000
00000010
00002000
00000002
00000000
00000000
00000000
00000000
00000000
00003003
00000000
00000000
00000000
,
00000011
00000000
00000000
00000000
,
00000000
00000000
00000000
00000000
,
00000001
00000000
00000001
00000000
00000100
00000000
00001000
00000000
00001000
00000000
00010000
00000000
,
01000000
00000000
00000000
00100000
00000000
00000000
10000000
00000000
00000000
00000000
00000000
00000000
00000000
01000000
00000000
00000000
00000000
00010000
00000000
00000000
00000000
00000000
00000000
00000000
00000000
00000000
00001000
00000000
00000000
00000000
00000000
00010000
,
00000000
00000000
00000000
00000000
00000000
00000000
00000000
00000000
00000100
00000000
00000000
00000000
00000000
00000000
00000000
00000000
00000000
00000000
00000000
00000000
00000000
00000110
00000000
00000000
00000000
00000000
00000000
00000000
00000000
00000000
00000000
00000000
;

//--------------- dance-double - Fred-104-CDP ----------------
#NOTES:
     dance-double:
     Fred-104:
     Challenge:
     17:
     :
00000000
00000000
00000000
00000000
,
00000000
00000000
00000000
00000000
,
00000000
00000000
00000000
00000000
,
00000000
00000000
00000000
00000000
,
00000000
00000000
00000000
00000000
,
00000000
00000000
00000000
00000000
,
00001000
00000001
00000100
00001000
00000000
00010000
00011000
00000000
,
00001000
00000000
00000000
00100000
00000000
00000000
00001000
00000000
00000000
00100000
00000000
00000000
00001000
00000000
00000000
00000000
00000000
00000000
00010000
00000000
00000000
00000100
00000000
00000000
00010000
00000000
00000000
00000100
00000000
00000000
00010000
00000000
00000000
00000000
00000000
00000000
00001000
00000000
00000000
00000000
00010000
00000000
00000000
00000000
00001000
00000000
00000000
00000000
,
00010000
00100000
10000000
01000000
00000000
00100000
01100000
00000000
,
00010000
00000100
00010000
00000100
00010000
00000000
00001000
00100000
00001000
00100000
00001000
00000000
00011000
00000000
00000000
00000000
,
00010000
00000000
00000100
00001000
00000100
00000000
00000010
00000000
00000001
00001000
00000001
00000000
00000100
00000000
00000010
00000000
,
00001000
00000010
00001000
00000010
00001000
00000000
00000001
00000010
00000001
00000010
00000001
00000000
00000200
00000000
00000000
00000000
,
00000310
00000000
00010000
00001000
00010000
00000000
00000100
00000000
00010000
00001000
00010000
00000000
00001000
00000000
00100000
00000000
,
01000000
00100000
01000000
00100000
01000000
00000000
00010000
10000000
00010000
10000000
00010000
00000000
01000000
00000000
00100000
00000000
,
00001000
00010000
00000100
00001000
00000010
00000000
00001000
00000100
00000010
00000001
00000100
00000000
00000010
00000000
00000000
00000000
,
00000001
00000010
00000100
00001000
00000100
00000000
00010000
00001000
00100000
00010000
10000000
00000000
01000000
00000000
00000000
00000000
,
00010000
01000000
00100000
10000000
00010000
00000000
10000000
01000000
00010000
01000000
00100000
00000000
10010000
00000000
00000000
00000000
,
20000000
30000000
00000000
00000000
00000000
00000000
00000000
00000000
02000000
03000000
00000000
00000000
00000000
00000000
00000000
00000000
00200000
00300000
00000000
00000000
00000000
00000000
00000000
00000000
00002000
00003000
00000000
00000000
00000000
00000000
00000000
00000000
00020000
00030000
00000000
00000000
00002000
00003000
00000000
00000000
00020000
00030000
00000000
00000000
00002000
00003000
00000000
00000000
00020000
00000000
00000000
00000000
00000000
00000000
00000000
00000000
00000000
00000000
00000000
00000000
00000000
00000000
00000000
00030000
,
00011000
00000000
00001000
00001010
00000000
00000010
00000110
00000000
,
00000100
00000101
00000000
00000001
00000100
00000010
00001010
00000000
,
00011000
00000000
00010000
00010010
00000000
00001000
00101000
00000000
,
00010000
00000000
10010000
00000000
00000000
00000000
01000000
00000000
00100000
00000000
00001000
00010000
00001000
00000000
00000000
00000000
,
00010000
00000000
00000000
00000000
00000000
00000000
00000000
00000000
00002000
00003000
00000000
00000000
00000000
00000000
00000000
00000000
00002000
00003000
00000000
00000000
00000000
00000000
00000000
00000000
00100000
00000000
00000000
00000000
00000000
00000000
00000000
00000000
00002000
00003000
00000000
00000000
00000000
00000000
00000000
00000000
00002000
00003000
00000000
00000000
00000000
00000000
00000000
00000000
00000010
00000000
00000000
00000000
00000000
00000000
00000000
00000000
00002000
00003000
00000000
00000000
00000000
00000000
00000000
00000000
,
00002000
00003000
00000000
00000000
00000000
00000000
00000000
00000000
00010000
00000000
00000000
00000000
00000000
00000000
00000000
00000000
00002000
00003000
00000000
00000000
00000000
00000000
00000000
00000000
00002000
00003000
00000000
00000000
00000000
00000000
00000000
00000000
00010000
00000000
00000000
00000000
00000000
00000000
00000000
00000000
00100000
00000000
00000000
00000000
01000000
00000000
00000000
00000000
00100000
00000000
00000000
00000000
01000000
00000000
00000000
00000000
00100000
00000000
00000000
00000000
01000000
00000000
00000000
00000000
,
00100000
00000000
00000000
00000000
00000000
00000000
00000000
00000000
00020000
00030000
00000000
00000000
00000000
00000000
00000000
00000000
00020000
00030000
00000000
00000000
00000000
00000000
00000000
00000000
00100000
00000000
00000000
00000000
00000000
00000000
00000000
00000000
20000000
30000000
00000000
00000000
00000000
00000000
00000000
00000000
20000000
30000000
00000000
00000000
00000000
00000000
00000000
00000000
00100000
00000000
00000000
00000000
00000000
00000000
00000000
00000000
00020000
00030000
00000000
00000000
00000000
00000000
00000000
00000000
,
00020000
00030000
00000000
00000000
00000000
00000000
00000000
00000000
00001000
00000000
00000000
00000000
00000000
00000000
00000000
00000000
00000020
00000030
00000000
00000000
00000000
00000000
00000000
00000000
00000020
00000030
00000000
00000000
00000000
00000000
00000000
00000000
00000100
00000000
00000000
00000000
00000000
00000000
00000000
00000000
00000001
00000000
00000000
00000000
00000010
00000000
00000000
00000000
00000001
00000000
00000000
00000000
00001000
00000000
00000000
00000000
00000001
00000000
00000000
00000000
00001000
00000000
00000000
00000000
,
00000001
00000100
00001000
00010000
00100000
10000000
10000000
01000000
,
00010000
00001000
00000010
00000001
00000001
00000010
00001000
00010000
,
01000000
10000000
10000000
00100000
00010000
00001000
00000100
00000001
,
00001000
00000000
00000000
00000100
00000000
00000000
00000010
00000000
00000000
00000001
00000000
00000000
00000100
00000000
00000010
00000000
00001000
00000000
00000100
00000000
00010000
00000000
00001000
00000000
,
00022000
00000000
00000000
00000000
,
00000000
00000000
00000000
00033000
,
00010000
00000000
10000000
00000000
01000000
00000000
00010000
00000000
00001000
00000000
00000100
00000000
,
00000001
00000000
00000000
00000000
00000000
00000000
00000000
00000000
00000100
00000000
00000000
00000000
00000010
00000000
00000000
00000000
00001000
00000000
00000000
00000000
00000010
00000000
00000000
00000000
00000100
00000000
00000000
00000001
00000000
00000000
00000100
00000000
00000000
00000001
00000000
00000000
00000100
00000000
00000000
00000000
00000000
00000000
00000010
00000000
00000000
00001000
00000000
00000000
,
00000001
00000000
00000000
00000000
00000001
00000020
00000100
00000000
00000030
00000000
00000001
00000020
00000100
00000000
00000030
00000000
,
00010000
00000000
00000000
00010000
00001000
00000000
00100000
00000000
00010000
00000000
01000000
00100000
01000000
00000000
00000000
00000000
,
10010000
00000000
00000000
00000000
10000000
00200000
01000000
00000000
00300000
00000000
10000000
00200000
01000000
00000000
00300000
00000000
,
00010000
00000000
00100000
00000000
01000000
00000000
10000000
00100000
01000000
00010000
10000000
00000000
10010000
00000000
00000000
00000000
,
00011000
00000000
00000000
00000000
00010000
00001000
00000010
00000000
00000000
00000000
00001000
00010000
00100000
00000000
00000000
00000000
,
00010000
00001000
00000100
00000001
00001000
00000010
00000110
00000000
,
00000001
00000000
00000010
00002200
00000000
00000000
00003300
00000000
,
00010000
00000000
01000000
20200000
00000000
00000000
30300000
00000000
,
01100000
00000000
00000000
00000000
20000000
01000000
00010000
00000000
30000000
00000000
00020000
01000000
10000000
00000000
00030000
00000000
,
10000000
00000000
00000000
10000000
01000000
00000000
00100000
00001000
00010000
00000000
00001000
00010000
00001000
00000000
00000000
00000000
,
00011000
00000000
00000000
00000000
00002000
00000010
00000001
00000000
00003000
00000000
00000002
00000010
00001000
00000000
00000003
00000000
,
00001000
00000000
00000001
00000000
00000100
00000000
00000010
00001000
00000100
00000010
00000100
00000010
00000001
00000000
00000000
00000000
,
00001001
00000000
00000000
00000000
00000001
00000010
00002000
00000000
00000000
00000000
00013000
00100000
20000000
00000000
00000000
00000000
,
30010000
10000000
01000000
00010000
00001000
00010000
00011000
00000000
,
00010000
00000000
00000100
00000220
00000000
00000000
00000330
00000000
,
00001000
00000000
01000000
02200000
00000000
00000000
03300000
00000000
,
10100000
00000000
00000000
01010000
00000000
00000000
10100000
00000000
00000000
00000000
00000000
00000000
00101000
00000000
00000000
00011000
,
00000000
00101000
00000000
00000000
00011000
00000000
00001010
00000000
,
00001100
00000000
00000000
00000101
00000000
00000000
00001100
00000000
00000000
00000000
00000000
00000000
00000011
00000000
00000000
00001010
,
00000000
00011000
00000000
00000000
00022000
00033000
02200000
03300000
,
11000000
00000000
00000000
01010000
00000000
00000000
10100000
00000000
00000000
00000000
00000000
00000000
00101000
00000000
00000000
00011000
,
00000000
00010100
00000000
00000000
00001010
00000000
00000101
00000000
,
00000011
00000000
00000000
00001010
00000000
00000000
00000101
00000000
00000000
00000000
00000000
00000000
00010100
00000000
00000000
00101000
,
00000000
00011000
00000000
00000000
00020020
00030030
00202000
00303000
,
00011000
00000000
00000000
00011000
00000000
00000000
00011000
00000000
00001000
00000000
00100000
00000000
01100000
00000000
00000000
01100000
,
00000000
00000000
01100000
00000000
00000000
00010000
01000000
00100000
10000000
00100000
01000000
00010000
00100000
00000000
00000000
00000000
,
00101000
00000000
00000000
00101000
00000000
00000000
00101000
00000000
00001000
00000000
00010000
00000000
00010010
00000000
00000000
00010010
,
00000000
00000000
00000000
00000000
00000000
00000000
00000000
00000000
00010010
00000000
00000000
00000000
00000000
00000000
00000000
00000000
00000000
00000000
00000000
00000000
00000020
00000000
00000000
00000000
00000000
00000000
00000000
00000000
00000000
00000000
00000000
00000000
00002030
00000000
00000000
00000000
00000000
00000000
00000000
00000000
00000000
00000000
00000000
00000000
00003002
00000000
00000000
00000000
00000000
00000000
00000000
00000000
00000000
00000000
00000000
00000000
00000203
00000000
00000000
00000000
00000000
00000000
00000000
00000300
,
00000101
00000000
00000000
00001100
00000000
00000000
00000101
00000000
00000001
00000000
00001000
00000000
00001010
00000000
00000000
00000011
,
00000000
00000000
00000000
00001010
00000000
00000000
00000001
00000000
00000010
00000000
00000100
00000000
00010000
00000000
00001000
00000000
00010000
00000000
00001000
00000000
00100000
00000000
00010000
00000000
,
01000000
00000000
00000000
11000000
00000000
00000000
01010000
00000000
00001000
00000000
00010000
00000000
00001000
00000000
00000000
00001100
,
00000000
00000000
00000101
00000000
00000010
00000000
00000100
00000010
00001000
00000000
00000010
00000100
00000001
00000000
00000010
00000000
,
00000002
00000000
00001000
00000000
,
00001000
00000000
00000000
00000003
00000000
00000000
00000001
00000000
00000100
00000000
00001000
00000000
,
00020000
00000000
01000000
00030000
,
02200000
03300000
20020000
30030000
,
10000000
01000000
00100000
00000000
01000000
00010000
00001000
00010000
,
00001000
00000100
00000001
00000000
00001000
00000010
00000001
00001000
,
00000001
00000010
00000100
00000000
00000010
00001000
00000100
00010000
,
00001000
00010000
00001000
00010000
00001000
00000000
00100000
00000000
00010000
01000000
00100000
10000000
01000000
00100000
00010000
00000000
,
20020000
00000000
00000000
00000000
00000000
00000000
30030000
00000000
01000000
00000000
00000000
00100000
00000000
00000000
01000000
00000000
,
00010000
00100000
00010000
00100000
00010000
00000000
00100000
00001000
00100000
00001000
00100000
00000000
00001000
00010000
00001000
00010000
,
00001000
00000000
00010000
00000010
00010000
00000010
00010000
00000000
00000010
00001000
00000010
00000000
00000100
00000001
00000100
00000000
,
00000001
00000010
00000001
00000010
00000001
00000000
00000010
00001000
00000010
00001000
00000010
00000000
00001000
00010000
00001000
00010000
,
00001000
00000000
00010000
01000000
00010000
01000000
00010000
00000000
10000000
00010000
10000000
00000000
00100000
01000000
00100000
00000000
,
10000000
00100000
10000000
00100000
10000000
00000000
00010000
00100000
00010000
00100000
00010000
00000000
00001000
00010000
00001000
00010000
,
00001000
00000000
00010000
00000010
00010000
00000010
00010000
00000000
00000010
00001000
00000010
00000000
00000100
00000001
00000100
00000000
,
00000001
00000000
00000100
00000000
00001000
00000000
00020000
00000000
00000000
00000000
00000000
00000000
00130000
00000000
00010000
10000000
,
00010000
00000000
00000000
00000000
01000000
00020000
20000000
00000000
00000000
00000000
00000000
00000000
30030000
00000000
00000000
00000000
,
00010000
00001000
00010000
00001000
00010000
00000000
00000100
00001000
00000100
00001000
00000010
00000000
00001000
00000001
00001000
00000001
,
00000100
00000000
00000010
00000100
00000010
00000100
00000010
00000000
00001000
00000100
00010000
00001000
00010000
00001000
00010000
00000000
,
00001000
00100000
00001000
00100000
00010000
00000000
01000000
00100000
01000000
00100000
10000000
00000000
00100000
01000000
00100000
01000000
,
00010000
00000000
00001000
00010000
00001000
00010000
00001000
00000000
00000100
00000010
00000100
00000010
00000001
00001000
00000001
00000000
,
00000100
00000010
00001000
00000010
00000100
00000000
00000001
00000010
00000100
00001000
00000100
00000000
00010000
00001000
00100000
00001000
,
00010000
00000000
00100000
01000000
10000000
00100000
01000000
00000000
00010000
10000000
01000000
00100000
01000000
10000000
00100000
01000000
,
00010000
00000000
00000000
00000000
00100000
00000000
00202000
00000000
00000000
00000000
00000000
00000000
00303000
00000000
00010000
00001000
,
00000100
00000000
00000000
00000000
00000010
00000200
00000020
00000000
00000000
00000000
00000000
00000000
00000330
00000000
00000000
00000000
,
00001001
00000000
00000000
00000000
,
00000000
00000000
00000000
00000000
,
10000000
00000000
01000000
00000000
00010000
00000000
00001000
00000000
00000010
00000000
00000001
00000000
,
00000100
00000000
00000000
00000010
00000000
00000000
00001000
00000000
00000000
00000000
00000000
00000000
00000000
00000010
00000000
00000000
00000000
00010000
00000000
00000000
00000000
00000000
00000000
00000000
00000000
00000000
00001000
00000000
00000000
00000000
00000000
01000000
,
00000000
00000000
00000000
00000000
00000000
00000000
00000000
00000000
00010000
00000000
00000000
00000000
00000000
00000000
00000000
10000000
00000000
00000000
01000000
00000000
00000000
01100000
00000000
00000000
00000000
00000000
00000000
00000000
00000000
00000000
00000000
00000000
;
