#TITLE:dirty digital(Fred-Special);
#ARTIST:kors k;
#BANNER:dirty digital(Fred-Special).png;
#BACKGROUND:dirty digital(Fred-Special)-bg.png;
#CDTITLE:./CDTitles/DDR UNIVERSE3.png;
#MUSIC:dirty digital(Fred-Special).ogg;
#SAMPLESTART:29.16;
#SAMPLELENGTH:15;
#DISPLAYBPM:140;
#BPMS:0=140,108.5=280,113=140,113.5=70,114=140,115=280,115.5=140,115.75=70,116=140;
#STOPS:108.5=0.161,109.250=0.161,110=0.161,110.75=0.161,111.5=0.106;
#BGSTAGE:29;

//--------------- dance-single - Fred-104 ----------------
#NOTES:
     dance-single:
     Fred-104:
     Challenge:
     15:
     :
0000
0000
0000
0000
,
0000
0000
0000
0000
,
0000
0000
0000
0000
,
0000
0000
0000
0000
,
0000
0000
0000
0000
,
1000
0010
0100
0010
0000
1000
0100
0010
,
0000
0001
1000
0010
0100
0001
1000
0001
,
1000
0100
0001
1000
0000
0010
0001
1000
,
0001
0100
0010
1000
2002
0000
3003
0000
,
1000
0010
0001
0100
,
1000
0100
0001
0010
,
1000
0001
0100
1000
,
0001
0010
1000
0001
,
1000
1100
0100
0110
0010
0011
0001
0101
,
0100
0110
0010
1010
1000
1001
0001
0100
,
0001
0000
0010
0001
0000
0100
0001
0000
0100
0010
0000
1000
0100
0000
0010
0001
0000
1000
0010
0000
0100
0001
0000
1000
,
0001
0100
0001
0100
0001
0100
0001
0100
0010
1000
0000
0000
2002
0000
0000
0000
0000
0000
3003
0000
0000
0000
0000
0000
,
1000
0000
0010
0000
0000
0100
0000
0000
0001
0010
0000
0100
0000
1000
0001
0000
,
0100
0000
0001
0000
1000
0000
0100
0010
0100
0001
0000
0100
0000
0010
0001
0000
,
1000
0000
0001
0000
0000
0100
0000
0000
1000
0100
0000
0010
0000
1000
0100
0000
,
0010
0000
0001
0000
1000
0010
0100
0010
0000
0001
0010
0000
0100
0000
0001
1000
,
0001
0000
0101
0000
0000
1001
0000
0000
0001
0010
0000
0110
0000
0100
1000
0000
,
0002
0000
0100
0000
0103
0000
0001
0010
0100
1000
0000
0010
0000
0100
1000
0000
,
0100
0000
0101
0000
0000
0011
0000
0000
0010
0100
0000
1100
0000
0000
1010
0000
,
1001
0000
0000
0000
0000
0000
0000
0000
0000
0000
0000
0000
0000
0000
0000
0000
0000
0000
0000
0000
0000
0000
0000
0000
0000
0000
0000
0000
0000
0000
0000
0000
0000
0000
0000
0000
0000
0000
0000
0000
0000
0000
0000
0000
0000
0000
0000
0000
1000
0000
0000
0000
0000
0000
0000
0000
0010
0000
0000
0000
0000
0000
0000
0000
0100
0000
0000
0000
0000
0000
0000
0000
0010
0000
0000
0000
0000
0000
0000
0000
0000
0000
0000
0000
0000
0000
0000
0000
0000
0000
0000
0000
0000
0000
0000
0000
0000
0000
0000
0000
0000
0000
0000
0000
0000
0000
0000
0000
0000
0000
0000
0000
0000
0000
0000
0000
0000
0000
0000
0000
0110
0000
0000
0000
0000
0000
0000
0000
0000
0000
0000
0000
0000
0000
0000
0000
0000
0000
0000
0000
0000
0000
0000
0000
0000
0000
0000
0000
0000
0000
0000
0000
0000
0000
0000
0000
0000
0000
0000
0000
0000
0000
0000
0000
0000
0000
0000
0000
0001
0000
0000
0000
0000
0000
0000
0000
0000
0000
0000
0000
0200
0300
0000
0000
0000
0000
0000
0000
0000
0000
0000
0000
,
0200
0300
0000
0000
0000
0000
0000
0000
0000
0000
0000
0000
0000
0000
0000
0000
0000
0000
0000
0000
0000
0000
0000
0000
1000
0000
0000
0000
0000
0000
0000
0000
0000
0000
0000
0000
0000
0000
0000
0000
0000
0000
0000
0000
0000
0000
0000
0000
0001
0000
0000
0000
0000
0000
0000
0000
0000
0000
0000
0000
0100
0000
0000
0000
0000
0000
0000
0000
0000
0000
0000
0000
0000
0000
0000
0000
0000
0000
0000
0000
0000
0000
0000
0000
0010
0000
0000
0000
0000
0000
0000
0000
0000
0000
0000
0000
0100
0000
0000
0000
0000
0000
0000
0000
0000
0000
0000
0000
0001
0000
0000
0000
0000
0000
0000
0000
0000
0000
0000
0000
0010
0000
0000
0000
0000
0000
0000
0000
0000
0000
0000
0000
0100
0000
0000
0000
0000
0000
0000
0000
0000
0000
0000
0000
0000
0000
0000
0000
0000
0000
0000
0000
0000
0000
0000
0000
1000
0000
0000
0000
0000
0000
0000
0000
0000
0000
0000
0000
0100
0000
0000
0000
0000
0000
0000
0000
0000
0000
0000
0000
0000
0000
0000
0000
0000
0000
0000
0000
0000
0000
0000
0000
,
1100
0000
0100
0000
0110
0000
0010
1000
0010
0001
0000
0010
0000
0100
0010
0000
,
0000
0000
0000
0000
0000
0000
0000
0000
0000
0000
0000
0000
0000
0000
0000
0000
0000
0000
0000
0000
0000
0000
0000
0000
2200
3300
0000
0000
0000
0000
0000
0000
0000
0000
0000
0000
0000
0000
0000
0000
0000
0000
0000
0000
0000
0000
0000
0000
0000
0000
0000
0000
0000
0000
0000
0000
0000
0000
0000
0000
0202
0303
0000
0000
0000
0000
0000
0000
0000
0000
0000
0000
0000
0000
0000
0000
0000
0000
0000
0000
0000
0000
0000
0000
0000
0000
0000
0000
0000
0000
0000
0000
0000
0000
0000
0000
2020
3030
0000
0000
0000
0000
0000
0000
0000
0000
0000
0000
0000
0000
0000
0000
0000
0000
0000
0000
0000
0000
0000
0000
0000
0000
0000
0000
0000
0000
0000
0000
0000
0000
0000
0000
0022
0033
0000
0000
0000
0000
0000
0000
0000
0000
0000
0000
0000
0000
0000
0000
0000
0000
0000
0000
0000
0000
0000
0000
0000
0000
0000
0000
0000
0000
0000
0000
0000
0000
0000
0000
0220
0330
0000
0000
0000
0000
0000
0000
0000
0000
0000
0000
0000
0000
0000
0000
0000
0000
0000
0000
0000
0000
0000
0000
,
2002
0000
0000
0000
0000
0000
0000
0000
0000
0000
0000
0000
0000
0000
0000
0000
0000
0000
0000
0000
0000
3003
0000
0000
0001
0000
0000
0000
0000
0000
1000
0000
0010
0000
0100
0000
0002
0000
0000
0000
0000
0000
0000
0000
0000
0000
0000
0000
,
1003
0000
0100
0010
0000
0001
0000
1000
0001
0010
0100
0001
0000
1000
0010
0000
,
0100
0000
1000
0000
1001
0000
1000
0001
0100
0001
0000
0100
0000
0010
0100
0000
,
0001
0000
0100
0000
1000
0100
0000
0010
1000
0100
1000
0001
0000
0100
0010
0000
,
1020
0000
0000
1000
0000
0001
0030
0000
,
1000
0010
0000
0010
0100
0000
0001
0010
0000
0100
1000
0000
0010
0000
0100
0001
,
0000
1000
0100
0000
0010
0000
0100
1000
0000
0010
0100
0000
0010
0000
1000
0010
,
0000
0100
0010
0000
1000
0000
0001
0010
0000
0100
0010
0000
0001
0000
1000
0001
,
0000
0100
0001
0000
1000
0000
0001
0010
0100
1000
0010
0100
0001
1000
0001
0100
,
0000
1000
0100
0000
0001
0000
1000
0100
0000
0001
0100
0000
1000
0000
0010
0100
,
0000
1000
0100
0000
0010
0000
1000
0010
0000
0001
0010
0000
0100
0000
0001
0010
,
0000
1000
0010
0000
0100
0000
1000
0010
0000
0100
0001
0000
1000
0000
0010
0000
,
1010
0000
0000
0101
0000
0000
1100
0000
0000
0000
0011
0000
0000
1010
0000
0000
,
0001
0100
0010
0000
1000
0000
0001
0010
0100
1000
0010
0000
0100
0000
0001
1000
,
0100
1000
0010
0000
0100
0000
0001
0100
1000
0100
0001
0000
1000
0000
0010
0100
,
0001
1000
0100
0000
0010
0000
0001
0010
1000
0010
0100
0000
0010
0000
1000
0010
,
0100
1000
0100
0000
0001
0000
1000
0100
0010
0100
0001
0100
0010
0100
1000
0001
,
0100
0001
1000
0000
0001
0100
0010
1000
0010
0100
0001
0000
1000
0100
0010
0100
,
1000
0001
0100
0000
0010
1000
0001
0010
0100
1000
0001
0000
1000
0100
0010
1000
,
0001
0100
0010
0000
0001
0100
0010
0001
1000
0100
0010
0000
1000
0001
0100
0010
,
1010
0000
0000
0011
0000
0000
1100
0000
0000
0000
0101
0000
0000
0000
0100
0010
,
1001
0000
0000
0000
;

//--------------- dance-double - Fred-104 ----------------
#NOTES:
     dance-double:
     Fred-104:
     Challenge:
     15:
     :
00000000
00000000
00000000
00000000
,
00000000
00000000
00000000
00000000
,
00000000
00000000
00000000
00000000
,
00000000
00000000
00000000
00000000
,
00000000
00000000
00000000
00000000
,
00001000
00000001
00001000
00000010
00000100
00000010
00001000
00000001
,
00000100
00001000
00010000
01000000
00100000
00010000
10000000
00000000
,
00010000
01000000
00100000
10000000
00000000
00100000
01000000
00100000
,
00010000
00001000
00000100
00000010
00000220
00000000
00000330
00000000
,
00001000
00000010
00000001
00000100
,
00001000
00000001
00000100
00001000
,
00010000
00100000
01000000
00010000
,
10000000
01000000
00010000
00001000
,
00001000
00011000
00001000
00101000
00001000
01001000
01000000
01100000
,
00100000
10100000
10000000
11000000
01000000
01010000
00010000
00011000
,
00010000
00000000
00001000
00010000
00000000
00000100
00001000
00000000
00000010
00000100
00000000
00000001
00001000
00000000
00000100
00000010
00000000
00000001
00000100
00000000
00000010
00001000
00000000
00000100
,
00010000
00001000
00010000
00001000
00010000
00001000
00010000
00001000
00010000
00001000
00000000
00000000
00022000
00000000
00000000
00000000
00000000
00000000
00033000
00000000
00000000
00000000
00000000
00000000
,
00001000
00000000
00100000
00000000
00000000
01000000
00000000
00000000
00100000
00010000
00000000
10000000
00000000
00100000
01000000
00000000
,
00010000
00000000
10000000
00000000
00100000
00000000
01000000
00100000
10000000
00100000
00000000
00100000
00000000
00010000
10000000
00000000
,
01000000
00000000
00100000
00000000
00000000
00001000
00000000
00000000
00010000
00000100
00000000
00001000
00000000
00000000
00000010
00000000
,
00001000
00000000
00000100
00000000
00000010
00000001
00001000
00000001
00000000
00000100
00000010
00000000
00001010
00000000
00000001
00001000
,
00000001
00000000
00000100
00000000
00000000
00001000
00000000
00000000
00010000
00000010
00000000
00001000
00000000
00000010
00010000
00000000
,
00002000
00000000
00100000
00000000
00013000
00000000
00001000
00100000
00010000
00100000
00000000
01000000
00000000
10000000
00100000
00000000
,
00010000
00000000
00001000
00000000
00000000
00000100
00000000
00000000
00000010
00001000
00000000
00000100
00000000
00000000
00000010
00000000
,
00001001
00000000
00000000
00000000
00000000
00000000
00000000
00000000
00000000
00000000
00000000
00000000
00000000
00000000
00000000
00000000
00000000
00000000
00000000
00000000
00000000
00000000
00000000
00000000
00000000
00000000
00000000
00000000
00000000
00000000
00000000
00000000
00000000
00000000
00000000
00000000
00000000
00000000
00000000
00000000
00000000
00000000
00000000
00000000
00000000
00000000
00000000
00000000
00000001
00000000
00000000
00000000
00000000
00000000
00000000
00000000
00000100
00000000
00000000
00000000
00000000
00000000
00000000
00000000
00000001
00000000
00000000
00000000
00000000
00000000
00000000
00000000
00001000
00000000
00000000
00000000
00000000
00000000
00000000
00000000
00000000
00000000
00000000
00000000
00000000
00000000
00000000
00000000
00000000
00000000
00000000
00000000
00000000
00000000
00000000
00000000
00000000
00000000
00000000
00000000
00000000
00000000
00000000
00000000
00000000
00000000
00000000
00000000
00000000
00000000
00000000
00000000
00000000
00000000
00000000
00000000
00000000
00000000
00000000
00000000
00000110
00000000
00000000
00000000
00000000
00000000
00000000
00000000
00000000
00000000
00000000
00000000
00000000
00000000
00000000
00000000
00000000
00000000
00000000
00000000
00000000
00000000
00000000
00000000
00000000
00000000
00000000
00000000
00000000
00000000
00000000
00000000
00000000
00000000
00000000
00000000
00000000
00000000
00000000
00000000
00000000
00000000
00000000
00000000
00000000
00000000
00000000
00000000
00001000
00000000
00000000
00000000
00000000
00000000
00000000
00000000
00000000
00000000
00000000
00000000
00000200
00000300
00000000
00000000
00000000
00000000
00000000
00000000
00000000
00000000
00000000
00000000
,
00000200
00000300
00000000
00000000
00000000
00000000
00000000
00000000
00000000
00000000
00000000
00000000
00000000
00000000
00000000
00000000
00000000
00000000
00000000
00000000
00000000
00000000
00000000
00000000
00000001
00000000
00000000
00000000
00000000
00000000
00000000
00000000
00000000
00000000
00000000
00000000
00000000
00000000
00000000
00000000
00000000
00000000
00000000
00000000
00000000
00000000
00000000
00000000
00000010
00000000
00000000
00000000
00000000
00000000
00000000
00000000
00000000
00000000
00000000
00000000
00000100
00000000
00000000
00000000
00000000
00000000
00000000
00000000
00000000
00000000
00000000
00000000
00000000
00000000
00000000
00000000
00000000
00000000
00000000
00000000
00000000
00000000
00000000
00000000
00001000
00000000
00000000
00000000
00000000
00000000
00000000
00000000
00000000
00000000
00000000
00000000
00010000
00000000
00000000
00000000
00000000
00000000
00000000
00000000
00000000
00000000
00000000
00000000
00100000
00000000
00000000
00000000
00000000
00000000
00000000
00000000
00000000
00000000
00000000
00000000
00000000
00000000
00000000
00000000
00000000
00000000
00000000
00000000
00000000
00000000
00000000
00000000
01000000
00000000
00000000
00000000
00000000
00000000
00000000
00000000
00000000
00000000
00000000
00000000
00000000
00000000
00000000
00000000
00000000
00000000
00000000
00000000
00000000
00000000
00000000
00000000
00010000
00000000
00000000
00000000
00000000
00000000
00000000
00000000
00000000
00000000
00000000
00000000
10000000
00000000
00000000
00000000
00000000
00000000
00000000
00000000
00000000
00000000
00000000
00000000
00000000
00000000
00000000
00000000
00000000
00000000
00000000
00000000
00000000
00000000
00000000
00000000
,
01000000
00000000
00100000
00000000
00110000
00000000
00010000
00100000
01000000
00010000
01000000
00100000
00000000
00010000
10000000
00000000
,
00000000
00000000
00000000
00000000
00000000
00000000
00000000
00000000
00000000
00000000
00000000
00000000
00000000
00000000
00000000
00000000
00000000
00000000
00000000
00000000
00000000
00000000
00000000
00000000
22000000
33000000
00000000
00000000
00000000
00000000
00000000
00000000
00000000
00000000
00000000
00000000
00000000
00000000
00000000
00000000
00000000
00000000
00000000
00000000
00000000
00000000
00000000
00000000
00000000
00000000
00000000
00000000
00000000
00000000
00000000
00000000
00000000
00000000
00000000
00000000
02020000
03030000
00000000
00000000
00000000
00000000
00000000
00000000
00000000
00000000
00000000
00000000
00000000
00000000
00000000
00000000
00000000
00000000
00000000
00000000
00000000
00000000
00000000
00000000
00000000
00000000
00000000
00000000
00000000
00000000
00000000
00000000
00000000
00000000
00000000
00000000
00022000
00033000
00000000
00000000
00000000
00000000
00000000
00000000
00000000
00000000
00000000
00000000
00000000
00000000
00000000
00000000
00000000
00000000
00000000
00000000
00000000
00000000
00000000
00000000
00000000
00000000
00000000
00000000
00000000
00000000
00000000
00000000
00000000
00000000
00000000
00000000
00002020
00003030
00000000
00000000
00000000
00000000
00000000
00000000
00000000
00000000
00000000
00000000
00000000
00000000
00000000
00000000
00000000
00000000
00000000
00000000
00000000
00000000
00000000
00000000
00000000
00000000
00000000
00000000
00000000
00000000
00000000
00000000
00000000
00000000
00000000
00000000
00000022
00000033
00000000
00000000
00000000
00000000
00000000
00000000
00000000
00000000
00000000
00000000
00000000
00000000
00000000
00000000
00000000
00000000
00000000
00000000
00000000
00000000
00000000
00000000
,
00002002
00000000
00000000
00000000
00000000
00000000
00000000
00000000
00000000
00000000
00000000
00000000
00000000
00000000
00000000
00000000
00000000
00000000
00000000
00000000
00000000
00003003
00000000
00000000
00000001
00000000
00000000
00000000
00000000
00000000
00000100
00000000
00000010
00000000
00001000
00000000
00000200
00000000
00000000
00000000
00000000
00000000
00000000
00000000
00000000
00000000
00000000
00000000
,
00000310
00000000
00000001
00000000
00001000
00000010
00000000
00010000
00001000
00010000
00000000
00100000
00000000
01000000
00010000
00000000
,
10000000
00000000
01000000
00000000
01100000
00000000
10000000
01000000
10000000
00100000
01000000
00010000
00000000
10000000
01000000
00000000
,
00100000
00000000
00010000
00000000
00100000
01000000
00000000
00010000
00001000
00000010
00000000
00000100
00000000
00001000
00000010
00000000
,
00002010
00000000
00000000
00000010
00000000
00010000
00003000
00000000
,
00001000
00100000
00000000
00000000
00010000
00000000
01000000
00100000
00000000
10000000
00100000
00000000
01000000
00000000
00010000
10000000
,
00000000
01000000
10000000
00000000
01000000
00000000
00100000
00010000
00000000
01000000
00010000
00000000
00100000
00000000
00001000
00010000
,
00000000
00000010
00001000
00000000
00000001
00000000
00000100
00001000
00000000
00000100
00000010
00000000
00001000
00000000
00000100
00000001
,
00000000
00000100
00001000
00000000
00000001
00000000
00000100
00000010
00000100
00000001
00000010
00000100
00001000
00000001
00000100
00000000
,
00000010
00000000
00000010
00000000
00001000
00000000
00000001
00000010
00000000
00000100
00010000
00000000
00001000
00000000
00010000
00000100
,
00000000
00001000
00000010
00000000
00010000
00000000
00001000
00100000
00000000
00001000
00010000
00000000
00001000
00000000
01000000
00010000
,
00000000
00100000
00001000
00000000
01000000
00000000
00010000
00100000
00000000
01000000
10000000
00000000
00010000
00000000
00100000
00000000
,
01100000
00000000
00000000
11000000
00000000
00000000
01010000
00000000
00000000
00000000
00011000
00000000
00000000
00001010
00000000
00000000
,
00000001
00000100
00000010
00000000
00001000
00000000
00000001
00000010
00000000
00001000
00010000
00000000
00001000
00000000
00000100
00000001
,
00000000
00001000
00000010
00000000
00010000
00000000
00000100
00010000
00000000
00001000
01000000
00000000
00001000
00000000
00010000
00001000
,
00000100
00000010
00010000
00000000
00001000
00000000
00000010
00000100
00000000
00010000
00001000
00000000
00010000
00000000
01000000
00100000
,
00000000
00010000
10000000
00000000
00010000
00000000
10000000
00100000
00010000
00001000
01000000
00010000
00100000
00001000
00010000
00000000
,
00001000
00010000
00000010
00000000
00001000
00000000
00000100
00001000
00000001
00000010
00001000
00000000
00000001
00000000
00000100
00000010
,
00000001
00001000
00000100
00000000
00001000
00000000
00000001
00000100
00000010
00000100
00001000
00000000
00010000
00000000
00100000
01000000
,
00010000
10000000
01000000
00000000
00100000
00000000
00010000
01000000
10000000
01000000
00100000
10000000
01000000
00100000
00010000
00000000
,
11000000
00000000
00000000
01010000
00000000
00000000
00011000
00000000
00000000
00000000
00001010
00000000
00000000
00000000
00000001
00001000
,
00001001
00000000
00000000
00000000
;
