#TITLE:cloche;
#ARTIST:Qrispy Joybox;
#BANNER:cloche.png;
#BACKGROUND:cloche-bg.png;
#CDTITLE:./CDTitles/APPEND TRAVEL.png;
#MUSIC:cloche.ogg;
#SAMPLESTART:65.921;
#SAMPLELENGTH:15;
#BPMS:0=182;
#BGSTAGE:16;

//--------------- dance-single - Fred-104 ----------------
#NOTES:
     dance-single:
     Fred-104:
     Beginner:
     3:
     :
0000
0000
0000
0000
,
0000
0000
0000
0000
,
0000
0000
0000
0000
,
0000
0000
0000
0000
,
0000
0000
0000
0000
,
1000
0000
0000
0000
,
0000
0000
0000
0000
,
0001
0000
0000
0000
,
0000
0000
0000
0000
,
1000
0000
0000
0000
,
0001
0000
0000
0000
,
2000
0000
0000
0000
0000
0000
0000
3000
,
0000
0000
0000
0000
,
0001
0000
0000
0000
,
0010
0000
0000
0000
,
0002
0000
0000
0000
0000
0000
0000
0003
,
0000
0000
0000
0000
,
1000
0000
0000
0000
,
0100
0000
0000
0000
,
2000
0000
0000
0000
,
0000
0000
0000
3000
,
1000
0000
0000
0000
,
0001
0000
0000
0000
,
0010
0000
0000
0000
0000
0000
0000
2002
,
0000
0000
0000
3003
,
1000
0000
0000
0000
,
0010
0000
0000
0000
,
1000
0000
0000
0000
,
0001
0000
0000
0000
,
1000
0000
0000
0000
,
0010
0000
0000
0000
,
1000
0000
0000
0000
0000
0000
0000
2002
,
0000
0000
0000
3003
,
1000
0000
0000
0000
,
0010
0000
0000
0000
,
0001
0000
0000
0000
,
0100
0000
0000
0000
,
1000
0000
0000
0000
,
0001
0000
0000
0000
,
1000
0000
0000
0000
0000
0000
0000
2002
,
0000
0000
0000
3003
,
0001
0000
0000
0000
,
1000
0000
0000
0000
,
0001
0000
0000
0000
,
0100
0000
0000
0000
,
0010
0000
0000
0000
,
1000
0000
0000
0000
,
0001
0000
0000
0000
0000
0000
0000
2002
,
0000
0000
0000
0000
,
0000
0000
3003
0000
,
1000
0000
0000
0000
,
0010
0000
0000
0000
,
1000
0000
0000
0000
,
0100
0000
0000
0000
,
1000
0000
0000
0000
,
0001
0000
0000
0000
,
1000
0000
0000
0000
0000
0000
0000
2002
,
0000
0000
0000
3003
,
0001
0000
0000
0000
,
0010
0000
0000
0000
,
0100
0000
0000
0000
,
1000
0000
0000
0000
,
0001
0000
0000
0000
,
0100
0000
0000
0000
,
0010
0000
0000
0000
0000
0000
0000
2002
,
0000
0000
0000
3003
,
0001
0000
0000
0000
,
0000
0000
0000
0000
,
1000
0000
0000
0000
,
0000
0000
0000
0000
,
0001
0000
0000
0000
,
1000
0000
0000
0000
,
0001
0000
0000
0000
,
0000
0000
0000
0000
,
1000
0000
0000
0000
,
0001
0000
0000
0000
,
1000
0000
0000
0000
,
0100
0000
0000
0000
,
1000
0000
0000
0000
,
0001
0000
0000
0000
,
1000
0000
0000
0000
,
0000
0000
0000
0000
,
0000
0000
0000
0000
,
1001
0000
0000
0000
;

//--------------- dance-single - Fred-104 ----------------
#NOTES:
     dance-single:
     Fred-104:
     Easy:
     6:
     :
0000
0000
0000
0000
,
0000
0000
0000
0000
,
0000
0000
0000
0000
,
0000
0000
0000
0000
,
0000
0000
0000
0000
,
1000
0000
0000
0010
0000
0000
0000
1000
,
0000
0000
0000
0100
0000
0000
0100
0000
,
1000
0000
0000
0001
0000
0000
0000
2002
,
0000
0000
0000
3003
,
0001
0000
0000
0000
0010
0000
0000
0001
,
0000
0000
0000
1000
0000
0000
0000
0001
,
0000
0000
0100
0000
0010
0000
0000
0220
,
0000
0000
0000
0330
,
1000
0000
0000
0000
0010
0000
0000
1000
,
0000
0000
0000
0100
0000
0000
0000
1000
,
0000
0000
0001
0000
1000
0000
0000
2002
,
0000
0000
0000
0000
0000
3003
0000
0000
,
1000
0100
0000
0001
,
0000
0001
0000
0100
,
1000
0000
0000
1000
0000
0000
0000
2002
,
0000
0000
0000
3003
,
0001
0100
0000
1000
,
0000
1000
0000
0100
,
0001
0000
0000
0000
1000
0000
0000
2002
,
0000
0000
0000
3003
,
1000
0000
0010
0000
1000
0000
0000
0010
,
0000
0010
0000
0100
0000
0000
0001
0000
,
0010
0000
0001
0000
0010
0000
0000
2002
,
0000
0000
0000
3003
,
1000
0000
0010
0000
1000
0000
0000
0100
,
0000
0100
0000
1000
0000
0000
0001
0000
,
0100
0000
0010
0000
0100
0000
0000
2002
,
0000
0000
0000
3003
,
0001
0001
0100
0100
,
0001
0000
0000
0010
0000
0000
0001
0000
,
0100
0000
0100
0000
0010
0000
0000
0220
,
0000
0000
0330
0000
,
1000
0100
1000
0000
,
0010
0000
0000
0100
0000
0000
0010
0000
,
0100
0000
0001
0000
0010
0000
0000
2002
,
0000
0000
0000
3003
,
0002
0000
0010
0000
0013
0000
0000
0001
,
0000
0000
0000
1000
0000
0000
0010
0000
,
0200
0000
0010
0000
0310
0000
0000
0100
,
0000
0000
0000
0001
0000
0000
1000
0000
,
0020
0000
0100
0000
0130
0000
0000
0001
,
0000
0000
0000
0100
0000
0000
0001
0000
,
1000
0000
0001
0000
1000
0000
0000
2002
,
0000
0000
0000
0000
,
0000
0000
3003
0000
,
0001
0000
0000
0001
0000
0000
0000
0100
,
0000
0000
0000
0100
0000
0010
0000
0100
,
0000
0000
0000
0010
0000
0000
0000
2002
,
0000
0000
0000
3003
,
1000
0000
0000
0100
0000
0000
0000
1000
,
0000
0000
0000
0010
0000
0100
0000
0010
,
0000
0000
0100
0000
0001
0000
0000
2002
,
0000
0000
0000
0000
0000
3003
0000
0000
,
1000
0000
0010
0000
,
0001
0000
0000
0100
0000
1000
0000
1000
,
0000
0000
0001
0000
0100
0000
0000
2002
,
0000
0000
0000
3003
,
0001
0010
1000
0000
,
0100
0000
0000
0001
0000
1000
0000
0001
,
0000
0000
0100
0000
0010
0000
0000
0220
,
0000
0000
0000
0330
,
1000
0000
0000
0010
0000
0000
0000
1000
,
0000
0000
0000
0001
0000
0000
0100
0000
,
0010
0000
0000
0100
0000
0000
0000
2002
,
0000
0000
0000
3003
,
0001
0000
0000
0100
0000
0000
0000
0001
,
0000
0000
0000
0010
0000
0000
0001
0000
,
0100
0000
0000
0010
0000
1000
0000
2002
,
0000
0000
0000
0000
0000
3003
0000
0000
,
1000
1000
1000
0010
,
0100
0000
0000
0001
0000
1000
0000
0001
,
0000
0010
0001
0100
,
0001
0000
0000
2002
0000
0000
3003
0000
,
0001
0001
0100
0001
,
0010
0000
0000
0100
0000
1000
0000
0010
,
0000
0000
0100
0000
0001
0000
0000
2002
,
0000
0000
0000
0000
,
0000
0000
0000
0000
,
3003
0000
0000
0000
;

//--------------- dance-single - Fred-104 ----------------
#NOTES:
     dance-single:
     Fred-104:
     Medium:
     9:
     :
0000
0000
0000
0000
,
0000
0000
0000
0000
,
0000
0000
0000
0000
,
0000
0000
0000
0000
,
0000
0000
0000
0000
,
1000
0000
0000
0010
0000
0000
0000
1000
,
0000
0000
0000
0001
0000
0100
0010
0000
,
0100
0000
0000
0001
0000
0000
0000
2002
,
0000
0000
0000
3003
,
1000
0000
0100
0000
1000
0000
0000
0010
,
0000
0100
0000
0001
0000
1000
0000
0001
,
0000
0000
0010
0000
0100
0000
0000
1001
,
0000
1000
0001
1000
,
0100
0000
0001
0000
0100
0000
0000
1000
,
0000
0010
0000
0100
0000
0001
0000
1000
,
0000
0000
0001
0000
0100
0000
0000
2002
,
0000
0000
0000
0000
0000
3003
0000
0000
,
0001
0000
0010
0010
0000
0000
0100
0100
,
0000
0000
1000
1000
0000
0001
0100
0000
,
0010
0000
1000
1000
0000
0001
0000
2002
,
0000
0000
0000
3003
,
1000
0000
0010
0010
0000
0000
0100
0100
,
0000
0000
0001
0001
0000
1000
0001
0000
,
0100
0010
0100
0000
0001
0000
0000
2002
,
0000
0000
0000
3003
,
1100
0000
1000
0010
0000
0100
0000
0100
,
0000
0001
0000
1000
0000
0001
0010
0000
,
0011
0000
0001
0100
0010
1000
0000
1001
,
0000
0010
1000
0000
0100
1000
0001
0000
,
0011
0000
0001
0100
0010
1000
0000
0001
,
0000
0001
0000
1000
0000
1000
0010
0000
,
0100
0000
0010
1000
0010
0100
0000
2002
,
0000
0000
0000
3003
,
1000
0100
1000
0000
0001
0100
0000
0001
,
0010
0000
0001
0100
0000
0010
0100
0000
,
0001
0010
0001
0000
1000
0000
0010
0100
,
0000
0010
1000
0000
0001
0000
1000
0000
,
0001
0100
0001
0000
0010
0001
0000
1000
,
0100
0000
1000
0010
0000
0100
0001
0000
,
1000
0001
0010
0000
0001
0000
0000
2002
,
0000
0000
0000
3003
,
2000
0000
0010
0000
3010
0000
0000
0100
,
0000
0001
0000
0010
0000
0001
1000
0000
,
0002
0000
0010
0000
0013
0000
0000
0001
,
0000
1000
0010
1000
0000
0010
0100
0000
,
0020
0000
0100
0000
0130
0000
0000
0010
,
0000
1000
0000
0001
0000
1000
0100
0000
,
0010
0000
0100
0000
1000
0000
0000
2002
,
0000
0000
0000
0000
,
0000
0000
3003
0000
,
1000
0100
1000
0100
0000
0100
0010
0100
,
0000
0100
0010
0001
0000
0001
0100
0001
,
0000
0001
0010
0001
0000
0001
1000
0002
,
0000
0000
0000
0003
,
1000
0010
1000
0010
0000
0010
0100
0010
,
0000
0010
1000
0100
0000
0100
0010
0001
,
0000
0001
0100
0000
0010
0000
0000
2002
,
0000
0000
0000
0000
0000
3003
0000
0000
,
1000
0100
1000
0000
0010
0000
0100
0000
,
0001
0000
0000
0010
0000
0010
0000
0001
,
0000
0000
0100
0000
0010
0000
0000
1001
,
0000
1000
0010
0100
,
0001
0010
0001
0000
1000
0000
0001
0000
,
0100
0000
0000
0010
0000
0010
0000
1000
,
0000
0000
0001
0000
0100
0000
0000
2002
,
0000
0000
0000
3003
,
1000
0000
0000
0100
0000
0001
0000
0100
,
0000
1000
0000
0001
0000
0000
1000
0000
,
0001
0000
0000
0010
0000
0001
0000
2002
,
0000
0000
0000
3003
,
0001
0000
0000
0010
0000
1000
0000
0010
,
0000
0001
0000
1000
0000
0001
0100
0000
,
0010
0000
0000
1000
0000
0100
0000
0220
,
0000
0000
0000
0000
0000
0330
0000
0000
,
0010
0001
0010
0000
0001
0000
0100
0000
,
0001
0000
0000
0010
0000
0010
0000
0001
,
0000
0000
0100
0000
0010
0100
0010
0000
,
1000
0000
0000
2002
0000
0000
3003
0000
,
0001
0100
0001
0000
0100
0000
0010
0000
,
1000
0000
0000
0010
0000
0100
0000
0010
,
0000
0000
1000
0000
0001
0000
0000
2002
,
0000
0000
0000
0000
,
0000
0000
0000
0000
,
3003
0000
0000
0000
;

//--------------- dance-single - Fred-104 ----------------
#NOTES:
     dance-single:
     Fred-104:
     Hard:
     14:
     :
0000
0000
0000
0000
,
0000
0000
0000
0000
,
0000
0000
0000
0000
,
0000
0000
0000
0000
,
0000
0000
0000
0000
,
1000
0010
1000
1100
0000
0110
0000
0011
,
0000
0101
0000
1001
0000
0001
1000
0001
,
0100
0010
1000
1100
0000
0101
0000
2002
,
0000
0000
0000
0000
0000
0000
0000
0000
0000
0000
3003
0000
1000
0001
1000
0001
,
1000
0100
0010
0100
1000
0100
0000
1100
,
0000
1010
0000
0101
0000
0011
0000
1001
,
0000
0001
0100
0010
0100
0001
1000
1002
,
0000
0000
0013
0000
0100
0000
0010
0000
0001
0000
0100
0000
0001
1000
0001
1000
,
0001
1000
0010
0001
0010
0100
0010
1000
,
0000
1100
0000
0101
0000
1010
0000
0011
,
0000
0001
1000
0100
0010
0001
1000
2002
,
0000
0000
0000
0000
0000
0000
0000
0000
3003
0000
0001
1000
0001
1000
0001
1000
,
0001
0010
0100
0001
0000
0100
1000
0001
,
0000
1000
0010
0100
0000
1000
0100
0001
,
0000
1000
0001
0010
0000
0100
1000
2002
,
0000
0000
3003
0000
0001
0000
0000
0000
0010
0000
0100
0000
1000
0010
1000
0010
,
1000
0010
0100
1000
0000
0100
0001
1000
,
0000
0001
0010
0100
0000
0001
0100
0010
,
0000
0001
0010
0100
1000
0001
1000
2002
,
0000
0000
0000
3003
,
1100
0000
0000
0100
0010
0000
0001
0000
1000
0000
0010
0000
0000
0000
1010
0000
,
0000
0000
0101
0000
0000
0000
1100
0000
0000
0000
0001
0010
0001
0000
1000
0000
,
1001
0000
0001
1000
0010
0100
0001
0011
,
0000
0000
0001
0000
0100
0000
0000
0000
0010
0000
1000
0001
1000
0001
1000
0001
,
1000
0000
0001
0010
1000
0010
0001
0101
,
0000
1010
0000
1001
0000
1000
0001
0010
,
0011
0000
0001
0010
0100
1000
0010
2020
,
0000
0000
3030
0000
1000
0001
0100
0010
,
1000
0100
0001
1000
0010
0002
0000
1003
,
0100
0000
0010
0000
0001
0000
0200
0000
0000
0000
0310
0001
0010
0000
0100
0000
,
0001
0010
0100
1000
0010
0100
0001
2001
,
0000
3100
0010
0000
0001
0001
0001
0001
,
1000
0001
0100
1000
0100
0020
0000
1030
,
0001
0000
0010
0000
1000
0000
0020
0000
0000
0000
0130
1000
0100
1000
0100
0000
,
1000
0001
0100
1000
0100
0001
1000
2002
,
0000
0000
0000
3003
,
1000
0001
0010
0100
0010
0001
0100
0110
,
0000
1010
0000
0101
0000
0001
1000
0010
,
1000
0100
1000
0001
0100
0010
1000
1100
,
0000
0100
0010
0001
0000
1000
0001
0010
,
0001
0100
0001
0100
0001
0010
0001
0010
,
0100
1000
0100
1000
0010
1000
0010
1000
,
0100
0010
0001
0100
0010
1000
0001
2002
,
0000
0000
0000
0000
,
0000
0000
3003
0000
,
0001
0100
0010
1010
0000
1000
0100
0110
,
0000
0001
0100
0110
0000
1000
0100
0110
,
0000
0010
0001
0101
0000
0010
1000
1200
,
0000
0000
0310
0000
0100
0000
1000
0000
0010
0000
0100
0000
0001
0100
0001
0100
,
0001
0010
0001
0101
0000
0001
1000
1010
,
0000
1000
0010
0110
0000
0001
0010
0110
,
0000
1000
0010
0001
1000
0100
0001
2002
,
0000
0000
0000
0000
0000
0000
0000
0000
3003
0000
1000
0000
0001
1000
0001
1000
,
0001
0010
0100
1000
0020
1000
0130
0001
,
1000
0001
0100
0110
0000
1010
0000
0101
,
0000
0001
1000
0010
0200
0010
0301
1001
,
0000
0000
0001
0000
0010
0000
0100
0000
1000
0000
0001
0000
0100
0010
0100
0010
,
0100
0001
0010
0001
2000
0010
3001
0100
,
0001
0010
0100
0010
0000
0011
0000
1001
,
0000
1000
0100
0010
0002
0100
1003
2002
,
0000
0000
0000
0000
0000
0000
0000
0000
0000
0000
3003
0000
0001
1000
0001
1000
,
0001
0100
0001
0010
0001
0000
1000
0001
,
0100
0010
1000
0000
0001
0010
0100
1000
,
0010
0100
1000
0100
0010
1000
0001
2002
,
0000
0000
0000
0000
0000
0000
0000
0000
3003
0000
0001
0000
1000
0001
1000
0001
,
1000
0100
0010
0002
0000
0100
0000
2003
,
0000
0010
0000
3200
0000
0310
0001
1000
,
0001
0100
1000
0200
0000
0301
0010
2002
,
0000
0000
0000
0000
0000
0000
0000
0000
3003
0000
1000
0000
0001
1000
0001
1000
,
0001
0100
0010
1000
0001
0100
1000
0100
,
0010
1000
0100
0110
0000
0011
0000
1001
,
0000
1000
0100
0001
0100
0010
0001
1000
,
0010
0000
0001
0000
0010
0000
0200
0000
0000
0000
0000
0000
0301
1000
0001
1000
,
0001
1000
0100
0010
1000
0010
0001
1000
,
0010
0100
1000
0100
0000
0101
0000
1001
,
0000
0001
0010
0100
1000
0001
0100
0220
,
0000
0000
0000
0000
,
0000
0000
0000
0000
,
0330
0000
0000
0000
;

//--------------- dance-double - Fred-104 ----------------
#NOTES:
     dance-double:
     Fred-104:
     Easy:
     6:
     :
00000000
00000000
00000000
00000000
,
00000000
00000000
00000000
00000000
,
00000000
00000000
00000000
00000000
,
00000000
00000000
00000000
00000000
,
00000000
00000000
00000000
00000000
,
00000001
00000000
00000000
00001000
00000000
00000000
00000000
00000010
,
00000000
00000000
00000000
00001000
00000000
00000000
00000001
00000000
,
00000100
00000000
00000000
00000010
00000000
00000000
00000000
00000220
,
00000000
00000000
00000000
00000330
,
00001000
00000000
00000000
00000000
00010000
00000000
00000000
00100000
,
00000000
00000000
00000000
01000000
00000000
00000000
00000000
00010000
,
00000000
00000000
10000000
00000000
01000000
00000000
00000000
02200000
,
00000000
00000000
00000000
03300000
,
10000000
00000000
00000000
00000000
01000000
00000000
00000000
00010000
,
00000000
00000000
00000000
00001000
00000000
00000000
00000000
00010000
,
00000000
00000000
00001000
00000000
00000100
00000000
00000000
00000220
,
00000000
00000000
00000000
00000000
00000000
00000330
00000000
00000000
,
00001000
00000010
00000000
00000001
,
00000000
00000001
00000000
00000001
,
00000010
00000000
00000000
00001000
00000000
00000000
00000000
00002002
,
00000000
00000000
00000000
00003003
,
00001000
00010000
00000000
01000000
,
00000000
00010000
00000000
00001000
,
00010000
00000000
00000000
00000000
00001000
00000000
00000000
00022000
,
00000000
00000000
00000000
00033000
,
00001000
00000000
00010000
00000000
00100000
00000000
00000000
10000000
,
00000000
10000000
00000000
00010000
00000000
00000000
10000000
00000000
,
00100000
00000000
01000000
00000000
00010000
00000000
00000000
00220000
,
00000000
00000000
00000000
00330000
,
01000000
00000000
00100000
00000000
01000000
00000000
00000000
00001000
,
00000000
00001000
00000000
00100000
00000000
00000000
00001000
00000000
,
00010000
00000000
00000010
00000000
00010000
00000000
00000000
00022000
,
00000000
00000000
00000000
00033000
,
00010000
00010000
00000100
00000100
,
00010000
00000000
00000000
00000010
00000000
00000000
00001000
00000000
,
00000100
00000000
00000100
00000000
00000010
00000000
00000000
00000022
,
00000000
00000000
00000033
00000000
,
00000001
00000100
00000001
00000000
,
00000100
00000000
00000000
00000010
00000000
00000000
00001000
00000000
,
00000100
00000000
00010000
00000000
00001000
00000000
00000000
00022000
,
00000000
00000000
00000000
00033000
,
00002000
00000000
00010000
00000000
00013000
00000000
00000000
00001000
,
00000000
00000000
00000000
01000000
00000000
00000000
00010000
00000000
,
00200000
00000000
00010000
00000000
00310000
00000000
00000000
10000000
,
00000000
00000000
00000000
01000000
00000000
00000000
10000000
00000000
,
00020000
00000000
01000000
00000000
01030000
00000000
00000000
10000000
,
00000000
00000000
00000000
00100000
00000000
00000000
00010000
00000000
,
00001000
00000000
00000010
00000000
00000001
00000000
00000000
00002002
,
00000000
00000000
00000000
00000000
,
00000000
00000000
00003003
00000000
,
00000001
00000000
00000000
00000100
00000000
00000000
00000000
00000010
,
00000000
00000000
00000000
00000100
00000000
00001000
00000000
00010000
,
00000000
00000000
00000000
00100000
00000000
00000000
00000000
02200000
,
00000000
00000000
00000000
03300000
,
00010000
00000000
00000000
10000000
00000000
00000000
00000000
01000000
,
00000000
00000000
00000000
00100000
00000000
00001000
00000000
00010000
,
00000000
00000000
00001000
00000000
00000100
00000000
00000000
00000220
,
00000000
00000000
00000000
00000000
00000000
00000330
00000000
00000000
,
00000001
00000000
00001000
00000000
,
00000001
00000000
00000000
00000100
00000000
00000010
00000000
00000100
,
00000000
00000000
00000010
00000000
00010000
00000000
00000000
00022000
,
00000000
00000000
00000000
00033000
,
00001000
00010000
00100000
00000000
,
00010000
00000000
00000000
00001000
00000000
00000010
00000000
00001000
,
00000000
00000000
00010000
00000000
00001000
00000000
00000000
00022000
,
00000000
00000000
00000000
00033000
,
00001000
00000000
00000000
00010000
00000000
00000000
00000000
01000000
,
00000000
00000000
00000000
00100000
00000000
00000000
00010000
00000000
,
10000000
00000000
00000000
00100000
00000000
00000000
00000000
02200000
,
00000000
00000000
00000000
03300000
,
10000000
00000000
00000000
01000000
00000000
00000000
00000000
00100000
,
00000000
00000000
00000000
00001000
00000000
00000000
00010000
00000000
,
00001000
00000000
00000000
00000010
00000000
00000100
00000000
00002200
,
00000000
00000000
00000000
00000000
00000000
00003300
00000000
00000000
,
00000001
00000100
00000001
00000001
,
00000010
00000000
00000000
00000100
00000000
00000100
00000000
00010000
,
00000000
00001000
00010000
00000010
,
00010000
00000000
00000000
00022000
00000000
00000000
00033000
00000000
,
00001000
00001000
00001000
01000000
,
00001000
00000000
00000000
00100000
00000000
00001000
00000000
00010000
,
00000000
00000000
00001000
00000000
00010000
00000000
00000000
00022000
,
00000000
00000000
00000000
00000000
,
00000000
00000000
00000000
00000000
,
00033000
00000000
00000000
00000000
;

//--------------- dance-double - Fred-104 ----------------
#NOTES:
     dance-double:
     Fred-104:
     Medium:
     10:
     :
00000000
00000000
00000000
00000000
,
00000000
00000000
00000000
00000000
,
00000000
00000000
00000000
00000000
,
00000000
00000000
00000000
00000000
,
00000000
00000000
00000000
00000000
,
10000000
00000000
10000000
00010000
00000000
00010000
00000000
01000000
,
00000000
01000000
00000000
00010000
00000000
00100000
01000000
00000000
,
00100000
00000000
00001000
00010000
00000000
00001000
00000000
00022000
,
00000000
00000000
00000000
00033000
,
00000010
00000000
00001000
00000000
00000100
00000000
00000000
00001000
,
00000000
00000001
00000000
00000100
00000000
00000010
00000000
00000100
,
00000000
00000000
00000001
00000000
00000010
00000000
00000000
00001001
,
00000000
00000001
00000100
00001000
,
00010000
00000000
01000000
00000000
00100000
00000000
00000000
00010000
,
00000000
10000000
00000000
00100000
00000000
01000000
00000000
00010000
,
00000000
00000000
00100000
00000000
00001000
00000000
00000000
00022000
,
00000000
00000000
00000000
00000000
00000000
00033000
00000000
00000000
,
01000000
00000000
00010000
00010000
00000000
00000000
00100000
00100000
,
00000000
00000000
00001000
00001000
00000000
00010000
00010000
00000000
,
00000010
00000000
00001000
00001000
00000000
00000001
00000000
00000202
,
00000000
00000000
00000000
00000303
,
00000001
00000000
00000100
00000100
00000000
00000000
00000010
00000010
,
00000000
00000000
00000100
00000100
00000000
00001000
00010000
00000000
,
00100000
01000000
00010000
00000000
10000000
00000000
00000000
22000000
,
00000000
00000000
00000000
33000000
,
01100000
00000000
01000000
00010000
00000000
00001000
00000000
00000010
,
00000000
00000100
00000000
00001000
00000000
00000001
00000100
00000000
,
00000110
00000000
00000001
00000010
00000100
00000010
00000000
00000011
,
00000000
00000100
00001000
00000000
00010000
01000000
10000000
00000000
,
10010000
00000000
10000000
00010000
01000000
00100000
00000000
01000000
,
00000000
00001000
00000000
00010000
00000000
00000100
00010000
00000000
,
00001000
00000000
00000010
00000100
00010000
00001000
00000000
02200000
,
00000000
00000000
00000000
03300000
,
01000000
00010000
00100000
00000000
00001000
00010000
00000000
00000010
,
00001000
00000000
00000100
00010000
00000000
00001000
01000000
00000000
,
00010000
00100000
00001000
00000000
00010000
00000000
00001000
00010000
,
00000000
00000010
00001000
00000000
00000100
00000000
00000010
00000000
,
00000001
00000100
00001000
00000000
00010000
00001000
00000000
00010000
,
01000000
00000000
00100000
00010000
00000000
10000000
00100000
00000000
,
01000000
00001000
00010000
00000000
00001000
00000000
00000000
00022000
,
00000000
00000000
00000000
00033000
,
00020000
00000000
00001000
00000000
00031000
00000000
00000000
00010000
,
00000000
00000010
00000000
00001000
00000000
00000010
00000100
00000000
,
00000002
00000000
00000010
00000000
00000013
00000000
00000000
00000001
,
00000000
00000100
00000010
00000100
00000000
00001000
00010000
00000000
,
00200000
00000000
01000000
00000000
01300000
00000000
00000000
00010000
,
00000000
10000000
00000000
00010000
00000000
10000000
01000000
00000000
,
00100000
00000000
00001000
00000000
00010000
00000000
00000000
00022000
,
00000000
00000000
00000000
00000000
,
00000000
00000000
00033000
00000000
,
00001000
00010000
00100000
01000000
00000000
00001000
00010000
00100000
,
00000000
01000000
00001000
00010000
00000000
00100000
01000000
00001000
,
00000000
00010000
00100000
01000000
00000000
00001000
00010000
00002000
,
00000000
00000000
00000000
00003000
,
00010000
00001000
00000010
00000100
00000000
00010000
00001000
00000010
,
00000000
00000100
00010000
00001000
00000000
00000010
00000100
00010000
,
00000000
00001000
00000010
00000100
00010000
00001000
00010000
00022000
,
00000000
00000000
00000000
00000000
00000000
00033000
00000000
00000000
,
00010000
00001000
00000010
00000000
00000100
00000000
00001000
00000000
,
00010000
00000000
00010000
00100000
00000000
01000000
00000000
00001000
,
00000000
00001000
00010000
00000000
00001000
00000000
00000000
00011000
,
00000000
00010000
00000010
00001000
,
00000010
00001000
00000100
00000000
00010000
00000000
00001000
00000000
,
00100000
00000000
00000000
00010000
00000000
10000000
00000000
00100000
,
00000000
01000000
00001000
00000000
00010000
00000000
00000000
00022000
,
00000000
00000000
00000000
00033000
,
00010000
00000000
00000100
00001000
00000001
00000000
00000100
00000000
,
00000001
00000010
00000100
00000000
00001000
00000100
00000010
00000000
,
00000001
00000100
00001000
00010000
00000000
00100000
00000000
20020000
,
00000000
00000000
00000000
30030000
,
00010000
00000000
00100000
01000000
00000000
00100000
00000000
00001000
,
00000000
00010000
00000000
00000100
00000000
00001000
00000010
00000000
,
00001000
00000000
00000100
00010000
00000000
00001000
00000000
00022000
,
00000000
00000000
00000000
00000000
00000000
00033000
00000000
00000000
,
00001000
00010000
00001000
00000000
00100000
00010000
10000000
00000000
,
00100000
00000000
01000000
00100000
00000000
00100000
00000000
10000000
,
00000000
01000000
00100000
00000000
00001000
00010000
00001000
00000000
,
00010000
00000000
00000000
00022000
00000000
00000000
00033000
00000000
,
00010000
00000010
00010000
00000000
00000010
00001000
00000100
00000000
,
00010000
00000000
00001000
00010000
00000000
00000010
00000000
00001000
,
00000000
00000100
00000010
00000000
00000001
00000000
00000000
00002002
,
00000000
00000000
00000000
00000000
,
00000000
00000000
00000000
00000000
,
00003003
00000000
00000000
00000000
;

//--------------- dance-double - Fred-104 ----------------
#NOTES:
     dance-double:
     Fred-104:
     Hard:
     14:
     :
00000000
00000000
00000000
00000000
,
00000000
00000000
00000000
00000000
,
00000000
00000000
00000000
00000000
,
00000000
00000000
00000000
00000000
,
00000000
00000000
00000000
00000000
,
00010000
00001000
00010000
00000100
00001000
00000001
00000100
00000010
,
00001000
00000010
00000100
00000001
00000010
00001000
00010000
00100000
,
01000000
00010000
10000000
00010000
00000000
01100000
00000000
20020000
,
00000000
00000000
00000000
00000000
00000000
00000000
00000000
00000000
00000000
00000000
30030000
00000000
10000000
01000000
10000000
01000000
,
10000000
00100000
10000000
01000000
00100000
01000000
00000000
11000000
,
00000000
01010000
00000000
00011000
00000000
00001010
00000000
00000011
,
00000000
00000001
00001000
00000010
00000100
00000010
00001000
00001002
,
00000000
00000000
00000013
00000000
00000100
00000000
00000010
00000000
00001000
00000000
00010000
00000000
00100000
01000000
00100000
01000000
,
00010000
10000000
00010000
01000000
00100000
10000000
01000000
00100000
,
00000000
00101000
00000000
00010010
00000000
01001000
00000000
00010100
,
00000000
00010000
00001000
00000100
00000001
00001000
00000100
00000220
,
00000000
00000000
00000000
00000000
00000000
00000000
00000000
00000000
00000330
00000000
00000001
00001000
00000001
00001000
00000001
00001000
,
00000001
00000010
00000100
00001000
00000000
00000010
00000100
00001000
,
00000000
00010000
00001000
00000010
00000000
00001000
00010000
00100000
,
00000000
00010000
00001000
01000000
00000000
00001000
00010000
00022000
,
00000000
00000000
00033000
00000000
00010000
00000000
00000000
00000000
00000100
00000000
00001000
00000000
00000001
00000100
00000001
00000100
,
00000010
00001000
00000100
00000010
00000000
00000001
00000100
00001000
,
00000000
00010000
01000000
00100000
00000000
00010000
10000000
00100000
,
00000000
10000000
01000000
00010000
00001000
00000010
00000001
00002002
,
00000000
00000000
00000000
00003003
,
00000110
00000000
00001000
00000100
00000010
00000001
00000000
00000101
,
00000000
00000000
00001100
00000000
00000000
00000000
00000101
00000000
00000000
00000000
00000001
00000010
00000001
00000000
00000100
00000000
,
00000110
00000000
00000010
00001000
00000100
00010000
00001000
00011000
,
00000000
00000000
00100000
00000000
01000000
00000000
00000000
00000000
00100000
00000000
00010000
10000000
00010000
10000000
00010000
10000000
,
00010000
00000000
10000000
01000000
00010000
01000000
00000000
11000000
,
00000000
00000000
10100000
00000000
00000000
00000000
01010000
00000000
00000000
00000000
00100000
00001000
00100000
00000000
00001000
00000000
,
00011000
00000000
00010000
00001000
00000100
00000001
00001000
00002002
,
00000000
00000000
00000000
00003003
00000001
00000100
00000010
00001000
,
00000001
00000010
00000100
00000010
00000001
00000200
00000000
00001300
,
00010000
00000000
00100000
00000000
01000000
00000000
00020000
00000000
00000000
00000000
10030000
00010000
10000000
00000000
00100000
00000000
,
01000000
00001000
00010000
00000100
00001000
00000100
00000010
00000120
,
00000000
00001030
00000001
00000000
00000100
00000100
00000010
00000010
,
00001000
00000010
00000100
00000001
00001000
00000200
00000000
00010300
,
00000010
00000000
00001000
00000000
00000100
00000000
00020000
00000000
00000000
00000000
00031000
00010000
00001000
00010000
00001000
00000000
,
00100000
00010000
10000000
00010000
01000000
00001000
00010000
00022000
,
00000000
00000000
00000000
00033000
,
00010000
00001000
00010000
00000010
00001000
00000100
00010000
00001000
,
00000000
01001000
00000000
00010100
00000000
00010000
00001000
00000000
,
00100000
00001000
00010000
00001000
00000010
00001000
00010000
00001000
,
00000000
01000000
00010000
00100000
00000000
00001000
00010000
00001000
,
00000010
00000100
00001000
00000100
00001000
00000001
00000100
00000001
,
00000010
00000001
00001000
00000010
00000100
00000001
00000010
00000000
,
00000100
00010000
00001000
00100000
01000000
10000000
00010000
20020000
,
00000000
00000000
00000000
00000000
,
00000000
00000000
30030000
00000000
,
10000000
01000000
00100000
00110000
00000000
00100000
00001000
00011000
,
00000000
00010000
00000100
00001100
00000000
00001000
00000100
00000110
,
00000000
00000001
00000100
00000110
00000000
00001000
00000001
00002001
,
00000000
00000000
00003001
00000000
00000010
00000000
00001000
00000000
00010000
00000000
01000000
00000000
00100000
00010000
10000000
00010000
,
10000000
00100000
10000000
11000000
00000000
01000000
00100000
00101000
,
00000000
00001000
00010000
00010010
00000000
00000010
00001000
00001100
,
00000000
00001000
00000100
00000001
00001000
00000010
00000001
00002002
,
00000000
00000000
00000000
00000000
00000000
00000000
00000000
00000000
00003003
00000000
00001000
00000000
00000010
00000100
00000010
00000100
,
00000010
00001000
00000100
00000010
00000001
00000100
00001000
00010000
,
00000100
00000010
00000001
00001000
00000000
00000110
00000000
00001001
,
00000000
00000001
00000100
00001000
00010000
00100000
01000000
00010000
,
00000000
00000000
10000000
00000000
00010000
00000000
10000000
00000000
01000000
00000000
10000000
00000000
00100000
01000000
00100000
01000000
,
00100000
10000000
01000000
00100000
00010000
01000000
00100000
00010000
,
00001000
00100000
00001000
00010000
00000000
00010010
00000000
00001010
,
00000000
00001000
00000100
00000010
00000001
00000100
00001000
00022000
,
00000000
00000000
00000000
00000000
00000000
00000000
00000000
00000000
00000000
00000000
00033000
00000000
00001000
00010000
00001000
00010000
,
00001000
00010000
00100000
01000000
00000000
00001000
00000000
00010000
,
00000000
00100000
00000000
01000000
00000000
00001000
00010000
00001000
,
00010000
00001000
00000010
00000100
00000000
00010000
00000000
00022000
,
00000000
00000000
00000000
00000000
00000000
00000000
00000000
00000000
00033000
00000000
00001000
00000000
00010000
00001000
00010000
00001000
,
00010000
00000010
00001000
00000100
00010000
00001000
01000000
00010000
,
00100000
00001000
00010000
00001000
00000010
00001000
00010000
00001000
,
00100000
00010000
01000000
00001000
00000000
00010000
00000000
00022000
,
00000000
00000000
00000000
00000000
00000000
00000000
00000000
00000000
00033000
00000000
00010000
00000000
00001000
00010000
00001000
00010000
,
00001000
00010000
00000010
00001000
00000100
00001000
00000001
00000100
,
00000010
00001000
00000100
00000110
00000000
00000011
00000000
00000110
,
00000000
00000001
00001000
00000010
00000100
00001000
00010000
00100000
,
01000000
00000000
00010000
00000000
10000000
00000000
02000000
00000000
00000000
00000000
00000000
00000000
13000000
00010000
10000000
00010000
,
00100000
01000000
10000000
01000000
00010000
01000000
10000000
00100000
,
00010000
00001000
00000100
00000010
00000000
00001010
00000000
00001001
,
00000000
00000001
00000010
00001000
00010000
01000000
10000000
20020000
,
00000000
00000000
00000000
00000000
,
00000000
00000000
00000000
00000000
,
30030000
00000000
00000000
00000000
;
