#TITLE:chrono diver -fragment-;
#ARTIST:猫叉Master feat.三澤 秋;
#ARTISTTRANSLIT:Nekomata Master feat.Aki Misawa;
#GENRE:HEALING DRUM'N'BASS;
#BANNER:chrono diver -fragment-.png;
#BACKGROUND:chrono diver -fragment--bg.png;
#CDTITLE:./CDTitles/bm IIDX 22 PENDUAL.png;
#MUSIC:chrono diver -fragment-.ogg;
#SAMPLESTART:88.22;
#SAMPLELENGTH:15;
#BPMS:0=185;

//--------------- dance-single - Fred-104 ----------------
#NOTES:
     dance-single:
     Fred-104:
     Beginner:
     2:
     :
0000
0000
0000
0000
,
0000
0000
0000
0000
,
0000
0000
0000
0000
,
0000
0000
0000
0000
,
0000
0000
0000
0000
,
0000
0000
0000
0000
,
2000
0000
0000
0000
,
0000
0000
3000
0000
,
0002
0000
0000
0000
,
0000
0000
0003
0000
,
2000
0000
0000
0000
,
0000
0000
3000
0000
,
0002
0000
0000
0000
,
0000
0000
0003
0000
,
1000
0000
0000
0000
,
0001
0000
0000
0000
,
1000
0000
0000
0000
,
0001
0000
0000
0000
,
1000
0000
0000
0000
,
0001
0000
0000
0000
,
1000
0000
0000
0000
,
1001
0000
0000
0000
,
0000
1000
0000
0000
,
0000
0001
0000
0000
,
0000
1000
0000
0000
,
0000
0010
0000
0000
,
0000
0100
0000
0000
,
0000
0001
0000
0000
,
0000
1000
0000
0000
,
0001
0000
0000
0000
,
1000
0000
0000
0000
,
0001
0000
0000
0000
,
0100
0000
0000
0000
,
0100
0000
0000
0000
,
0010
0000
0000
0000
,
0100
0000
0000
0000
,
0010
0000
0000
0000
,
1000
0000
0001
0000
,
2000
0000
0000
0000
,
0000
0000
3000
0000
,
0002
0000
0000
0000
,
0000
0000
0003
0000
,
1000
0000
0000
0000
,
0001
0000
0000
0000
,
0100
0000
0000
0000
,
0100
0000
0000
0000
,
0010
0000
0000
0000
,
0010
0000
0000
0000
,
1000
0000
0000
0000
,
0001
0000
0000
0000
,
1000
0000
0000
0000
,
0001
0000
0000
0000
,
1000
0000
0000
0000
,
1001
0000
0000
0000
,
0001
0000
0000
0000
,
0100
0000
0100
0000
,
0100
0000
0000
0000
,
0010
0000
0000
0000
,
0010
0000
0000
0000
,
1000
0000
0000
0000
,
0001
0000
0000
0000
,
1000
0000
0000
0000
,
0001
0000
0000
0000
,
1000
0000
1000
0000
,
1000
0000
0000
0000
,
0001
0000
0000
0000
,
0100
0000
0000
0000
,
0010
0000
0000
0000
,
0010
0000
0000
0000
,
1000
0000
1000
0000
,
1000
0000
0000
0000
,
0001
0000
0000
0000
,
0001
0000
0000
0000
,
1000
0000
0000
0000
,
0010
0000
0000
0000
,
0100
0000
0000
0000
,
0001
0000
0000
0000
,
0100
0000
0100
0000
,
0100
0000
0000
0000
,
0010
0000
0000
0000
,
1000
0000
0000
0000
,
0001
0000
0000
0000
,
1000
0000
0000
0000
,
0001
0000
0000
0000
,
1001
0000
0000
0000
,
0000
0000
0000
0000
,
0100
0000
0000
0000
,
0000
0000
0000
0000
,
2000
0000
0000
0000
,
0000
0000
3000
0000
,
0001
0000
0000
0000
,
2002
0000
0000
0000
0000
0000
0000
3003
;

//--------------- dance-single - Fred-104 ----------------
#NOTES:
     dance-single:
     Fred-104:
     Easy:
     6:
     :
0000
0000
0000
0000
,
0000
0000
0000
0000
,
0000
0000
0000
0000
,
0000
0000
0000
0000
,
0000
0000
0000
0000
,
0000
0000
0000
0000
,
2000
0000
3000
0000
,
0002
0000
0003
0000
,
2000
0000
3000
0000
,
0020
0000
0030
0000
,
0200
0000
0300
0000
,
0002
0000
0003
0000
,
2000
0000
3000
0000
,
0002
0000
0003
0000
,
1000
0000
1000
0000
,
0010
0000
0010
0000
,
0001
0000
0001
0000
,
0100
0000
0100
0000
,
1000
0000
0001
0000
,
1000
0000
0001
0000
,
1000
1000
0001
0001
,
2002
0000
0000
3003
,
1000
0010
0000
1000
,
0000
0001
0000
1000
,
0000
0001
0000
1000
,
0000
0001
0001
0001
,
0001
0001
0000
0100
,
0000
0010
0000
0100
,
0000
0010
0000
1000
,
0001
0001
0001
0001
,
1000
1000
0000
0010
,
0000
1000
0000
0001
,
0000
0100
0000
0001
,
0000
0100
0100
0100
,
0100
0000
0100
0000
,
0010
0010
0010
0000
,
1000
0000
0001
0000
,
1000
1000
1000
1000
,
1001
0000
0001
0000
,
1000
0000
0010
0000
,
0100
0000
0010
0000
,
0100
0000
0100
0100
,
0200
0000
0300
0000
,
0010
0000
1000
1000
,
0002
0000
0003
0000
,
1000
0000
0100
0100
,
2000
0000
3000
0000
,
0001
0001
1000
1000
,
1001
0000
0001
0000
,
1000
1000
0010
0010
,
0100
0000
0001
0000
,
0100
0100
0010
0010
,
1000
1000
0001
0001
,
2002
0000
0000
3003
,
0020
0000
0030
1000
,
0100
0010
0010
0001
,
2000
3000
0002
0003
,
1000
1000
1000
0001
,
0001
0100
0100
0010
,
0000
1000
1000
0010
,
0100
0000
0001
0000
,
1000
1000
0001
1000
,
0002
0000
0003
0100
,
0010
0010
1000
0010
,
0200
0000
0302
0000
,
1003
0010
0010
0100
,
0001
0000
1000
0000
,
0001
0001
1000
0001
,
1000
0000
0010
1000
,
0010
0010
0100
0001
,
1001
0000
1000
0000
,
0001
0001
1000
0010
,
0100
0100
0100
0110
,
0000
0010
0010
1000
,
0001
0000
1000
0000
,
0001
0001
1000
0001
,
1000
0000
0010
0000
,
1000
1000
0100
1000
,
0001
0000
0100
0000
,
0010
0010
0100
0010
,
0020
0000
2030
0000
,
3002
0000
0023
0000
,
0230
0000
2300
0000
,
3001
0000
1000
0000
0001
1000
0001
0000
,
1001
0000
0000
0000
,
0100
0000
0000
0000
,
1000
0000
0000
0000
,
0010
0000
0000
0000
,
0001
0000
0100
0000
,
1000
0000
0010
0000
,
0001
0000
0100
0000
,
1000
0010
0001
1000
;

//--------------- dance-single - Fred-104 ----------------
#NOTES:
     dance-single:
     Fred-104:
     Medium:
     9:
     :
0000
0000
0000
0000
,
0000
0000
0000
0000
,
0000
0000
0000
0000
,
0000
0000
0000
0000
,
0000
0000
0000
0000
,
0000
0000
0000
0000
,
1000
0000
0000
2000
0000
0000
3000
0000
,
0001
0000
0000
0002
0000
0000
0003
0000
,
0100
0000
0000
0200
0000
0000
0300
0000
,
0010
0000
0000
0020
0000
0000
0030
0000
,
1000
0000
0000
2000
0000
0000
3000
0000
,
0100
0000
0000
0200
0000
0000
0300
0000
,
0010
0000
0000
0020
0000
0000
0030
0000
,
0001
0000
0000
0002
0000
0000
0003
0000
,
1000
0000
0000
2200
0000
0000
3300
0000
,
0001
0000
0000
0202
0000
0000
0303
0000
,
1000
0000
0000
2020
0000
0000
3030
0000
,
0001
0000
0000
0022
0000
0000
0033
0000
,
1000
1000
0010
0010
,
0100
0100
0001
0001
,
1000
0001
1000
0000
0010
0100
0010
0000
,
1001
0000
0000
0000
0000
0100
0010
0000
,
1000
0010
0100
0010
,
1000
0100
0010
0001
,
2000
0000
0000
0001
0000
0000
3001
0000
,
0001
0000
0100
0000
0010
0100
0010
0000
,
1000
0001
0010
0010
,
0100
0010
0010
0001
,
2000
0000
0000
0001
0000
0000
3001
0000
,
1000
0000
0001
0000
0100
0010
1000
0000
,
0001
0010
0010
0100
,
1000
0010
0010
1000
,
0002
0000
0000
1000
0000
0000
1003
0000
,
0001
0000
0100
0000
0010
0100
0010
0000
,
1000
0000
0100
0010
0000
0001
1000
0000
,
0000
1000
0000
0000
0010
0000
0100
0000
,
0001
0000
0000
0100
0000
0000
0010
0100
,
0001
0000
1000
0000
0010
0100
0010
0000
,
1000
0000
0000
0100
0000
0000
0010
0000
,
0000
0001
0000
0000
0100
0000
0010
0000
,
1000
0010
1000
0000
0001
0100
0001
0000
,
1000
0001
0100
0100
,
0110
0000
0000
0000
0000
0000
1000
1000
,
0000
0000
0000
0001
0100
0001
0100
0000
,
0110
0000
0000
0000
0000
0000
0010
0010
,
0000
0000
0000
1000
0100
1000
0100
1000
,
0001
0000
0000
0000
0000
0000
1000
1000
,
0000
0020
0230
0302
,
2003
0000
3001
0100
,
0010
0000
0100
0000
0001
0001
0001
0000
,
0100
0000
0010
0000
1000
1000
1000
0000
,
0010
0000
0100
0000
0001
0001
0001
0000
,
1000
0100
1000
0000
0001
0010
0001
0000
,
1001
0000
0000
0000
0000
0100
0100
0000
,
1200
0000
1300
0010
,
0100
0000
0010
0000
1000
0010
1000
0000
,
0001
0000
0000
0001
1000
0000
0000
1000
,
0010
0100
0010
0000
1000
0000
0100
0000
,
0010
0001
1000
2002
,
3003
0001
0001
0100
,
0001
0000
0010
0001
0010
0000
0001
1000
,
0001
0000
0100
0000
0010
0100
0010
0000
,
1020
0000
0130
0001
,
1000
0000
0001
0000
1000
0100
1000
0000
,
0001
0000
0100
0010
0100
0000
0001
0100
,
0010
0000
1000
0000
0010
1000
0100
0000
,
0010
0000
0010
0000
0001
0000
1000
0001
,
1000
0001
1000
0000
0010
0100
0010
0000
,
0201
0000
0301
0010
,
0100
0000
0010
0000
0001
0010
0001
0000
,
1000
0000
0000
1000
0001
0000
0000
0001
,
0010
0100
0010
0000
0001
0000
0100
0000
,
0010
1000
0001
2002
,
3003
1000
1000
0100
,
1000
0000
0010
1000
0010
0000
1000
0001
,
1000
0000
0100
0000
0010
0100
0010
0000
,
0012
0000
1003
1000
,
0001
0000
1000
0000
0001
0100
0001
0000
,
1000
0000
0100
0010
0100
0000
1000
0100
,
0010
0000
0001
0000
0010
0001
1000
0000
,
0001
0000
0100
1000
,
0010
0000
0001
1000
,
0001
0000
0000
0000
0010
0000
0001
1000
,
0100
0000
0010
0000
0100
1000
0001
0000
,
0002
0000
0103
0000
,
2000
0000
3010
0000
,
0002
0000
0103
0000
,
2000
0000
3010
0000
,
0001
0000
0000
0100
0000
0000
1000
0000
,
0000
0010
0000
0000
0001
0000
0100
0000
,
1000
0010
0001
0100
,
1000
0000
0010
0000
0001
1000
0001
1000
;

//--------------- dance-single - Fred-104 ----------------
#NOTES:
     dance-single:
     Fred-104:
     Hard:
     12:
     :
0000
0000
0000
0000
,
0000
0000
0000
0000
,
0000
0000
0000
0000
,
0000
0000
0000
0000
,
0000
0000
0000
0000
,
0000
0000
0000
0000
,
0002
0000
0000
0023
0000
0000
0000
0000
,
0032
0000
0000
2003
0000
0000
0000
0000
,
3020
0000
0000
0230
0000
0000
0000
0000
,
0302
0000
0000
2003
0000
0000
3020
0000
,
0230
0000
0000
0320
0000
0000
0000
0000
,
2030
0000
0000
3200
0000
0000
0000
0000
,
0320
0000
0000
0032
0000
0000
2003
0000
,
3002
0000
0000
0000
0103
0010
0100
0000
,
0010
0000
0000
1000
0010
0000
0100
0001
,
0000
1000
0000
0001
0100
0000
0010
0000
,
1000
0000
0000
0100
1000
0000
0001
0100
,
0010
0000
1000
0100
0000
0010
0001
0000
,
1000
1000
0010
0010
,
0100
0100
0001
0001
,
1000
0100
1000
0010
0100
0001
1000
0100
,
0010
0000
1000
0000
0010
0001
1000
0000
,
0001
0101
1000
1100
,
0010
0110
0001
1001
,
0001
0000
1000
0100
0000
0010
0100
0000
,
1000
0000
0001
0100
0001
0100
0010
0000
,
1000
1010
0001
0011
,
1000
1100
0001
0101
,
0100
0000
0010
1000
0000
0010
0100
0000
,
0001
0100
0001
0100
0010
1000
0100
0000
,
2000
3200
0320
0230
,
2300
3002
0203
0320
,
1030
0000
0001
0010
0000
0100
1000
0000
,
0001
0100
0010
1000
0100
0100
0100
0000
,
1000
0010
0100
0010
0000
1000
0100
0000
,
0010
0001
0000
1000
0001
0000
0100
0010
,
1000
0000
0001
0010
0000
0010
0100
1000
,
0001
0000
0100
0010
1000
0100
0010
0000
,
0002
0000
0010
0023
0000
0130
0200
0000
,
1300
2000
0000
3010
0100
0000
0001
0000
,
1000
0100
1000
0100
0010
0001
0010
0001
,
1000
0010
0100
0001
1000
0000
1001
0000
,
0001
0000
0001
0000
0100
0000
0010
2000
,
0000
0000
0000
3100
0010
0100
1000
0000
,
0001
0000
0001
0000
1000
0000
0010
0200
,
0000
0000
0000
0301
0100
1000
0100
0010
,
1000
0000
0001
0000
1000
0000
0010
0100
,
0001
0011
0110
1100
,
1001
0010
0100
2000
,
3020
0000
0230
0000
0001
0001
0301
0000
,
0200
0000
0320
0000
1000
1000
1030
0000
,
0002
0000
2003
0000
0100
0100
3100
0000
,
1000
0010
1000
0001
0010
0001
0100
0001
,
0100
0000
0000
0000
0000
0100
0110
0000
,
1100
0000
0100
0000
0010
0001
1000
0001
,
0010
0000
0000
0010
0001
0000
0000
0001
1000
0000
0000
1000
0100
0000
0010
0000
,
0100
0000
1000
0100
0010
0000
0001
0100
,
0010
1000
0001
0000
1000
0100
0010
0001
,
0200
0320
0032
0023
,
0130
0000
0001
0000
1000
0010
0100
0001
,
1000
0000
0100
1000
0100
0000
0100
0010
,
0100
0001
0100
0010
0001
1000
0001
0000
,
1001
0000
1000
0000
0100
1000
0001
0100
,
0010
0000
0000
0010
0100
0000
0000
0100
0001
0000
0000
0001
1000
0000
0100
0000
,
0010
0000
0001
0010
1000
0000
0001
0100
,
2000
3020
0032
2003
,
3001
0000
1000
0010
0100
0000
0001
0100
,
0010
1000
0001
0100
0001
0010
0001
0000
,
1000
0010
0100
0000
0010
1000
0010
0100
,
0001
0000
0000
0001
0010
0000
0000
0010
0100
0000
0000
0100
1000
0000
0000
1000
,
0001
0000
1000
0001
0200
0000
0301
1000
,
0100
1000
0001
0000
0100
0010
1000
0100
,
1100
0101
1010
0011
,
1000
1001
0110
1001
,
0001
0000
1000
0100
0010
0000
0001
0100
,
0010
1000
0010
0100
0001
1000
0100
0000
,
0110
0000
0010
0000
0001
1000
0010
0100
,
0001
0000
0000
0001
0100
0000
0000
0100
1000
0000
0000
1000
0010
0000
0000
0010
,
0001
0000
1000
0001
0010
0000
0001
1000
,
0200
0000
1000
0000
0310
0100
1000
0000
,
0001
0000
0100
0001
1000
0000
0100
0000
,
0010
0001
1000
0000
0010
0000
0100
0000
,
0001
0000
1000
0001
0100
0000
0001
0010
,
0100
0000
1000
0000
0001
1000
1001
0000
,
0001
0001
0100
0100
,
1000
1000
0010
0010
,
0001
0001
0100
0100
,
1000
1000
0010
0010
,
0001
0000
0001
0100
0000
0100
1000
0000
,
1000
0010
0000
0010
0001
0000
0001
0000
,
0100
0100
1000
1000
,
0010
0000
0010
0000
0001
0100
1000
0010
;

//--------------- dance-single - Fred-104† ----------------
#NOTES:
     dance-single:
     Fred-104†:
     Challenge:
     16:
     :
0000
0000
0000
0000
,
0000
0000
0000
0000
,
0000
0000
0000
0000
,
0000
0000
0000
0000
,
0000
0000
0000
0000
,
0000
0000
0000
0000
,
1000
0000
0010
0200
0000
0000
0000
0000
,
0301
0000
0010
0200
0000
0000
0000
0000
,
1300
0000
0000
0000
0001
0000
0200
0000
0000
0000
0000
0000
0000
0000
0310
1000
,
0100
0000
0000
0000
0010
0000
0002
0000
0000
0000
1003
0000
0001
0100
0010
1000
,
0010
0000
1000
1200
0000
0000
0000
0000
,
0310
0000
0001
0201
0000
0000
0000
0000
,
0310
0000
0000
0000
1000
0000
1002
0000
0000
0000
0000
0000
0000
0000
0103
0010
,
1000
0000
0000
0000
0000
0000
0001
0000
0000
0010
0000
0000
0100
0000
0000
1000
0001
1000
0001
0000
0000
0000
0000
0000
,
1001
0000
1000
0100
0001
0000
1000
0010
,
0001
1000
0100
0010
0001
0000
1000
0000
,
1001
0000
0000
0000
1000
0000
0010
0000
0000
0000
0010
0000
0001
0000
1000
0001
,
1000
0000
0000
0000
0010
0000
0100
0000
0001
0000
0000
0000
1000
0100
1000
0100
,
0010
0001
1000
0010
0100
0001
1000
0100
,
0010
0100
1000
0001
0100
0010
1000
0100
,
1000
0100
1000
0100
1000
0010
1000
0010
0100
0001
0100
0001
0010
0001
0010
0001
,
1000
0000
0000
0000
0000
0000
0001
0000
0000
0000
0000
0000
0100
0010
0100
0010
0000
0000
0110
0000
0000
0000
0000
0000
,
1000
0100
1100
0000
0101
0000
1010
0000
,
0011
0000
0110
0010
1010
0010
0100
0000
,
0001
0000
1000
0200
0000
0310
0011
0000
,
0001
0000
0000
0000
0100
0010
1000
0000
0010
0000
0100
0010
0100
0000
0001
0000
,
1001
1100
0101
1010
,
0011
0010
0100
0000
1010
0010
0100
0000
,
1001
0000
1000
0020
0000
0130
0110
0000
,
0001
0000
0100
0001
0010
0000
0100
1000
0010
0000
1000
0000
1001
0000
0000
0000
,
2000
0010
3002
0100
0023
0100
0032
0010
,
2003
0000
0100
0000
3002
0000
1003
0010
0100
0000
0001
0000
1001
0000
0000
0000
,
1000
0100
0001
0100
0000
1000
0010
0000
,
1000
0000
0000
0000
0001
0010
0100
1000
0010
0000
0100
0000
0110
0000
0000
0000
,
0001
1000
0010
1010
0000
0010
0110
0000
,
0100
0101
0000
0001
0011
0000
0001
0100
,
0010
0000
1000
1100
0000
1000
0001
0100
,
0001
0000
0000
0100
0000
0000
0010
0000
0000
0000
0000
0000
1000
0000
0000
0100
0000
0000
0010
0000
0000
0000
0000
0000
0001
0000
1000
0000
0001
0000
1000
0000
0000
0000
0000
0000
1001
0000
0000
0000
0000
0000
0000
0000
0000
0000
0000
0000
,
1000
0000
1000
0100
0000
0100
0001
0000
,
1000
0010
0000
0010
0001
0000
1000
0100
,
1000
0001
1000
0001
1000
0100
1000
0100
0010
0001
0100
0001
0100
0010
1000
0001
,
0100
0010
0100
0010
0100
0000
0001
1000
0100
0000
1000
0001
0100
0000
0000
0000
,
0120
0000
1000
0000
0001
0000
0130
0001
,
0000
1000
0001
1000
0100
1000
1100
0000
,
2001
0000
0100
0000
0001
0000
3010
0010
,
0000
0100
0001
0010
1000
0010
0001
0100
,
0120
0000
1000
0000
0100
0000
1030
1000
,
0000
0000
0000
0000
1020
0000
0000
0030
0012
0000
0000
0003
0201
0000
0000
0300
,
1100
0000
0001
0000
1000
0010
0100
0010
,
1010
0000
0101
0000
0100
0010
1001
0000
,
0011
0000
1010
0000
0001
0100
0110
0000
,
1010
0000
0011
0000
1000
0100
0110
0000
,
0001
0000
0010
0000
0100
0000
1000
0000
0001
0100
0001
0100
0010
1000
0010
1000
,
0001
0000
1000
0000
0001
0001
1001
0000
,
1100
0100
0010
0000
0001
1000
0010
0100
,
0002
0000
1003
0100
2000
0000
3001
0100
0002
0000
1003
0010
2000
0000
3001
0000
,
0010
0000
0001
0100
0010
0000
1000
0000
0010
0000
0100
0001
1000
0000
0100
0000
,
0010
0000
0000
0000
0000
0000
0001
0000
0000
1000
0000
0000
0001
0000
0000
0000
0000
0000
0100
0000
0000
0000
0000
0000
0010
0000
0000
0000
0000
0000
1000
0000
0100
0000
1000
0000
0100
0000
0000
0000
0000
0000
0010
0000
0000
0000
0000
0000
,
0012
0000
0000
0003
2010
0000
0000
3000
0102
0000
0000
0003
2100
0000
0000
3000
,
1001
0000
0001
0100
0010
1000
0100
0010
,
0001
0000
1000
0100
1000
0000
0010
0000
1000
0000
0001
0100
0001
0000
0010
0000
,
0100
0000
1000
0001
0100
0000
0001
1000
0100
1000
0001
0000
1000
0000
0000
0000
,
0110
1000
0001
0000
1000
0010
0100
0001
,
2000
0000
3100
1000
0200
0000
1300
0001
2000
0000
3001
0100
0002
0000
0013
0000
,
0100
0000
1000
0010
0100
0000
0001
0000
1000
0000
0100
0010
0001
0000
1000
0000
,
0001
0010
0001
0000
1000
0010
1000
0000
0001
0000
1000
0000
1001
0000
0000
0000
,
1100
0000
0100
0010
0001
1000
0010
0100
,
0001
0000
1000
0000
0001
0000
1000
0000
0100
0010
0001
1000
0001
0000
0000
0000
,
1010
0010
0100
0000
0001
0100
1000
0100
,
0002
0000
1003
0100
2000
0000
3001
0100
0002
0000
1003
0010
2000
0000
3001
0010
,
0001
0000
0000
0000
0100
0010
1000
0010
0100
0000
0000
0000
0001
0010
0100
1000
,
0010
0000
0000
0000
0000
0000
0100
0000
0000
0001
0000
0000
0100
0000
0000
0000
0000
0000
0010
0000
0000
0000
0000
0000
1000
0000
0000
0000
0000
0000
0001
0000
1000
0000
0001
0000
1000
0000
0000
0000
0000
0000
0100
0000
0000
0000
0000
0000
,
1100
0000
0100
0010
0011
0000
1010
0000
,
1001
0000
0001
0100
0010
1000
0010
0100
,
0001
0000
1000
0100
1000
0000
0100
0000
0010
0000
0001
1000
0001
0000
0100
0000
,
0001
0100
0001
0100
0010
0000
1000
0100
1000
0100
0010
0000
1001
0000
0000
0000
,
1100
0001
0100
0000
0001
1000
0010
0100
,
0002
0000
0013
0001
0020
0000
0130
1000
0200
0000
1300
0001
2000
0000
3100
0010
,
0100
0000
0000
0000
0010
0001
0010
0100
1000
0000
0000
0000
0001
0100
0010
1000
,
0001
0000
1000
0100
0010
0000
0001
0100
0010
0000
1000
0000
1002
0000
0000
0000
,
1003
0100
1000
0001
0010
1000
0010
0001
,
1000
0100
0010
0001
0100
0010
0001
0010
,
0100
0001
0010
0100
1000
0001
1000
0100
,
0120
0000
0130
0000
1000
0001
1001
0000
,
0002
0203
2300
3020
,
0032
0203
2300
3020
,
0032
0203
2300
3020
,
0032
0000
0000
0000
0203
0000
0000
0000
2300
0000
0000
0000
3020
0000
0000
0030
,
1002
0000
0000
0203
0000
0000
2300
0000
,
0000
3020
0000
0032
0000
0103
1000
0010
,
0001
0100
1000
0010
0001
0100
1000
0010
,
0001
0100
1000
0010
0001
0100
1000
0010
;

//--------------- dance-double - Fred-104 ----------------
#NOTES:
     dance-double:
     Fred-104:
     Easy:
     6:
     :
00000000
00000000
00000000
00000000
,
00000000
00000000
00000000
00000000
,
00000000
00000000
00000000
00000000
,
00000000
00000000
00000000
00000000
,
00000000
00000000
00000000
00000000
,
00000000
00000000
00000000
00000000
,
00020000
00000000
00030000
00000000
,
20000000
00000000
30000000
00000000
,
02000000
00000000
03000000
00000000
,
00200000
00000000
00300000
00000000
,
00002000
00000000
00003000
00000000
,
00020000
00000000
00030000
00000000
,
00000020
00000000
00000030
00000000
,
00000200
00000000
00000301
00001000
,
00000001
00000000
00000100
00000000
,
00000010
00000010
00001000
00000000
,
00000100
00000000
00010000
00000000
,
00001000
00100000
01000000
00000000
,
10000000
10000000
01000000
01000000
,
00010000
00010000
00001000
00001000
,
00000100
00000100
00000001
00000001
,
00001001
00000000
00000000
00000000
,
00010000
00010000
00001000
00001000
,
00100000
00100000
00010000
00010000
,
10000000
00000000
00010000
00000000
,
10000000
00100000
01000000
00000000
,
00100000
00100000
00001000
00001000
,
00010000
00010000
00000010
00000010
,
00001000
00000000
00000001
00000000
,
00000100
00000100
00000010
00000100
,
00000100
00000000
00000001
00000000
,
00001000
00001000
00000100
00000010
,
00000001
00000000
00001000
00000000
,
00000010
00000010
00010000
00001000
,
00100000
00000000
00010000
00000000
,
10000000
00000000
00100000
00000000
,
01000000
00000000
00100000
00000000
,
10000000
10000000
01000000
01000000
,
00010000
00000000
00001000
00000000
,
00000100
00000000
00000001
00000000
,
00001000
00001000
00000001
00000001
,
00000100
00000100
00000010
00000000
,
00000110
00000000
00000100
00000000
,
00000001
00000000
00001000
00001000
,
00000010
00000000
00010000
00000000
,
00001000
00000000
00100000
00010000
,
10000000
00000000
00010000
00000000
,
10000000
10000000
00010000
10000000
,
10000000
00000000
00100000
00000000
,
01000000
00000000
00010000
00010000
,
00010000
00000000
00001000
00001000
,
00001000
00000000
00000010
00000010
,
00000010
00000000
00001000
00000001
,
00001001
00000000
00000000
00000000
,
00000010
00000000
00001000
00000010
,
00001000
00000010
00001000
00010000
,
00001000
00000000
01000000
00000000
,
00001000
00001000
00010000
00001000
,
00010000
00010000
00001000
00010000
,
00000000
00100000
00100000
01000000
,
00100000
00000000
10000000
00000000
,
00010000
00010000
10000000
10000000
,
10010000
00000000
01000000
00000000
,
00001000
00001000
00010000
00001000
,
00010000
00000000
00000100
00000000
,
00001000
00000100
00001000
00000100
,
00000010
00000000
00000001
00000000
,
00001000
00000001
00001000
00000001
,
00001001
00000000
00000010
00000000
,
00010000
00001000
00010000
00000100
,
00010000
00000000
00001000
00000000
,
00100000
00100000
00010000
10000000
,
00010000
00010000
10000000
10010000
,
00000000
00100000
00100000
01000000
,
00100000
00000000
10000000
00000000
,
00100000
00100000
00010000
00001000
,
00011000
00000000
00000010
00000000
,
00001000
00001000
00000001
00000100
,
00000001
00000000
00001000
00000000
,
00000001
00000001
00000100
00000100
,
00001000
00000000
00010000
00000000
,
01000000
00000000
10000000
00000000
,
00010000
00000000
10000000
00000000
,
00100000
00100000
01000000
10000000
,
00020000
00000000
00030000
00000000
,
00002000
00000000
00003000
00000000
,
00000200
00000000
00000300
00000000
,
00000020
00000000
00000030
00000000
,
00000002
00000000
00000003
00000000
,
00002000
00000000
00003000
00000000
,
00000010
00000000
00010000
00000000
,
00001000
00000000
00010000
00000000
00001000
00000000
00010000
00001000
;

//--------------- dance-double - Fred-104 ----------------
#NOTES:
     dance-double:
     Fred-104:
     Medium:
     10:
     :
00000000
00000000
00000000
00000000
,
00000000
00000000
00000000
00000000
,
00000000
00000000
00000000
00000000
,
00000000
00000000
00000000
00000000
,
00000000
00000000
00000000
00000000
,
00000000
00000000
00000000
00000000
,
00001000
00000000
00000000
00002000
00000000
00000000
00003000
00000000
,
00010000
00000000
00000000
00020000
00000000
00000000
00030000
00000000
,
01000000
00000000
00000000
02000000
00000000
00000000
03000000
00000000
,
10000000
00000000
00000000
10000000
00000000
00000000
10000000
00000000
,
00100000
00000000
00000000
00200000
00000000
00000000
00300000
00000000
,
00010000
00000000
00000000
00020000
00000000
00000000
00030000
00000000
,
00001000
00000000
00000000
00001000
00000000
00000000
00001000
00000000
,
00000010
00000010
00000001
00001000
,
00000001
00000000
00000100
00000000
,
00001000
00001000
00010000
01000000
,
10000000
00000000
00010000
00000000
,
01000000
01000000
00100000
10000000
,
01000000
01000000
00100000
00001000
,
00010000
00001000
00000010
00000001
,
00001000
00000100
00001000
00000100
00000010
00000100
00000010
00000000
,
00001001
00000000
00000000
00000000
00000000
00010000
00001000
00000000
,
00100000
00020000
20030000
30200000
,
02300000
03020000
20030000
32000000
,
03100000
00000000
00000000
00001000
00000000
00000000
00010000
00000000
,
00000100
00000000
00001000
00000001
00000100
00000010
00001000
00000000
,
00001000
00000002
00000203
00002300
,
00023000
02030000
23000000
30020000
,
01030000
00000000
00000000
00100000
00000000
00000000
10000000
00000000
,
00010000
01000000
00100000
01000000
10000000
01000000
00100000
00000000
,
00001000
00101000
00010000
00010100
,
00001000
00001100
00000001
00000101
,
00000100
00000000
00000000
00000010
00000000
00000000
00001000
00000000
,
00000001
00000000
00000100
00001000
00000100
00001000
00010000
00000000
,
00001000
00000000
00100000
00010000
00000000
10000000
00010000
00000000
,
00000000
01000000
00000000
00000000
00100000
00000000
00100000
00000000
,
10000000
00000000
00000000
01000000
00000000
00000000
00100000
01000000
,
10000000
00000000
00100000
01000000
00010000
00100000
00010000
00000000
,
00100000
00100000
00001000
00001000
,
00000010
00000010
00000001
00000001
,
00001000
00000001
00001000
00000000
00000001
00000100
00000001
00000000
,
00000100
00000010
00001000
00000100
00010000
00000000
00001000
00000000
,
00021000
00000000
00000000
00000000
00000000
00000000
01030000
00200000
,
00000000
00000000
00000000
10300000
01000000
00100000
00001000
00000000
,
00012000
00000000
00000000
00000000
00000000
00000000
00003010
00000200
,
00000000
00000000
00000000
00000301
00000100
00000001
00000100
00000010
,
00002000
00000000
00000000
00000000
00000000
00000000
00013000
00100000
,
00000000
00101000
00011000
00010010
,
00000010
00001000
00000001
00000010
,
00000100
00000000
00010000
00000000
00001000
00001000
00001000
00000000
,
00100000
00000000
00010000
00000000
10000000
00100000
01000000
00000000
,
00010000
00000000
10000000
00000000
01000000
00100000
00001000
00000000
,
00010000
00000100
00001000
00000000
00000001
00000100
00000010
00000000
,
00001001
00000000
00000000
00000000
00000000
00000010
00000100
00000000
,
00011000
00001000
00000100
00010000
,
00002000
00023000
02030000
23000000
,
30010000
00000000
10000000
01000000
00010000
00000000
10000000
00100000
,
00010000
10000000
00010000
00000000
01000000
00000000
00100000
00000000
,
00001000
00011000
00001010
00002002
,
00003003
00000001
00000100
00000100
,
00000010
00000000
00001000
00000100
00000010
00000000
00000001
00000100
,
00000010
00001000
00000100
00000000
00010000
00001000
00010000
00000000
,
00011000
00001000
00100000
00010000
,
20000000
32000000
03020000
00032000
,
00013000
00000000
00001000
00000100
00000001
00000000
00001000
00000001
,
00000100
00000000
00000010
00000000
00001000
00000010
00000100
00000000
,
00000001
00000000
00000010
00000000
00000100
00000000
00010000
00001000
,
00010000
00000000
00001000
00100000
00010000
10000000
00010000
00000000
,
10010000
01000000
01000000
00100000
,
00002000
00023000
00030020
00002030
,
00003001
00000000
00001000
00000100
00001000
00000000
00000001
00000100
,
00000001
00000100
00000010
00000000
00001000
00000000
00000100
00000000
,
00000110
00001010
00000110
00000101
,
00000000
00001000
00000010
00010000
,
00000010
00000000
00010000
00001000
00100000
00000000
00001000
00010000
,
00001000
00100000
00001000
00000000
01000000
00010000
01000000
00000000
,
01100000
00100000
10000000
01000000
,
00200000
00302000
00023000
00030200
,
00001300
00000000
00000010
00001000
00000001
00000000
00001000
00000100
,
00000020
00000032
00002003
00003020
,
00000130
00000000
00000001
00000100
,
00001000
00000000
00010000
01000000
,
10000000
00000000
10000000
00100000
,
00010000
00000000
00001000
00000000
00000010
00000001
00001000
00000000
,
00001002
00000000
00000203
00000000
,
00002300
00000000
00023000
00000000
,
02030000
00000000
23000000
00000000
,
30200000
00000000
00320000
00000000
,
00031000
00000000
00000000
00010000
00000000
00000000
00000010
00000000
,
00000000
00001000
00000000
00000000
00000010
00000000
00000100
00000000
,
00000001
00000001
00000100
00001000
,
00010000
00000000
01000000
00000000
10000000
00010000
01000000
00100000
;

//--------------- dance-double - Fred-104 ----------------
#NOTES:
     dance-double:
     Fred-104:
     Hard:
     13:
     :
00000000
00000000
00000000
00000000
,
00000000
00000000
00000000
00000000
,
00000000
00000000
00000000
00000000
,
00000000
00000000
00000000
00000000
,
00000000
00000000
00000000
00000000
,
00000000
00000000
00000000
00000000
,
20000000
00000000
00000000
32000000
00000000
00000000
00000000
00000000
,
03200000
00000000
00000000
00302000
00000000
00000000
00000000
00000000
,
00023000
00000000
00000000
00030020
00000000
00000000
00000000
00000000
,
00000230
00000000
00000000
00000302
00000000
00000000
00002003
00000000
,
00003002
00000000
00000000
00000023
00000000
00000000
00000000
00000000
,
00000230
00000000
00000000
00020300
00000000
00000000
00000000
00000000
,
00032000
00000000
00000000
02003000
00000000
00000000
03020000
00000000
,
20030000
00000000
00000000
00000000
30010000
10000000
00010000
00000000
,
01000000
01000000
00100000
00100000
,
10000000
10000000
01000000
01000000
,
00010000
00010000
00001000
00001000
,
00000100
00000000
00000100
00000000
00000001
00001000
00000001
00000000
,
00001000
00000100
00001000
00000100
00000010
00000001
00000100
00000001
,
00000100
00000010
00000100
00000010
00000100
00001000
00010000
00001000
,
00010000
01000000
10000000
00010000
01000000
00100000
10000000
00000000
,
00100000
00000000
00100000
00000000
01000000
00100000
01000000
00000000
,
00010000
10010000
11000000
01100000
,
00110000
00101000
00011000
00010010
,
00001010
00000000
00000010
00000100
00000000
00000010
00000001
00000000
,
00001000
00000000
00000001
00000100
00000001
00000100
00000010
00000000
,
00001000
00001100
00010100
00011000
,
01001000
01010000
01100000
11000000
,
01100000
00000000
10000000
01000000
00000000
00100000
01000000
00000000
,
00100000
10000000
00100000
01000000
00100000
00001000
00010000
00000000
,
00001000
00011000
00010010
00001010
,
00001001
00000101
00001100
00010100
,
00011000
00000000
00001000
00010000
00000000
00100000
00010000
00000000
,
10000000
00000000
00010000
01000000
00100000
01000000
00100000
00000000
,
10000000
00000000
01000000
00100000
00000000
00001000
00010000
00000000
,
00001000
00100000
00000000
00001000
00000010
00000000
00000100
00000000
,
00001000
00000000
00000010
00000100
00000000
00000010
00001000
00000001
,
00000010
00000000
00000100
00010000
00001000
00010000
00001000
00000000
,
00011000
00000000
00001000
00100000
00000000
00010000
01000000
00000000
,
00100000
10000000
00000000
01000000
00100000
00000000
00001000
00000000
,
00010000
00001000
00010000
00000100
00000000
00001000
00000010
00000000
,
00001000
00000000
00000001
00000000
00000100
00000000
00000010
00000000
00000100
00000000
00000010
00000100
00000010
00000000
00000000
00000000
,
00001001
00000000
00000001
00000000
00001000
00000000
00000010
00000200
,
00000000
00000000
00000000
00000310
00001000
00000100
00010000
00000000
,
00000100
00000000
00000100
00000000
00010000
00000000
01000000
00200000
,
00000000
00000000
00000000
01300000
00010000
00100000
01000000
10000000
,
00010000
00000000
00010000
00000000
01000000
00000000
00100000
10000000
,
00000000
11000000
01100000
00110000
,
00101000
00001000
00010000
00000010
,
00001000
00000000
00000100
00000000
00000010
00000001
00001000
00000000
,
00000001
00000000
00000100
00000000
00001000
00010000
00001000
00000000
,
00010000
00000000
01000000
00000000
10000000
00010000
00100000
00000000
,
00010000
10000000
00100000
10000000
01000000
00100000
00010000
00100000
,
00001000
00000000
00000000
00000000
00000000
00010000
00001000
00000000
,
00011000
00000000
00100000
00000000
00010000
10000000
00100000
01000000
,
00010000
00000000
00000000
00010000
10000000
00000000
00000000
10000000
01000000
00000000
00000000
01000000
00100000
00000000
00000000
00100000
,
00001000
00000000
00010000
00001000
00000100
00000000
00010000
00001000
,
00000100
00000001
00001000
00000000
00000001
00000000
00000100
00000000
,
00001010
00000110
00000101
00001001
,
00000001
00000100
00001000
00010000
,
01000000
00000000
10000000
00010000
10000000
00000000
00010000
01000000
,
00100000
10000000
00100000
10000000
00010000
00100000
01000000
00000000
,
01100000
00000000
01000000
00000000
00010000
00001000
00100000
00001000
,
00010000
00000000
00000000
00010000
00001000
00000000
00000000
00001000
00000010
00000000
00000000
00000010
00000001
00000000
00000000
00000001
,
00001000
00000000
00000001
00000100
00000010
00000000
00001000
00000001
,
00000010
00000000
00000100
00000000
00010000
00001000
00010000
00000000
,
00001000
00000000
00100000
00000000
00010000
00000000
00100000
01000000
,
10000000
00100000
01000000
00100000
01000000
00100000
10000000
00000000
,
10010000
00000000
01000000
00000000
00100000
00001000
00010000
00001000
,
00000010
00000000
00000000
00000010
00000001
00000000
00000000
00000001
00001000
00000000
00000000
00001000
00000100
00000000
00000000
00000100
,
00010000
00000000
00001000
00100000
00010000
00000000
10000000
00010000
,
01000000
00100000
10000000
00000000
01000000
01000000
00100000
00001000
,
00101000
00011000
00010010
00001001
,
00000000
00000101
00001100
00011000
,
00010000
00000000
00001000
00100000
00010000
00000000
00001000
00100000
,
00010000
01000000
00100000
10000000
01000000
00010000
01000000
00000000
,
11000000
00000000
01000000
00000000
00100000
00010000
10000000
01000000
,
00100000
00000000
00000000
00100000
00001000
00000000
00000000
00001000
00010000
00000000
00000000
00010000
00000010
00000000
00000000
00000010
,
00001000
00000000
00000001
00000100
00001000
00000000
00000001
00000010
,
00001000
00000001
00000100
00000010
00001000
00000100
00010000
00000000
,
00002000
00000010
00000001
00003100
,
00020000
01000000
10000000
00130000
,
00001000
00000000
00010000
00000000
00000010
00000000
00001000
00000001
,
00000100
00000000
00000100
00000000
00000010
00000100
00000110
00000000
,
00001000
00001000
00000010
00000010
,
00000001
00000001
00000100
00000100
,
00001000
00001000
00010000
00010000
,
01000000
01000000
10000000
10000000
,
00020000
00000000
00000000
02030000
00000000
00000000
03200000
00000000
,
00000000
20300000
00000000
32000000
00000000
03100000
00010000
00000000
,
10000000
01000000
00100000
00000000
00001000
00010000
00001000
00000000
,
00010000
00001000
00000100
00000001
00001000
00000100
00000010
00000001
;

//--------------- dance-double - Fred-104† ----------------
#NOTES:
     dance-double:
     Fred-104†:
     Challenge:
     16:
     :
00000000
00000000
00000000
00000000
,
00000000
00000000
00000000
00000000
,
00000000
00000000
00000000
00000000
,
00000000
00000000
00000000
00000000
,
00000000
00000000
00000000
00000000
,
00000000
00000000
00000000
00000000
,
00001000
00000000
00000100
00000020
00000000
00000000
00000000
00000000
,
00010030
00000000
00001000
00200000
00000000
00000000
00000000
00000000
,
00301000
00000000
00000000
00000000
00000010
00000000
00002000
00000000
00000000
00000000
00000000
00000000
00000000
00000000
00013000
00001000
,
00010000
00000000
00000000
00000000
00001000
00000000
00200000
00000000
00000000
00000000
00000000
00000000
01300000
00100000
01000000
00100000
,
01000000
00000000
00010000
00000200
00000000
00000000
00000000
00000000
,
00010300
00000000
01000000
00002000
00000000
00000000
00000000
00000000
,
00013000
00000000
00000000
00000000
00000100
00000000
00000020
00000000
00000000
00000000
00000000
00000000
00000000
00000000
00001030
00000010
,
00000100
00000000
00000000
00000000
00000000
00000000
00000010
00000000
00000000
00001000
00000000
00000000
00000100
00000000
00000000
00010000
00001000
00010000
00001000
00000000
00000000
00010000
00000000
00000000
,
01010000
00000000
10000000
00100000
01000000
00000000
00100000
00001000
,
00000000
00001000
00000010
00000100
00000010
00000000
00001000
00000000
,
00000001
00000000
00000000
00000000
00000100
00000000
00001000
00000000
00010000
00000000
00000000
00000000
00001000
00000000
00010000
00001000
,
00010000
00000000
00000000
00000000
00100000
00000000
01000000
00000000
00000000
00000000
01000000
00000000
10000000
01000000
10000000
01000000
,
00100000
00010000
10000000
00100000
01000000
00010000
00100000
00001000
,
00010000
00000010
00001000
00000100
00000010
00000001
00001000
00000010
,
00000100
00000001
00000100
00000001
00001000
00000010
00001000
00000010
00010000
00001000
00100000
00010000
01000000
00010000
01000000
00100000
,
01000000
00000000
00000000
00000000
00000000
00000000
00100000
00000000
00000000
00000000
00000000
00000000
01000000
00100000
01000000
00100000
00000000
00000000
01100000
00000000
00000000
00000000
00000000
00000000
,
00001000
01000000
00010000
10000000
00100000
01000000
00100000
10000000
,
00010000
10000000
00100000
00010000
00001000
00000010
00000001
00001000
,
00000002
00000000
00000103
00000020
00000000
00001030
00000200
00000000
,
00001300
00000000
00000001
00000000
00000010
00000000
00001000
00010000
00001000
00010000
00001000
00000000
00010000
00000000
00000000
00000000
,
00001000
00100000
01000000
00100000
00001000
00010000
00000100
00001000
,
00000100
00000010
00001000
00010000
00100000
01000000
00001000
00010000
,
00002000
00000000
00103000
00002000
00000000
00013000
00000200
00000300
,
00001100
00000100
00000110
00000010
00000011
00000001
00000101
00000000
,
00000001
00001000
00001100
00000000
00011000
00000000
01010000
00000000
,
11000000
00000000
10010000
00010000
01000000
00100000
00100000
00000000
,
10000000
00000000
00100000
01000000
00000000
00100000
00001000
00000000
,
00010000
00000000
00000000
00000000
00001000
00010000
00000100
00010000
00001000
00000000
00010000
00000000
00011000
00000000
00000000
00000000
,
00010000
00001000
00000010
00000001
00000000
00001000
00000100
00000010
,
00000000
00000001
00000100
00001000
00010000
01000000
10000000
00000000
,
00010000
00100000
10000000
00100000
00000000
00001000
00010000
00001000
,
00000010
00000000
00000000
00000010
00000000
00000000
00000100
00000000
00000000
00000100
00000000
00000000
00000010
00000100
00000010
00000100
00000000
00000000
00000110
00000000
00000000
00000000
00000000
00000000
,
00000001
00000100
00000100
00001000
00000100
00000100
00000001
00000100
,
00000100
00001000
00010000
00010000
01000000
10000000
00010000
01000000
,
00100000
10000000
00100000
10000000
00010000
01000000
00010000
01000000
00001000
00010000
00001000
00010000
00000100
00001000
00000100
00001000
,
00000010
00000100
00000010
00000100
00000001
00000000
00001000
00000001
00000100
00000000
00000001
00001000
00000100
00000000
00000000
00000000
,
00000210
00000000
00000010
00000000
00010300
00000000
00001000
00001000
,
00000000
00100000
00010000
00100000
01000000
10000000
10010000
00000000
,
02100000
00000000
10000000
00000000
03010000
00000000
00100000
00100000
,
00000000
00000000
00010000
00000000
00001000
00000000
00000010
00000000
00001000
00000000
00010000
00000100
00001000
00000000
00001000
00000000
,
00001200
00000000
00000001
00000000
00001300
00000000
00000010
00000010
,
00000100
00000110
00001010
00010010
,
00021000
00000000
01000000
00000000
00000100
00000100
00030100
00000000
,
00012000
00000000
00100000
00000000
00000010
00000010
00003010
00000000
,
00012000
00000000
01000000
00000000
00000100
00000100
00003100
00000000
,
00021000
00000000
00100000
00000000
00000010
00000010
00030010
00000000
,
00000001
00000000
00000100
00000000
00001000
00000000
00010000
00000000
01000000
00010000
01000000
00010000
01000000
00100000
01000000
00100000
,
10000000
00000000
01000000
00000000
00010000
00001000
00011000
00000000
,
00001010
00000010
00000100
00000000
00000001
00000100
00001000
00000100
,
00000002
00000000
00001003
00000010
00002000
00000000
00003001
00000010
00000002
00000000
00001003
00000100
00002000
00000000
00003001
00000000
,
00000100
00000000
00000010
00001000
00000100
00000000
00010000
00000000
00001000
00000000
00010000
00000010
00001000
00000000
00000010
00000000
,
00010000
00000000
00000000
00000000
00000000
00000000
00001000
00000000
00000000
00100000
00000000
00000000
00010000
00000000
00000000
00000000
00000000
00000000
01000000
00000000
00000000
00000000
00000000
00000000
00100000
00000000
00000000
00000000
00000000
00000000
01000000
00000000
00100000
00000000
01000000
00000000
00100000
00000000
00000000
00000000
00000000
00000000
10000000
00000000
00000000
00000000
00000000
00000000
,
10010000
00000000
01100000
00000000
11000000
01000000
00100000
00000000
,
00002000
00000000
00010000
00000000
00003010
00001000
00010000
00000000
,
00000010
00000000
00001000
00000100
00000010
00000000
00000001
00000000
00001000
00000000
00000010
00010000
00001000
00000000
00100000
00000000
,
00010000
00000000
10000000
01000000
00100000
00000000
00010000
01000000
00100000
00000000
10000000
00000000
10010000
00000000
00000000
00000000
,
01010000
01000000
00100000
00000000
00001000
00010000
00000010
00010000
,
00002000
00000000
00013000
00000010
00020000
00000000
00031000
00100000
00002000
00000000
00013000
00000100
00020000
00000000
00031000
00000000
,
01000000
00000000
00010000
00100000
01000000
00000000
00010000
00000000
00100000
00000000
00001000
00010000
00000010
00000000
00001000
00000000
,
00000100
00010000
01000000
00100000
00001000
00000010
00000110
00000000
,
00001100
00000000
00000100
00000100
00000010
00001000
00000100
00010000
,
01000000
00000000
00001000
00000000
00010000
00000000
00001000
00000000
00000001
00001000
00000001
00001000
00000001
00000000
00000000
00000000
,
00001001
00000001
00000100
00000000
00000010
00001000
00000100
00010000
,
00002000
00000000
00103000
00010000
00200000
00000000
00310000
10000000
00020000
00000000
10030000
01000000
20000000
00000000
30010000
01000000
,
00010000
00000000
00000000
00010000
10000000
00000000
01000000
00000000
00100000
00000000
00000000
00100000
00001000
00000000
00010000
00000000
,
00000010
00000000
00000000
00000000
00000000
00000000
00001000
00000000
00000000
00000010
00000000
00000000
00000100
00000000
00000000
00000000
00000000
00000000
00000001
00000000
00000000
00000000
00000000
00000000
00000100
00000000
00000000
00000000
00000000
00000000
00000001
00000000
00001000
00000000
00000001
00000000
00001000
00000000
00000000
00000000
00000000
00000000
00000001
00000000
00000000
00000000
00000000
00000000
,
00001001
00000000
00000100
00001000
00010000
00000000
01010000
00000000
,
10010000
00000000
00100000
00100000
10000000
00100000
01000000
00100000
,
10000000
00000000
00000000
10000000
00100000
00000000
01000000
00000000
00001000
00000000
00000000
00001000
00010000
00000000
00000010
00000000
,
00001000
00000010
00001000
00000010
00001000
00000000
00000001
00000100
00000001
00000100
00000001
00000000
00001001
00000000
00000000
00000000
,
00011000
00001000
00010000
00000000
00001000
00100000
00010000
10000000
,
02000000
00000000
13000000
00100000
20000000
00000000
30010000
00100000
00020000
00000000
10030000
01000000
20000000
00000000
30010000
01000000
,
00010000
00000000
00000000
00000000
01000000
00001000
00010000
00000100
00001000
00000000
00000000
00000000
00000010
00001000
00000100
00010000
,
00001000
00000000
00100000
00001000
00010000
00000000
00100000
01000000
10000000
00000000
00010000
00000000
10010000
00000000
00000000
00000000
,
00010000
01000000
00010000
01000000
10000000
00100000
10000000
00100000
,
00010000
00001000
00010000
00001000
00000010
00000001
00000010
00000001
,
00000100
00000001
00000100
00001000
00010000
01000000
10000000
00010000
,
10000000
00000000
00100000
00000000
01000000
01000000
01100000
00000000
,
00020000
02030000
23000000
30200000
,
00320000
00032000
00003020
00000032
,
00000203
00002300
00023000
02030000
,
23000000
00000000
00000000
00000000
30200000
00000000
00000000
00000000
00320000
00000000
00000000
00000000
00032000
00000000
00000000
00003000
,
00021000
00000000
00000000
00032000
00000000
00000000
00003020
00000000
,
00000000
00000032
00000000
00002003
00000000
00003001
00000100
00000010
,
00001000
00000001
00000010
00000000
00001000
00010000
00100000
00000000
,
10000000
01000000
00010000
00001000
00000100
00000001
00001000
00001001
;
