#VERSION:0.83;
#TITLE:chaos eater -IIDX edition-;
#ARTIST:猫叉Master+;
#ARTISTTRANSLIT:Nekomata Master+;
#GENRE:HARD STEP;
#BANNER:chaos eater -IIDX edition-.png;
#BACKGROUND:chaos eater -IIDX edition--bg.png;
#CDTITLE:./CDTitles/bm IIDX 23 copula.png;
#MUSIC:chaos eater -IIDX edition-.ogg;
#SAMPLESTART:77.711;
#SAMPLELENGTH:15;
#BPMS:0=105,52=210;
#BGSTAGE:19;

//--------------- dance-single - Fred-104 ----------------
#NOTEDATA:;
#STEPSTYPE:dance-single;
#DESCRIPTION:Fred-104;
#DIFFICULTY:Beginner;
#METER:6;
#CREDIT:Fred-104;
#NOTES:
0000
0000
0000
0000
,
0000
0000
0000
0000
,
0000
0000
0000
0000
,
0000
0000
0000
0000
,
0000
0000
0000
0000
,
0001
0001
0001
0000
,
1000
1000
1000
0000
,
0010
0010
0010
0000
,
0100
0100
0100
0100
,
1001
0000
1000
0000
,
0001
0001
0010
0010
,
0010
0000
0100
0000
,
1000
0001
2002
3003
,
1000
0000
0001
0000
,
1000
0000
0010
0000
,
0100
0100
0100
0000
,
0001
0001
0001
0000
,
1000
1000
1000
0000
,
0010
0010
0010
0000
,
0100
0100
0100
0000
,
0001
1000
0001
0000
,
0000
1000
0000
0100
,
0000
0001
0000
0010
,
0000
1000
0000
0001
,
0000
1000
0000
0000
,
0002
0000
0000
0003
,
2000
3000
0001
0001
,
0200
0000
0000
0300
,
0020
0000
0030
0000
,
0000
1000
0000
1000
,
0000
0001
0000
0001
,
0000
0100
0000
0100
,
0000
0010
0000
0000
,
2000
0000
0000
3000
,
0200
0300
0010
0010
,
0002
0000
0000
0003
,
1000
1000
1001
0000
,
0001
0000
0100
0000
,
1000
0000
0100
0000
,
0001
0000
1000
0000
,
0001
0001
0001
0000
,
1000
0000
0100
0000
,
0001
0000
0100
0000
,
1000
0000
0001
0000
,
1000
1000
0001
0001
,
1001
0000
0000
0000
,
0001
0000
0000
0000
,
1001
0000
0000
0000
,
1000
0000
0000
0000
,
0001
0000
0000
0010
,
0000
0000
1000
0000
,
0000
0100
0000
0000
,
0001
0000
0000
2002
,
0000
0000
0000
0000
,
0000
0000
3003
0000
,
1000
0001
0100
0000
,
0100
0010
0100
0000
,
0001
1000
0010
0000
,
0010
1000
0001
0000
,
0010
0100
1000
0000
,
1000
0010
1000
0000
,
0001
1000
0010
0000
,
0100
0000
0100
0000
,
0001
1000
0100
0000
,
0100
0010
0001
0000
,
0001
0000
1000
0000
,
0010
0100
0010
0000
,
1000
0000
0100
0000
,
0001
0000
0010
0000
,
1000
0000
0001
0000
,
1000
0001
1001
0000
,
1000
0000
0001
0000
,
1000
1000
1000
0000
,
0100
0010
0001
0000
,
0100
0100
0100
0000
,
0010
0000
1000
0000
,
0001
0000
0010
0000
,
1000
0000
0100
0000
,
0001
1000
0001
0000
,
1000
0000
0000
0100
,
0000
0000
0001
0000
,
0000
0010
0000
0000
,
1000
0001
1000
2002
,
0000
0000
0000
0000
,
0000
0000
0000
0000
,
0000
0000
3003
0000
;

//--------------- dance-single - Fred-104 ----------------
#NOTEDATA:;
#STEPSTYPE:dance-single;
#DESCRIPTION:Fred-104;
#DIFFICULTY:Easy;
#METER:9;
#CREDIT:Fred-104;
#NOTES:
0000
0000
0000
0000
,
0000
0000
0000
0000
,
0000
0000
0000
0000
,
0000
0000
0000
0000
,
0000
0000
0000
0000
,
1000
0000
0000
0000
0100
0000
0000
0010
0000
0000
0001
0000
1000
0000
0000
0000
,
0001
0000
1000
0000
0010
0010
0110
0000
,
1000
0000
0000
0000
0001
0000
0000
0100
0000
0000
0010
0000
1000
0000
0000
0000
,
0001
0000
0010
0000
0010
0010
0110
0000
,
1100
0001
0000
0001
,
0101
1000
0000
1000
,
0011
1000
1010
0001
,
1000
0100
0010
0001
0100
0100
0220
0330
,
0001
1000
0001
0010
,
0100
1000
0001
0100
,
0010
1000
0100
0010
,
0100
1000
1001
0000
,
1000
0100
0001
0100
,
1000
0010
1000
0001
,
0010
0100
0010
0001
,
0100
0010
0110
0000
,
0001
0010
0000
0010
,
1000
0010
0000
0010
,
0001
1000
0000
1000
,
0100
0010
0001
1000
,
0001
0000
0000
0100
0000
0000
0010
0000
,
0000
1000
0000
0000
0001
0000
0000
0000
,
1000
0000
0000
0100
0000
0000
0010
0000
,
0001
1000
1001
0000
,
0001
0100
0000
0100
,
1000
0100
0000
0100
,
0001
1000
0000
1000
,
0100
0010
0001
1000
,
0100
0000
0000
0010
0000
0000
0001
0000
,
0000
0100
0000
0000
0010
0000
1000
0000
,
0001
0000
0000
0010
0000
0000
0100
0000
,
1000
0001
1001
0000
,
1000
0000
0100
0000
,
0001
0010
1000
0010
,
0100
0000
0001
0000
,
1000
0100
0010
0001
,
0011
0000
1000
0000
,
0001
0100
1000
0100
,
0001
0000
0010
0000
,
0100
0100
1000
1000
,
1001
0000
0000
0001
0000
0000
0100
0000
,
0010
0000
1000
0001
,
1001
0000
0000
1000
0000
0000
0001
0000
,
0100
0010
0100
0000
,
0001
0000
0000
0010
0000
0000
1000
0000
,
0000
0100
0000
0000
0001
0000
0000
0010
,
0000
0000
1000
0000
0000
0100
0000
0000
,
0001
0000
0000
1000
0000
0000
2002
0000
,
0000
0000
0000
0000
,
0000
0000
3003
0000
,
1000
1100
0001
1000
,
0100
0010
0001
1000
,
0001
0000
0010
0000
,
1000
0000
0010
0000
0001
1000
0001
0000
,
1000
1010
0001
1000
,
0010
0100
0010
1000
,
0001
0000
0010
0000
,
0100
0000
1000
0000
0001
1000
0001
0000
,
0100
0110
1000
0001
,
0010
0100
0010
0001
,
1000
0000
0001
0000
,
1000
0000
0010
0000
0100
0001
0100
0000
,
0001
0010
0110
0000
,
1000
0010
0110
0000
,
0001
0000
0010
0000
,
0100
0000
1000
0000
0001
1000
0001
0000
,
2000
3100
0002
0103
,
1000
0100
0001
0100
,
1000
0100
1000
0000
0001
0100
0001
0000
,
1000
0100
0110
0000
,
0001
0010
1000
0010
,
0001
0010
0001
0000
1000
0000
0010
0000
,
1000
0100
1000
0000
0001
0100
0001
0000
,
1000
0010
1000
0000
0001
0010
0001
0000
,
0110
0000
0000
0100
0000
0000
0001
0000
,
0000
0100
0000
0000
1000
0000
0000
0100
,
0000
0000
0001
0000
0000
0100
0000
0000
,
1000
0100
1000
0002
,
0000
0000
0000
0000
,
0000
0000
0000
0000
,
0000
0000
0003
0000
;

//--------------- dance-single - Fred-104 ----------------
#NOTEDATA:;
#STEPSTYPE:dance-single;
#DESCRIPTION:Fred-104;
#DIFFICULTY:Medium;
#METER:13;
#CREDIT:Fred-104;
#NOTES:
0000
0000
0000
0000
,
0000
0000
0000
0000
,
0000
0000
0000
0000
,
0000
0000
0000
0000
,
0000
0000
0000
0000
,
0001
0000
0000
0000
1000
0000
0000
0100
0000
0000
0001
0000
0100
0000
1000
0000
,
0001
0100
1000
0100
0010
1010
0110
0101
,
0001
1000
0001
1000
0001
0000
0000
0010
0000
0000
1000
0000
0010
0000
0001
0000
,
1000
0000
0010
0000
0001
0000
0010
0000
0100
0000
0110
0000
1000
0001
1000
0000
,
1100
0000
0000
0000
0110
0000
0000
0001
0000
0000
1000
0000
0001
0000
0100
0000
,
0010
0100
1000
0100
0001
0011
0110
1100
,
1001
0000
0000
0000
1010
0000
0000
0101
0000
0000
1000
0000
0001
0000
0010
0000
,
0100
0000
1000
0000
0001
0000
0100
0000
0010
1000
0010
1000
0001
0000
1001
0000
,
0001
0000
1000
0000
0001
0010
0001
0100
,
0000
0010
0000
1000
0100
0000
0010
0001
,
0100
0000
0001
0000
1000
0001
1000
0100
,
0000
0010
0001
0100
0010
0000
0110
0000
,
1000
0000
1000
0000
0001
0010
0001
0100
,
0000
0010
0000
1000
0100
0000
0010
0100
,
1000
0000
0001
0000
1000
0001
1000
0100
,
0000
0010
0001
0100
0010
0100
0010
0000
,
1000
0000
1000
0000
1000
0100
1000
0100
,
0000
0001
0100
0000
1000
0100
1000
0100
,
0000
0001
0100
0000
1000
0100
0010
0001
,
1000
0000
0001
0100
0010
1000
0001
0000
,
0010
0100
1000
0100
0010
0000
0100
0010
,
0000
0001
0010
0000
0110
0000
1001
0000
,
1000
0010
0100
0010
1000
0000
0010
1000
,
0001
0000
1000
0100
0010
0001
1000
0000
,
0001
0000
0001
0000
0001
0010
0001
0010
,
0000
1000
0010
0000
0001
0010
0001
0010
,
0000
1000
0010
0000
0001
0010
0100
1000
,
0001
0000
1000
0010
0100
0001
1000
0000
,
0001
0100
0010
0100
0001
0000
0100
0010
,
0000
1000
0010
0000
0110
0000
1001
0000
,
1000
0100
0010
0001
1000
0000
0010
0100
,
0001
1000
0100
0010
,
0001
0000
1000
0000
0010
0100
0010
0000
,
1000
0010
0100
0010
1000
0000
0100
0000
,
0010
0000
0001
0100
0010
0100
0001
0000
,
1000
0110
0011
0101
,
0001
0000
1000
0100
1000
0001
0100
0000
,
0010
1000
0100
1000
0001
0100
0010
0000
,
1000
0000
0100
0010
0001
1000
0010
0000
,
0100
0110
1001
0110
,
1001
0000
0000
1100
0000
0000
0101
0000
,
1000
0100
1000
0100
1000
0000
0100
0000
,
1001
0000
0000
0101
0000
0000
1100
0000
,
1000
0100
0010
0100
,
1000
0010
0001
1000
,
0100
0001
1000
0010
,
0001
1000
0100
0001
,
1000
0100
0010
0001
0010
0100
2000
0000
,
0000
0000
0000
0000
,
0000
0000
3000
0000
0001
0001
1001
0000
,
0001
0000
0101
0000
0001
0000
1000
0100
,
0000
0010
0100
1000
0001
0000
0100
0000
,
0010
1000
0010
0000
0100
0000
0001
1000
,
0000
0100
0010
0000
0001
0000
1000
0000
,
0010
0000
0110
0000
0100
0000
0001
1000
,
0000
0100
1000
0001
0100
0000
0010
1000
,
0001
1000
0100
0000
0010
0100
0000
1000
,
0000
0001
1000
0010
0100
0000
0101
0000
,
0001
0000
0011
0000
0001
0000
1000
0100
,
0000
0010
0100
1000
0001
0000
0100
0010
,
1000
0001
1000
0000
0001
0000
0010
0100
,
0000
1000
0001
1000
0100
0000
0110
0000
,
0001
0000
0100
0000
0101
0000
0001
1000
,
0100
0000
1000
0000
0100
0000
0010
0001
,
1000
0010
0100
0000
0001
0010
0000
0100
,
0010
0000
0001
0100
0010
0100
0001
0000
,
0100
0000
0010
1000
0001
0000
1000
0100
,
0010
0000
0001
1000
0010
0000
0100
0010
,
1000
0010
1000
0010
0100
0000
0001
0000
,
2000
0000
0000
0000
3200
0000
0000
0000
0320
0000
0000
0000
0032
0000
0000
0003
,
1001
0000
1000
0001
0010
0000
0100
0000
,
0010
0001
1000
0000
0010
0100
0001
0000
,
1000
0100
0010
0010
0001
0010
0100
0100
,
1000
0010
0100
0100
0001
0100
0010
0000
,
1000
0100
0000
0100
0001
0000
0001
0010
,
0000
0010
1000
0000
1000
0100
0000
0100
,
0001
0000
0001
0010
0000
0010
1000
0000
,
0001
0100
0001
0100
0010
1000
0002
0000
,
0000
0000
0000
0000
,
0000
0000
0000
0000
,
0000
0000
0003
0000
;

//--------------- dance-single - Fred-104 ----------------
#NOTEDATA:;
#STEPSTYPE:dance-single;
#DESCRIPTION:Fred-104;
#DIFFICULTY:Hard;
#METER:16;
#CREDIT:Fred-104;
#NOTES:
0000
0000
0000
0000
,
0000
0000
0000
0000
,
0000
0000
0000
0000
,
0000
0000
0000
0000
,
0000
0000
0000
0000
,
1000
0010
0100
0001
0101
0000
0001
1000
0000
0100
0010
0000
0100
1000
0100
1000
,
0001
0000
0100
0000
0010
1000
0001
0010
0100
0000
1100
0000
0101
0000
1001
0000
,
0001
0100
0010
0100
0110
0000
1000
0100
0000
0001
0100
0000
0010
0001
0010
0001
,
1000
0000
0001
0000
0100
0010
1000
0010
0100
0100
0001
0001
1000
0001
1001
0000
,
1001
0000
0000
0000
1100
0000
1000
0100
0000
0001
0100
0000
0010
0100
1000
0001
,
0100
0000
0010
0000
1000
0100
0010
0100
1000
0000
1100
0000
0101
0000
1001
0000
,
0110
0000
0000
0000
1001
0000
0001
0010
0000
1000
0010
0000
0001
0100
1000
0100
,
0010
0000
0000
0000
1000
0000
0000
0000
0100
0000
1000
0000
0001
0000
0100
0000
0010
1000
0010
1000
0001
0010
0001
0010
0100
0000
1000
0000
1001
0000
0000
0000
,
0001
0010
0001
0000
1000
0010
1000
1100
,
0000
0101
0000
1000
0100
0010
0001
1000
,
0010
0100
0010
0000
1000
0001
0010
0100
,
0000
0000
1000
0100
1000
0000
0001
0100
0001
0000
1000
0000
1001
0000
0000
0000
,
0001
0100
1000
0000
0100
0010
0100
0010
,
0000
0000
1000
0000
0100
0000
0010
0000
0001
0000
1000
0000
0001
0100
0001
0000
,
1000
0000
0001
0010
0100
0001
0100
0010
,
0000
0000
0001
1000
0001
0000
0010
0000
0100
0000
1000
0000
0001
0100
0001
0100
,
0010
0000
1001
0000
1000
0100
0001
0100
,
0000
0010
0011
0000
0001
0100
1000
0100
,
0000
0010
0110
0000
1000
0100
0010
0001
,
1000
0000
0001
0010
1000
0010
0100
0000
,
1000
0000
0001
0100
0001
0100
0001
0100
0001
0000
0000
0000
1000
0100
1000
0000
,
0000
0000
0001
0100
0001
0000
0000
0000
0110
0000
0000
0000
1001
0000
0000
0000
,
0001
0000
1000
0010
1000
0010
1000
0010
1000
0000
0000
0000
0001
0010
0001
0000
,
1000
0010
1000
0000
0001
0010
0100
0000
1000
0000
0010
0000
0100
0000
0001
0000
,
1001
0000
0110
0000
1000
0100
0010
1000
,
0010
0001
1001
0000
0001
0100
1000
0100
,
0010
0100
0101
0000
1000
0100
0001
0100
,
0010
0000
0100
1000
0001
1000
0010
0000
,
1000
0000
0001
0100
0001
0100
0001
0100
0001
0000
0000
0000
1000
0100
1000
0000
,
0000
0000
0001
0100
0001
0000
0000
0000
1000
0100
0010
0000
0001
0100
0010
0000
,
1000
0000
0001
0010
0001
0010
0001
0010
0001
0000
0000
0000
1000
0010
1000
0000
,
0001
0010
0100
0000
1000
0010
0100
0000
0001
0000
1000
0000
1001
0000
0000
0000
,
0110
0000
1000
0100
0001
0100
0010
0001
,
0100
0010
0001
0010
1000
0001
0010
0100
,
0010
0000
0001
1000
0010
0001
0010
0100
,
0101
1100
1010
0011
,
1001
0000
0001
0100
1000
0001
0010
0100
,
0001
1000
0100
0001
1000
0010
0001
1000
,
0001
0000
1000
0010
0001
0010
0100
0010
,
0110
1001
1010
0101
,
1100
0000
0000
0101
0000
0000
1100
0000
,
0001
0000
0100
0000
1000
0000
0100
0000
0001
1000
0001
1000
0100
0000
0000
0000
,
1010
0000
0000
0011
0000
0000
1010
0000
,
0001
0010
1000
0001
0100
1000
0001
0000
,
1000
0100
0001
1000
0010
0001
1000
0010
,
0001
1000
0100
0001
1000
0100
0001
1000
,
0010
0100
1000
0010
0100
1000
0001
0010
,
1000
0010
0100
0010
1000
0000
0001
0010
0100
0010
0001
0000
0202
0000
0000
0000
,
0000
0000
0000
0000
,
0000
0000
0000
0000
0000
0000
0303
0000
0001
1000
0001
1000
0001
0000
0000
0000
,
1000
0010
1000
0000
0001
0000
0000
0000
1000
0000
0010
0000
0100
0000
1000
0000
,
0000
0000
0100
0001
0100
0000
0010
0000
1000
0000
0001
0000
0010
0000
0100
0000
,
1000
0000
0001
0000
0100
0000
0000
0000
0010
1000
0010
0000
0100
0000
0001
0000
,
0000
0000
1000
0100
0010
0000
0001
0000
1000
0000
0001
0000
0101
0000
0000
0000
,
0001
0010
0001
0000
1000
0000
0000
0000
0001
0000
0010
0000
0100
0000
1000
0000
,
0000
0000
0010
0100
0010
0000
0100
0000
1000
0000
0100
0000
0001
0000
0010
0000
,
0100
1000
0010
0000
0100
0001
1000
0100
,
1000
0000
0011
0011
0110
0000
1001
0000
,
0001
0100
0001
0000
1000
0000
0000
0000
0100
0010
0001
0000
1000
0000
0010
0000
,
0000
0000
0100
0001
1000
0000
0001
0000
0010
0000
0100
1000
0001
0000
0100
0000
,
0010
0000
1000
0000
0001
0000
0000
0000
1000
0100
0010
0000
0001
0000
1000
0000
,
0000
0000
0001
1000
0010
0000
0100
0001
1000
0000
0100
0000
0110
0000
0000
0000
,
1001
0000
0000
0000
1100
0000
0000
0000
0100
0000
0000
0000
1000
0010
0100
0010
,
1000
0000
0001
0000
0010
0000
0001
0000
0100
0000
0010
0000
1000
0001
0010
0000
,
0100
0010
0100
0000
0010
0100
0000
1000
,
0001
0000
0100
0001
1000
0100
0010
0000
,
1001
0000
0001
0100
0010
0000
1000
0001
,
0010
0100
0010
0000
0100
1000
0100
1000
0001
0000
0000
0000
0100
0000
0010
0000
,
1000
0100
1000
0000
0001
0100
0001
0100
0010
0000
0000
0000
1001
0000
0000
0000
,
1000
0000
0100
1000
0001
0000
0100
0010
1000
0000
0001
0000
0020
0000
0000
0000
,
0130
0000
0000
0000
1000
0001
0100
0000
0010
1000
0010
1000
0010
0000
0100
0000
,
0001
1000
0100
0000
1000
0001
0100
0001
0100
0000
0010
0000
1000
0000
0001
0000
,
1000
0100
0010
0001
1000
0000
0000
0000
0001
0100
0010
1000
0001
0000
0000
0000
,
0010
0100
1000
0001
0100
0000
0000
0000
0010
1000
0001
0010
0100
0000
0000
0000
,
1000
0100
0000
0100
0001
0000
0001
0010
,
0000
0010
1000
0000
1000
0100
0000
0100
,
0001
0000
0101
0011
0000
1010
1100
0000
,
1000
0100
0101
0000
1100
0000
0202
0000
,
0000
0000
0000
0000
,
0000
0000
0000
0000
,
0000
0000
0303
0000
;

//--------------- dance-double - Fred-104 ----------------
#NOTEDATA:;
#STEPSTYPE:dance-double;
#DESCRIPTION:Fred-104;
#DIFFICULTY:Easy;
#METER:10;
#CREDIT:Fred-104;
#NOTES:
00000000
00000000
00000000
00000000
,
00000000
00000000
00000000
00000000
,
00000000
00000000
00000000
00000000
,
00000000
00000000
00000000
00000000
,
00000000
00000000
00000000
00000000
,
00000001
00000000
00000000
00000000
00000100
00000000
00000000
00001000
00000000
00000000
00010000
00000000
01000000
00000000
00000000
00000000
,
10000000
00000000
01000000
00100000
00001000
00010000
00011000
00000000
,
00010000
00000000
00000000
00000000
00001000
00000000
00000000
00000100
00000000
00000000
00000001
00000000
00000010
00000000
00000000
00000000
,
00000100
00000000
00010000
00000000
00001000
00010000
00011000
00000000
,
00001000
00000000
00000000
00000000
00010000
00000000
00000000
00100000
00000000
00000000
10000000
00000000
00010000
00000000
00100000
00000000
,
01000000
00000000
10000000
00100000
00010000
00001000
00011000
00000000
,
00010000
00000000
00000000
00000000
00001000
00000000
00000000
00000100
00000000
00000000
00000010
00000000
00001000
00000000
00000001
00000000
,
00000010
00000100
00010000
00001000
00010000
00001000
00022000
00033000
,
00001000
00010000
00100000
10000000
,
00100000
10000000
01000000
00100000
,
00001000
00010000
00000100
00000010
,
00000001
00000100
00000110
00000000
,
00000001
00000100
00001000
00010000
,
00001000
00100000
00010000
00100000
,
01000000
10000000
00100000
00010000
,
00001000
00010000
00011000
00000000
,
00010000
00001000
00000000
00001000
,
00000010
00000001
00000000
00000001
,
00000100
00001000
00000000
00001000
,
00010000
00001000
00010000
00100000
,
10000000
00000000
00000000
01000000
00000000
00000000
00100000
00000000
,
00000000
00001000
00000000
00000000
00010000
00000000
00100000
00000000
,
10000000
00000000
00000000
01000000
00000000
00000000
00010000
00000000
,
00001000
00000100
00001001
00000000
,
00000001
00000100
00000000
00000100
,
00001000
00010000
00000000
00010000
,
00100000
10000000
00000000
10000000
,
01000000
00100000
00001000
00010000
,
00001000
00000000
00000000
00010000
00000000
00000000
01000000
00000000
,
00000000
10000000
00000000
00000000
00100000
00000000
00010000
00000000
,
00001000
00000000
00000000
00010000
00000000
00000000
00000100
00000000
,
00010000
00001000
00011000
00000000
,
00011000
00000000
00001000
00000000
,
00010000
00100000
10000000
00010000
,
00100000
00000000
01000000
00000000
,
00100000
00100000
00001000
00001000
,
00010000
00000000
00001000
00000000
,
00000100
00000001
00001000
00000100
,
00000010
00000000
00000001
00000000
,
00000100
00001000
00010000
00001000
,
00011000
00000000
00000000
01000000
00000000
00000000
00100000
00000000
,
10000000
00000000
01000000
00000000
00100000
00010000
00100000
00000000
,
00101000
00000000
00000000
00001000
00000000
00000000
00010000
00000000
,
00000100
00000000
00001000
00000000
00000100
00000010
00000001
00000000
,
00001000
00000000
00000000
00000001
00000000
00000000
00000100
00000000
,
00000000
00001000
00000000
00000000
00010000
00000000
00000000
00100000
,
00000000
00000000
10000000
00000000
00000000
01000000
00000000
00000000
,
00010000
00000000
00000000
00001000
00000000
00000000
00022000
00000000
,
00000000
00000000
00000000
00000000
,
00000000
00000000
00033000
00000000
,
00001000
01001000
00001000
00010000
,
00000100
00001000
00000100
00000010
,
00000001
00000100
00001000
00010000
,
00100000
00000000
10000000
00000000
00010000
10000000
00010000
00000000
,
10000000
10100000
00010000
10000000
,
01000000
00010000
00001000
00000100
,
00000010
00001000
00000001
00000010
,
00000100
00000000
00010000
00000000
00001000
00010000
00001000
00000000
,
00010000
00010100
00000100
00001000
,
00000100
00000010
00000001
00001000
,
00000010
00010000
00001000
00010000
,
00100000
00000000
01000000
00000000
00010000
10000000
00010000
00000000
,
10000000
01000000
01100000
00000000
,
00001000
00010000
00010010
00000000
,
00010000
00001000
00000100
00000001
,
00001000
00000100
00000110
00000000
,
00000002
00000103
00002000
00003100
,
00000001
00000100
00000001
00000100
00000001
00000000
00001000
00000000
,
00000100
00010000
00000100
00000000
00010000
00001000
00010000
00000000
,
00001000
00010000
00022000
00033000
,
00001000
00010000
00100000
10000000
,
00010000
00100000
00010000
00000000
10000000
00100000
10000000
00000000
,
01000000
00100000
01000000
00000000
00100000
00010000
00100000
00000000
,
00001000
00010000
00100000
00000000
01000000
00010000
10000000
00000000
,
10000000
00000000
00000000
01000000
00000000
00000000
00010000
00000000
,
00000000
00001000
00000000
00000000
00000100
00000000
00000000
00000001
,
00000000
00000000
00000010
00000000
00000000
00001000
00000000
00000000
,
00010000
00001000
00001000
00020000
,
00000000
00000000
00000000
00000000
,
00000000
00000000
00000000
00000000
,
00000000
00000000
00030000
00000000
;

//--------------- dance-double - Fred-104 ----------------
#NOTEDATA:;
#STEPSTYPE:dance-double;
#DESCRIPTION:Fred-104;
#DIFFICULTY:Medium;
#METER:13;
#CREDIT:Fred-104;
#NOTES:
00000000
00000000
00000000
00000000
,
00000000
00000000
00000000
00000000
,
00000000
00000000
00000000
00000000
,
00000000
00000000
00000000
00000000
,
00000000
00000000
00000000
00000000
,
10000000
00000000
00000000
00000000
01000000
00000000
00000000
00010000
00000000
00000000
00001000
00000000
00000100
00000000
00000001
00000000
,
00000010
00000001
00000010
00001000
00010000
00100000
10000000
00010000
,
10000000
00000000
00000000
00000000
00100000
00000000
00000000
00010000
00000000
00000000
00001000
00000000
00000010
00000000
00000001
00000000
,
00000100
00000000
00000001
00000000
00000100
00000000
00001000
00000000
00010000
00000000
00100000
00000000
10000000
00010000
10000000
00000000
,
01000000
00000000
00000000
00000000
00100000
00000000
00000000
00001000
00000000
00000000
00010000
00000000
00001000
00000000
00000010
00000000
,
00000100
00000000
00001000
00000000
00000001
00000000
00000100
00000000
00001000
00000000
00010000
00000000
00100000
10000000
00010000
00000000
,
00100000
00000000
00000000
00000000
01000000
00000000
00000000
00100000
00000000
00000000
00001000
00000000
00010000
00000000
00001000
00000000
,
00000100
00000000
00000001
00000000
00000010
00000000
00000100
00000000
00010000
00001000
00010000
00001000
00010000
00000000
00000000
00000000
,
00000100
00000000
00001000
00000000
00000001
00000010
00000001
00000100
,
00000000
00001000
00000000
00010000
01000000
10000000
01000000
00000000
,
10000000
00000000
00010000
00000000
10000000
00010000
10000000
01000000
,
00000000
00100000
00000000
00001000
00010000
00000000
00011000
00000000
,
00000100
00000000
00001000
00000000
00000001
00000010
00000001
00000100
,
00000000
00001000
00000000
00010000
01000000
10000000
01000000
00000000
,
10000000
00000000
00010000
00000000
10000000
01000000
00100000
00001000
,
00000000
00010000
00000100
00000010
00000001
00000000
00001001
00000000
,
00000001
00000000
00000100
00000000
00001000
00010000
00001000
00010000
,
00000000
00000000
00100000
00000000
01000000
00010000
01000000
00010000
,
00000000
00000000
10000000
00000000
01000000
00100000
01000000
00100000
,
00001000
00000000
00010000
00000100
00010000
00000100
00001000
00000000
,
00000000
00000001
00000010
00000100
00010000
00000000
00001000
00100000
,
00000000
00100000
00010000
00000000
02000000
03000000
00020000
00030000
,
00000000
10000000
01000000
00100000
00001000
00000000
00010000
00001000
,
00010000
00000000
00000100
00000000
00000010
00000001
00001000
00000000
,
00000001
00000000
00000010
00000000
00001000
00010000
00001000
00010000
,
00000000
00000000
01000000
00000000
00100000
00010000
00100000
00010000
,
00000000
00000000
10000000
00000000
01000000
00010000
01000000
00010000
,
00001000
00000000
00000100
00000010
00000100
00000010
00001000
00000000
,
00000000
00000001
00000100
00001000
00010000
00000000
01000000
00100000
,
00000000
00010000
10000000
00000000
00200000
00300000
00020000
00030000
,
00001000
00010000
00000010
00010000
00001000
00000000
00010000
00001000
,
00000100
00000000
00000001
00000010
00000100
00010000
00001000
00000000
,
00011000
00001000
00010000
00100000
,
01000000
00000000
00010000
00000000
10000000
01000000
00100000
00000000
,
00001000
00010000
00001000
00000100
,
00000001
00000011
00001000
00001010
,
00000001
00000010
00001000
00010000
,
00100000
00000000
00010000
00000000
00001000
00000010
00001000
00000000
,
00010000
01000000
10000000
00010000
,
11000000
01010000
10100000
00110000
,
00011000
00000000
00000000
00010010
00000000
00000000
00011000
00000000
,
00010000
00001000
00000100
00000000
00000001
00001000
00000100
00000000
,
00000110
00000000
00000000
00000011
00000000
00000000
00001010
00000000
,
00000001
00000000
00000100
00000000
00001000
00010000
00001000
00000000
,
00010000
00001000
00000000
00000010
00001000
00000000
00010000
00001000
,
00000000
00100000
00001000
00000000
00010000
00001000
00000000
01000000
,
00001000
00000000
00010000
00001000
00000000
01000000
00010000
00000000
,
10000000
01000000
00000000
00100000
00001000
00000000
00022000
00000000
,
00000000
00000000
00000000
00000000
,
00000000
00000000
00000000
00033000
00010000
00001000
00010000
00000000
,
00010000
00000000
00010100
00000000
00010000
00001000
00000100
00000001
,
00000000
00000010
00000100
00000000
00001000
00000000
00000100
00010000
,
00001000
00010000
00100000
00000000
01000000
00010000
00000000
10000000
,
01000000
00000000
00100000
00000000
00001000
00010000
00001000
00000000
,
00010000
00000100
00000010
00000000
00000001
00000000
00001000
00000010
,
00000000
00000100
00001000
00000000
00010000
00000000
00100000
01000000
,
00010000
10000000
01000000
00000000
00100000
00001000
00000000
00001000
,
00010000
00011000
00010010
00011000
,
00001000
00010000
00100000
00000000
01000000
00000000
00010000
10000000
,
00000000
01000000
10000000
01000000
00100000
00000000
00001000
00010000
,
00000100
00010000
00001000
00000000
00010000
00000000
00001000
00000100
,
00000001
00001000
00000100
00000010
,
00000011
00000000
00001010
00000000
00000011
00000000
00000001
00000100
,
00001000
00000000
00010000
01000000
10000000
00000000
00010000
00100000
,
01000000
00100000
00010000
00000000
10000000
01000000
00000000
00100000
,
00001000
00010000
00010100
00011000
,
00020000
00031000
00000020
00001030
,
00010000
00001000
00010000
00000010
00001000
00000000
00000001
00000010
,
00000100
00001000
00000100
00010000
00001000
00000000
00010000
00000000
,
00002000
00023000
00230000
02300000
,
03010000
00000000
10000000
01000000
00100000
00001000
00010000
00000000
,
00001000
00100000
00001000
00000000
00010000
00000010
00010000
00000000
,
00010000
00001000
00000010
00000000
00000001
00000010
00001000
00000000
,
00010000
01000000
10000000
00000000
01000000
00010000
00001000
00000000
,
00010000
00001000
00000000
00000010
00000100
00000000
00001000
00000001
,
00000000
00000001
00000100
00000000
00000100
00001000
00000000
00001000
,
00010000
00000000
00010000
00100000
00000000
00100000
01000000
00000000
,
00010000
01000000
10000000
01000000
00100000
01000000
00020000
00000000
,
00000000
00000000
00000000
00000000
,
00000000
00000000
00000000
00000000
,
00000000
00000000
00030000
00000000
;

//--------------- dance-double - Fred-104 ----------------
#NOTEDATA:;
#STEPSTYPE:dance-double;
#DESCRIPTION:Fred-104;
#DIFFICULTY:Hard;
#METER:16;
#CREDIT:Fred-104;
#NOTES:
00000000
00000000
00000000
00000000
,
00000000
00000000
00000000
00000000
,
00000000
00000000
00000000
00000000
,
00000000
00000000
00000000
00000000
,
00000000
00000000
00000000
00000000
,
00000101
00000000
00000000
00000000
00001100
00000000
00000100
00000010
00000000
00001000
00000001
00000000
00000100
00001000
00010000
00100000
,
01000000
00000000
00010000
00000000
00100000
01000000
10000000
01000000
00010000
00000000
00011000
00000000
00001100
00000000
00000101
00000000
,
00001001
00000000
00000000
00000000
00000110
00000000
00000001
00000010
00000000
00001000
00010000
00000000
01000000
00100000
01000000
00100000
,
01000000
00000000
10000000
00000000
01000000
00010000
00001000
00010000
00001000
00001000
00010000
00010000
00000010
00010000
00011000
00000000
,
00011000
00000000
00000000
00000000
00000101
00000000
00001000
00000100
00000000
00000010
00000001
00000000
00000100
00001000
00010000
00100000
,
10000000
00000000
01000000
00000000
00100000
01000000
10000000
01000000
00100000
00000000
00101000
00000000
00010010
00000000
00001010
00000000
,
00001001
00000000
00000000
00000000
00000101
00000000
00000001
00000010
00000000
00000100
00010000
00000000
00001000
00100000
00010000
00100000
,
01000000
00000000
00000000
00000000
10000000
00000000
00000000
00000000
00100000
00000000
00010000
00000000
00001000
00000000
00000100
00000000
00000001
00001000
00000001
00001000
00000100
00000010
00000100
00000010
00000001
00000000
00000010
00000000
00000011
00000000
00000000
00000000
,
00001000
00000001
00000100
00000000
00000010
00000100
00001000
00010000
,
00100000
10000000
00010000
00100000
01000000
00010000
00001000
00000000
,
00010000
00001000
00000100
00000000
00000001
00000100
00001000
00010000
,
00001000
00000000
00100000
00010000
00100000
00000000
00010000
10000000
00010000
00000000
00000000
00000000
10010000
00000000
00000000
00000000
,
10000000
01000000
00010000
00000000
01000000
00100000
01000000
00100000
,
00000000
00010000
10000000
00100000
00010000
00001000
00010000
00000000
,
00011000
00000000
00010000
00000100
00000010
00000100
00001000
00000001
,
00000000
00000000
00000100
00001000
00010000
00000000
00100000
00000000
01000000
00000000
00010000
00000000
10000000
00000000
00000000
00000000
,
01000000
00000000
10010000
00000000
10000000
00010000
00100000
01000000
,
00000000
00100000
00110000
00000000
00001000
00010000
00001000
00000100
,
00000000
00000001
00001001
00000000
00000001
00000100
00001000
00010000
,
00100000
00000000
10000000
01000000
00010000
00001000
00000010
00000000
,
00000001
00000000
00001000
00000100
00001000
00000100
00001000
00000100
00001000
00000000
00000000
00000000
00000100
00010000
00000100
00000000
,
00000000
00000000
00010000
00001000
00010000
00000000
00000000
00000000
00011000
00000000
00000000
00000000
01100000
00000000
00000000
00000000
,
10000000
00000000
00010000
01000000
00010000
01000000
00010000
01000000
00010000
00000000
00000000
00000000
00100000
00001000
00100000
00000000
,
00001000
00010000
00001000
00000000
00010000
00000000
00001000
00000000
00000010
00000000
00000100
00000000
00000110
00000000
00000000
00000000
,
00000010
00000000
00001001
00000000
00000001
00000010
00000100
00000010
,
00001000
00010000
01000000
00000000
10000000
00010000
01000000
00100000
,
00010000
00001000
00010000
00000000
00100000
01000000
00001000
00010000
,
00001000
00000000
00010000
00001000
00000010
00001000
00010000
00000000
,
00001000
00000000
01000000
00010000
01000000
00010000
01000000
00010000
01000000
00000000
00000000
00000000
00001000
00010000
00001000
00000000
,
00000000
00000000
00010000
00001000
00010000
00000000
00000000
00000000
00001010
00000000
00000000
00000000
00000101
00000000
00000000
00000000
,
00000001
00000000
00001000
00000100
00001000
00000100
00001000
00000100
00001000
00000000
00000000
00000000
00000100
00010000
00000100
00000000
,
00010000
00001000
00010000
00000000
00001000
00000000
00010000
00000000
01000000
00000000
00010000
00000000
00001000
00000000
00000000
00000000
,
00011000
00000000
00001000
00100000
00001000
00010000
00000100
00000010
,
00000001
00000100
00001000
00010000
00100000
01000000
00010000
10000000
,
01000000
00000000
10000000
00010000
01000000
00100000
00010000
00001000
,
00011000
00001010
00000011
00001001
,
00000110
00000000
00000001
00001000
00000100
00000010
00001000
00010000
,
01000000
10000000
00010000
01000000
00001000
00000100
00000010
00001000
,
00000001
00000000
00000010
00001000
00010000
01000000
10000000
01000000
,
01100000
00011000
00000110
00001001
,
00000101
00000000
00000000
00001100
00000000
00000000
00011000
00000000
,
00001000
00010000
00100000
01000000
00010000
10000000
01000000
00000000
,
10100000
00000000
00000000
00110000
00000000
00000000
00011000
00000000
,
00010000
00001000
00000010
00000001
00000010
00000100
00001000
00000000
,
00000001
00000100
00001000
00010000
00100000
10000000
10000000
01000000
,
00010000
00001000
00000010
00000001
00000001
00000100
00001000
00010000
,
00100000
10000000
10000000
01000000
00010000
00001000
00000010
00000001
,
00000001
00000100
00001000
00010000
00100000
10000000
20020000
00000000
,
00000000
00000000
00000000
00000000
,
00000000
00000000
00000000
00000000
00000000
00000000
30030000
00000000
10000000
00100000
10000000
00100000
10000000
00000000
00000000
00000000
,
00010000
00100000
00010000
00000000
10000000
00000000
00000000
00000000
01000000
00000000
00100000
00000000
00001000
00000000
00010000
00000000
,
00000000
00000100
00000010
00000001
00001000
00000010
00000100
00001000
,
00010000
00100000
01000000
00000000
00010000
10000000
01000000
00100000
,
00000000
00000000
00001000
00010000
00001000
00000000
00010000
00000010
00010000
00000000
00000010
00001000
00000001
00000000
00000000
00000000
,
00001000
00000100
00001000
00000000
00000001
00000000
00000000
00000000
00000010
00000000
00000100
00000000
00010000
00000000
00001000
00000000
,
00000000
00010000
00100000
01000000
00010000
10000000
01000000
00010000
,
00001000
00010000
01000000
00000000
00100000
00001000
00010000
00001000
,
00000100
00000000
00000001
00001000
00000001
00000000
00000010
00000100
00001000
00000000
00000100
00000000
00010000
00000000
00000000
00000000
,
00001000
01000000
00001000
00000000
00010000
00000000
00000000
00000000
00001000
00100000
00010000
00000000
10000000
00000000
00100000
00000000
,
00000000
00000000
10000000
01000000
00100000
00000000
00001000
00000000
00010000
00000000
00000100
00001000
00000001
00000000
00000010
00000000
,
00000100
00010000
00001000
00000000
00010000
00100000
01000000
00010000
,
00000000
00000000
10000000
01000000
00100000
00000000
00001000
00010000
00000010
00000000
00001000
00000000
00000001
00000000
00000000
00000000
,
00000110
00000000
00011000
00000000
01100000
00000000
10000000
00010000
,
01000000
10000000
01000000
00010000
00100000
01000000
00010000
00001000
,
00000010
00000100
00001000
00000000
00000001
00000100
00000000
00000010
,
00001000
00000000
00000001
00000010
00001000
00010000
01000000
00000000
,
11000000
00000000
01000000
00100000
00010000
00000000
01000000
00100000
,
10000000
01000000
10000000
00000000
01000000
00100000
01000000
00000000
00100000
00001000
00100000
00001000
00010000
00000000
00001000
00000000
,
00010000
00000100
00010000
00000100
00001000
00000100
00001000
00000100
00000010
00000000
00000000
00000000
00000011
00000000
00000000
00000000
,
00000001
00000000
00001000
00000100
00000010
00000000
00000001
00000100
00000010
00000000
00001000
00000000
00000200
00000000
00000000
00000000
,
00010300
00000000
00000000
00000000
00000010
00010000
00001000
00010000
00100000
00000000
01000000
00000000
00010000
00000000
10000000
00000000
,
01000000
00000000
00100000
00000000
00001000
00000000
00000010
00000000
00000100
00000000
00001000
00000000
00000001
00000010
00000100
00000000
,
00000010
00000001
00001000
00000010
00000100
00000000
00000000
00000000
00000001
00001000
00000100
00010000
00001000
00000000
00000000
00000000
,
00100000
00010000
10000000
00100000
01000000
00000000
00000000
00000000
00010000
10000000
01000000
00100000
00010000
00000000
00000000
00000000
,
10000000
01000000
00000000
01000000
00010000
00000000
00010000
00001000
,
00000000
00001000
00000100
00000000
00000100
00000001
00000000
00000001
,
00000010
00000000
00000011
00001010
00000000
00011000
00011000
00000000
,
00010000
01000000
11000000
00000000
10010000
00000000
02002000
00000000
,
00000000
00000000
00000000
00000000
,
00000000
00000000
00000000
00000000
,
00000000
00000000
03003000
00000000
;
