#TITLE:brown hawk owl;
#ARTIST:BEMANI Sound Team "S-C-U";
#ARTISTTRANSLIT:S-C-U;
#BANNER:brown hawk owl.png;
#BACKGROUND:brown hawk owl-bg.png;
#CDTITLE:./CDTitles/jubeat Ave.png;
#MUSIC:brown hawk owl.ogg;
#SAMPLESTART:52.422;
#SAMPLELENGTH:15;
#BPMS:0=190;
#BGSTAGE:5;

//--------------- dance-single - Fred-104 ----------------
#NOTES:
     dance-single:
     Fred-104:
     Beginner:
     4:
     :
0000
0000
0000
0000
,
0000
0000
0000
0000
,
0000
0000
0000
0000
,
0000
0000
0000
0000
,
0000
0000
0000
0000
,
0000
0000
0000
0000
,
0000
0000
0000
0000
,
0000
0000
0000
0000
,
0000
0000
0000
0000
,
0000
0000
0000
0000
,
1000
0000
0000
0000
,
0100
0000
0100
0000
,
0100
0000
0000
0000
,
0010
0000
0010
0000
,
0010
0000
0000
0010
,
0000
0000
0001
0000
,
1000
0000
0000
1000
,
0000
0000
0010
0000
,
1000
0000
0000
0000
,
0001
0000
0001
0000
,
0001
0000
0000
0000
,
0010
0000
0010
0000
,
0010
0000
0000
0100
,
0000
0000
0100
0000
,
1000
0000
0000
0001
,
0000
0000
1000
0000
,
0001
0000
0000
0000
,
0000
0000
0001
0000
,
1000
0000
0000
0000
,
0000
0000
1000
0000
,
0001
0000
0001
0000
,
0010
0000
0010
0000
,
0100
0000
0100
0000
,
1000
0000
0001
0000
,
1000
0000
0010
0000
,
0010
0000
0001
0000
,
0010
0000
0010
0000
,
1000
0000
1000
0000
,
0001
0000
0000
0000
,
1000
0000
0000
0000
,
0001
0000
1000
0000
,
1001
0000
0000
0000
,
1000
0000
1000
0000
,
0100
0000
0100
0000
,
0010
0000
0010
0000
,
0001
0000
1000
1000
,
1000
0000
0001
0000
,
1000
0000
0001
0000
,
0100
0000
0010
0000
,
0100
0000
0100
0000
,
0001
0000
0001
0000
,
1000
0000
0100
0000
,
0010
0000
0001
0000
,
1000
0000
0001
0001
,
0001
0000
1000
0000
,
0001
0000
0100
0000
,
0010
0000
0100
0000
,
0001
0001
0001
0001
,
0002
0000
0000
0000
,
0000
0000
0000
0003
,
2000
0000
0000
3000
,
0002
0000
0000
0003
,
2000
0000
0000
0000
,
0000
0000
0000
3000
,
0002
0003
2000
3000
,
0001
0001
0001
0000
,
1000
0000
1000
0000
,
0100
0000
0100
0000
,
0001
0000
0001
0000
,
0010
0000
0010
0000
,
1000
0000
1000
0000
,
0001
0000
0001
0000
,
1000
1000
1000
1000
,
1001
0000
0000
0000
,
0001
0000
0001
0000
,
0100
0000
0100
0000
,
0010
0000
0010
0000
,
1000
0000
0001
0001
,
0001
0000
1000
0000
,
0001
0000
1000
0000
,
0100
0000
0010
0000
,
0100
0000
0100
0000
,
1000
0000
1000
0000
,
0001
0000
0100
0000
,
0010
0000
1000
0000
,
0001
0000
1000
1000
,
1000
0000
0001
0000
,
1000
0000
0100
0000
,
0010
0000
0100
0000
,
1000
1000
1000
1000
,
2000
0000
0000
0000
,
0000
0000
0000
3000
,
0002
0000
0000
0000
,
0000
0000
0000
0000
,
0003
0000
0000
0000
;

//--------------- dance-single - Fred-104 ----------------
#NOTES:
     dance-single:
     Fred-104:
     Easy:
     8:
     :
0000
0000
0000
0000
,
0000
0000
0000
0000
,
0000
0000
0000
0000
,
0000
0000
0000
0000
,
0000
0000
0000
0000
,
0000
0000
0000
0000
,
0000
0000
0000
0000
,
0000
0000
0000
0000
,
0001
0000
0000
0100
0000
0000
0010
0000
,
1000
0001
1000
0000
1000
0100
1000
0000
,
0001
0000
1000
0000
0000
0010
0000
0010
,
0000
0100
0001
1000
,
0100
0000
0010
0000
0000
0001
0000
0001
,
0000
1000
0000
1000
0000
0000
0001
0000
,
0100
0000
0000
0010
0000
0000
0200
0000
,
0000
0000
0300
0001
,
1000
0000
0000
0100
0000
0000
0020
0000
,
0000
0000
0000
0030
,
0001
0000
0001
0000
0000
1000
0000
1000
,
0000
0010
1000
0001
,
0010
0000
0100
0000
0000
0010
0000
0010
,
0000
0001
0000
0001
0000
0000
1000
0000
,
0001
0000
0000
0100
0000
0000
0010
0000
,
0000
1000
0000
0000
0001
0000
1000
0000
,
0100
0000
0000
0010
0000
0000
0001
0000
,
1000
0001
1000
0000
0001
0000
0100
0000
,
0110
0000
0010
0000
0000
0100
0000
0110
,
0000
0001
1000
0100
,
0010
0000
0110
0000
0000
0001
0000
1001
,
0000
1000
0001
0001
,
1000
1000
0100
0010
,
0001
0000
0000
1000
0000
0000
0001
0000
,
0100
0100
0010
0010
,
0100
0000
0100
0000
0001
1000
0001
0000
,
1001
0000
1000
0100
,
0001
0000
0001
0100
,
1000
1000
0010
0001
,
0001
0010
1000
1000
,
0001
0000
0000
0001
0000
0000
0000
0000
,
1000
0000
0000
1000
0000
0000
0000
0000
,
0001
0000
1000
0000
,
2002
0000
3003
0000
,
1000
0000
0000
0100
0000
0000
0010
0000
,
0001
0000
0000
1000
0000
0000
0001
0000
,
0100
0000
0000
0010
0000
0000
0100
0000
,
0001
0000
0000
1000
0000
0000
0001
0000
,
0010
0100
1000
1000
,
0001
0000
0000
1000
0000
0000
0001
0000
,
0100
0000
0000
0010
0000
0000
0100
0000
,
0001
0000
0001
0000
1000
0001
1000
0000
,
0001
0000
0000
0100
0000
0000
0010
0000
,
1000
0000
0000
0100
0000
0000
0010
0000
,
0001
0000
0000
1000
0000
0000
0001
0000
,
0100
0000
0000
0010
0000
0000
0100
0000
,
0001
1000
0100
0100
,
0010
0000
0000
0001
0000
0000
1000
0000
,
0001
0000
0000
0100
0000
0000
0010
0000
,
0100
0010
0100
0000
0001
1000
0001
0000
,
1000
0000
0000
0200
0000
0000
0000
0000
,
0000
0000
0000
0300
,
0010
0001
1000
0010
,
0100
0000
0100
0000
0001
1000
0001
0000
,
0010
0000
0000
0200
0000
0000
0000
0000
,
0000
0000
0000
0300
,
2000
3000
0002
0003
,
1000
0000
1000
0000
0001
1000
0001
0000
,
0100
0000
0010
0000
0000
1000
0000
0000
,
0100
0000
0000
0010
0000
0000
0100
0000
,
1000
0001
1000
0000
0001
0100
0001
0000
,
1000
0010
1000
0000
0001
0010
0001
0000
,
1000
0000
0000
0010
0000
0000
0100
0000
,
0001
1000
0100
0010
,
0001
0001
1000
1000
,
2002
0000
3003
0000
,
0001
0000
0000
0100
0000
0000
0010
0000
,
1000
0000
0000
0001
0000
0000
1000
0000
,
0100
0000
0000
0010
0000
0000
0100
0000
,
1000
0000
0000
0001
0000
0000
1000
0000
,
0010
0100
0001
0001
,
1000
0000
0000
0001
0000
0000
1000
0000
,
0100
0000
0000
0010
0000
0000
0100
0000
,
1000
0000
1000
0000
0001
1000
0001
0000
,
1000
0000
0000
0100
0000
0000
0010
0000
,
0001
0000
0000
0100
0000
0000
0010
0000
,
1000
0000
0000
0001
0000
0000
1000
0000
,
1001
0001
1001
1000
,
0001
0001
0100
0100
,
0010
0010
1000
1000
,
0100
0100
1000
1000
,
0001
0100
0001
0100
0001
0000
1000
0000
,
0001
0000
0000
2000
0000
0000
0000
0000
,
0000
0000
0000
3000
,
0100
0000
0000
0010
0000
0000
0010
0000
,
0000
0001
0000
0000
1000
0000
0002
0000
,
0003
0000
0000
0000
;

//--------------- dance-single - Fred-104 ----------------
#NOTES:
     dance-single:
     Fred-104:
     Medium:
     12:
     :
0000
0000
0000
0000
,
0000
0000
0000
0000
,
0000
0000
0000
0000
,
0000
0000
0000
0000
,
0000
0000
0000
0000
,
0000
0000
0000
0000
,
1001
0000
0000
0000
,
0000
0000
0000
0000
,
1000
0000
0100
1000
0000
0100
1000
0000
,
0001
1000
0010
0000
1000
0001
0010
0000
,
0110
0000
0100
0000
1000
0001
1000
0001
,
0000
0001
0100
0000
0100
0010
0000
0010
,
0100
0000
0101
0000
0001
0010
0100
1000
,
0000
1000
0001
0100
0000
0100
0010
1000
,
0001
0000
0001
0010
0000
0100
0010
0000
,
0001
0010
0000
0100
1000
0000
1001
0000
,
0001
0000
1000
0010
0000
1000
0001
0000
,
1000
0010
0000
1000
0001
0010
0100
0010
,
0100
0000
1100
0000
0001
1000
0010
1000
,
0000
1000
0001
0000
0010
0100
0010
0000
,
0001
0000
1001
0000
1000
0001
0100
0001
,
0000
0001
1000
0100
0010
0000
0010
0100
,
1000
0000
0001
0100
0000
0010
1000
0000
,
0001
1000
0000
0010
0100
0000
0101
0000
,
1001
0000
0001
0010
0000
0010
0100
0010
,
0001
1000
0001
0000
0100
0000
0110
0000
,
1001
0000
1001
0000
0000
0001
0000
1000
,
0000
0100
0100
0000
0010
0000
0001
0000
,
1001
0000
1001
0000
0000
0001
0000
0001
,
0000
0100
0010
0000
0100
0001
0100
0000
,
1001
0000
0001
0100
0000
0010
0100
0000
,
0001
1000
0100
0000
0010
0100
1000
0000
,
0001
0000
1000
0010
1000
0010
0100
0010
,
0100
0001
0100
0000
0001
0000
1001
0000
,
0110
0000
0000
0000
1000
0000
0000
0000
0001
0000
0000
0001
0000
0000
0010
0000
,
0100
0000
0000
0000
1000
0000
0000
0000
0001
0000
0000
0001
0000
0000
0100
0000
,
0010
0000
0000
0010
0000
0000
0010
0000
0100
0000
0000
0100
0000
0000
0100
0000
,
0001
0000
1000
0100
0010
0001
1000
0000
,
0001
0000
0000
0100
0000
0000
0110
0000
0000
0000
0000
0000
0000
0000
0000
0000
,
1000
0000
0000
0100
0000
0000
0110
0000
0000
0000
0000
0000
0000
0000
0000
0000
,
0001
0000
0000
0010
0000
0000
0100
0000
1000
0000
0000
0010
0000
0000
0100
0000
,
0002
0000
0003
0000
,
1000
0000
0100
0010
0000
0010
0001
0000
,
1000
0000
0001
0100
0000
0100
0010
0000
,
1000
0000
0100
0010
0000
0010
0100
0000
,
1000
0000
0010
1000
0000
1000
0001
0000
,
0110
0000
1000
0000
0001
1000
0010
0000
,
0100
0000
0001
0010
0000
0010
0100
0000
,
0010
0000
0001
0100
0000
0100
0010
0000
,
0100
0001
0100
0000
0010
1000
0001
0000
,
1000
0100
1000
0100
0000
0010
0001
0000
,
1000
0010
1000
0010
0000
0100
0001
0000
,
1000
0001
1000
0001
0000
0010
0100
0000
,
1000
0001
1000
0010
1000
0001
1000
0000
,
0100
0010
0100
0010
0000
0001
1000
0000
,
0001
0100
0010
0100
0000
0010
1000
0000
,
0001
0000
0000
0010
0000
0000
0100
0000
1000
0000
0000
0010
0000
0000
0100
0000
,
0001
0100
0010
1000
0100
0010
0001
1000
,
0001
0000
0000
2002
0000
0000
0000
0000
,
0000
0000
0000
0000
3003
0000
0000
1000
,
1000
0000
0000
0100
0000
0000
0001
0000
0001
0000
0000
0100
0000
0000
1000
0000
,
1000
0000
0000
0010
0000
0000
0001
0000
0001
0000
0000
0010
0000
0000
1000
0000
,
1000
0000
0000
0002
0000
0000
0000
0000
,
0000
0000
0000
0000
,
0023
0000
0230
0000
,
1300
0000
0000
1000
0000
0000
1000
0000
0010
0000
0100
0000
0001
0000
0000
0000
,
0010
0000
1001
0000
0001
0010
0100
1000
,
0000
1000
0010
0100
0000
0100
0001
1000
,
0001
0000
1001
0000
1000
0001
0100
0001
,
0000
0001
0010
0100
0000
0100
1000
0001
,
1000
0000
0001
1000
0000
1000
0010
0000
,
0100
0001
1000
0000
0100
0010
0001
0000
,
1000
0100
1000
0100
0001
0100
0001
0100
,
2000
0000
3001
0001
,
1000
0100
1000
0001
0000
0100
0001
0000
,
1000
0010
0100
0010
0000
1000
0001
0000
,
0010
0100
0010
0001
0000
1000
0001
0000
,
0100
0010
1000
0001
0010
0100
1000
0000
,
0001
0000
0100
0010
0001
0000
0011
0000
,
0110
0000
0100
0001
0000
1000
0001
0010
,
0100
0000
1000
0010
0000
1000
0001
1000
,
0100
0000
0110
0000
0010
0001
1000
0000
,
0001
0010
0001
0010
0100
1000
0100
0000
,
1000
0010
1000
0010
0100
0001
1000
0000
,
0001
0010
0100
1000
0100
0010
0001
0000
,
1000
0010
0100
0010
1000
0100
0010
0000
,
0001
0010
0001
0000
0010
0100
0010
0000
,
0100
1000
0100
0000
1000
0001
1000
0000
,
0001
0100
0010
1000
0001
0100
0010
1000
,
0100
0010
0001
0100
0010
0000
1001
0000
,
0002
0000
0000
0203
0000
0000
0000
0000
,
0000
0000
0000
0300
,
0020
0000
0000
0100
0000
0000
0100
0000
,
0000
0100
0000
0000
0100
0000
0200
0000
,
0330
0000
0000
0000
;

//--------------- dance-single - Fred-104 ----------------
#NOTES:
     dance-single:
     Fred-104:
     Hard:
     15:
     :
0000
0000
0000
0000
,
0000
0000
0000
0000
,
0000
0000
0000
0000
,
0000
0000
0000
0000
,
0000
0000
0000
0000
,
0000
0000
0000
0000
,
1001
0000
0000
0000
,
0000
0000
0000
0000
,
0001
0100
0010
1000
0000
0001
1000
0000
,
0100
0000
0100
0000
0010
0000
0010
0000
0001
1000
0001
0000
1000
0001
1000
0000
,
0001
0000
0110
0000
1000
0001
0100
0010
,
0000
0010
0100
0000
0100
0001
0000
0001
,
0010
0000
0110
0000
0100
0001
0100
1000
,
0000
1000
0010
0001
0000
0001
0010
1000
,
0001
0000
1000
0100
0000
0100
0010
0000
,
0010
0001
0000
0001
1000
0010
0100
0000
,
1001
0000
0001
0010
0000
0010
0100
0000
,
0100
0000
1000
0000
0000
0000
1000
0000
0001
0000
0100
0000
0010
0000
0100
0010
,
0100
0000
0101
0000
1000
0100
0010
0001
,
0000
0001
1000
0000
1000
0010
0100
0001
,
0010
0000
1010
0000
0010
0100
1000
0001
,
0000
0001
0100
1000
0100
0001
1000
0001
,
0010
0000
0010
0100
0000
0100
1000
0000
,
1000
0010
0000
0010
0100
0001
1000
0000
,
0110
0000
0001
0100
0000
0100
0010
0100
,
0010
0000
0010
0000
1010
0000
0000
0000
1000
0000
0001
1000
0001
1000
0100
0000
,
0110
0000
0110
0000
0000
0011
0000
0011
,
0000
1000
0001
0000
0210
0000
0301
1000
,
1100
0000
1100
0000
0000
0101
0000
0101
,
0000
0000
1000
0100
1000
0000
0000
0000
0001
0000
0001
0000
1000
0000
1000
0000
,
0010
0000
0100
0001
0000
1000
0001
0000
,
1000
0100
1000
0001
0100
0010
0100
0001
,
1001
0000
0000
0000
0001
0000
0010
0100
0010
0000
0100
1000
0100
0000
1000
0001
,
1000
0000
0001
0000
1001
0000
0000
0000
0001
0000
0100
0000
0010
0000
1000
0001
,
1000
0000
0000
0000
0100
0000
0010
0000
0001
0000
0000
0001
0000
0000
0001
0000
,
0100
0000
0000
0000
0010
0000
1000
0000
0100
0000
0000
0100
0000
0000
0100
0000
,
1000
0000
0000
1000
0010
0000
0100
0000
0001
0000
0000
0001
0010
0000
0100
0000
,
1000
0001
0100
0010
1000
0010
0010
0100
,
0001
0000
0000
1000
0000
0000
0100
0000
0010
0001
0010
0001
0010
0001
0010
0001
,
0010
0000
0000
0001
0000
0000
1000
0000
0010
0100
0010
0100
0010
0100
0010
0100
,
0010
0000
0000
1000
0000
0000
0001
1000
0100
0000
0000
0010
0000
0000
0001
2000
,
0002
0000
3000
0003
,
1000
0100
1000
0010
0100
0001
0010
0100
,
0010
0001
0100
0010
1000
0001
0010
0100
,
1000
0001
0100
0010
0100
0001
0010
0001
,
1000
0001
0100
0010
1000
1000
0001
0001
,
0010
0100
0001
0000
0101
0000
1100
0000
,
0001
0010
0100
0001
0100
0010
0001
0000
,
1000
0010
0001
1000
0100
0010
1000
0000
,
0010
0000
0000
0010
0100
0000
0100
0000
0001
1000
0001
1000
0001
1000
0001
1000
,
0001
0010
0000
0001
0010
0000
0100
1000
0000
0100
1000
0000
0001
0000
1000
0000
,
0001
0100
0000
0001
0100
0000
0010
1000
0000
0010
1000
0000
0001
0000
1000
0000
,
0100
0010
0000
0100
0010
0000
0001
1000
0000
0001
1000
0000
0010
0000
0100
0000
,
0001
1000
0000
0001
1000
0000
0100
0000
0010
0001
0010
0000
0001
0000
0001
0000
,
1000
0000
0100
0010
0000
0001
0010
0000
0001
1000
0000
0100
1000
0000
0001
0000
,
1000
0000
0010
1000
0000
0010
0100
0000
0001
1000
0000
0001
0100
0000
0010
0000
,
1000
0000
0000
1000
0100
0000
0010
0000
0001
0000
0000
0001
0100
0000
0010
0000
,
1000
0000
0001
0000
1000
0000
0001
0000
0010
0001
0010
0001
0010
0001
0010
0001
,
0010
0000
0001
2000
0000
0000
0000
0000
,
0000
0000
0000
0000
0000
0000
0000
0000
0000
0000
0000
0000
0000
0000
3001
1000
,
0001
0000
0000
1000
0000
0000
0100
0000
0010
0000
0000
0010
0000
0000
0001
0000
,
1000
0000
0000
0001
0000
0000
0100
0000
0010
0000
0000
0010
0000
0000
1000
0001
,
0020
0000
0000
0230
0000
0000
0000
0000
,
0000
0000
0000
0000
0000
0000
0000
0000
0000
0000
0000
0000
0000
0000
1300
0001
,
2000
0000
0000
0000
0000
0000
3100
0010
0200
0000
0000
0000
0000
0000
0310
0001
,
0010
0000
0001
1000
0000
0001
1000
0000
0010
0100
0010
0000
1000
0000
0001
0100
,
0001
0000
1001
0000
1000
0001
0100
0010
,
1000
0000
0100
0000
0010
0000
0100
0000
1000
0000
0001
0000
0100
0000
0010
1000
,
0010
0000
0100
0000
0010
0000
1000
0001
1000
0000
0001
0000
0010
0000
0100
0000
,
0010
0000
0001
0000
0100
0000
0010
0000
1000
0000
0000
1000
0000
0000
1000
0000
,
0001
0100
0010
0100
0000
0100
0001
0000
,
1000
0000
0100
0000
0010
0000
0001
1000
0001
0000
0100
0000
0010
0000
1000
0000
,
0001
0010
0001
0000
0010
0100
0010
0000
0100
1000
0100
0000
1000
0001
1000
0000
,
2002
0000
3000
0003
,
1000
0100
0010
1000
0010
0100
1000
0001
,
0100
0010
0001
0010
0100
0010
1000
0001
,
0010
0100
0001
0100
0010
0100
1000
0001
,
0100
0000
1000
0000
0100
0000
0001
0000
1000
0001
1000
0000
0010
0100
0010
0000
,
1000
0001
0010
0000
1010
0000
0110
0000
,
0100
1000
0001
0100
1000
0100
0001
1000
,
0010
0001
1000
0100
0001
0010
0100
0000
,
1100
0000
0000
1000
0010
0000
1000
0000
0010
0100
0010
0100
0010
0100
0010
0100
,
0001
1000
0000
0001
1000
0000
0100
0010
0000
0100
0010
0000
0001
0000
1000
0000
,
0010
1000
0000
0010
1000
0000
0001
0100
0000
0001
0100
0000
0010
0000
1000
0000
,
0001
0010
0000
0001
0010
0000
0100
1000
0000
0100
1000
0000
0001
0000
0100
0000
,
0010
1000
0000
0010
1000
0000
0001
0000
0100
0010
1000
0000
0001
0000
1000
0001
,
0010
0001
0010
0001
1000
0100
1000
0100
,
1000
0010
1000
0010
0100
0001
0100
0001
,
1000
0010
1000
0000
0010
0100
0010
0000
0100
0001
0100
0000
0001
1000
0001
0000
,
0010
0100
0010
0100
0010
0100
0010
0100
1000
0001
1000
0001
1000
0001
1000
0001
,
2000
0000
0000
3020
0000
0000
0000
0000
,
0000
0000
0000
0000
,
0230
0000
0001
0001
0000
1000
1000
0000
,
0001
0001
0000
1000
1000
0000
0001
0000
,
0300
0000
0000
0000
;

//--------------- dance-double - Fred-104 ----------------
#NOTES:
     dance-double:
     Fred-104:
     Easy:
     8:
     :
00000000
00000000
00000000
00000000
,
00000000
00000000
00000000
00000000
,
00000000
00000000
00000000
00000000
,
00000000
00000000
00000000
00000000
,
00000000
00000000
00000000
00000000
,
00000000
00000000
00000000
00000000
,
00000000
00000000
00000000
00000000
,
00000000
00000000
00000000
00000000
,
00010000
00000000
00000000
00001000
00000000
00000000
00000100
00000000
,
00000001
00001000
00000001
00000000
00000001
00000010
00000001
00000000
,
00001000
00000000
00000010
00000000
00000000
00010000
00000000
00010000
,
00000000
00001000
00010000
00001000
,
00100000
00000000
00010000
00000000
00000000
10000000
00000000
10000000
,
00000000
01000000
00000000
01000000
00000000
00000000
00010000
00000000
,
00001000
00000000
00000000
00010000
00000000
00000000
00000010
00000000
,
00000000
00001000
00000000
00000000
00000100
00000000
00010000
00000000
,
00001000
00000000
00000000
00010000
00000000
00000000
00000020
00000000
,
00000000
00000000
00000000
00000030
,
00001000
00000000
00001000
00000000
00000000
00000100
00000000
00000100
,
00000000
00000010
00000001
00001000
,
00000010
00000000
00000100
00000000
00000000
00001000
00000000
00001000
,
00000000
00010000
00000000
00010000
00000000
00000000
00001000
00000000
,
00100000
00000000
00000000
00010000
00000000
00000000
00100000
00000000
,
00000000
00001000
00000000
00000000
00010000
00000000
00010000
00000000
,
00000010
00000000
00000000
00001000
00000000
00000000
00000100
00000000
,
00000010
00000000
00000010
00000000
00000001
00001000
00000001
00000000
,
00001001
00000000
00001000
00000000
00000000
00000010
00000000
00010010
,
00000000
00010000
00001000
00100000
,
01000000
00000000
01100000
00000000
00000000
10000000
00000000
10010000
,
00000000
00010000
10000000
00100000
,
01000000
01000000
00010000
10000000
,
01000000
00000000
00000000
00010000
00000000
00000000
00001000
00000000
,
00010000
00010000
00001000
00001000
,
00010000
00010000
00000010
00001000
,
00001001
00000000
00000001
00000100
,
00001000
00000000
00010000
00100000
,
10000000
10000000
01000000
01000000
,
00010000
00010000
00001000
00010000
,
00001000
00000000
00000000
00011000
00000000
00000000
00000000
00000000
,
00010000
00000000
00000000
00011000
00000000
00000000
00000000
00000000
,
00010000
00010000
00001000
00001000
,
00022000
00000000
00033000
00000000
,
00001000
00000000
00000000
00010000
00000000
00000000
00001000
00000000
,
00100000
00000000
00000000
00010000
00000000
00000000
10000000
00000000
,
00100000
00000000
00000000
00010000
00000000
00000000
00001000
00000000
,
00010000
00000000
00010000
00000000
00001000
00010000
00001000
00000000
,
00011000
00000000
00010000
00001000
,
00000100
00000000
00000000
00000001
00000000
00000000
00001000
00000000
,
00000100
00000000
00000000
00000010
00000000
00000000
00000001
00000000
,
00001000
00000000
00001000
00000000
00000010
00010000
00000010
00000000
,
00010000
00000000
00000000
00001000
00000000
00000000
00100000
00000000
,
00001000
00000000
00000000
00010000
00000000
00000000
00001000
00000000
,
01000000
00000000
00000000
00010000
00000000
00000000
00100000
00000000
,
01000000
10000000
00100000
00010000
,
00011000
00000000
00001000
00001000
,
00010000
00000000
00000000
00000010
00000000
00000000
00001000
00000000
,
00000100
00000000
00000000
00010000
00000000
00000000
00001000
00000000
,
01000000
00000000
00010000
00000000
10000000
00010000
10000000
00000000
,
01000000
00000000
00000000
00200000
00000000
00000000
00000000
00000000
,
00000000
00000000
00000000
00300000
,
00001000
00001000
00010000
00010000
,
00000010
00001000
00000001
00000010
,
00000100
00000000
00000000
00020000
00000000
00000000
00000000
00000000
,
00000000
00000000
00000000
00030000
,
00002000
00003000
00020000
00030000
,
00001000
00000000
00001000
00000000
00010000
00001000
00010000
00000000
,
00001000
00000000
00100000
00000000
00000000
01000000
00000000
00000000
,
10000000
00000000
00000000
00010000
00000000
00000000
10000000
00000000
,
00010000
01000000
00010000
01000000
,
00001000
00010000
00001000
00000000
00010000
00000100
00010000
00000000
,
00000100
00000000
00000000
00000010
00000000
00000000
00000001
00000000
,
00001000
00000000
00000001
00000100
,
00000010
00001000
00000010
00000000
00010000
00001000
00010000
00000000
,
00022000
00000000
00033000
00000000
,
00010000
00000000
00000000
00001000
00000000
00000000
00010000
00000000
,
00000010
00000000
00000000
00001000
00000000
00000000
00000001
00000000
,
00000010
00000000
00000000
00001000
00000000
00000000
00010000
00000000
,
00001000
00000000
00001000
00000000
00010000
00001000
00010000
00000000
,
00011000
00000000
00001000
00010000
,
01000000
00000000
00000000
10000000
00000000
00000000
00010000
00000000
,
01000000
00000000
00000000
00100000
00000000
00000000
10000000
00000000
,
00010000
00000000
00010000
00000000
00100000
00001000
00100000
00000000
,
00001000
00000000
00000000
00010000
00000000
00000000
00000010
00000000
,
00010000
00000000
00000000
00001000
00000000
00000000
00010000
00000000
,
00000100
00000000
00000000
00001000
00000000
00000000
00000010
00000000
,
00000100
00000001
00000010
00001000
,
00011000
00001000
00010000
00010000
,
00001000
00001000
00100000
00001000
,
01000000
00001000
01000000
00000000
00001000
00010000
00001000
00000000
,
00010000
00000010
00010000
00000000
00001000
00000000
00010000
00000000
,
00001000
00000000
00000000
00020000
00000000
00000000
00000000
00000000
,
00000000
00000000
00000000
00030000
,
00001000
00000000
00000000
00010000
00000000
00000000
00001000
00000000
,
00000000
00010000
00000000
00000000
00001000
00000000
00020000
00000000
,
00030000
00000000
00000000
00000000
;

//--------------- dance-double - Fred-104 ----------------
#NOTES:
     dance-double:
     Fred-104:
     Medium:
     12:
     :
00000000
00000000
00000000
00000000
,
00000000
00000000
00000000
00000000
,
00000000
00000000
00000000
00000000
,
00000000
00000000
00000000
00000000
,
00000000
00000000
00000000
00000000
,
00000000
00000000
00000000
00000000
,
10010000
00000000
00000000
00000000
,
00000000
00000000
00000000
00000000
,
10000000
01000000
10000000
00000000
01000000
00100000
01000000
00000000
,
00100000
00001000
00100000
00000000
00001000
00010000
00001000
00000000
,
00011000
00000000
00010000
00000000
00000010
00001000
00000010
00001000
,
00000000
00001000
00000001
00000000
00000010
00000100
00010000
00000000
,
00001000
00000000
00011000
00000000
00010000
00100000
10000000
00010000
,
00000000
00010000
00100000
01000000
00000000
01000000
10000000
00010000
,
01000000
00000000
01000000
00100000
00000000
00100000
00010000
00000000
,
00010000
00001000
00000000
00001000
00010000
00000000
00011000
00000000
,
00001000
00000000
00001000
00000100
00000000
00000100
00000001
00000000
,
00000001
00000010
00000000
00000010
00000100
00001000
00000100
00010000
,
00001000
00000000
00011000
00000000
00010000
01000000
00100000
00010000
,
00000000
00010000
10000000
00000000
00100000
01000000
00100000
00010000
,
00001000
00000000
00011000
00000000
00010000
00000010
00001000
00000010
,
00000000
00000010
00001000
00000100
00000010
00000000
00000010
00000001
,
00001000
00000000
00000001
00000100
00000000
00000100
00001000
00000000
,
00001000
00010000
00000000
00010000
00001000
00000000
00011000
00000000
,
01001000
00000000
01000000
00010000
00000000
00010000
10000000
01000000
,
00000000
01000000
00010000
00000000
00001000
00010000
00001000
00000000
,
00011000
00000000
00011000
00000000
00000000
00000010
00000000
00001000
,
00000000
00000100
00000100
00000000
00000010
00000001
00000100
00000000
,
00011000
00000000
00011000
00000000
00000000
00001000
00000000
00010000
,
00000000
00100000
00100000
00000000
10000000
01000000
00100000
00000000
,
00110000
00000000
00010000
10000000
00000000
00100000
01000000
00000000
,
00010000
10000000
00010000
00100000
00000000
00001000
00010000
00000000
,
00011000
00000000
00010000
00001000
00000100
00000000
00000100
00000001
,
00000010
00000000
00000010
00000100
00001000
00000100
00010000
00000000
,
00011000
00000000
00000000
00000000
00001000
00000000
00100000
00000000
00010000
00000000
00000000
00010000
00000000
00000000
00010000
00000000
,
10000000
00000000
00000000
00000000
00010000
00000000
01000000
00000000
00100000
00000000
00000000
00100000
00000000
00000000
00100000
00000000
,
00010000
00000000
00000000
00001000
00000000
00000000
00010000
00000000
00000100
00000000
00000000
00001000
00000000
00000000
00000001
00000000
,
00001000
00000000
00000001
00000010
00000100
00010000
00001000
00000000
,
00010000
00000000
00000000
00001000
00000000
00000000
00101000
00000000
00000000
00000000
00000000
00000000
00000000
00000000
00000000
00000000
,
00001000
00000000
00000000
00010000
00000000
00000000
00010010
00000000
00000000
00000000
00000000
00000000
00000000
00000000
00000000
00000000
,
00010000
00000000
00000000
00001000
00000000
00000000
00000100
00000000
00000001
00000000
00000000
00001000
00000000
00000000
00000100
00000000
,
00000020
00000000
00000030
00000000
,
00000001
00000000
00001000
00000010
00000000
00000100
00001000
00000000
,
00010000
00000000
00001000
00100000
00000000
00010000
10000000
00000000
,
00010000
00000000
01000000
00100000
00000000
10000000
00010000
00000000
,
00100000
00000000
00001000
00010000
00000000
00000010
00001000
00000000
,
00001001
00000000
00000001
00000100
00000010
00000000
00001010
00000000
,
00001000
00000000
00000001
00000010
00000000
00000100
00010000
00000000
,
00001000
00000000
01000000
00001000
00000000
00100000
00010000
00000000
,
00100000
00001000
00010000
00000000
00001000
00010000
00001000
00000000
,
01000000
00000000
00000000
00010000
00000000
00000000
10000000
00000000
00000000
00010000
00000000
00000000
01000000
00000000
00100000
00000000
,
10000000
00000000
00000000
01000000
00000000
00000000
00100000
00000000
00000000
00001000
00000000
00000000
00010000
00000000
00000010
00000000
,
00010000
00000000
00000000
00001000
00000000
00000000
00010000
00000000
00000000
00000100
00000000
00000000
00000010
00000000
00000001
00000000
,
00001000
00000000
00000000
00000001
00000000
00000000
00000100
00000000
00000000
00001000
00000000
00000000
00010000
00000000
00001000
00000000
,
00010000
00001000
00100000
00010000
10000000
00000000
01100000
00000000
,
00010000
10000000
00100000
01000000
00100000
00010000
00001000
00000000
,
00010000
00000000
00000000
00001000
00000000
00000000
00000010
00000000
00000000
00000001
00000000
00000000
00000010
00000000
00001000
00000000
,
00010000
00001000
00010000
00001000
00000100
00000001
00000010
00000100
,
00000010
00000000
00000000
00002002
00000000
00000000
00000000
00000000
,
00000000
00000000
00000000
00000000
00003003
00000000
00000000
00001000
,
00000001
00000000
00000000
00000100
00000000
00000000
00001000
00000000
00010000
00000000
00000000
00100000
00000000
00000000
10000000
00000000
,
10000000
00000000
00000000
01000000
00000000
00000000
00010000
00000000
00001000
00000000
00000000
00000010
00000000
00000000
00000001
00000000
,
00000001
00000000
00001000
00000020
00000000
00000000
00000000
00000000
,
00000000
00000000
00000000
00000030
,
00020000
00000000
00000000
00030000
00002000
00000000
00000000
00003000
,
00100000
00000000
00000000
00010000
00000000
00000000
10000000
00000000
00010000
00000000
01000000
00000000
00001000
00000000
00000000
00000000
,
00010000
00000000
00011000
00000000
00001000
00000100
00000010
00001000
,
00000000
00001000
00000100
00000010
00000000
00000010
00000001
00001000
,
00000001
00000000
00001001
00000000
00001000
00000001
00000100
00001000
,
00000000
00001000
00010000
00100000
00000000
00100000
01000000
00010000
,
10000000
00000000
01000000
00100000
00000000
00100000
00001000
00000000
,
00010000
00001000
00000010
00000000
00000010
00001000
00010000
00000000
,
00001000
00010000
01000000
10000000
00010000
01000000
00100000
00010000
,
00002000
00000000
00013000
00010000
,
00001000
00100000
00001000
00100000
00000000
01000000
10000000
00000000
,
00010000
01000000
00010000
01000000
00000000
00100000
00010000
00000000
,
00001000
00010000
00001000
00010000
00000000
00000100
00000010
00000000
,
00000100
00001000
00000001
00001000
00000010
00010000
00001000
00000000
,
00010000
00001000
00000100
00000000
00000101
00000000
00000011
00000000
,
00001100
00000000
00000001
00000100
00000000
00001000
00010000
00001000
,
00100000
00010000
10000000
00100000
00000000
01000000
00010000
10000000
,
01000000
00000000
00010000
00010000
00001000
00001000
00010000
00000000
,
00001000
00000000
00000000
00010000
00000000
00000000
00000010
00000000
00000000
00001000
00000000
00000000
00000100
00000000
00000010
00000000
,
00000001
00000000
00000000
00001000
00000000
00000000
00000001
00000000
00000000
00000100
00000000
00000000
00001000
00000000
00010000
00000000
,
00001000
00000000
00000000
00100000
00000000
00000000
00010000
00000000
00000000
01000000
00000000
00000000
00001000
00000000
00010000
00000000
,
00001000
00000000
00000000
00010000
00000000
00000000
00100000
00000000
01000000
00000000
00010000
00000000
10000000
00000000
00000000
00000000
,
01000000
00100000
01000000
00100000
00001000
00010000
00001000
00010000
,
00000010
00001000
00000010
00001000
00000100
00000010
00000001
00001000
,
00000010
00001000
00000010
00010000
00001000
00100000
00010000
10000000
,
00100000
00010000
00001000
00010000
02000000
00000000
23000000
00000000
,
30020000
00000000
00000000
02030000
00000000
00000000
00000000
00000000
,
00000000
00000000
00000000
00000000
,
03100000
00000000
10000000
01000000
00000000
00100000
00001000
00000000
,
00010000
00000100
00000000
00000010
00000001
00000000
00002000
00000000
,
00003000
00000000
00000000
00000000
;

//--------------- dance-double - Fred-104 ----------------
#NOTES:
     dance-double:
     Fred-104:
     Hard:
     15:
     :
00000000
00000000
00000000
00000000
,
00000000
00000000
00000000
00000000
,
00000000
00000000
00000000
00000000
,
00000000
00000000
00000000
00000000
,
00000000
00000000
00000000
00000000
,
00000000
00000000
00000000
00000000
,
00011000
00000000
00000000
00000000
,
00000000
00000000
00000000
00000000
,
00010000
00001000
00000100
00000001
00001000
00000100
00000010
00000000
,
00000001
00000000
00001000
00000000
00000001
00000000
00001000
00000000
00000010
00000100
00000010
00000000
00000100
00000010
00000100
00000000
,
00000010
00000000
00001001
00000000
00000001
00000100
00001000
00010000
,
00000000
00010000
00001000
00000000
00001000
01000000
00010000
01000000
,
10000000
00000000
10010000
00000000
00010000
00100000
10000000
01000000
,
00000000
01000000
00010000
00001000
00000000
00001000
00000100
00000001
,
00000010
00000000
00000100
00001000
00000000
00001000
00000100
00000000
,
00000010
00000001
00000000
00000001
00001000
00000010
00010010
00000000
,
00011000
00000000
00010000
00001000
00000000
00001000
00100000
00000000
,
00100000
00000000
01000000
00000000
00000000
00000000
01000000
00000000
00010000
00000000
01000000
00000000
10000000
00000000
00010000
10000000
,
00010000
00000000
01100000
00000000
10000000
00100000
00010000
00100000
,
00000000
00100000
01000000
00000000
01000000
00010000
00001000
00000010
,
00000100
00000000
00001001
00000000
00000001
00000100
00001000
00000100
,
00000000
00000100
00000001
00000010
00000100
00000010
00001000
00010000
,
01000000
00000000
01000000
00100000
00000000
00100000
00010000
00000000
,
00010000
10000000
00000000
10000000
01000000
00010000
00011000
00000000
,
00010100
00000000
00001000
00000001
00000000
00000001
00000100
00001000
,
00010000
00000000
00010000
00000000
00011000
00000000
00000000
00000000
00001000
00000000
01000000
00010000
01000000
00010000
10000000
00000000
,
11000000
00000000
11000000
00000000
00000000
00101000
00000000
00101000
,
00000000
00001000
00010000
00000000
00012000
00000000
00003100
00000010
,
00001010
00000000
00001010
00000000
00000000
00000101
00000000
00000101
,
00000000
00000000
00000001
00001000
00000001
00000000
00000000
00000000
00000010
00000000
00000010
00000000
00001000
00000000
00001000
00000000
,
00010000
00000000
00001000
00010000
00000000
00100000
10000000
00000000
,
00010000
00100000
01000000
00010000
00000100
00001000
00000001
00000100
,
00000110
00000000
00001000
00000010
00000001
00001000
00000001
00000010
,
00001000
00000000
00000100
00000000
00000110
00000000
00000000
00000000
00000001
00000000
00000001
00000000
00001000
00000000
00001000
00000010
,
00010000
00000000
00000000
00000000
00001000
00000000
00100000
00000000
00010000
00000000
00000000
00010000
00000000
00000000
00010000
00000000
,
01000000
00000000
00000000
00000000
00100000
00000000
00010000
00000000
00001000
00000000
00000000
00001000
00000000
00000000
00001000
00000000
,
00010000
00000000
00000000
00010000
00001000
00000000
00000010
00000000
00000100
00000000
00000000
00000100
00000010
00000000
00001000
00000000
,
00010000
00000000
00001000
01000000
00010000
00001000
00000010
00000100
,
00000001
00000000
00000000
00000001
00000000
00000000
00000001
00000000
00000010
00000100
00000010
00000100
00001000
00000100
00010000
00000000
,
00001000
00000000
00000000
00001000
00000000
00000000
00001000
00000000
01000000
00010000
01000000
00010000
01000000
00001000
00010000
00000000
,
00001000
00000000
00000000
00010000
00000000
00000000
00100000
01000000
00100000
00000000
00000000
10000000
00000000
00000000
00010000
20000000
,
00020000
00000000
30000000
00030000
,
10000000
01000000
00100000
01000000
00010000
00001000
00000010
00000000
,
00000100
00001000
00000001
00000100
00000010
00000100
00001000
00000000
,
00010000
00001000
00000010
00001000
00010000
00001000
01000000
00000000
,
00010000
10000000
01000000
00010000
00001000
00001000
00010000
00010000
,
00001000
00010000
00000100
00000000
00000101
00000000
00001100
00000000
,
00000001
00000010
00001000
00000001
00001000
00000010
00000001
00000000
,
00001000
00000001
00000010
00001000
00010000
00100000
10000000
00000000
,
01000000
00000000
00000000
01000000
00100000
00000000
00010000
00000000
10000000
00010000
10000000
00010000
10000000
00010000
10000000
00010000
,
10000000
00000000
00010000
00100000
00000000
00010000
00100000
00000000
01000000
10000000
00000000
01000000
10000000
00000000
00010000
00000000
,
00100000
00000000
00001000
00010000
00000000
00001000
00010000
00000000
00000010
00001000
00000000
00000010
00001000
00000000
00000010
00000000
,
00000100
00000000
00000001
00001000
00000000
00000001
00001000
00000000
00000100
00000010
00000000
00000100
00000010
00000000
00001000
00000000
,
00010000
00000000
00001000
00100000
00000000
00001000
00100000
00000000
00001000
00010000
00001000
00000000
00100000
00000000
00100000
00000000
,
00010000
10000000
00000000
00010000
01000000
00000000
00010000
10000000
00000000
00010000
01000000
00000000
00001000
00000000
00010000
00000000
,
00000010
00001000
00000000
00000010
00000100
00000000
00000010
00001000
00000000
00000010
00000100
00000000
00000001
00000000
00001000
00000000
,
00000100
00000000
00000000
00000100
00000010
00000000
00000001
00000000
00001000
00000000
00000000
00001000
00000010
00000000
00000100
00000000
,
00001000
00000000
00010000
00000000
00001000
00000000
00010000
00000000
00001000
00010000
00001000
00010000
00001000
00010000
00001000
00010000
,
00001000
00000000
00001000
00020000
00000000
00000000
00000000
00000000
,
00000000
00000000
00000000
00000000
00000000
00000000
00000000
00000000
00000000
00000000
00000000
00000000
00000000
00000000
00030010
00001000
,
00000010
00000000
00000000
00000100
00000000
00000000
00000001
00000000
00001000
00000000
00000000
00000100
00000000
00000000
00000001
00000000
,
00000100
00000000
00000000
00001000
00000000
00000000
00000100
00000000
00010000
00000000
00000000
00001000
00000000
00000000
01000000
00010000
,
01000000
00000000
00100000
10000000
00010000
10000000
01000000
00010000
,
00000000
00000000
00000100
00000000
00001000
00000000
00000001
00000000
00000000
00000000
00000100
00000000
00000010
00000000
00000100
00000001
,
00001000
00000000
00000000
00000000
00001001
00000000
00000001
00000010
00000001
00000000
00000010
00000000
00000100
00000000
00001000
00000100
,
00001000
00000000
00000100
00000000
00010000
00000000
00001000
00000000
01000000
00010000
01000000
00000000
00100000
00000000
00100000
10000000
,
00010000
00000000
01010000
00000000
10000000
01000000
00010000
00001000
,
00010000
00000100
00000010
00001000
00000001
00000100
00001000
00000010
,
00000100
00000000
00000001
00000000
00001000
00000000
00000100
00000010
00000100
00000000
00001000
00000000
00000100
00000000
00010000
00000000
,
00001000
00000000
00010000
00000000
00100000
00000000
01000000
00000000
10000000
00000000
00000000
01000000
00000000
00000000
00010000
00000000
,
10000000
01000000
00100000
00010000
00000000
01000000
00001000
00000000
,
00010000
00000000
00000100
00000000
00000010
00000000
00000001
00001000
00000001
00000000
00000100
00000000
00000010
00000000
00001000
00000000
,
00000001
00000010
00000001
00000000
00000010
00000100
00000010
00000000
00000100
00001000
00000100
00000000
00010000
00001000
00010000
00000000
,
00022000
00000000
00030000
00003000
,
00010000
00001000
00000010
00000001
00001000
00000001
00000010
00000100
,
00001000
00000010
00000100
00001000
00010000
00100000
00010000
00001000
,
00010000
01000000
00100000
10000000
00100000
00010000
10000000
00100000
,
00010000
00001000
00000100
00000001
00001000
00000100
00000001
00000100
,
00001000
00000010
00000100
00000000
00001100
00000000
00011000
00000000
,
00001000
00010000
00000100
00000010
00001000
00000010
00000001
00000000
,
00001000
00000001
00000010
00001000
00010000
01000000
00100000
00010000
,
10000000
00000000
00000000
10000000
00100000
00000000
00010000
00000000
00001000
00010000
00001000
00010000
00001000
00010000
00001000
00010000
,
00001000
00000000
00010000
00000100
00000000
00010000
00000100
00000000
00001000
00000001
00000000
00001000
00000001
00000000
00000010
00000000
,
00000100
00000000
00001000
00000100
00000000
00001000
00000100
00000000
00010000
00001000
00000000
00010000
00001000
00000000
01000000
00000000
,
00010000
00000000
10000000
00100000
00000000
10000000
00100000
00000000
01000000
00010000
00000000
01000000
00010000
00000000
00100000
00000000
,
01000000
00000000
00010000
00001000
00000000
00010000
00001000
00000000
00010000
00000100
00010000
00000000
00000100
00000000
00000010
00000001
,
00000010
00000001
00000010
00000001
00000100
00001000
00000100
00001000
,
00010000
00100000
00010000
00100000
10000000
01000000
00100000
00001000
,
00010000
00000100
00001000
00000001
00000100
00000010
00001000
00000001
,
00000010
00000100
00000010
00000100
00000010
00000100
00000010
00000100
00001000
00000001
00001000
00000001
00001000
00000001
00001000
00000001
,
00002000
00000000
00000000
00003020
00000000
00000000
00000000
00000000
,
00000000
00000000
00000000
00000000
,
00000230
00000000
00001000
00002300
00000000
00010000
00023000
00000000
,
00100000
00230000
00000000
10000000
20300000
00000000
30020000
00000000
,
00030000
00000000
00000000
00000000
;
