#VERSION:0.83;
#TITLE:apo\:llioth;
#ARTIST:Juggernaut.;
#TITLETRANSLIT:apollioth;
#GENRE:HARDCORE;
#BANNER:apollioth.png;
#BACKGROUND:apollioth-bg.png;
#CDTITLE:./CDTitles/SDVX VIVID WAVE.png;
#MUSIC:apollioth.ogg;
#SAMPLESTART:80.39;
#SAMPLELENGTH:15;
#BPMS:0=200;
#BGSTAGE:27;

//--------------- dance-single - Fred-104 ----------------
#NOTEDATA:;
#STEPSTYPE:dance-single;
#DESCRIPTION:Fred-104;
#DIFFICULTY:Beginner;
#METER:4;
#CREDIT:Fred-104;
#NOTES:
0000
0000
0000
0000
,
0000
0000
0000
0000
,
0000
0000
0000
0000
,
0000
0000
0000
0000
,
0000
0000
0000
0000
,
1000
0001
0000
0001
,
0000
0010
0000
0010
,
0000
0100
0000
0100
,
2000
0000
0000
3000
,
1000
0000
0000
0000
,
1000
0000
0000
0000
,
0001
0000
0000
0000
,
0001
0000
0001
0000
,
1000
0000
1000
0000
,
0001
0000
0001
0000
,
2000
0000
0000
3000
,
1000
0000
0000
0000
,
0001
0000
0000
0000
,
0000
0000
0000
0000
,
1000
0000
1000
0000
,
0010
0000
0010
0000
,
0001
0000
0001
0000
,
0100
0000
0100
0000
,
1000
0000
1000
0000
,
0001
0000
0001
0000
,
0100
0000
0100
0000
,
0010
0000
0000
0000
,
0100
0000
0100
0000
,
0001
0000
0001
0000
,
1000
0000
1000
0000
,
0100
0000
0100
0000
,
0010
0000
0010
0000
,
0001
0000
0001
0000
,
1000
0000
1000
0000
,
0002
0000
0000
0003
,
1001
0000
0000
0000
,
1000
0000
0000
0000
,
0001
0000
0000
0000
,
0010
0000
0010
0000
,
0100
0000
0000
0000
,
0100
0000
1000
0000
,
0001
0000
0000
0000
,
1000
0000
1000
0000
,
0002
0000
0000
0000
,
0000
0000
0000
0000
,
0000
0000
0000
0000
,
0003
0000
0000
0000
,
1000
0100
0000
0100
,
0000
0100
0000
0100
,
0000
0010
0000
0010
,
0000
0010
0000
0001
,
0002
0000
0000
0000
,
0000
0000
0003
0000
,
2000
0000
0000
0000
,
0000
0000
3000
0000
,
0002
0000
0000
0000
,
0000
0000
0003
0000
,
2000
0000
0000
3000
,
0001
0000
0001
0000
,
1001
0000
0000
0000
,
1001
0000
0000
0000
,
1001
0000
0000
0000
,
1001
0000
0000
0000
,
1000
0000
1000
0000
,
0001
0000
0001
0000
,
1000
0000
0001
0000
,
2000
0000
0000
3000
,
0001
0000
1000
0000
,
0020
0000
0000
0030
,
0100
0000
0001
0000
,
0200
0000
0000
0300
,
0001
0000
1000
0000
,
0002
0000
0000
0003
,
0010
0000
0100
0000
,
2000
0000
0000
3000
,
0001
0000
1000
0000
,
0020
0030
0200
0300
,
0010
0000
1000
0000
,
0002
0003
2000
3000
,
0100
0000
0010
0000
,
0002
0003
2000
3000
,
0010
0000
1000
0000
,
0002
0000
0000
0003
,
1001
0000
0000
0000
,
0000
0000
0000
0000
,
0000
0000
0000
0000
,
0000
0000
0000
0000
,
1000
0000
1000
0000
,
0100
0000
0000
0000
,
0001
0000
0001
0000
,
0010
0000
0000
0000
,
1000
0000
1000
0000
,
0001
0000
0001
0000
,
0010
0000
0000
0000
,
0100
0000
0010
0000
,
1001
0000
0000
0000
,
0001
0000
0000
0000
,
1000
0000
1000
0000
,
0002
0000
0000
0003
,
1001
0000
0000
0000
,
1000
0000
0000
0000
,
0001
0000
0000
0000
,
0100
0000
0010
0000
,
0200
0000
0000
0300
,
1000
0000
0100
0000
,
0010
0000
0100
0000
,
0001
0000
1000
0000
,
1001
0000
0000
0000
;

//--------------- dance-single - Fred-104 ----------------
#NOTEDATA:;
#STEPSTYPE:dance-single;
#DESCRIPTION:Fred-104;
#DIFFICULTY:Easy;
#METER:9;
#CREDIT:Fred-104;
#NOTES:
0000
0000
0000
0000
,
0000
0000
0000
0000
,
0000
0000
0000
0000
,
0000
0000
0000
0000
,
0000
0000
0000
0000
,
0001
0010
0000
0010
,
0000
0010
0000
0010
,
0100
1000
0000
1000
,
0001
0000
0000
1000
0000
2002
3003
0000
,
0002
0000
0023
0000
,
0130
0100
1000
0000
,
0002
0000
2003
0000
,
3010
0100
0001
0000
,
1000
1000
0001
0001
,
0100
0100
0010
0010
,
0100
0010
0100
0000
0001
1000
0001
0000
,
0010
0000
0000
0100
0000
0000
1000
0000
,
2002
0000
0000
0000
,
0000
0000
0000
3003
,
0002
0003
0010
0010
,
0100
0000
0100
0000
1000
0001
1000
0000
,
0002
0000
0203
0000
0301
0100
0001
0000
,
0100
0010
0220
0330
,
1001
1000
0100
0100
,
0010
0000
0010
0000
0001
1000
0001
0000
,
0100
0010
0100
0010
,
0220
0000
0000
0330
,
0001
1000
0100
0010
,
0001
0000
0010
0000
0100
0010
0100
0000
,
1000
0001
1000
0010
,
0100
0010
0100
0000
0001
0100
0001
0000
,
1000
0001
0010
0100
,
0010
0001
0010
0000
0100
1000
0100
0000
,
0010
0001
0100
0010
,
0100
0010
0100
0000
0010
0000
0100
0000
,
0220
0330
1001
0000
,
0001
0001
0100
0000
,
1000
1000
0100
0000
,
0001
0001
1000
0001
,
2002
3003
1000
0010
,
0000
0010
0000
0000
0001
0000
0010
0000
,
0200
0300
0220
0330
,
0100
0001
2000
3000
,
0002
0000
0000
0000
,
0000
0000
0000
0000
,
0000
0000
0000
0000
,
0000
0000
0000
0003
,
1000
0010
0000
0010
,
0000
0100
0000
0001
,
1000
0001
0000
0001
,
0000
0000
0010
0000
0100
1000
0100
0000
,
1001
0000
0000
0000
,
1000
0000
0100
0000
,
0020
0000
0030
0000
,
0001
0000
0100
0000
,
0010
0000
0010
0000
,
0100
0000
0100
0000
,
0001
1000
0001
1000
,
0001
0100
0001
0100
0000
0100
0001
0000
,
1000
0000
0000
0100
0000
0000
0100
0000
,
0001
0000
0000
0100
0000
0000
0100
0000
,
1000
0000
0000
0010
0000
0000
0010
0000
,
0001
0000
0000
0010
0000
0000
0010
0000
,
1000
1000
0001
0000
,
0010
0010
0100
0000
,
0010
0100
0010
0000
0001
1000
0001
0000
,
2002
0000
0000
3003
,
0001
0010
0100
1000
,
0002
2003
3002
2003
,
3010
0100
0010
1000
,
0200
0320
0230
0320
,
0031
0100
0010
1000
,
0002
0023
0032
0023
,
0130
1000
0010
0100
,
0020
2030
3020
2030
,
3100
0000
0010
0000
0001
1000
0001
0000
,
0200
0320
2030
3002
,
0013
0000
0100
0000
1000
0001
1000
0000
,
0002
0203
0320
2030
,
3001
0000
0010
0000
0100
0010
0001
0000
,
0200
0320
2030
3002
,
0013
0000
0100
0000
1000
0001
1000
0000
,
0001
0001
1000
1000
,
1001
0000
0000
0000
,
0000
0000
0000
0000
,
0000
0000
0000
0000
,
0000
0000
0000
0000
,
1000
0000
0100
0000
0010
0000
0001
1000
,
0000
1000
0000
0010
0000
0010
0000
0100
,
0100
0000
0001
0000
1000
0000
0100
0010
,
0000
0010
0000
0001
0000
0001
0000
1000
,
1000
0000
0001
0000
0100
0000
0010
0010
,
0000
1000
0000
0100
0000
0010
0000
0100
,
0100
0000
1000
0000
0010
0000
0100
0100
,
0000
0001
0000
1000
0000
0001
0000
0010
,
0010
0100
0110
0000
,
1000
0001
0100
0010
,
0100
0100
0010
0010
,
1000
0001
1000
0001
1000
0001
1000
0000
,
2002
3003
1001
0000
,
0001
0000
0010
0000
,
1000
1000
0010
0000
,
0100
0100
0010
0001
,
2002
0000
3003
0000
0110
0000
0000
0001
,
0000
1000
0001
0000
,
0100
0000
0110
0000
,
0010
0000
1000
0000
0001
1000
0001
0000
,
1001
0000
0000
0000
;

//--------------- dance-single - Fred-104 ----------------
#NOTEDATA:;
#STEPSTYPE:dance-single;
#DESCRIPTION:Fred-104;
#DIFFICULTY:Medium;
#METER:12;
#BPMS:0=200,68=100,72=200,136=100,152=200,184=100,200=200,344=100,348=200,356=100;
#CREDIT:Fred-104;
#NOTES:
0000
0000
0000
0000
,
0000
0000
0000
0000
,
0000
0000
0000
0000
,
0000
0000
0000
0000
,
0000
0000
0000
0000
,
1001
0010
0000
0010
,
0000
0010
0000
0010
,
1001
0100
0000
0100
,
0010
0100
0000
0100
0000
2002
3003
0000
,
1000
0000
0001
0000
1000
0000
0100
0010
,
0000
0010
0000
0010
0000
0010
0000
0001
,
1000
0000
0001
0000
0100
0000
0010
0100
,
0000
0100
0000
0100
0000
0100
0000
0001
,
1000
0100
0010
0001
,
1000
0010
0100
0001
,
1000
0100
1000
0100
0010
0001
0010
0001
,
1000
0000
0010
1000
0000
0001
0010
0000
,
0220
0000
0000
0000
0000
0000
0000
0330
,
2001
0000
3001
0000
0010
0100
2000
0000
,
3001
0100
0020
0000
1030
0100
0020
0000
,
0130
0000
0110
0000
0100
1000
0001
0000
,
0100
0100
0100
0110
,
1001
0000
0001
1000
0010
1000
0002
0000
,
1003
0001
0020
0000
0130
0010
0002
0000
,
1003
0000
1001
0000
0001
1000
0001
1000
,
0002
0000
0000
0003
,
1000
0100
1000
0000
0010
1000
0010
0000
,
0100
0001
0100
0000
0001
0010
0001
0000
,
0100
0010
1000
0000
0010
0100
0001
0000
,
1000
0100
0010
0000
0001
1000
0001
0000
,
1000
0100
0010
0000
0001
1000
0010
0000
,
0100
0001
1000
0000
0100
0010
0001
0000
,
1000
0001
0010
0100
1000
0001
0100
0000
,
0010
0100
0010
0000
0100
0000
0110
0000
,
2002
0000
0000
0000
3003
0000
1000
0000
0100
0000
0100
0000
0010
0100
0010
0000
,
0001
1000
0001
1000
0001
0000
0100
0010
1000
0001
1000
0001
0010
0100
0010
0000
,
0220
0000
0330
0000
0001
1000
0001
0000
0000
1000
0010
0000
0100
0001
0100
0000
,
0010
0110
1001
1001
0001
0010
0100
1000
,
0002
0000
0000
0000
,
0000
0000
0000
0000
,
0000
0000
0000
0000
,
0000
0000
0000
0003
,
1001
0100
0000
0100
,
0000
0100
0000
0100
,
1001
0010
0000
0010
,
0100
0010
0100
0000
0010
0100
0010
0000
,
2001
0000
0000
3002
0000
0000
0023
0000
0000
0230
0000
0000
1300
0000
0001
0000
,
2000
0000
0000
3020
0000
0000
0230
0000
0000
0302
0000
0000
1003
0000
0001
0000
,
1000
0000
0000
0100
0000
0000
0001
0000
0000
0100
0000
0000
1000
0000
0001
0000
,
1000
0000
0100
0000
0010
0000
0001
0000
1000
0010
0100
0000
0001
0100
0010
0000
,
1010
0000
0000
0101
0000
0000
1001
0000
,
1100
0000
0000
0011
0000
0000
1001
0000
,
0011
0000
0000
1100
0000
0000
1001
0000
,
0101
0000
0000
1010
0000
0000
1001
0000
,
0001
0010
0100
0000
1000
0001
1000
0000
,
0010
0100
0001
0000
1000
0010
1000
0000
,
0001
0010
0100
1000
0001
0010
0100
1000
,
0001
1000
0001
1001
,
1000
0010
0100
0000
0010
1000
0001
0000
,
0020
0230
0320
0230
,
1300
0001
0100
0000
0010
1000
0001
0000
,
0020
0032
0023
0032
,
0013
0100
1000
0000
0010
0100
0001
0000
,
2000
3200
2300
3200
,
0310
0100
1000
0000
0001
0100
0010
0000
,
0200
0302
0203
0302
,
1003
0100
0010
0000
0001
0010
0100
1000
,
0002
0203
0320
2030
,
3010
0100
0001
0000
1000
0001
0010
0100
,
0020
0032
0203
0320
,
0130
0001
1000
0000
0100
0010
0001
1000
,
0020
2030
3002
0023
,
0130
1000
0001
0000
0100
0010
0100
0000
,
0010
0010
0010
0010
,
1001
0000
0000
0000
,
0000
0000
0000
0000
,
0000
0000
0000
0000
,
1000
1000
1000
1001
,
0001
0000
0010
0000
0100
0000
1000
0001
,
0000
0101
0000
0110
0000
1010
0000
1000
,
0001
0000
0010
0000
0100
0000
0010
0001
,
0000
1001
0000
0110
0000
1001
0000
1000
,
0010
0000
0100
0000
0001
0000
1000
0100
,
0000
0101
0000
1100
0000
1001
0000
0001
,
0100
0000
0010
0000
1000
0000
0001
0010
,
0000
1010
0000
0011
0000
0001
1000
0000
,
1001
0000
0000
0000
0000
0000
0000
0000
0110
0000
0000
0000
0010
0000
0000
0000
1000
0000
0000
1000
0000
0000
1000
0000
0001
0000
0000
0000
1001
0000
0000
0000
,
1000
0100
1000
0000
0001
0100
0001
0000
,
1000
0100
0010
0001
0010
0100
1000
0000
,
2002
0000
0000
0000
3003
0000
1000
0000
0100
0000
0100
0000
0010
0001
0010
0000
,
0001
1000
0001
1000
0001
0000
0100
0000
0010
1000
0100
0000
0010
0001
0100
0000
,
0220
0000
0330
0000
1001
0000
1000
0100
0000
0100
0010
0000
0100
1000
0001
0000
,
0100
0000
0010
0000
0110
0000
1001
0000
0001
0010
0100
1000
0001
0000
0000
0000
,
1001
0000
0000
0000
;

//--------------- dance-single - Fred-104 ----------------
#NOTEDATA:;
#STEPSTYPE:dance-single;
#DESCRIPTION:Fred-104;
#DIFFICULTY:Hard;
#METER:15;
#BPMS:0=200,68=100,72=200,136=100,152=200,184=100,200=200,344=100,348=200,356=100;
#CREDIT:Fred-104;
#NOTES:
0000
0000
0000
0000
,
0000
0000
0000
0000
,
0000
0000
0000
0000
,
0000
0000
0000
0000
,
0000
0000
0000
0000
,
2000
0010
0000
0010
,
0000
0001
0000
3001
,
0200
0010
0000
0310
,
0200
0010
0000
0310
0000
2002
3003
0000
,
1001
0000
1000
0000
0001
0000
1000
0010
,
0000
0100
0000
0001
0000
1000
0000
0001
,
0010
0000
0100
0000
1000
0000
0001
1000
,
0000
0010
0000
1000
0000
0001
0000
1000
,
0100
0000
0010
0001
1000
0001
1000
0010
,
0000
0100
0000
0010
0000
1000
0001
0010
,
0100
1000
0100
1000
0100
0000
0010
0000
0001
1000
0001
1000
0001
0000
0100
0000
,
0010
0010
0100
0101
0000
1000
1001
0000
,
0220
0000
0000
0330
1000
0001
1000
0110
,
1002
0000
1003
0001
0010
0010
0010
0100
,
0001
0001
0100
1000
0001
0001
0011
0000
,
0200
0000
0000
0000
2300
0000
0000
0000
3001
0000
0100
0000
0010
0000
1000
0001
,
1000
1000
0100
0100
0010
0010
0110
0000
,
0012
0000
1003
1000
0100
0100
0001
0100
,
1000
1000
0001
0001
0100
0010
0110
0000
,
1001
0000
0000
0000
0110
0000
0000
0000
1000
0000
0001
0000
1000
0001
1000
0001
,
1000
1100
0011
1001
,
0001
0100
0010
0100
0001
1000
0010
1000
,
0001
0010
0100
0001
0100
0010
0001
1000
,
0010
0100
0001
1000
0100
1000
0001
0010
,
1000
0010
0100
0001
0100
0010
0011
0000
,
1000
0001
0100
0010
0100
1000
0100
0001
,
1000
0100
0001
0100
0010
1000
0010
0100
,
1000
0000
0001
1000
0001
0000
0100
0010
0100
0000
0010
0000
1000
0000
0001
0010
,
0001
0000
0001
0000
1000
0000
1000
0001
1000
0000
0010
0000
0110
0000
0000
0000
,
0202
0303
0000
0000
1001
0000
0001
1000
0010
1000
0001
0010
0200
2300
3200
2300
,
3001
0001
0001
1000
1010
0000
0010
0100
0001
1000
0100
0010
0011
0000
1000
0001
,
2002
0000
3003
0000
0011
0010
0200
0000
0000
1300
0001
0100
1000
0100
0001
0010
,
0100
0000
0000
0000
0000
0000
0101
0000
0000
0000
0000
0000
1100
0000
0000
0000
0000
0000
1001
0000
0000
0000
0000
0000
0001
0000
0000
0100
0000
0000
0010
0000
0000
1000
0000
0000
0001
0000
1000
0000
0001
0000
1000
0000
0100
0000
0010
0000
,
0002
0000
0000
0000
,
0000
0000
0000
0000
,
0000
0000
0000
0000
,
0000
0000
0000
0003
,
1000
0010
1000
0010
0100
0010
0100
0010
,
0001
0010
0001
0010
0100
0001
0100
0001
,
1000
0001
0010
0100
1000
0100
0010
0001
,
0100
0010
0100
0010
0100
0100
0110
0000
,
2000
0000
0000
0010
0000
0000
0010
0000
0000
0010
0000
0000
0010
0000
3010
0000
,
0002
0000
0000
0010
0000
0000
0010
0000
0000
0010
0000
0000
0010
0000
0013
0000
,
1000
0000
0000
0000
1100
0000
0000
0000
0100
0000
0100
0000
0010
0000
0010
0001
,
1000
0000
0000
0000
1001
0000
1000
0010
0100
0001
0100
0001
0010
0100
1000
0000
,
1100
0000
0000
0101
0000
0000
1001
0000
,
1010
0000
0000
0011
0000
0000
1001
0000
,
0101
0000
0000
1100
0000
0000
2002
3003
,
0011
0000
0000
1010
0000
0000
1001
0000
,
1000
0000
0100
0000
1000
0000
0000
0000
0001
0000
0010
0001
0010
0000
0001
0000
,
0100
0000
0001
0000
0100
0000
0010
1000
0010
0000
1000
0000
0001
1000
0001
1000
,
0001
0100
0010
1000
0100
0010
0001
0100
,
0010
1010
0101
1001
,
0001
0010
1000
0001
0100
0010
0001
0100
,
0010
0110
1100
0201
,
0301
0000
0010
0000
0100
0000
1000
0000
0001
0000
0100
0010
0100
0000
0001
1000
,
0100
0110
1010
0012
,
0013
0100
1000
0001
0100
1000
0100
0010
,
0100
0101
0011
2001
,
3001
0000
0100
0000
0010
0000
1000
0000
0001
0000
0100
0001
0100
0010
0100
0000
,
0110
1010
1100
1002
,
1003
0000
0100
0000
0010
0000
0001
0010
0001
0000
1000
0000
0010
0000
1000
0000
,
0001
0000
0010
0001
0010
0000
0100
0010
0100
0000
1000
0100
2000
0000
0000
0000
,
3001
0000
1000
0000
0010
0000
0100
0000
0001
0000
1000
0100
1000
0000
0001
0000
,
0100
0000
0010
1000
0010
0000
0100
0010
0100
0000
0001
0100
0001
0000
1000
0001
,
1000
0100
0010
1000
0001
0100
0010
0001
,
1000
0000
0001
0010
0001
0000
1000
0100
1000
0000
0001
1000
0002
0000
0000
0000
,
1003
0000
0010
0000
0100
0000
0010
0000
1000
0001
1000
0000
0001
0010
0001
0000
,
1000
0100
1000
0001
0010
0001
1000
0010
0100
0001
0000
0000
,
1001
0000
0000
0000
,
0000
0000
0000
0000
,
0000
0000
0000
0000
,
1000
0000
0001
0000
1000
0000
2002
3003
,
1000
0010
0100
0001
1000
0100
0010
0100
,
0000
0101
0000
0110
0000
0011
0000
0001
,
1000
0010
0100
0010
1000
0001
0010
0100
,
0000
0101
0000
1100
0000
0100
0010
0001
,
1000
0010
0100
1000
0100
0010
0001
0010
,
0100
0010
1000
0001
0010
1000
0010
0000
,
0001
1000
0010
0001
0010
0100
1000
0100
,
0010
1000
0100
0001
0100
1000
0001
0000
,
2001
0000
0000
0000
3001
0000
0010
0000
0110
0000
0100
0000
1000
0000
1000
0001
0100
0000
0000
0100
0000
0000
0100
0000
0110
0000
0000
0000
1001
0000
0000
0000
,
2000
3000
0100
0000
1000
0000
0100
0000
0010
0000
0001
0000
0010
0000
0001
0000
,
1000
0001
1000
0001
1000
0001
1000
0001
1000
0001
1000
0001
1000
0000
0000
0000
,
2002
0000
0000
3003
0000
0000
0000
0000
0000
0000
0000
0000
0110
0000
0000
0000
0000
0000
1000
0000
0100
0000
1000
0000
0100
0000
0010
0000
0100
0000
0010
0000
0001
0000
0010
0000
0002
0000
0000
2003
0000
0000
3002
0000
0000
2003
0000
0000
,
3100
0100
0100
0010
0200
0000
1300
1000
0001
0100
0010
1000
0001
0001
1000
1000
,
2002
0000
3003
0000
0110
0000
0001
0001
0000
1000
1000
0100
0001
0001
0100
0010
,
0100
0000
0000
0000
0000
0000
1000
0000
0000
0010
0000
0000
0110
0000
0000
0000
0000
0000
1001
0000
0000
0000
0000
0000
1000
0000
0000
0100
0000
0000
0010
0000
0000
0001
0000
0000
0100
0000
0000
0010
0000
0000
1000
0000
0100
0000
0010
0000
,
0001
0000
0000
0000
;

//--------------- dance-single - Fred-104† ----------------
#NOTEDATA:;
#STEPSTYPE:dance-single;
#DESCRIPTION:Fred-104†;
#DIFFICULTY:Challenge;
#METER:17;
#BPMS:0=200,68=100,72=200,136=100,152=200,184=100,200=200,344=100,348=200,356=100;
#CREDIT:Fred-104†;
#NOTES:
0000
0000
0000
0000
,
0000
0000
0000
0000
,
0000
0000
0000
0000
,
0000
0000
0000
0000
,
0000
0000
0000
0000
,
0001
0010
0100
1000
0001
0100
0010
1000
,
0100
0010
0100
0001
0100
1000
0001
0100
,
0010
1000
0001
0010
1000
0010
0001
0100
,
0010
0110
0000
0110
0000
2002
3003
0000
,
0002
0000
0000
0000
,
0203
0000
0000
0000
,
0320
0000
0000
0000
,
1030
0000
1000
0000
1000
0001
1001
0000
,
0001
0000
0010
0000
0001
0000
0010
0000
0100
0000
1000
0000
0100
0000
1000
0001
,
1000
0000
0010
0000
1000
0000
0010
0000
0100
0000
0001
0000
0100
0001
1000
0000
,
0001
0010
0100
1000
0001
0010
0100
1000
0001
0100
0010
1000
0001
0100
0010
1000
,
0010
0010
0100
0101
0000
1000
2002
3003
,
0220
0000
0000
0000
0000
0000
0000
0000
0000
0000
0000
0000
0330
0000
0000
0000
0110
0000
0000
0000
0110
0000
0000
0000
0100
0010
0100
0010
0100
0000
0000
0000
,
1002
0000
0000
0000
1003
0001
1000
0000
0002
0000
0203
0000
2300
0000
3002
0000
,
0023
0000
0230
0000
0302
0000
2003
0000
3200
0000
0320
0030
0011
0000
0000
0000
,
2200
0000
3300
0000
2002
0000
3003
0000
0001
0100
0010
0000
0100
0001
1000
0200
,
0010
0010
0010
0310
0100
0010
0110
0000
,
0012
0000
2003
3002
0203
2300
3002
0023
,
2030
0000
3200
0000
0302
0000
2003
0000
3020
0000
0032
0003
1001
0000
0000
0000
,
2020
0000
3030
0000
2002
0000
3003
0000
0001
0010
0100
0000
1000
0100
0010
0001
,
0100
0000
0000
0000
0110
0000
0000
0000
0010
0100
0010
0100
0020
0000
0000
0000
,
1030
0001
0010
0000
0100
0000
1000
0000
0001
1000
0010
0000
0100
0000
0001
0000
,
0010
0100
1000
0000
0001
0000
0100
0000
0020
0000
0032
0000
2003
0000
3200
0000
,
0301
1000
0010
0000
0100
0000
0010
0000
1000
0001
0010
0000
0100
0000
0010
0000
,
0001
1000
0010
0000
0100
0010
1000
0000
0001
1000
0001
1000
0001
0000
0000
0000
,
0001
0100
0010
0000
1000
0000
0100
0000
0010
0100
1000
0000
0001
0000
1000
0000
,
0010
1000
0001
0000
0010
0000
0100
0000
0010
0001
0100
0000
0010
1000
0001
0000
,
0010
0100
1000
0001
0010
0100
1000
0001
0100
0000
0010
0000
0100
0010
1000
0001
,
0010
0100
0010
0000
0100
0000
1000
0001
1000
0000
0001
0000
1001
0000
0000
0000
,
0220
0000
0330
0000
0000
0000
0000
0000
1001
0000
0000
0000
1010
0000
1000
0001
1000
0000
0100
0000
0010
0000
0001
0000
2000
0000
3020
0000
2030
0000
3020
0000
,
0031
0010
0001
0010
0100
0000
0010
0000
1010
0000
0000
0000
1001
0000
0001
1000
0001
0000
0100
0000
0010
0000
1000
0000
0002
0003
0020
0030
0200
0300
2000
3000
,
2002
0000
0000
0000
3003
0000
0000
0000
2010
0000
3001
0000
2000
0000
0000
0000
0000
0000
3100
1000
0100
0000
0010
0000
0001
0000
1000
0001
0100
0000
0010
0000
,
0110
0000
0000
0000
0000
0000
0102
0000
0000
0103
0000
0000
0110
0000
0000
0000
0000
0000
1001
0000
0000
0000
0000
0000
1100
0000
0000
1000
0000
0000
1001
0000
0000
0001
0000
0000
0010
0000
0100
0000
1000
0000
0010
0000
0100
0000
0001
0000
,
0020
0000
0000
0000
,
0000
0000
0000
0000
,
0230
0000
0000
0000
,
0000
0000
0000
0300
,
1000
0001
0101
0100
0010
1000
1001
0001
,
0010
0100
0101
0100
1000
0010
0110
0100
,
0001
0000
1000
0100
0010
0000
0001
0000
1000
0000
0010
0100
0001
1000
0100
0000
,
0010
0000
0001
0100
0010
0100
0001
0100
0010
0000
0110
0000
0110
0000
0000
0000
,
2002
3003
0000
0000
0000
0000
1000
0010
0000
0001
0000
1000
0000
0100
0000
0001
,
1001
0000
0000
0000
0000
0000
0001
0010
0000
1000
0000
0001
0000
0100
0000
1000
,
1001
0000
0000
0000
1000
0000
0010
0000
0100
0000
0000
0000
0010
0000
1000
0000
0001
0000
1000
0000
0100
0000
1000
0000
0010
0000
1000
0000
0001
0000
0100
0001
,
2000
0000
0000
0000
3200
0000
0000
0000
0320
0000
0000
0000
0031
0000
0001
0000
0100
0000
0100
0000
0010
0000
0010
0000
1000
0001
0010
0100
1000
0001
0010
0100
,
1000
0000
0001
1100
0000
0001
1010
0000
,
1001
0000
1000
0101
0000
1000
0011
0000
,
1001
0000
0001
1010
0000
0001
1100
0000
,
1100
0010
0001
0101
0010
1000
1001
0000
,
0001
0000
0010
0000
0100
0000
1000
0000
0001
0000
0100
0010
0100
0000
0001
0000
,
1000
0000
0100
0000
0010
0000
0001
1000
0010
0000
0100
0000
0001
1000
0001
1000
,
0100
0010
0001
1000
0100
0010
0001
1000
0010
0100
0001
1000
0010
0100
0001
1000
,
0100
0100
0100
1001
,
0001
0000
0010
0000
0100
0000
1000
0010
0100
0000
0001
0000
1000
0000
0100
0010
,
0002
0000
1003
0100
0020
0000
0031
1000
0200
0000
0310
0001
2000
0000
0000
0000
,
3010
1000
0001
0000
0010
0000
0100
0000
0010
0000
0100
1000
0001
0000
1000
0010
,
0200
0000
0301
1000
0020
0000
0130
0001
2000
0000
3010
0100
0002
0000
1003
0001
,
0100
0000
0001
0000
1000
0000
0100
0000
0010
0001
1000
0000
0001
0000
1000
0001
,
0200
0000
0310
1000
0002
0000
0103
0010
2000
0000
3001
0100
0020
0000
0000
0000
,
1030
0001
0010
0000
0100
0000
1000
0100
0010
0000
0001
1000
0010
1000
0001
0010
,
0200
0000
1300
0001
0020
0000
0130
1000
0002
0000
0013
0100
2000
0000
0000
0000
,
3001
0000
1000
0000
0100
0000
0010
0001
0010
0100
1000
0000
0001
0000
1000
0001
,
0200
0000
0001
1300
0200
0000
1000
0301
0200
0000
0001
1300
0200
0000
0000
0000
,
0310
0001
1000
0000
0010
0000
1000
0001
0010
0000
0100
0010
0001
0000
1000
0000
,
0020
0000
1000
0031
0020
0000
0001
1030
0020
0000
1000
0031
0020
0000
0001
1030
,
0010
0100
0001
0000
1000
0000
0100
0000
0010
0001
1000
0000
0001
0000
1000
0010
,
0200
0000
0001
0310
0200
0000
1000
0310
0200
0000
0001
0310
0200
0000
0000
0000
,
0310
0001
1000
0000
0010
0000
0100
0001
1000
0001
0010
0000
0100
1000
0001
0000
,
1000
0010
0001
1000
0100
0001
1000
0100
0010
0001
0000
0000
,
1001
0000
0000
0000
,
0000
0000
0000
0000
,
0000
0000
0000
0000
,
1100
0000
0101
0000
0110
0000
2002
3003
,
0001
0100
1000
0001
0010
1000
0100
0010
,
1000
0010
0100
0001
1000
0010
0001
1000
,
0001
0100
0010
0001
1000
0100
0001
1000
,
0100
0010
1000
0001
0100
0010
0011
0000
,
1000
0000
0100
0000
0010
0000
0001
0000
1000
0010
0100
0000
0010
0000
1000
0000
,
0001
0000
0010
0100
1000
0000
0001
1000
0010
0000
1000
0001
0010
0000
0100
0000
,
1000
0000
0001
0000
0100
0000
0010
0000
1000
0001
0010
0000
0100
0000
0010
0000
,
0001
0000
1000
0001
0100
0000
0001
1000
0100
0010
0001
1000
0001
0000
0000
0000
,
0210
0000
0000
0000
0301
0000
0100
0000
0110
0000
0010
0000
1010
0000
1000
0001
0010
0000
0000
0100
0000
0000
0100
0000
0110
0000
0000
0000
0001
1000
0001
1000
,
0001
0010
0100
1000
0001
0100
0010
1000
,
0001
0010
0100
1000
0001
0010
0100
1000
0001
1000
0010
0100
0002
0000
0003
0000
,
2002
0000
0000
0000
0000
0000
3003
0000
0000
0000
0000
0000
0000
0000
0000
0000
0000
0000
0000
0000
0000
0000
0000
0000
0110
0000
0000
0000
0000
0000
0000
0000
0000
0000
0000
0000
0001
0000
0000
1000
0000
0000
0001
0000
0000
1000
0000
0000
0001
0000
0000
0000
0010
0000
0000
0000
0100
0000
0000
0000
0010
0000
0000
0000
0001
0000
0000
0000
1000
0000
0000
0000
0020
0000
0000
0000
0000
0000
0230
0000
0000
0000
0000
0000
0320
0000
0000
0000
0000
0000
0230
0000
0000
0000
0000
0000
,
1300
0100
1000
0100
0010
0000
0100
0000
0102
0000
0000
0000
1003
0001
1000
0001
2000
0000
3200
0000
0320
0000
0032
0000
0203
0300
0200
0300
0020
0030
0020
0030
,
2002
0000
0000
0000
3003
0000
0000
0000
2100
0000
3001
0000
0020
0000
0000
0000
0000
0000
0130
0010
0100
0010
0001
0000
2000
3000
0020
0030
0200
0300
0002
0003
,
1001
0000
0000
0000
0000
0000
0000
0000
0000
0000
0000
0000
0101
0000
0000
0000
0000
0000
0100
0000
0000
0000
0000
0000
0120
0000
0000
0000
0000
0000
0030
0000
0000
0000
0000
0000
0012
0000
0000
0000
0000
0000
0003
0000
0000
0000
0000
0000
1020
0000
0000
0000
0000
0000
1030
0000
0000
0000
0000
0000
0001
0000
0000
0000
0000
0000
0010
0000
0000
0000
0000
0000
0100
0000
0000
0000
0000
0000
1000
0000
0000
0001
0000
0000
0100
0000
0000
0000
0010
0000
0000
0000
0100
0000
0000
0000
,
1001
0000
0000
0000
;

//--------------- dance-double - Fred-104 ----------------
#NOTEDATA:;
#STEPSTYPE:dance-double;
#DESCRIPTION:Fred-104;
#DIFFICULTY:Easy;
#METER:9;
#CREDIT:Fred-104;
#NOTES:
00000000
00000000
00000000
00000000
,
00000000
00000000
00000000
00000000
,
00000000
00000000
00000000
00000000
,
00000000
00000000
00000000
00000000
,
00000000
00000000
00000000
00000000
,
00010000
00001000
00000000
00001000
,
00100000
00010000
10000000
00010000
,
01000000
00100000
00000000
00100000
,
00010000
00000000
00000000
00001000
00000000
00022000
00033000
00000000
,
00020000
00000000
00032000
00000000
,
00003100
00000100
00000001
00001000
,
00000200
00000000
00000320
00000000
,
00000031
00000001
00000100
00001000
,
00010000
00010000
00001000
00001000
,
00100000
00100000
01000000
01000000
,
10000000
00010000
10000000
00000000
00010000
01000000
00010000
00000000
,
00100000
00000000
00001000
00010000
00000000
00000100
00000010
00000000
,
00000220
00000000
00000000
00000000
,
00000000
00000000
00000000
00000330
,
00000002
00000003
00001000
00001000
,
00000100
00000100
00000010
00000010
,
00002000
00000000
00023000
00000000
00031000
00010000
00001000
00000000
,
01000000
00100000
02200000
03300000
,
10010000
00010000
01000000
01000000
,
00100000
00000000
00100000
00000000
00010000
00001000
00010000
00000000
,
00001000
01000000
00010000
01000000
,
20020000
00000000
00000000
30030000
,
10000000
01000000
00010000
00001000
,
00010000
00000000
00100000
00000000
00010000
00001000
00010000
00000000
,
00001000
00010000
00000100
00000010
,
00000001
00000000
00001000
00000000
00000010
00010000
00000010
00000000
,
00010000
00001000
01000000
00001000
,
00010000
00000000
00000100
00000000
00000010
00000001
00000010
00000000
,
00000100
00001000
00000100
00010000
,
00001000
01000000
00001000
00000000
00010000
00000000
00001000
00000000
,
00022000
00033000
00011000
00000000
,
00001000
00001000
00010000
00000000
,
00100000
00100000
01000000
00000000
,
00010000
10000000
01000000
00010000
,
00022000
00033000
00010000
00001000
,
00000000
00001000
00000000
00000000
00000100
00000000
00000010
00000000
,
00001000
00000000
00001001
00000000
,
00000001
00000010
00001000
00010000
,
00002000
00000000
00000000
00000000
,
00000000
00000000
00000000
00000000
,
00000000
00000000
00000000
00000000
,
00000000
00000000
00000000
00003000
,
00010000
00001000
00000100
00001000
,
00010000
00000000
00001000
00000000
00000010
00000001
00000010
00000000
,
00000001
00000100
00001000
00010000
,
00001000
01000000
00001000
00010000
,
00011000
00000000
00000000
00000000
,
00001000
00000000
00010000
00000000
,
00200000
00000000
00300000
00000000
,
10000000
00000000
01000000
00000000
,
00020000
00000000
00031000
00000000
,
00010000
00000000
00000100
00000000
,
00000010
00000000
00000001
00000000
,
00001000
00000010
00001000
00000000
00000010
00010000
00001000
00000000
,
00010000
00000000
00000000
00001000
00000000
00000000
00000010
00000000
,
00000010
00000000
00000000
00000001
00000000
00000000
00000100
00000000
,
00000100
00000000
00000000
00001000
00000000
00000000
00010000
00000000
,
00010000
00000000
00000000
00100000
00000000
00000000
10000000
00000000
,
10000000
01000000
00100000
00000000
,
00001000
00010000
00000100
00000000
,
00000010
00000001
00000010
00000000
00000100
00001000
00000100
00000000
,
00002002
00000000
00000000
00003003
,
00000001
00001000
00000010
00000100
,
00002000
00023000
00032000
00023000
,
00031000
00100000
00010000
10000000
,
00200000
02300000
03200000
02300000
,
03100000
10000000
01000000
00010000
,
00002000
00023000
00032000
00023000
,
00130000
00010000
00001000
00010000
,
00000200
00000320
00000230
00000320
,
00000031
00000000
00001000
00000000
00000010
00010000
00000010
00000000
,
00020000
00032000
00203000
00320000
,
01030000
00000000
00100000
00000000
10000000
00010000
10000000
00000000
,
02000000
03020000
00032000
00023000
,
00030010
00000000
00001000
00000000
00000100
00000010
00000100
00000000
,
00002000
00003020
00000230
00002300
,
00013000
00000000
00000100
00000000
00001000
00000001
00001000
00000000
,
00000001
00000100
00001000
00010000
,
00011000
00000000
00000000
00000000
,
00000000
00000000
00000000
00000000
,
00000000
00000000
00000000
00000000
,
00000000
00000000
00000000
00000000
,
00010000
00000000
00001000
00000000
01000000
00000000
00100000
00100000
,
00000000
10000000
00000000
01000000
00000000
00100000
00000000
00001000
,
00001000
00000000
00010000
00000000
00000100
00000000
00000010
00000010
,
00000000
00000001
00000000
00001000
00000000
00000001
00000000
00000100
,
00000100
00000000
00001000
00000000
00010000
00000000
00001000
00001000
,
00000000
00000010
00000000
00001000
00000000
00010000
00000000
00001000
,
00001000
00000000
00010000
00000000
01000000
00000000
10000000
10000000
,
00000000
00010000
00000000
01000000
00000000
00100000
00100000
00000000
,
01100000
00000000
10010000
10000000
,
01000000
00010000
00011000
00000000
,
00010000
00001000
00000100
00000001
,
00000010
00000100
00000010
00000100
00000010
00000100
00000010
00000000
,
00002002
00003003
00001001
00000000
,
00001000
00000001
00000100
00000000
,
00000100
00001000
00010000
00000000
,
00010000
00001000
01000000
00001000
,
00022000
00000000
00033000
00000000
00011000
00000000
00000000
00001000
,
00000000
01000000
00100000
00000000
,
01000000
00000000
01010000
00000000
,
00010000
10000000
01000000
00010000
,
00011000
00000000
00000000
00000000
;

//--------------- dance-double - Fred-104 ----------------
#NOTEDATA:;
#STEPSTYPE:dance-double;
#DESCRIPTION:Fred-104;
#DIFFICULTY:Medium;
#METER:13;
#BPMS:0=200,68=100,72=200,136=100,152=200,184=100,200=200,344=100,348=200,356=100;
#CREDIT:Fred-104;
#NOTES:
00000000
00000000
00000000
00000000
,
00000000
00000000
00000000
00000000
,
00000000
00000000
00000000
00000000
,
00000000
00000000
00000000
00000000
,
00000000
00000000
00000000
00000000
,
00011000
00010000
00001000
00000100
,
00000001
00000000
00001000
00000000
00000100
00000010
00000001
00000000
,
00001000
00000010
00000100
00001000
,
00010000
00001000
00010000
00001000
00000000
00022000
00033000
00000000
,
00001000
00000000
00010000
00000000
00100000
00000000
10000000
01000000
,
00000000
00010000
00000000
01000000
00000000
10000000
00000000
01000000
,
00010000
00000000
00001000
00000000
00000100
00000000
00001000
00010000
,
00000000
00001000
00000000
00000010
00000000
00000001
00000010
00001000
,
00000001
00000010
00000100
00000000
00001000
00000010
00000100
00000000
,
00001000
00010000
00001000
00000000
00100000
00010000
10000000
00000000
,
00100000
01000000
00100000
01000000
00100000
00010000
00001000
00010000
,
00001000
00010000
00001000
00100000
00000000
01000000
00100000
00000000
,
20020000
00000000
00000000
00000000
00000000
00000000
00000000
30030000
,
20010000
00000000
30010000
10000000
01000000
00100000
02000000
00000000
,
03010000
00001000
00020000
00000000
00030100
00000010
00000002
00000000
,
00001003
00000000
00001001
00000000
00000001
00000100
00001000
00010000
,
00001000
00001000
00010000
00010000
00001000
00010000
00001000
00000000
,
00021000
00000000
00130000
10000000
01000000
00100000
00020000
00000000
,
01030000
00100000
00020000
00000000
00031000
00010000
00000020
00000000
,
00000130
00000000
00001001
00000000
00000001
00000010
00001000
00010000
,
00002000
00000000
00000000
00003000
,
00010000
00001000
00100000
00000000
00010000
10000000
00100000
00000000
,
01000000
00001000
00010000
00000000
00000100
00001000
00000001
00000000
,
00000100
00000010
00001000
00000000
00000001
00000010
00000100
00000000
,
00010000
00001000
00010000
00000000
00001000
00000000
00011000
00000000
,
00001000
00010000
00100000
00000000
01000000
00010000
10000000
00000000
,
01000000
00010000
00001000
00000000
00010000
00000100
00001000
00000000
,
00000010
00001000
00000001
00000000
00000010
00000100
00001000
00000000
,
00000010
00000100
00001000
00000000
00010000
00000000
00001000
00000000
,
00022000
00000000
00000000
00000000
00033000
00000000
00001000
00000000
00100000
00000000
01000000
00000000
10000000
00010000
10000000
00000000
,
00100000
01000000
00100000
01000000
00100000
00000000
00010000
00001000
00010000
00000010
00001000
00000010
00000100
00000001
00001000
00000000
,
00002002
00000000
00003003
00000000
00001000
00000010
00001000
00000000
00000000
00000010
00000100
00001000
00010000
00000000
00011000
00000000
,
00110000
00000000
10100000
00000000
11000000
00000000
01010000
00000000
00010000
00001000
00000100
00000001
00001000
00000000
00000100
00000000
,
00000020
00000000
00000000
00000000
,
00000000
00000000
00000000
00000000
,
00000000
00000000
00000000
00000000
,
00000000
00000000
00000000
00000030
,
00000001
00000100
00001000
00010000
,
00001000
00000010
00001000
00010000
,
01000000
00010000
00001000
00010000
,
00100000
10000000
01000000
00100000
00001000
01000000
00100000
00000000
,
20010000
00000000
00000000
32000000
00000000
00000000
03020000
00000000
00000000
00032000
00000000
00000000
00003010
00000000
00000001
00000000
,
00002000
00000000
00000000
00003002
00000000
00000000
00000203
00000000
00000000
00002300
00000000
00000000
00013000
00000000
00100000
00000000
,
10000000
00000000
00000000
00010000
00000000
00000000
00100000
00000000
00000000
01000000
00000000
00000000
00010000
00000000
00001000
00000000
,
00010000
00000000
00000100
00000000
00000010
00000000
00000001
00000000
00001000
00000010
00001000
00000010
00000100
00001000
00010000
00000000
,
00011000
00000000
00000000
00110000
00000000
00000000
10100000
00000000
,
10010000
00000000
00000000
11000000
00000000
00000000
01010000
00000000
,
00011000
00000000
00000000
00001010
00000000
00000000
00000011
00000000
,
00001001
00000000
00000000
00000101
00000000
00000000
00010010
00000000
,
00010000
00001000
00100000
00000000
00010000
10000000
00100000
00000000
,
01000000
00100000
00010000
00000000
00001000
00010000
00000010
00000000
,
00001000
00000100
00000010
00000100
00001000
00000001
00000100
00001000
,
00020000
00000000
00000000
00030000
,
00001000
00100000
00010000
10000000
00100000
01000000
00010000
10000000
,
02000000
03200000
00302000
00023000
,
00030100
00001000
00000001
00001000
00000010
00000100
00001000
00010000
,
00002000
00023000
00030020
00002030
,
00003001
00000010
00000100
00001000
00000010
00000100
00001000
00010000
,
00002000
00203000
00320000
20030000
,
30100000
01000000
00100000
10000000
00010000
00100000
01000000
00100000
,
00002000
00023000
00032000
00023000
,
00030100
00010000
00000100
00001000
00000010
00000100
00000010
00010000
,
00002000
00003200
00000302
00002003
,
00003100
00000010
00001000
00010000
00001000
00100000
00010000
01000000
,
00002000
00023000
00230000
20300000
,
31000000
00100000
00010000
01000000
00100000
00010000
00001000
00010000
,
00000020
00002030
00003200
00020300
,
00031000
00010000
00100000
00000000
01000000
00100000
10000000
00000000
,
01000000
00010000
00001000
00010000
,
00011000
00000000
00000000
00000000
,
00000000
00000000
00000000
00000000
,
00000000
00000000
00000000
00000000
,
00011000
00001010
00110000
00011000
,
00001000
00010000
00100000
00000000
01000000
00000000
00010000
10000000
,
00000000
11000000
00000000
01010000
00000000
00011000
00000000
00010000
,
00000100
00001000
00000001
00000000
00000100
00000000
00001000
00010000
,
00000000
00011000
00000000
00001010
00000000
00000011
00000000
00000001
,
00001000
00000001
00000100
00000000
00001000
00010000
00001000
00100000
,
00000000
00110000
00000000
10100000
00000000
00110000
00000000
00010000
,
01000000
00100000
00010000
00000000
00001000
00010000
00100000
10000000
,
00000000
11000000
00000000
01010000
00000000
00010000
00001000
00000000
,
00201000
00000000
00000000
00000000
00310000
00000000
01000000
00000000
00100000
00000000
00000000
00000000
10000000
00000000
01000000
00000000
00010000
00000000
00000000
00010000
00000000
00000000
00010000
00000000
00001000
00000000
00000000
00000000
00011000
00000000
00000000
00000000
,
00001000
00010000
00000100
00000000
00001000
00000001
00000100
00000000
,
00000010
00000100
00001000
00010000
00100000
10000000
01000000
00000000
,
02200000
00000000
00000000
00000000
03300000
00000000
00010000
00000000
10000000
01000000
00100000
00000000
00001000
00010000
00001000
00000000
,
00010000
00000100
00001000
00000100
00000010
00000000
00000001
00001000
00000010
00000100
00000010
00000100
00001000
00010000
00001000
00000000
,
00022000
00000000
00033000
00000000
01100000
00000000
00010000
10000000
00000000
00100000
01000000
00000000
00100000
00010000
00001000
00000000
,
00011000
00000000
00001100
00000000
00000101
00000000
00001001
00000000
00000001
00000010
00001000
00010000
01000000
00000000
10000000
00000000
,
10010000
00000000
00000000
00000000
;

//--------------- dance-double - Fred-104 ----------------
#NOTEDATA:;
#STEPSTYPE:dance-double;
#DESCRIPTION:Fred-104;
#DIFFICULTY:Hard;
#METER:15;
#BPMS:0=200,68=100,72=200,136=100,152=200,184=100,200=200,344=100,348=200,356=100;
#CREDIT:Fred-104;
#NOTES:
00000000
00000000
00000000
00000000
,
00000000
00000000
00000000
00000000
,
00000000
00000000
00000000
00000000
,
00000000
00000000
00000000
00000000
,
00000000
00000000
00000000
00000000
,
00010000
00001000
00100000
01000000
10000000
00010000
01000000
00100000
,
00010000
00001000
00010000
00000000
00000010
00001000
00000001
00000000
,
00000010
00000100
00010000
00001000
00100000
00010000
10000000
00100000
,
02000000
00010000
00000000
03010000
00000000
20020000
30030000
00000000
,
10010000
00000000
10000000
00000000
10000000
00000000
01000000
00100000
,
00000000
00100000
00000000
00100000
00000000
00100000
00000000
00001000
,
00010000
00000000
00010000
00000000
00010000
00000000
00001000
00000100
,
00000000
00000100
00000000
00000100
00000000
00000100
00000000
00000100
,
00000001
00000000
00000010
00000100
00000010
00000100
00000010
00000100
,
00000000
00010000
00000000
00010000
00000100
00010000
00001000
00100000
,
00010000
10000000
00010000
00000000
01000000
00000000
00100000
00000000
10000000
00010000
10000000
00000000
01000000
00000000
00010000
00000000
,
00001000
00001000
00010000
00011000
00000000
00000010
00000110
00000000
,
00002002
00000000
00000000
00003003
00000001
00000100
00001000
00011000
,
00012000
00000000
00103000
01000000
10000000
10000000
10000000
00100000
,
00010000
00010000
00001000
00010000
01000000
01000000
11000000
00000000
,
00020000
00000000
00000000
00000000
00230000
00000000
00000000
00000000
00301000
00000000
00010000
00000000
00000100
00000000
00000010
00000001
,
00000010
00000010
00000001
00000001
00000100
00001000
00011000
00000000
,
01002000
00000000
00013000
00010000
00001000
00001000
00000100
00000010
,
00001000
00001000
00000100
00000100
00000010
00001000
00011000
00000000
,
00101000
00000000
00000000
00000000
00010010
00000000
00000000
00000000
00010000
00000000
00000010
00000000
00001000
00000010
00001000
00000010
,
00000100
00000110
00011000
01100000
,
00010000
10000000
01000000
00010000
00001000
00100000
00001000
00010000
,
00000010
00001000
00000001
00000010
00000100
00001000
00000200
00000000
,
00001300
00010000
00100000
00001000
00010000
00100000
01000000
00010000
,
10000000
01000000
00100000
00010000
00001000
00000100
00020000
00000000
,
00031000
00010000
00100000
01000000
00100000
10000000
00010000
00100000
,
00001000
00000010
00000100
00001000
00000001
00000100
00000010
00000100
,
00001000
00000000
00010000
00001000
00010000
00000000
00001000
00010000
00001000
00000000
01000000
00000000
00001000
00000000
00010000
00001000
,
00010000
00000000
00001000
00000000
00010000
00000000
00000010
00001000
00000010
00000000
00000100
00000000
00000010
00000000
00000000
00000000
,
00002002
00003003
00000000
00000000
00000110
00000000
00000001
00001000
00000001
00000100
00000010
00000100
00002000
00023000
00032000
00023000
,
00031000
01000000
00010000
01000000
01100000
00000000
00100000
10000000
01000000
00010000
00001000
00010000
00011000
00000000
00000010
00000100
,
00000220
00000000
00000330
00000000
00001000
00000001
00000200
00000000
00000000
00001300
00010000
01000000
00010000
00001000
00010000
00100000
,
10000000
00000000
00000000
00000000
00000000
00000000
11000000
00000000
00000000
00000000
00000000
00000000
00110000
00000000
00000000
00000000
00000000
00000000
00101000
00000000
00000000
00000000
00000000
00000000
00001000
00000000
00000000
00010000
00000000
00000000
00000010
00000000
00000000
00001000
00000000
00000000
00000010
00000000
00001000
00000000
00000010
00000000
00010000
00000000
00001000
00000000
00010000
00000000
,
00002000
00000000
00000000
00000000
,
00000000
00000000
00000000
00000000
,
00000000
00000000
00000000
00000000
,
00000000
00000000
00000000
00003000
,
00010000
00001000
00010000
00000100
00001000
00000001
00000100
00000010
,
00000100
00001000
00010000
00001000
01000000
00100000
10000000
00000000
,
00010000
00100000
00001000
00100000
01000000
00100000
00010000
10000000
,
00100000
01000000
00100000
00010000
00001000
00010000
00011000
00000000
,
00002000
00000000
00000000
00010000
00000000
00000000
00010000
00000000
00000000
00010000
00000000
00000000
00010000
00000000
00013000
00000000
,
00020000
00000000
00000000
00001000
00000000
00000000
00001000
00000000
00000000
00001000
00000000
00000000
00031000
00010000
00001000
00000000
,
00010000
00000000
00001000
00000000
00011000
00000000
00001000
00010000
00001000
00000100
00000000
00000100
00000000
00000001
00000000
00000001
,
00000010
00000000
00000010
00000000
00000100
00000000
00001000
00000001
00000100
00000100
00001000
00001000
00010000
00001000
00010000
00000000
,
00011000
00000000
00000000
01010000
00000000
00000000
00011000
00000000
,
00011000
00000000
00000000
00001100
00000000
00000000
00011000
00000000
,
00011000
00000000
00000000
00110000
00000000
00000000
00022000
00033000
,
00011000
00000000
00000000
00001010
00000000
00000000
00011000
00000000
,
00010000
00000000
00001000
00000000
01000000
00000000
00000000
00000000
00100000
00000000
10000000
00010000
10000000
00000000
01000000
00000000
,
00010000
00000000
00001000
00000000
00010000
00000000
00001000
00010000
00001000
00000000
00010000
00000000
00000010
00000000
00001000
00000000
,
00000001
00000010
00000100
00010000
00001000
00100000
01000000
10000000
,
00010000
01001000
00010100
00011000
,
00010000
00001000
00000100
00000010
00001000
00000001
00000010
00001000
,
00010000
01010000
11000000
20010000
,
30010000
10000000
00100000
00010000
00001000
01000000
00010000
00001000
,
00000010
00001001
00010100
00201000
,
00301000
00010000
01000000
00100000
00010000
01000000
00100000
00010000
,
00001000
00011000
00101000
20010000
,
30010000
00000000
10000000
00000000
01000000
00000000
00010000
00000000
00001000
00000000
00010000
00000100
00010000
00000100
00001000
00000000
,
00001100
00000101
00000011
00002010
,
00003001
00001000
00000010
00000100
00001000
00010000
00001000
00100000
,
01000000
00000000
00000000
01000000
10000000
00000000
00000000
10000000
00010000
00000000
00000000
00010000
00200000
00000000
00000000
00000000
,
00310000
00000000
10000000
00000000
00100000
00000000
01000000
00000000
00010000
00000000
01000000
00001000
01000000
00000000
00001000
00000000
,
00010000
00000000
00000000
00010000
00001000
00000000
00000000
00001000
00000100
00000000
00000000
00000100
00000001
00000000
00000000
00000001
,
00001000
00000100
00000010
00001000
00010000
01000000
00100000
00001000
,
00010000
00000000
00000000
00010000
00001000
00000000
00000000
00001000
00100000
00000000
00000000
00100000
02000000
00000000
00000000
00000000
,
13000000
00000000
00010000
00000000
01000000
00000000
00100000
00000000
10000000
00010000
10000000
00000000
01000000
00100000
01000000
00000000
,
00100000
00001000
00010000
00001000
00010000
00000100
00001000
00000001
00001000
00000010
00000000
00000000
,
00011000
00000000
00000000
00000000
,
00000000
00000000
00000000
00000000
,
00000000
00000000
00000000
00000000
,
00010000
00000000
00001000
00000000
00011000
00000000
00022000
00033000
,
00010000
00000100
00001000
00000001
00000100
00000010
00000100
00001000
,
00000000
00011000
00000000
00110000
00000000
10100000
00000000
10000000
,
01000000
00100000
01000000
10000000
00010000
01000000
00100000
00010000
,
00000000
00011000
00000000
00001010
00000000
00000010
00000001
00001000
,
00000001
00000100
00000010
00000100
00001000
00010000
00100000
01000000
,
00010000
10000000
01000000
00010000
00001000
00010000
00100000
00000000
,
01000000
00010000
10000000
01000000
00010000
00001000
00000010
00000100
,
00001000
00000001
00000100
00000010
00000100
00001000
00010000
00000000
,
00012000
00000000
00000000
00000000
00013000
00000000
00001000
00000000
01001000
00000000
01000000
00000000
00100000
00000000
10000000
00010000
10000000
00000000
00000000
10000000
00000000
00000000
01000000
00000000
00010000
00000000
00001000
00000000
00011000
00000000
00000000
00000000
,
00020000
00030000
00001000
00000000
00000100
00000000
00000001
00000000
00001000
00000000
00000100
00000000
00000010
00000000
00001000
00000000
,
00010000
00001000
00010000
00000000
00001000
00100000
00001000
00000000
00010000
00001000
00010000
00001000
00010000
00000000
00000000
00000000
,
00022000
00000000
00000000
00033000
00000000
00000000
00000000
00000000
00000000
00000000
00000000
00000000
01001000
00000000
00000000
00000000
00000000
00000000
01000000
00000000
00010000
00000000
01000000
00000000
00100000
00000000
01000000
00000000
00100000
00000000
10000000
00000000
00100000
00000000
10000000
00000000
00020000
00000000
00000000
00230000
00000000
00000000
00320000
00000000
00000000
00230000
00000000
00000000
,
00301000
00010000
00000010
00010000
00012000
00000000
00013000
00100000
10000000
00010000
00100000
01000000
00010000
00010000
00001000
00001000
,
00022000
00000000
00033000
00000000
00010010
00000000
00010000
00010000
00000000
00001000
00000100
00000001
00000010
00000100
00001000
00000100
,
00010000
00000000
00000000
00000000
00000000
00000000
00001000
00000000
00000000
00010000
00000000
00000000
00011000
00000000
00000000
00000000
00000000
00000000
00110000
00000000
00000000
00000000
00000000
00000000
00100000
00000000
00000000
10000000
00000000
00000000
00010000
00000000
00000000
10000000
00000000
00000000
01000000
00000000
00000000
00100000
00000000
00000000
00001000
00000000
00010000
00000000
00001000
00000000
,
00010000
00000000
00000000
00000000
;

//--------------- dance-double - Fred-104† ----------------
#NOTEDATA:;
#STEPSTYPE:dance-double;
#DESCRIPTION:Fred-104†;
#DIFFICULTY:Challenge;
#METER:17;
#BPMS:0=200,68=100,72=200,136=100,152=200,184=100,200=200,344=100,348=200,356=100;
#CREDIT:Fred-104†;
#NOTES:
00000000
00000000
00000000
00000000
,
00000000
00000000
00000000
00000000
,
00000000
00000000
00000000
00000000
,
00000000
00000000
00000000
00000000
,
00000000
00000000
00000000
00000000
,
00001000
00010000
01000000
00100000
00010000
10000000
00100000
00010000
,
00001000
00000100
00000010
00010000
00000100
00000010
00000001
00001000
,
00000100
00010000
00000010
00000100
00001000
00010000
00100000
00010000
,
00001000
00011000
00000000
00001100
00000000
00000202
00000303
00000000
,
00000002
00000000
00000000
00000000
,
00000023
00000000
00000000
00000000
,
00002030
00000000
00000000
00000000
,
00013000
00000000
00010000
00000000
00001000
00001000
00011000
00000000
,
00001000
00000000
00010000
00000000
00100000
00000000
10000000
00000000
00010000
00000000
00100000
00000000
01000000
00000000
10000000
00010000
,
10000000
00000000
00100000
00000000
01000000
00000000
00100000
00000000
00010000
00000000
00001000
00000000
00010000
00001000
00010000
00000000
,
00000100
00001000
00000100
00000000
00000010
00000001
00000010
00000000
00000001
00001000
00000001
00001000
00000010
00000100
00000010
00000100
,
00000010
00000010
00001000
00001010
00000000
00000010
00010010
00000000
,
00022000
00000000
00000000
00000000
00000000
00000000
00000000
00000000
00000000
00000000
00000000
00000000
00033000
00000000
00000000
00000000
00011000
00000000
00000000
00000000
00011000
00000000
00000000
00000000
00010000
00001000
00010000
00001000
00010000
00000000
00000000
00000000
,
00012000
00000000
00000000
00000000
00013000
00000010
00001000
00000000
00000002
00000000
00002003
00000000
00003200
00000000
00000320
00000000
,
00000032
00000000
00000203
00000000
00002300
00000000
00023000
00000000
00230000
00000000
02300000
03000000
01010000
00000000
00000000
00000000
,
20200000
00000000
30300000
00000000
20020000
00000000
30030000
00000000
00010000
10000000
01000000
00000000
00100000
00001000
00100000
00001000
,
00020000
00001000
00001000
00031000
00010000
00001000
00011000
00000000
,
00010020
00000000
00000230
00000302
00002003
00003200
00000320
00002030
,
00023000
00000000
02030000
00000000
03200000
00000000
00302000
00000000
00023000
00000000
00230000
00300000
10100000
00000000
00000000
00000000
,
02002000
00000000
03003000
00000000
00022000
00000000
00033000
00000000
00010000
00001000
00010000
00000000
00000100
00001000
00000100
00000010
,
00000001
00000000
00000000
00000000
00001001
00000000
00000000
00000000
00000001
00001000
00000001
00001000
00000001
00000000
00000000
00000000
,
00001000
00000001
00001000
00000000
00000100
00000000
00000010
00000000
00000100
00000000
00010000
00000000
00001000
00000000
01000000
00000000
,
00100000
10000000
00100000
00000000
01000000
00000000
00010000
00000000
00200000
00000000
02300000
00000000
03020000
00000000
00032000
00000000
,
00013000
00001000
00010000
00000000
00001000
00000000
00000010
00000000
00000100
00000000
00000001
00000000
00000100
00000000
00001000
00000000
,
00000001
00000100
00000010
00000000
00001000
00000100
00010000
00000000
00001000
00000000
00010000
00000000
00011000
00000000
00000000
00000000
,
00001000
00100000
00010000
00000000
10000000
00000000
00010000
00000000
01000000
00000000
00100000
00000000
00010000
00000000
00001000
00000000
,
00010000
00001000
00100000
00000000
00010000
00000000
00001000
00000000
00000100
00010000
00001000
00000000
00010000
00000010
00001000
00000000
,
00000001
00000010
00000001
00000010
00000100
00001000
00000100
00001000
00000100
00000000
00010000
00000000
00001000
00010000
00001000
00010000
,
00001000
01000000
00010000
00000000
10000000
00000000
00100000
01000000
00010000
00000000
10000000
00000000
00010000
00000000
00000000
00000000
,
20020000
00000000
30030000
00000000
00000000
00000000
00000000
00000000
01100000
00000000
00000000
00000000
10010000
00000000
00010000
10000000
01000000
00000000
00100000
00000000
00010000
00000000
00001000
00000000
00000200
00000000
00000320
00000000
00002030
00000000
00023000
00000000
,
00031000
01000000
00001000
01000000
00001000
00000000
00010000
00000000
00011000
00000000
00000000
00000000
00010010
00000000
00000010
00001000
00000001
00000000
00000010
00000000
00001000
00000000
00010000
00000000
02000000
03000000
00200000
00300000
20000000
30000000
00200000
00300000
,
00220000
00000000
00000000
00000000
00330000
00000000
00000000
00000000
00101000
00000000
00001000
00000000
00020000
00000000
00000000
00000000
00000000
00000000
00031000
00010000
00001000
00000000
00010000
00000000
00100000
00000000
10000000
00000000
01000000
00000000
00010000
00000000
,
00011000
00000000
00000000
00000000
00000000
00000000
00001020
00000000
00000000
00001030
00000000
00000000
00001010
00000000
00000000
00000000
00000000
00000000
00011000
00000000
00000000
00000000
00000000
00000000
00011000
00000000
00000000
00001000
00000000
00000000
00000010
00000000
00000000
00000100
00000000
00000000
00001000
00000000
00000001
00000000
00000100
00000000
00001000
00000000
00010000
00000000
00100000
00000000
,
20000000
00000000
00000000
00000000
,
00000000
00000000
00000000
00000000
,
00000000
00000000
00000000
00000000
,
00000000
00000000
00000000
30000000
,
00010000
10000000
01000000
00010000
00000100
00001000
00000010
00010000
,
00001000
00100000
01000000
00100000
00001000
01000000
00100000
00010000
,
00001000
00010000
00000100
00000001
00001000
00000010
00000100
00000010
,
00000001
00000000
00001000
00000100
00001000
00000001
00001000
00000100
00000010
00000000
00000100
00000000
00000110
00000000
00000000
00000000
,
00002002
00003003
00000000
00000000
00000000
00000000
00000001
00000100
00000000
00010000
00000000
00001000
00000000
00100000
00000000
10000000
,
10010000
00000000
00000000
00000000
00000000
00000000
10000000
01000000
00000000
00001000
00000000
00010000
00000000
00000010
00000000
00000001
,
00001001
00000000
00000000
00000000
00000001
00000000
00001000
00000000
00000001
00000000
00000000
00000000
00001000
00000000
00000010
00000000
00000001
00000000
00000010
00000000
00000100
00000000
00001000
00000000
00010000
00000000
00001000
00000000
00100000
00000000
00001000
00010000
,
00002000
00000000
00000000
00000000
00023000
00000000
00000000
00000000
02030000
00000000
00000000
00000000
13000000
00000000
10000000
00000000
00010000
00000000
00010000
00000000
01000000
00000000
01000000
00000000
00001000
00010000
00001000
00010000
00001000
00010000
00001000
00010000
,
00001000
00010000
00100000
10000000
01000000
00010000
00011000
00000000
,
00010000
00001000
00000010
00000001
00000100
00001000
00011000
00000000
,
00001000
00010000
01000000
10000000
00100000
00010000
00011000
00000000
,
00010000
00001000
00000100
00000001
00000010
00001000
00011000
00000000
,
00010000
00000000
00000100
00000000
00010000
00000000
00000100
00000000
00001000
00000000
00000001
00001000
00000001
00000000
00000100
00000000
,
00000010
00000000
00000100
00000000
00001000
00000000
00010000
00001000
01000000
00000000
00010000
00000000
01000000
00100000
10000000
00000000
,
00010000
00100000
00001000
00000000
00010000
00000010
00001000
00000000
00000001
00000010
00000001
00000010
00000100
00001000
00000100
00010000
,
00001000
00011000
00110000
10100000
,
10000000
00010000
00100000
01000000
00010000
00001000
00010000
00000100
,
00002000
00000000
00003001
00000100
00000002
00000000
00001003
00000010
00002000
00000000
00003001
00001000
00000002
00000000
00000000
00000000
,
00000013
00000100
00001000
00000010
00000100
00001000
00010000
00100000
,
02000000
00000000
03010000
10000000
00020000
00000000
01030000
00100000
02000000
00000000
03100000
10000000
00200000
00000000
10300000
00010000
,
10000000
00010000
00100000
01000000
00010000
00001000
00000010
00000100
,
00020000
00000000
00031000
01000000
00002000
00000000
00013000
00000100
00020000
00000000
00031000
00100000
00002000
00000000
00000000
00000000
,
00013000
00000000
00001000
00000000
00000100
00000000
00000010
00001000
00000010
00000000
00000100
00000001
00000100
00000001
00001000
00000000
,
00000200
00000000
00010300
00001000
00020000
00000000
00031000
01000000
00002000
00000000
00013000
00001000
00020000
00000000
00000000
00000000
,
00031000
00000000
00010000
00000000
00100000
00000000
01000000
00100000
01000000
00100000
10000000
00000000
00010000
00000000
00100000
00001000
,
00020000
00000000
00001000
00130000
00020000
00000000
00100000
00031000
00020000
00000000
00001000
00130000
00020000
00000000
00000000
00000000
,
10030000
00010000
01000000
00000000
00100000
00000000
00010000
00001000
00010000
00000000
00000010
00001000
00000001
00000000
00000010
00000100
,
00002000
00000000
00000100
00013000
00002000
00000000
00010000
00003100
00002000
00000000
00000100
00013000
00002000
00000000
00010000
00003100
,
00001000
00000100
00010000
00000000
00001000
00000000
00100000
00000000
01000000
10000000
00010000
00000000
01000000
00000000
00001000
00010000
,
00002000
00000000
00010000
00003010
00002000
00000000
00000010
00013000
00002000
00000000
00010000
00003010
00002000
00000000
00000000
00000000
,
00003001
00000010
00000100
00000000
00001000
00000000
00000100
00010000
00001000
00100000
00010000
00000000
10000000
00100000
01000000
00000000
,
00010000
10000000
01000000
00010000
00001000
00000010
00000001
00000100
00001000
00010000
00000000
00000000
,
00011000
00000000
00000000
00000000
,
00000000
00000000
00000000
00000000
,
00000000
00000000
00000000
00000000
,
00010100
00000000
01001000
00000000
00010010
00000000
00022000
00033000
,
00001000
00000100
00000001
00001000
00000001
00000100
00010000
00001000
,
00100000
10000000
01000000
00010000
10000000
00100000
01000000
10000000
,
00010000
01000000
00010000
00001000
00000010
00010000
00001000
00000010
,
00000100
00001000
00000001
00000100
00001000
00010000
00011000
00000000
,
00010000
00100000
10000000
01000000
00010000
10000000
00100000
00001000
,
00010000
00000100
00000001
00001000
00000010
00000100
00001000
00000010
,
00010000
00001000
01000000
00010000
00000100
00000010
00010000
00001000
,
00010000
01000000
10000000
00100000
00010000
00001000
00011000
00000000
,
00010020
00000000
00000000
00000000
00001030
00000000
00000100
00000000
00000110
00000000
00000010
00000000
00000011
00000000
00000001
00001000
00000001
00000000
00000000
00000100
00000000
00000000
00001000
00000000
00011000
00000000
00000000
00000000
00001000
00010000
00001000
00010000
,
00001000
00100000
00010000
10000000
00100000
01000000
00010000
10000000
,
01000000
00100000
01000000
00100000
00001000
00010000
00001000
00010000
00000010
00001000
00000010
00001000
00000020
00000000
00000030
00000000
,
00000220
00000000
00000000
00000000
00000000
00000000
00000330
00000000
00000000
00000000
00000000
00000000
00000000
00000000
00000000
00000000
00000000
00000000
00000000
00000000
00000000
00000000
00000000
00000000
00001001
00000000
00000000
00000000
00000000
00000000
00000000
00000000
00000000
00000000
00000000
00000000
00001000
00000000
00000000
00000001
00000000
00000000
00001000
00000000
00000000
00000001
00000000
00000000
00001000
00000000
00000000
00000000
00000010
00000000
00000000
00000000
00000100
00000000
00000000
00000000
00000010
00000000
00000000
00000000
00000100
00000000
00000000
00000000
00001000
00000000
00000000
00000000
00020000
00000000
00000000
00000000
00000000
00000000
00230000
00000000
00000000
00000000
00000000
00000000
02300000
00000000
00000000
00000000
00000000
00000000
03200000
00000000
00000000
00000000
00000000
00000000
,
10300000
00010000
10000000
00010000
00100000
00000000
00001000
00000000
00021000
00000000
00000000
00000000
00031000
00010000
00001000
00010000
00000200
00000000
00000320
00000000
00000032
00000000
00000203
00000000
00000320
00000030
00000020
00000030
00020000
00030000
00020000
00030000
,
00022000
00000000
00000000
00000000
00033000
00000000
00000000
00000000
00101000
00000000
00100000
00000000
00020000
00000000
00000000
00000000
00000000
00000000
00130000
01000000
00100000
00000000
00001000
00000000
00020000
00030000
00200000
00300000
02000000
03000000
00020000
00030000
,
10010000
00000000
00000000
00000000
00000000
00000000
00000000
00000000
00000000
00000000
00000000
00000000
11000000
00000000
00000000
00000000
00000000
00000000
01000000
00000000
00000000
00000000
00000000
00000000
01020000
00000000
00000000
00000000
00000000
00000000
00030000
00000000
00000000
00000000
00000000
00000000
00012000
00000000
00000000
00000000
00000000
00000000
00003000
00000000
00000000
00000000
00000000
00000000
00021000
00000000
00000000
00000000
00000000
00000000
00031000
00000000
00000000
00000000
00000000
00000000
00000010
00000000
00000000
00000000
00000000
00000000
00000001
00000000
00000000
00000000
00000000
00000000
00001000
00000000
00000000
00000000
00000000
00000000
00000001
00000000
00000000
00000010
00000000
00000000
00000100
00000000
00000000
00000000
00001000
00000000
00000000
00000000
00000010
00000000
00000000
00000000
,
00000100
00000000
00000000
00000000
;
