#TITLE:anemone;
#ARTIST:S-C-U feat. Qrispy Joybox;
#BANNER:anemone.png;
#BACKGROUND:anemone-bg.png;
#CDTITLE:./CDTitles/Pastel-kun to Smith-shi no RUNRUN marathon!.png;
#MUSIC:anemone.ogg;
#SAMPLESTART:12;
#SAMPLELENGTH:15;
#BPMS:0=100,20=200,180=100,196=200;
#TIMESIGNATURES:0=4=4,280=3=4,292=4=4;
#STAGE:16;

//--------------- dance-single - Fred-104 ----------------
#NOTES:
     dance-single:
     Fred-104:
     Beginner:
     2:
     :
0000
0000
0000
0000
,
0000
0000
0000
0000
,
0000
0000
0000
0000
,
0000
0000
0000
0000
,
0000
0000
0000
0000
,
1000
0000
0000
0000
,
0001
0000
0000
0000
,
1000
0000
0000
0000
,
0001
0000
0000
0000
,
0100
0000
0000
0000
,
0001
0000
0000
0000
,
1000
0000
0000
0000
,
0000
0000
0000
0000
,
0002
0000
0000
0000
,
0003
0000
0000
0000
,
2000
0000
0000
0000
,
3000
0000
0000
0000
,
0020
0000
0000
0000
,
0030
0000
0000
0000
,
0200
0000
0000
0000
,
0300
0000
0000
0000
,
0002
0000
0000
0000
,
0003
0000
0000
0000
,
2000
0000
0000
0000
,
3000
0000
0000
0000
,
1001
0000
0000
0000
,
0000
0000
0000
0000
,
0001
0000
0000
0000
,
1000
0000
0000
0000
,
0001
0000
0000
0000
,
1000
0000
0000
0000
,
0010
0000
0000
0000
,
1000
0000
0000
0000
,
0100
0000
0000
0000
,
0010
0000
0000
0000
,
0001
0000
0000
0000
,
1000
0000
0000
0000
,
0001
0000
0001
0000
,
0001
0000
0000
0000
,
1000
0000
1000
0000
,
1000
0000
0000
0000
,
0001
0000
0001
0000
,
0001
0000
0000
0000
,
1000
0000
1000
0000
,
1000
0000
0000
0000
,
2000
0000
0000
3000
,
0002
0000
0000
0003
,
1000
0000
0001
0000
,
1000
0000
0001
0000
,
1001
0000
0000
0000
,
1000
0000
0010
0000
,
1000
0000
0000
0000
,
0001
0000
0010
0000
,
0001
0000
0000
0000
,
1000
0000
0001
0000
,
1000
0000
0000
0000
,
1001
0000
0000
0000
,
0000
0000
0000
0000
,
0001
0000
0100
0000
,
0010
0000
0000
0000
,
1000
0000
0010
0000
,
0100
0000
0000
0000
,
0001
0000
1000
0000
,
0001
0000
0000
0000
,
1000
0000
0000
0000
,
0000
0000
0000
0000
,
0001
0000
0000
0000
,
0000
0000
0000
0000
,
0100
0000
0000
0000
,
0000
0000
0000
0000
,
0001
0000
0000
1000
,
0000
0000
0001
0000
,
0000
0000
2002
0000
0000
3003
0000
0000
;

//--------------- dance-single - Fred-104 ----------------
#NOTES:
     dance-single:
     Fred-104:
     Easy:
     7:
     :
0000
0000
0000
0000
,
0000
0000
0000
0000
,
0000
0000
0000
0000
,
0000
0000
0000
0000
,
0000
0000
0000
0000
,
1000
0000
0010
0000
,
1000
0100
1000
0000
,
0001
0000
1000
0000
,
0001
0100
0010
0000
,
0100
0000
0001
0000
,
1000
0100
0010
0000
,
0001
0000
0000
0001
0000
0000
1000
0000
,
0000
1000
0000
0000
0001
0000
0100
0000
,
0020
0000
2030
0000
,
3100
1000
0001
0100
,
0002
0000
2003
0000
,
3100
0010
0001
1000
,
0020
0000
2030
0000
,
3100
1000
0001
0100
,
0001
0010
0100
1000
,
0001
0000
0000
2002
0000
0000
3003
0000
,
2000
0000
3200
0000
,
0301
0100
1000
0010
,
0200
0000
0302
0000
,
0013
1000
0010
0001
,
1001
0000
0000
0000
,
0000
0000
0000
0000
,
1000
0000
0001
0000
,
0100
0000
0010
0000
,
1000
0100
0010
0001
,
0100
0010
0100
0000
,
0001
0010
0001
1000
,
0010
0100
0001
0000
,
1000
0100
0010
0001
,
0100
0010
0100
0000
,
0001
0010
0100
1000
,
0001
0100
0010
0000
,
1000
1000
0100
0100
,
0010
0010
0001
0001
,
0100
0100
0010
0010
,
1000
1000
0001
0001
,
1000
0100
0010
0001
,
0100
0010
0100
0001
,
1000
0000
0000
0001
0000
1000
0000
2002
,
0000
0000
0000
3003
,
2000
0000
0000
3020
0000
0000
0230
0000
,
0000
0302
0000
0000
0023
0000
0130
0000
,
1000
0010
1000
0000
0001
0100
0001
0000
,
1000
1000
0001
0001
0100
0100
0010
0010
,
0220
0000
0330
0000
,
1000
0010
1000
0000
,
0100
0010
0001
1000
,
0010
0100
0010
0000
,
1000
0001
0010
0001
,
1000
0000
0000
0001
0000
0100
0000
0001
,
0000
0100
0010
1000
,
0001
0000
0000
0001
0000
0000
1000
0000
,
0000
1000
0000
0000
0010
0000
0100
0000
,
0001
0010
0100
1000
,
0010
0010
1000
0100
,
1000
0001
0100
0010
,
0100
0100
0001
1000
,
0001
0000
0000
0010
0000
0100
0000
0010
,
0000
0001
0100
0010
,
1000
0000
0000
1000
0000
0000
0001
0000
,
0000
0001
0000
0000
0100
0000
0010
0000
,
1000
0000
0000
0100
0000
0000
0010
0000
,
0000
0001
0000
0000
0100
0000
0010
0000
,
0100
0000
0000
0001
0000
0000
1000
0000
,
0000
0010
0000
0000
0100
0000
0001
0000
,
1000
0000
0000
0100
0000
0000
0001
0000
,
0000
0010
0000
0000
1000
0000
0000
0001
,
0000
0000
1000
0000
0000
1001
0000
0000
;

//--------------- dance-single - Fred-104 ----------------
#NOTES:
     dance-single:
     Fred-104:
     Medium:
     10:
     :
0000
0000
0000
0000
,
0000
0000
0000
0000
,
0000
0000
0000
0000
,
0000
0000
0000
0000
,
0000
0000
0000
0000
,
0001
0100
0002
0003
,
0100
0010
1000
0000
0100
0000
1000
0000
,
0010
1000
0200
0300
,
0010
0001
1000
0000
0010
0000
0100
0000
,
0001
0000
0010
0001
0000
1000
0000
0010
,
0000
0100
0010
0000
1000
0000
0100
0000
,
1000
0000
0000
1100
0000
0000
0001
0000
,
0000
0101
0000
0000
1000
0000
0001
0000
,
1000
0000
0010
0000
0200
0000
0000
0001
,
0000
0301
0000
0100
0000
0010
1000
0000
,
0001
0000
0010
0000
0200
0000
0000
0010
,
0000
0310
0000
0001
1000
0001
0100
0000
,
0001
0000
1000
0000
0020
0000
0000
1000
,
0000
1000
0000
1030
0000
0010
0100
0000
,
0001
0100
0001
0000
0100
0010
0000
0010
,
1000
0000
0001
1000
0000
0000
0000
0000
,
0001
0000
0010
0000
0200
0000
0000
1000
,
0000
1000
0000
1300
0010
0100
0100
0000
,
0001
0000
0100
0000
0002
0000
0000
0010
,
0000
0013
0000
0100
1000
0001
1000
0000
,
1001
0000
0000
0000
,
0000
0000
0000
0000
,
1100
0000
1001
0000
,
0011
0000
1001
0000
,
0001
0000
0100
0000
0010
1000
0000
0100
,
0000
0100
0000
0100
0000
1000
0010
0000
,
0100
0000
0001
0000
1000
0001
0000
0100
,
0000
0100
0000
0100
0000
0010
0100
0000
,
0001
0000
0010
0000
0001
1000
0000
0010
,
0000
0010
0000
0010
0000
0100
0001
0000
,
1000
0000
0100
0000
0010
0100
0000
0010
,
0000
0010
0000
0010
0000
0001
1000
0000
,
0001
0010
0100
1000
,
0001
0100
0010
1000
,
0001
0100
1000
0100
,
0001
0010
1000
0010
,
0001
0100
0001
0000
1000
0010
1000
0000
,
0001
0010
0001
0000
1000
0100
1000
0000
,
0001
0010
0100
1000
0000
0001
0000
0200
,
0000
0000
0000
0300
,
0002
0000
0000
0100
0000
0000
0100
0000
0000
0100
0000
0000
0100
0000
0000
0100
,
0000
0000
0100
0000
0000
0103
0000
0000
0010
0000
0000
1000
0000
0000
0001
0000
,
1000
0100
0010
0001
0100
0010
1000
0010
,
1000
0010
1000
0000
0001
0100
0001
0000
0100
0010
1000
0100
0000
0010
0001
0000
,
2002
0000
3003
0000
,
1000
0100
0010
0001
,
0100
0010
0100
0000
0001
0000
0010
0000
,
0001
0000
1000
0000
0001
0100
0001
0100
,
0000
0010
0000
1000
0000
0100
0010
0000
,
0001
0000
0100
0100
0000
0010
0000
1000
,
0000
0001
0010
0000
0001
0000
1000
0000
,
0001
0000
0000
0101
0000
0000
1000
0000
,
0000
1100
0000
0000
0001
0000
1000
0000
,
0010
1000
0100
0010
,
0001
0100
0010
0000
0100
0010
1000
0000
,
0010
0000
1000
0000
0100
1000
0000
0010
,
0000
1000
0100
0010
0000
0001
0100
0000
,
0001
0000
0010
0010
0000
0001
0000
1000
,
0000
0001
0100
0000
0010
0000
1000
0000
,
0001
0000
0000
0011
0000
0000
1000
0000
,
0000
1010
0000
0000
0001
0000
1000
0000
,
0001
0000
0000
0101
0000
0000
1000
0000
,
0000
1100
0000
0000
0001
0000
0100
0000
,
0001
0000
0000
0110
0000
0000
1000
0000
,
0000
0110
0000
0000
0001
0000
1000
0000
,
0001
0000
0000
1001
0000
0000
1000
0000
,
0000
1001
0000
0000
0001
0000
0000
0101
,
0000
0000
1001
0000
0000
1010
0000
0000
;

//--------------- dance-single - Fred-104 ----------------
#NOTES:
     dance-single:
     Fred-104:
     Hard:
     13:
     :
0000
0000
0000
0000
,
0000
0000
0000
0000
,
0000
0000
0000
0000
,
0000
0000
0000
0000
,
0000
0000
0000
0000
,
1000
0010
1000
0000
0100
0010
0000
0001
,
0000
0100
0001
0100
0000
0001
0010
0001
,
1000
0001
0100
0000
0010
1000
0100
0010
,
0000
0001
1000
0010
0000
1000
0100
1000
,
0010
0100
0001
0010
0000
0100
0000
1000
,
0000
0001
0100
0000
0010
0000
1000
0000
,
0001
0001
0100
0001
0000
0000
1000
1000
,
0100
1000
0000
0001
0100
0010
1000
0000
,
0001
0000
0100
0000
0110
0000
0000
1010
,
0000
0101
0000
1100
0000
0001
0100
0010
,
1000
0000
0100
0000
0110
0000
0000
0011
,
0000
1001
0000
0001
0100
0001
1000
0010
,
0100
0000
0010
0000
1010
0000
0000
1100
,
0000
0110
0000
1100
0000
1000
0100
0010
,
0001
0010
1000
0000
0010
0001
0000
0100
,
1000
0000
0100
0002
0000
0000
0003
0000
,
1000
0000
0100
0000
1100
0000
0000
1010
,
0000
0101
0000
1000
0010
1000
0100
0010
,
0001
0000
0100
0000
0110
0000
0000
1010
,
0000
0101
0000
0001
0010
0001
1000
0010
,
1000
0000
0010
0000
,
0001
0000
0100
0000
,
1100
0000
1010
0000
,
0101
0000
0011
0000
,
1000
0000
0001
0100
0001
0020
0000
0100
,
0000
0100
0000
0130
0000
1000
0010
0100
,
0010
0000
1000
0100
0010
0200
0000
1000
,
0000
1000
0000
1300
0000
0001
0010
0100
,
0010
0000
0001
0100
0001
0020
0000
0001
,
0000
0001
0000
0031
0000
1000
0010
0100
,
0001
0000
0100
0010
1000
0200
0000
1000
,
0000
1000
0000
1300
0000
0010
1000
0100
,
1000
0010
1000
0010
1000
0100
1000
0100
,
0010
0001
0010
0001
0100
0001
0100
0001
,
0010
0001
0010
0001
0100
0001
0100
0001
,
1000
0010
1000
0010
1000
0100
1000
0100
,
1000
0100
0010
0100
1000
0010
0100
0010
,
1000
0001
0100
0001
0010
0100
1000
0001
,
1000
0010
0100
0002
0000
0203
0000
0020
,
0000
0000
0000
0330
,
2000
0000
0000
3020
0000
0000
0230
0000
0000
0302
0000
0000
0023
0000
0000
0230
,
0000
0000
2300
0000
0000
3020
0000
0000
0230
0000
0000
0302
0000
0000
2003
0000
,
3001
0000
0010
0100
0000
0100
1000
0000
0010
1000
0000
0010
0100
0000
0001
0100
,
0010
1000
0010
1000
0001
0010
0001
0010
0001
0100
0010
1000
0100
0010
0001
0000
,
2002
0000
3003
0000
,
0001
1000
0020
0000
1030
0010
0100
2000
,
0000
3100
0001
2000
0000
3001
0010
0100
,
0010
0001
2000
0000
3001
0010
0100
0002
,
0000
0103
1000
0002
0000
0103
0010
1000
,
0001
0010
0100
0010
0000
0011
0000
1001
,
0000
0100
0010
0000
1010
0000
0101
0000
,
1000
0100
1000
1000
0000
0000
0001
0100
,
0001
0001
0000
0100
0010
1000
0001
0000
,
1000
0100
0020
0000
1030
0010
0100
2000
,
0000
3001
0100
0020
0000
1030
0010
0100
,
0001
0100
0020
0000
0031
0010
0100
0002
,
0000
1003
0001
0200
0000
0310
1000
0100
,
1000
0010
0100
0001
0000
0011
0000
1001
,
0000
0100
0010
0000
1010
0000
0101
0000
,
1000
0100
0001
0100
0000
0000
1000
0100
,
0001
0100
0000
1000
0100
0010
0001
0000
,
0001
0010
1000
0010
0000
0000
0001
0010
,
1000
0010
0000
0001
0010
0100
1000
0000
,
1000
0100
0001
0100
0000
0000
1000
0010
,
0001
0010
0000
1000
0010
0100
0001
0000
,
1000
0100
1000
1010
0000
0000
0001
0100
,
0001
0011
0000
0000
1000
0010
1000
1100
,
0000
0000
0001
0010
0001
0101
0000
0000
;

//--------------- dance-single - Fred-104 ----------------
#NOTES:
     dance-single:
     Fred-104:
     Challenge:
     16:
     :
0000
0000
0000
0000
,
0000
0000
0000
0000
,
0000
0000
0000
0000
,
0000
0000
0000
0000
,
0000
0000
0000
0000
,
1000
0010
0200
0000
1300
0200
0000
0320
,
0000
1030
0100
0020
0000
0031
1000
0001
,
0100
0010
0002
0000
0013
0100
0001
2000
,
0000
3010
1000
0200
0000
0310
0001
1000
,
0001
0100
0010
1000
0000
1100
0000
0110
,
0000
0000
0010
0001
0010
0000
0000
0000
0001
0000
0100
0000
0010
0000
0000
0000
,
1000
1000
1010
1010
0000
0000
0001
0001
,
0011
0011
0000
1000
0010
0100
0001
0000
,
1200
0000
0001
0000
1300
0020
0000
0100
,
0000
0001
0000
1000
0000
0130
0010
0001
,
0021
0000
1000
0000
0031
0200
0000
0010
,
0000
1000
0000
0301
1000
0001
0100
0010
,
0210
0000
1000
0000
0301
0200
0000
0010
,
0000
1000
0000
0010
0000
1300
0100
0010
,
0001
0000
0010
0100
1000
0000
0001
0000
0010
0100
1000
0000
0001
0000
1000
0100
,
0010
0000
0001
0000
1000
0100
0010
0000
0001
0000
0100
0010
1000
0000
0000
0000
,
2010
0000
0100
0000
3010
2000
0000
0001
,
0000
0100
0000
3001
0010
1000
0010
0001
,
0102
0000
0010
0000
1003
0002
0000
0100
,
0000
0010
0000
1003
0001
0100
0010
1000
,
0001
0000
1000
0100
0001
0000
1000
0100
,
0001
0000
1000
0010
0001
0000
1000
0010
,
0011
0000
1010
0000
,
0101
0000
1100
0000
,
1001
0000
1000
0100
0010
0011
0000
1010
,
0000
0011
0000
1001
0000
0001
0100
0010
,
0110
0000
0010
1000
0100
1100
0000
0101
,
0000
1100
0000
1001
0000
0001
0100
0010
,
1010
0000
1000
0100
0010
0011
0000
1010
,
0000
0101
0000
1100
0000
0001
0100
0001
,
1001
0000
1000
0010
0100
0110
0000
1010
,
0000
0101
0000
1001
0000
0001
0100
0010
,
1000
0100
0001
0100
1000
0010
0001
0010
,
1000
0100
0001
0100
1000
0010
0001
0010
,
1000
0100
1000
0100
0010
1000
0010
1000
,
0001
0100
0001
0100
0010
0001
0010
0001
,
1000
0000
0100
0000
0010
0000
0001
0010
0001
0000
0100
0000
0010
0000
1000
0010
,
1000
0000
0010
0000
0100
0000
0001
0100
0001
0000
0010
0000
0100
0000
1000
0100
,
1000
0100
0001
0020
0000
2030
0000
3002
,
0100
0000
0010
0000
1003
0010
0100
0001
,
2000
0000
0000
3200
0000
0000
0302
0000
0000
2003
0000
0000
3020
0000
0000
0032
,
0000
0000
0203
0000
0000
2300
0000
0000
3002
0000
0000
0023
0000
0000
2030
0000
,
3001
0010
0100
1000
0010
0100
0001
0010
0100
1000
0010
0100
0001
0010
0100
1000
,
0001
0100
0001
0100
0001
0100
0001
0100
0010
1000
0010
1000
0010
1000
0010
1000
0001
0000
0100
0000
1000
0000
0001
0000
0010
0000
1000
0000
0001
0000
0000
0000
,
2002
0000
3003
0000
,
1000
0000
0010
1000
0200
0000
0000
0000
0310
0000
0001
0100
0010
0000
2000
0000
,
0000
0000
3001
0010
0100
0000
0020
0000
0000
0000
0031
0000
0010
0000
0100
0000
,
1000
0000
0010
1000
0002
0000
0000
0000
1003
0000
0010
0100
0001
0000
2000
0000
,
0000
0000
3100
0010
0001
0000
0020
0000
0000
0000
0130
0010
0001
0000
0100
0000
,
0010
0000
1000
0100
0001
0000
0100
0000
0000
0000
1100
0000
0000
0000
0101
0000
,
0000
0000
1000
0100
0010
0000
0000
0000
0011
0000
0001
0000
1001
0000
0000
0000
,
1000
1000
1100
1100
0000
0000
0001
0001
,
0101
0101
0000
0001
1000
1001
1001
0000
,
1000
0000
0001
0010
0200
0000
0000
0000
1300
0010
0100
0010
1000
0000
0001
0000
,
1000
0000
0001
0010
0100
0000
1000
0000
0001
0100
0001
0010
0100
0000
1000
0000
,
0100
0000
0010
0001
2000
0000
0000
0000
3001
0100
0010
1000
0010
0000
1000
0000
,
0100
0000
1000
0100
0010
0000
0001
0000
1000
0010
0100
0001
1000
0100
0010
0000
,
0001
0000
0010
0100
0001
0000
0100
0000
0000
0000
1100
0000
0000
0000
1001
0000
,
0000
0000
1000
0001
0100
0000
0000
0000
0001
0100
0010
1000
0001
0010
0100
1000
,
0001
0010
0011
0011
0000
0000
1000
0010
,
1010
1010
0000
0001
1000
1001
1001
0000
,
0001
0100
0101
0101
0000
0000
1000
0100
,
1100
1100
0000
0001
1000
1001
1001
0000
,
0001
0101
0101
0101
0000
0000
1000
1100
,
1100
1100
0000
1000
1001
1001
1001
0000
,
0011
0011
0011
0011
0000
0000
1100
1100
,
1100
1100
0000
0000
0101
0101
0101
0101
,
0000
0000
1010
1010
1010
1010
0000
0000
;

//--------------- dance-double - Fred-104 ----------------
#NOTES:
     dance-double:
     Fred-104:
     Easy:
     7:
     :
00000000
00000000
00000000
00000000
,
00000000
00000000
00000000
00000000
,
00000000
00000000
00000000
00000000
,
00000000
00000000
00000000
00000000
,
00000000
00000000
00000000
00000000
,
00010000
00000000
00100000
00000000
,
00010000
01000000
00100000
00000000
,
10000000
00000000
01000000
00000000
,
00100000
00001000
00010000
00000000
,
00000100
00000000
00001000
00000000
,
00000010
00000100
00000010
00000000
,
00001000
00000000
00000000
00000100
00000000
00000000
00000001
00000000
,
00000000
00000010
00000000
00000000
00001000
00000000
00010000
00000000
,
00002000
00000000
00023000
00000000
,
01030000
10000000
00010000
01000000
,
00200000
00000000
20300000
00000000
,
31000000
00100000
00001000
00010000
,
00002000
00000000
00003200
00000000
,
00000310
00000001
00001000
00000010
,
00000100
00000001
00000010
00000100
,
00010000
00000000
00000000
00022000
00000000
00000000
00033000
00000000
,
00002000
00000000
00203000
00000000
,
00310000
01000000
00100000
10000000
,
00020000
00000000
20030000
00000000
,
30100000
01000000
00001000
00010000
,
00011000
00000000
00000000
00000000
,
00000000
00000000
00000000
00000000
,
00010000
00000000
00010000
00000000
,
00001000
00000000
00001000
00000000
,
00010000
00001000
00000100
00000001
,
00001000
00000001
00000100
00000000
,
00001000
00000100
00000001
00000010
,
00000100
00010000
00001000
00000000
,
00100000
00010000
10000000
00100000
,
01000000
00010000
10000000
00000000
,
00010000
01000000
00100000
10000000
,
01000000
00100000
00001000
00000000
,
00010000
00010000
00001000
00001000
,
00000100
00000100
00000001
00000001
,
00000010
00000010
00001000
00001000
,
00010000
00010000
01000000
01000000
,
10000000
00100000
01000000
00010000
,
10000000
01000000
00100000
00001000
,
00010000
00000000
00000000
00001000
00000000
00010000
00000000
00022000
,
00000000
00000000
00000000
00033000
,
02000000
00000000
00000000
03020000
00000000
00000000
00230000
00000000
,
00000000
00302000
00000000
00000000
00023000
00000000
00030100
00000000
,
00001000
00000100
00001000
00000000
00000001
00000100
00000001
00000000
,
00001000
00000010
00000100
00000001
00001000
00000100
00000010
00010000
,
00022000
00000000
00033000
00000000
,
00100000
00001000
00010000
00000000
,
00000100
00001000
00000100
00000010
,
00000001
00001000
00000001
00000000
,
00000100
00000010
00010000
00001000
,
00010000
00000000
00000000
00001000
00000000
00010000
00000000
00001000
,
00000000
00100000
00010000
01000000
,
00100000
00000000
00000000
10000000
00000000
00000000
01000000
00000000
,
00000000
00100000
00000000
00000000
00010000
00000000
01000000
00000000
,
00001000
00010000
00001000
00100000
,
00001000
00010000
00001000
00000010
,
00000001
00000100
00000010
00001000
,
00000001
00000100
00000100
00001000
,
00000001
00000000
00000000
00000100
00000000
00001000
00000000
00010000
,
00000000
01000000
10000000
00010000
,
10000000
00000000
00000000
01000000
00000000
00000000
00100000
00000000
,
00000000
00010000
00000000
00000000
01000000
00000000
00100000
00000000
,
00001000
00000000
00000000
00010000
00000000
00000000
00000010
00000000
,
00000000
00001000
00000000
00000000
00000001
00000000
00000100
00000000
,
00000010
00000000
00000000
00010000
00000000
00000000
00001000
00000000
,
00000000
01000000
00000000
00000000
00100000
00000000
10000000
00000000
,
00010000
00000000
00000000
01000000
00000000
00000000
10000000
00000000
,
00000000
00100000
00000000
00000000
00010000
00000000
00000000
00001000
,
00000000
00000000
00000010
00000000
00000000
00001001
00000000
00000000
;

//--------------- dance-double - Fred-104 ----------------
#NOTES:
     dance-double:
     Fred-104:
     Medium:
     10:
     :
00000000
00000000
00000000
00000000
,
00000000
00000000
00000000
00000000
,
00000000
00000000
00000000
00000000
,
00000000
00000000
00000000
00000000
,
00000000
00000000
00000000
00000000
,
00000001
00000100
00000020
00000030
,
00001000
00000010
00000100
00000000
00000010
00000000
00001000
00000000
,
00000100
00010000
00002000
00003000
,
00010000
00001000
00010000
00000000
00001000
00000000
01000000
00000000
,
00010000
00000000
10000000
01000000
00000000
00100000
00000000
01000000
,
00000000
10000000
00010000
00000000
01000000
00000000
00100000
00000000
,
10000000
00000000
00000000
11000000
00000000
00000000
00010000
00000000
,
00000000
01010000
00000000
00000000
00001000
00000000
00010000
00000000
,
00000100
00000000
00010000
00000000
00002000
00000000
00000000
00010000
,
00000000
00013000
00000000
00001000
00000000
00010000
00000010
00000000
,
00001000
00000000
00000100
00000000
00020000
00000000
00000000
00001000
,
00000000
00031000
00000000
00100000
00010000
01000000
00001000
00000000
,
00100000
00000000
00010000
00000000
02000000
00000000
00000000
00100000
,
00000000
00100000
00000000
03100000
00000000
10000000
01000000
00000000
,
00100000
00001000
00010000
00000000
00000100
00001000
00000000
00000001
,
00000100
00000000
00000010
00001000
00000000
00000000
00000000
00000000
,
00000001
00000000
00000100
00000000
00000020
00000000
00000000
00001000
,
00000000
00001000
00000000
00001030
00000100
00010000
00001000
00000000
,
00010000
00000000
00001000
00000000
02000000
00000000
00000000
00100000
,
00000000
03100000
00000000
10000000
01000000
00100000
00001000
00000000
,
00011000
00000000
00000000
00000000
,
00000000
00000000
00000000
00000000
,
01010000
00000000
00011000
00000000
,
00001100
00000000
00001001
00000000
,
00000001
00000000
00000100
00000000
00000010
00001000
00000000
00000100
,
00000000
00000100
00000000
00000100
00000000
00010000
00001000
00000000
,
01000000
00000000
00100000
00000000
10000000
00010000
00000000
01000000
,
00000000
01000000
00000000
01000000
00000000
00100000
10000000
00000000
,
01000000
00000000
00100000
00000000
00001000
00010000
00000000
00000010
,
00000000
00000010
00000000
00000010
00000000
00000100
00000001
00000000
,
00000010
00000000
00000100
00000000
00001000
00000001
00000000
00000100
,
00000000
00000100
00000000
00000100
00000000
00010000
00001000
00000000
,
00100000
00010000
00100000
00010000
,
10000000
01000000
00100000
00001000
,
00010000
01000000
10000000
00010000
,
10000000
01000000
00100000
00001000
,
00010000
00000100
00010000
00000000
00000100
00001000
00000100
00000000
,
00000010
00000001
00000010
00000000
00000001
00000100
00001000
00000000
,
00010000
01000000
10000000
00010000
00000000
01000000
00000000
00200000
,
00000000
00000000
00000000
00300000
,
20000000
00000000
00000000
01000000
00000000
00000000
01000000
00000000
00000000
01000000
00000000
00000000
01000000
00000000
00000000
01000000
,
00000000
00000000
01000000
00000000
00000000
31000000
00000000
00000000
00100000
00000000
00000000
00010000
00000000
00000000
10000000
00000000
,
01000000
00100000
00001000
00010000
00000100
00000010
00000001
00001000
,
00000001
00000100
00000001
00000000
00000100
00000010
00000100
00000000
00000010
00001000
00000100
00000010
00000000
00000001
00000100
00000000
,
00000220
00000000
00000330
00000000
,
00010000
00001000
00100000
00010000
,
10000000
01000000
00010000
00000000
01000000
00000000
10000000
00000000
,
00010000
00000000
10000000
00000000
00100000
01000000
00100000
01000000
,
00000000
00010000
00000000
10000000
00000000
00100000
00010000
00000000
,
00001000
00000000
00000100
00000001
00000000
00000100
00000000
00000001
,
00000000
00001000
00000001
00000000
00000100
00000000
00000010
00000000
,
00001000
00000000
00000000
00010100
00000000
00000000
00001000
00000000
,
00000000
00101000
00000000
00000000
00010000
00000000
00001000
00000000
,
01000000
00010000
00100000
00001000
,
01000000
00100000
01000000
00000000
00010000
10000000
01000000
00000000
,
10000000
00000000
00100000
00000000
10000000
01000000
00000000
00100000
,
00000000
10000000
00100000
00010000
00000000
10000000
00010000
00000000
,
01000000
00000000
00001000
00001000
00000000
00010000
00000000
00000100
,
00000000
00001000
00000100
00000000
00000010
00000000
00000001
00000000
,
00000100
00000000
00000000
00000110
00000000
00000000
00010000
00000000
,
00000000
00011000
00000000
00000000
01000000
00000000
00100000
00000000
,
01000000
00000000
00000000
01100000
00000000
00000000
00001000
00000000
,
00000000
00011000
00000000
00000000
00000010
00000000
00000100
00000000
,
00000001
00000000
00000000
00000101
00000000
00000000
00001000
00000000
,
00000000
00011000
00000000
00000000
01000000
00000000
00100000
00000000
,
10000000
00000000
00000000
10010000
00000000
00000000
00010000
00000000
,
00000000
00011000
00000000
00000000
00001000
00000000
00000000
00001001
,
00000000
00000000
00011000
00000000
00000000
10010000
00000000
00000000
;

//--------------- dance-double - Fred-104 ----------------
#NOTES:
     dance-double:
     Fred-104:
     Hard:
     13:
     :
00000000
00000000
00000000
00000000
,
00000000
00000000
00000000
00000000
,
00000000
00000000
00000000
00000000
,
00000000
00000000
00000000
00000000
,
00000000
00000000
00000000
00000000
,
00010000
01000000
00100000
00000000
10000000
01000000
00000000
00100000
,
00000000
10000000
00100000
01000000
00000000
10000000
00100000
01000000
,
00010000
10000000
01000000
00000000
00100000
00001000
00010000
00001000
,
00000000
01000000
00001000
00010000
00000000
00001000
00000100
00000010
,
00000001
00000100
00001000
00000100
00000000
00000001
00000000
00000010
,
00000000
00000100
00010000
00000000
00001000
00000000
00100000
00000000
,
00010000
00100000
01000000
10000000
00000000
00000000
00001000
00010000
,
00100000
01000000
00000000
00001000
00010000
00000010
00001000
00000000
,
00000001
00000000
00000100
00000000
00000110
00000000
00000000
00001010
,
00000000
00010010
00000000
00011000
00000000
00001000
00100000
00010000
,
10000000
00000000
00100000
00000000
01100000
00000000
00000000
01010000
,
00000000
10010000
00000000
10000000
01000000
00100000
01000000
10000000
,
00100000
00000000
01000000
00000000
01010000
00000000
00000000
00011000
,
00000000
00001100
00000000
00000110
00000000
00000010
00000001
00001000
,
00000001
00000100
00001000
00000000
00000100
00000001
00000000
00000010
,
00001000
00000000
00000010
00000002
00000000
00000000
00000003
00000000
,
00001000
00000000
00000010
00000000
00010010
00000000
00000000
00011000
,
00000000
00101000
00000000
00010000
01000000
00010000
10000000
00100000
,
01000000
00000000
00100000
00000000
10100000
00000000
00000000
11000000
,
00000000
01100000
00000000
00100000
00001000
00010000
00000100
00001000
,
00000100
00000000
00000010
00000000
,
00000001
00000000
00000100
00000000
,
00001100
00000000
00011000
00000000
,
01010000
00000000
11000000
00000000
,
10010000
00000000
00010000
01000000
00100000
20000000
00000000
01000000
,
00000000
01000000
00000000
31000000
00000000
00100000
00010000
00001000
,
00000100
00000000
00000010
00000001
00001000
00000200
00000000
00010000
,
00000000
00010000
00000000
00010300
00000000
00001000
00010000
00000010
,
00001000
00000000
00000100
00010000
00001000
00200000
00000000
00010000
,
00000000
00010000
00000000
00310000
00000000
01000000
00100000
10000000
,
00010000
00000000
10000000
01000000
00010000
00002000
00000000
00000100
,
00000000
00000100
00000000
00003100
00000000
00000001
00001000
00000001
,
00000100
00000001
00000100
00000001
00000010
00000001
00000010
00000001
,
00001000
00000100
00001000
00000100
00010000
00001000
00010000
00001000
,
00100000
00010000
00100000
00010000
10000000
00010000
10000000
00010000
,
01000000
00100000
01000000
00100000
10000000
01000000
10000000
01000000
,
10000000
00100000
10000000
00100000
00010000
00100000
00010000
00001000
,
00010000
00001000
00000010
00001000
00000010
00000001
00001000
00000001
,
00001000
00000001
00000100
00002000
00000000
00023000
00000000
02000000
,
00000000
00000000
00000000
03030000
,
20000000
00000000
00000000
32000000
00000000
00000000
03020000
00000000
00000000
00032000
00000000
00000000
00003020
00000000
00000000
00000032
,
00000000
00000000
00000203
00000000
00000000
00002300
00000000
00000000
00023000
00000000
00000000
00230000
00000000
00000000
20300000
00000000
,
30010000
00000000
10000000
01000000
00000000
00100000
00001000
00000000
00010000
00000100
00000000
00001000
00000010
00000000
00000100
00000001
,
00000010
00000001
00001000
00000010
00010000
00001000
00100000
00010000
10000000
01000000
00010000
00001000
00000010
00000001
00001000
00000000
,
00002002
00000000
00003003
00000000
,
00010000
00000010
00002000
00000000
00003010
00010000
00001000
00200000
,
00000000
00301000
00010000
00000200
00000000
00010300
00001000
01000000
,
00010000
00100000
02000000
00000000
13000000
00100000
01000000
20000000
,
00000000
31000000
00010000
20000000
00000000
30010000
10000000
01000000
,
00100000
00001000
00010000
00000010
00000000
00001010
00000000
00000101
,
00000000
00000100
00000010
00000000
00010000
00000000
00001000
00000000
,
00010000
01000000
10000000
01000000
00000000
00000000
00010000
00001000
,
00000100
00001000
00000000
00010000
00001000
00000100
00000001
00000000
,
00001000
00000100
00000020
00000000
00001030
00000010
00000001
00002000
,
00000000
00003001
00000100
00002000
00000000
00013000
01000000
10000000
,
00010000
01000000
00200000
00000000
10300000
01000000
00100000
02000000
,
00000000
13000000
00100000
02000000
00000000
03100000
10000000
01000000
,
00100000
00001000
00010000
01000000
00000000
10000000
00000000
00100000
,
00000000
00010000
00001000
00000000
00000010
00000000
00000001
00000000
,
00001000
00000010
00000001
00000010
00000000
00000000
00001000
00010000
,
00001000
00000010
00000000
00001000
00010000
00100000
10000000
00000000
,
00010000
01000000
10000000
01000000
00000000
00000000
00010000
00001000
,
00000100
00001000
00000000
00010000
00001000
00000100
00000001
00000000
,
00000010
00001000
00010000
01000000
00000000
00000000
10000000
00100000
,
00010000
00001000
00000000
00000100
00000001
00000010
00001000
00000000
,
00000001
00000100
00001000
00010000
00000000
00000000
00010000
00001000
,
00000010
00000001
00000000
00000000
00000100
00001000
00010000
01000000
,
00000000
00000000
10000000
00100000
00010000
00001000
00000000
00000000
;

//--------------- dance-double - Fred-104 ----------------
#NOTES:
     dance-double:
     Fred-104:
     Challenge:
     16:
     :
00000000
00000000
00000000
00000000
,
00000000
00000000
00000000
00000000
,
00000000
00000000
00000000
00000000
,
00000000
00000000
00000000
00000000
,
00000000
00000000
00000000
00000000
,
00010000
00000100
00002000
00000000
00003100
00000010
00000001
00000200
,
00000000
00000310
00000001
00000020
00000000
00001030
00000001
00000100
,
00000010
00001000
00020000
00000000
00031000
00010000
01000000
20000000
,
00000000
30010000
01000000
00200000
00000000
10300000
01000000
00100000
,
10000000
00100000
00010000
10000000
00000000
10010000
00000000
00011000
,
00000000
00000000
00010000
00000100
00001000
00000000
00000000
00000000
00000010
00000000
00000000
00000000
00001001
00000000
00000000
00000000
,
00000001
00000100
00001000
00010000
00000000
00000000
00010000
00001000
,
00000010
00000001
00000000
00000100
00001000
00010000
00011000
00000000
,
00012000
00000000
00000010
00000000
00100000
00100000
00000000
00000100
,
00000000
00010000
00000000
00003100
00000000
00010000
00001000
00100000
,
00102000
00000000
00000010
00000000
00010000
00010000
00000000
00000100
,
00000000
01003000
00000000
00001000
00010000
00000100
00001000
00000010
,
00020010
00000000
00001000
00000000
00100000
00100000
00000000
00000010
,
00000000
01000000
00000000
00030100
00000000
00010000
00001000
01000000
,
00010000
00000000
01000000
00100000
10000000
00000000
00010000
00000000
00100000
01000000
10000000
00000000
00010000
00000000
10000000
01000000
,
00100000
00000000
00010000
00000000
10000000
00100000
01000000
00000000
00000000
00000000
00001000
00000000
00011000
00000000
00000000
00000000
,
00020100
00000000
00001000
00000000
01000000
01000000
00000000
00000100
,
00000000
01000000
00000000
00031000
00010000
00000100
00001000
00000010
,
00002010
00000000
00100000
00000000
00000010
00000010
00000000
00010000
,
00000000
00000100
00000000
01003000
00001000
00010000
00000100
00010000
,
00011000
01000000
10000000
00100000
,
00010000
00001000
00000010
00000001
,
00000101
00000000
00001100
00000000
,
00110000
00000000
10100000
00000000
,
10010000
00000000
00010000
01000000
00100000
10100000
00000000
01010000
,
00000000
11000000
00000000
00110000
00000000
01000000
00001000
00010000
,
00010100
00000000
00001000
00000100
00000010
00000110
00000000
00000011
,
00000000
00001010
00000000
00011000
00000000
00010000
00100000
10000000
,
10010000
00000000
00010000
01000000
00100000
10100000
00000000
11000000
,
00000000
01010000
00000000
00011000
00000000
00010000
00001000
00000100
,
00000110
00000000
00000010
00000001
00001000
00001001
00000000
00000110
,
00000000
00011000
00000000
01100000
00000000
00010000
10000000
01000000
,
10000000
01000000
00010000
00001000
00010000
00100000
10000000
00010000
,
10000000
01000000
00010000
00001000
00000100
00000001
00000100
00001000
,
00000001
00000010
00000100
00010000
00001000
00100000
01000000
10000000
,
00010000
10000000
01000000
00100000
00010000
00001000
00000100
00000010
,
00000001
00000000
00000100
00000000
00001000
00000000
00010000
01000000
10000000
00000000
00100000
00000000
01000000
00000000
00010000
10000000
,
00100000
00000000
10000000
00000000
01000000
00000000
00100000
00010000
01000000
00000000
00001000
00000000
00010000
00000000
00000010
00001000
,
00000100
00000010
00000001
00000020
00000000
00002030
00000000
00023000
,
00000010
00000000
01030000
00000000
00001000
00010000
00000100
00000000
,
00002000
00000000
00000000
00003020
00000000
00000000
00000032
00000000
00000000
00000203
00000000
00000000
00002300
00000000
00000000
00023000
,
00000000
00000000
02030000
00000000
00000000
23000000
00000000
00000000
30200000
00000000
00000000
00320000
00000000
00000000
00032000
00000000
,
00003001
00000100
00001000
00010000
01000000
10000000
00010000
10000000
00100000
00010000
00001000
00000010
00000001
00001000
00000001
00000100
,
00000001
00001000
00000001
00001000
00000001
00001000
00000001
00001000
00000010
00000100
00000010
00000100
00000010
00000100
00000010
00000100
00000001
00000000
00000010
00000000
00001000
00000000
00010000
00000000
01000000
00000000
10000000
00000000
00010000
00000000
00000000
00000000
,
20020000
00000000
30030000
00000000
,
10000000
00000000
00100000
10000000
02000000
00000000
00000000
00000000
03100000
00000000
00001000
00010000
00001000
00000000
00100000
00000000
,
00001000
00000000
00010000
00000010
00001000
00000000
00000200
00000000
00000000
00000000
00010300
00000000
00000100
00000000
00001000
00000000
,
00000100
00000000
00000010
00000001
00002000
00000000
00000000
00000000
00003001
00000000
00000010
00000100
00001000
00000000
00000200
00000000
,
00000000
00000000
00000310
00000001
00000100
00000000
00000020
00000000
00000000
00000000
00001030
00000010
00000100
00000000
00000010
00000000
,
00010000
00000000
00000100
00001000
00000010
00000000
00010000
00000000
00000000
00000000
00011000
00000000
00000000
00000000
01100000
00000000
,
00000000
00000000
10000000
00010000
10000000
00000000
00000000
00000000
00100000
00000000
10000000
00000000
10010000
00000000
00000000
00000000
,
10000000
01000000
00010000
00001000
00000000
00000000
00000001
00000010
,
00001000
00010000
00000000
01000000
10000000
00010000
10010000
00000000
,
01000000
00000000
00010000
10000000
02000000
00000000
00000000
00000000
03100000
00001000
00010000
00001000
01000000
00000000
00001000
00000000
,
00010000
00000000
00000100
00001000
00000100
00000000
00000010
00000000
00000001
00000010
00000100
00001000
00000010
00000000
00000100
00000000
,
00000001
00000000
00001000
00000001
00000200
00000000
00000000
00000000
00000310
00001000
00000010
00000100
00000001
00000000
00001000
00000000
,
00000001
00000000
00000010
00000100
00001000
00000000
00000100
00000000
00010000
00001000
00100000
00010000
10000000
00100000
01000000
00000000
,
00010000
00000000
10000000
01000000
00100000
00000000
00010000
00000000
00000000
00000000
01001000
00000000
00000000
00000000
00010100
00000000
,
00000000
00000000
00000010
00001000
00000001
00000000
00000000
00000000
00001000
00000100
00000010
00000001
00000010
00000100
00001000
00000000
,
00000001
00000010
00001000
00010000
00000000
00000000
10000000
01000000
,
00010000
00001000
00000000
00000100
00000001
00001000
00001001
00000000
,
00000001
00000100
00001000
00010000
00000000
00000000
10000000
00100000
,
00010000
00001000
00000000
00000010
00000001
00001000
00001001
00000000
,
00000010
00001000
00010000
00100000
00000000
00000000
01000000
00010000
,
00001000
00000100
00000000
00000010
00001000
00010000
00011000
00000000
,
10000000
00010000
00001000
00000001
00000000
00000000
00000001
00001000
,
00010000
10000000
00000000
00000000
10000000
00010000
00001000
00000001
,
00000000
00000000
00000001
00001000
00010000
10000000
00000000
00000000
;
