#VERSION:0.83;
#TITLE:aleatrik;
#ARTIST:nc ft. NRGFactory;
#BANNER:aleatrik.png;
#BACKGROUND:aleatrik-bg.png;
#CDTITLE:./CDTitles/jb Qubell.png;
#MUSIC:aleatrik.ogg;
#SAMPLESTART:73.034;
#SAMPLELENGTH:15;
#BPMS:0=138,165.75=69,165.875=34.5,166=138;
#STOPS:164=0.109,164.25=0.108,164.5=0.109,164.75=0.109,165=0.054,165.125=0.055,165.25=0.054,165.375=0.054;
#TIMESIGNATURES:0=4=4,164=2=4,166=4=4;
#BGSTAGE:15;

//--------------- dance-single - Fred-104 ----------------
#NOTEDATA:;
#STEPSTYPE:dance-single;
#DESCRIPTION:Fred-104;
#DIFFICULTY:Beginner;
#METER:2;
#CREDIT:Fred-104;
#NOTES:
0000
0000
0000
0000
,
0000
0000
0000
0000
,
0000
0000
0000
0000
,
0000
0000
0000
0000
,
0000
0000
0000
0000
,
0000
0000
0000
0000
,
1000
0000
0000
0000
,
0010
0000
0000
0000
,
1000
0000
0000
0000
,
0001
0000
0001
0000
,
2000
0000
3000
0000
,
0002
0000
0003
0000
,
2000
0000
3000
0000
,
0002
0000
0003
0000
,
1000
0000
1000
0000
,
0001
0000
0001
0000
,
1000
0000
1000
0000
,
0001
0000
0001
0000
,
1001
0000
0000
0000
,
0000
0000
0000
0000
,
0000
0000
0000
0000
,
0000
0000
0000
0000
,
0000
0000
0000
0000
,
0000
0000
0000
0000
,
0000
0000
0000
0000
,
0000
0000
0000
0000
,
2000
0000
3000
0000
,
0002
0000
0003
0000
,
2000
0000
3000
0000
,
0002
0000
0003
0000
,
0200
0000
0300
0000
,
0020
0000
0030
0000
,
0200
0000
0300
0000
,
0020
0000
0030
0000
,
1000
0000
0000
0000
,
0001
0000
0000
0000
,
0100
0000
0000
0000
,
0010
0000
0000
0000
,
1000
0000
1000
0000
,
0001
0000
0001
0000
,
2002
0000
0000
0000
,
3003
0000
0000
0000
,
1000
0000
0001
0000
,
0010
0000
0001
0000
,
0001
0000
1000
0000
,
0010
0000
1000
0000
,
0100
0000
1000
0000
,
0001
0000
1000
0000
,
0001
0000
2000
0000
,
3000
0000
0001
0000
,
0010
0000
0001
0000
,
1000
0000
0001
0000
,
0001
0000
0100
0000
,
0001
0000
0010
0000
,
0100
0000
0100
0000
,
1000
0000
0001
0000
,
1000
0000
0002
0000
,
0003
0000
2000
0000
,
0000
3000
0002
0000
,
0000
0003
2000
0000
,
0000
3000
0002
0000
,
0000
0003
1000
0000
,
1000
0000
0001
0000
,
0001
0000
0100
0000
,
0100
0000
0010
0000
,
0010
0000
1001
0000
;

//--------------- dance-single - Fred-104 ----------------
#NOTEDATA:;
#STEPSTYPE:dance-single;
#DESCRIPTION:Fred-104;
#DIFFICULTY:Easy;
#METER:6;
#CREDIT:Fred-104;
#NOTES:
0000
0000
0000
0000
,
0000
0000
0000
0000
,
0000
0000
0000
0000
,
0000
0000
0000
0000
,
0000
0000
0000
0000
,
0000
0000
0000
0000
,
1000
0000
0010
0000
,
1000
0000
0100
0001
,
0100
0000
1000
0000
,
0001
0001
1000
0001
,
1001
0000
0001
0010
,
0100
0000
1000
0010
,
0100
0000
0010
1000
,
0001
0000
1000
0001
,
1001
0000
1000
0000
,
0001
0000
0001
0000
,
0100
0100
0010
0010
,
1000
0100
1000
0000
0001
0010
0001
0000
,
1001
0000
0000
1000
,
0010
0000
0000
0001
,
0010
0000
0000
1000
,
0100
0000
0000
0001
,
0100
0000
0000
1000
,
0001
0000
0000
0010
,
0100
0000
0000
1000
,
0001
0000
0000
0000
,
1001
0000
0001
0000
,
0100
0010
1000
0100
,
1000
0000
0010
0000
,
1000
0100
0001
0100
,
1000
0000
0001
0000
,
0010
0001
0100
0001
,
0010
0000
0001
0000
,
0010
1000
0010
0001
,
1001
0000
0010
0000
,
0100
0100
0001
0001
,
1000
0000
0001
0000
,
0100
0100
0010
0010
,
1000
0100
1000
0010
,
0100
0001
0010
0001
,
1000
0100
1000
0000
0001
0010
0001
0000
,
2002
0000
0000
3003
1001
0000
1000
0000
,
0010
1000
0100
1000
,
0001
0000
0100
0100
,
0010
0100
0001
0010
,
0001
0000
1000
1000
,
0001
0010
0001
0100
,
0010
0000
0100
0001
,
0100
1000
0100
0001
,
1000
0000
0001
0001
,
0100
0000
0010
0100
0010
0000
1000
0000
,
0100
0000
1000
0010
,
0100
0000
0010
0100
0010
0000
0100
0000
,
0001
0000
1000
0001
,
0010
0000
0001
0100
0001
0000
0010
0000
,
0100
0000
1000
0100
,
1000
0000
0010
0100
0010
0000
1000
0000
,
0001
0010
0001
0000
1001
0000
1000
0000
,
0010
0100
0010
0000
1000
0000
0100
0000
,
0010
0100
1000
0010
,
0100
0001
0100
0000
0001
0000
0010
0000
,
0001
1000
1001
0000
,
0001
0010
1000
0000
,
0001
0100
1000
0001
,
0100
0000
0010
0000
1000
0100
1000
0000
,
0001
0010
0001
0000
1001
0000
0000
0000
;

//--------------- dance-single - Fred-104 ----------------
#NOTEDATA:;
#STEPSTYPE:dance-single;
#DESCRIPTION:Fred-104;
#DIFFICULTY:Medium;
#METER:11;
#CREDIT:Fred-104;
#NOTES:
0000
0000
0000
0000
,
0000
0000
0000
0000
,
0000
0000
0000
0000
,
0000
0000
0000
0000
,
0000
0000
0000
0000
,
0000
0000
0000
0000
,
0001
0000
0010
0000
0001
0000
0000
1000
0000
0000
0010
0000
0100
0000
0010
0000
,
1000
0000
0100
0000
1000
0000
0000
0100
0000
0010
0000
0000
0001
0000
1000
0000
,
0010
0000
1000
0000
0100
0000
0000
1000
0000
0000
0010
0000
0100
0000
0001
0000
,
1000
0000
0001
0000
0010
0000
0000
0001
0100
0001
0000
0000
0010
0000
0001
0000
,
1000
0000
0010
1000
0100
1000
0010
0100
,
0001
0000
1000
0001
0010
1000
0010
0001
,
1000
0000
0001
0100
0010
0100
0001
1000
,
0001
0000
0010
0100
1000
0010
0100
0001
,
0011
1010
0011
1001
,
1100
0101
1100
0110
,
0001
0010
0001
0000
1000
0010
1000
0000
,
0010
0100
0001
1000
0100
0010
0001
1000
,
1001
0000
0000
0000
0000
0000
0001
0010
,
1000
0000
0000
0000
0000
0000
0001
0100
,
1000
0000
0000
0000
0000
0000
0001
0010
,
1000
0000
0000
0000
0000
0000
0001
0100
,
1000
0000
0000
0000
0000
0000
1000
0100
,
0010
0000
0000
0000
0000
0000
0001
0100
,
0010
0000
0000
0000
0000
0000
1000
0001
,
1000
0000
0000
0000
,
1001
0000
0000
0001
0000
0000
0100
0000
0001
0000
0010
0000
0001
0000
1000
0000
,
0010
0000
0000
1000
0000
0000
0100
0000
0010
0000
0001
0000
1000
0000
0010
0000
,
0100
0000
0000
0010
0000
0000
1000
0000
0001
0000
1000
0000
0100
0000
0010
0000
,
0100
0000
0000
1000
0000
0000
0010
0000
0100
0000
0010
0000
1000
0000
0001
0000
,
0010
0000
0000
0001
0000
0000
1000
0000
0100
0000
1000
0000
0010
0000
0100
0000
,
0001
0000
0000
0100
0000
0000
0010
0000
1000
0000
0100
0000
0010
0000
0100
0000
,
1000
0000
0000
0001
0000
0000
0100
0000
0010
0000
1000
0000
0010
0000
0100
0000
,
0001
0000
0000
1000
0000
0000
0100
0000
0010
0000
0001
0000
1000
0000
0010
0000
,
0100
0000
0000
0000
0100
0000
0000
0000
0100
0000
0000
0000
0001
0000
0010
0001
,
0010
0000
0000
0000
0010
0000
0000
0000
0010
0000
0000
0000
0001
0000
1000
0001
,
1000
0000
0000
0000
1000
0000
0000
0000
1000
0000
0000
0000
0100
0000
0010
0100
,
0010
0000
0000
0000
0010
0000
0000
0000
0010
0000
0001
0000
1000
0000
0001
0100
,
0001
0010
0001
0000
1000
0010
1000
0000
,
0001
0100
0001
0000
1000
0100
1000
0000
,
0001
0100
0010
1000
0001
0010
0100
1000
,
0001
0001
1000
1000
0001
1000
0002
0000
1003
0000
0000
0010
0000
0000
1000
0000
,
0100
0000
0010
0000
0001
0000
1000
0000
0001
0000
0000
0100
0000
0000
0010
0000
,
0100
0000
0001
0000
0010
0000
0001
0000
1000
0000
0000
0010
0000
0000
1000
0000
,
0100
0000
1000
0000
0010
0000
0100
0000
0001
0000
0000
0100
0000
0000
0001
0000
,
0010
0000
0001
0000
0100
0000
0001
0000
0010
0000
0000
0100
0000
0000
1000
0000
,
0001
0000
0100
0000
0010
0000
0100
0000
0001
0000
0000
1000
0000
0000
0010
0000
,
0100
0000
0001
0000
1000
0000
0100
0000
0010
0000
0000
0100
0000
0000
1000
0000
,
0010
0000
1000
0000
0100
0000
0010
0000
0100
0000
0000
0010
0000
0000
0001
0000
,
1000
0000
0001
0000
0100
0000
0010
0000
1000
0000
0010
0100
0000
0010
0100
0000
,
0010
1000
0100
0010
0001
0100
0010
0100
,
0001
0000
1000
0000
0010
0000
0100
0000
0010
0000
1000
0100
0000
1000
0100
0000
,
1000
0010
0100
0001
1000
0100
0010
0001
,
0010
0000
0100
0000
1000
0000
0001
0000
0100
0000
0001
0010
0000
0001
0010
0000
,
0001
0100
0010
0100
0001
1000
0001
0010
,
0100
0000
1000
0000
0010
0000
1000
0000
0100
0000
0010
0100
0000
0010
0100
0000
,
1000
0010
0100
0001
1000
0100
0001
1000
,
0010
0000
0001
0000
1000
0000
0000
0000
0001
0000
0010
0001
0000
0010
0001
0000
,
0100
0000
0010
0000
0100
0000
0001
0000
1000
0000
0010
1000
0000
0010
1000
0000
,
0100
0000
0010
0000
0100
0000
1000
0000
0001
0000
0100
0010
0000
0100
0010
0000
,
0100
0000
0001
0000
0010
0000
0001
0000
1000
0000
0001
1000
0000
0001
1000
0000
,
0100
0010
0001
1000
1100
0000
0110
0000
,
0101
1001
1010
0110
,
0011
0000
1001
0000
0001
0100
0010
0000
,
1000
0100
0010
0000
0001
1000
0010
0100
,
0001
1000
0100
0010
1001
0000
0000
0000
;

//--------------- dance-single - Fred-104 ----------------
#NOTEDATA:;
#STEPSTYPE:dance-single;
#DESCRIPTION:Fred-104;
#DIFFICULTY:Hard;
#METER:15;
#CREDIT:Fred-104;
#NOTES:
0000
0000
0000
0000
,
0000
0000
0000
0000
,
0000
0000
0000
0000
,
0000
0000
0000
0000
,
0000
0000
0000
0000
,
0000
0000
0000
0000
,
1000
0000
0001
0100
0001
0000
0010
0001
0000
1000
0001
0000
0100
0000
0010
0000
,
1000
0000
0001
0010
0001
0000
0100
0010
0000
1000
0000
0010
0100
0000
0001
0000
,
1000
0000
0010
0100
0010
0000
1000
0001
0000
0010
0100
1000
0100
0000
1000
0000
,
0001
0000
0100
0000
0110
0000
0000
0010
1000
0100
0010
0001
0100
0010
1000
0001
,
0010
0000
0001
0100
0001
0000
1000
0100
0000
0001
0100
0000
0010
0000
0001
0000
,
1000
0000
0001
0010
0001
0000
0100
0010
0000
0001
0000
0010
1000
0000
0001
0000
,
0100
0000
0010
1000
0001
0000
1000
0100
0000
0001
0100
0000
1000
0000
0010
0000
,
0100
0000
0001
0010
0100
0000
0001
0100
0000
0010
0000
0001
1000
0100
1000
0000
,
1100
0000
0101
0000
1100
0000
0100
0010
,
0011
0000
1010
0000
0011
0000
0001
0100
,
0001
0010
0001
0100
0010
1000
0100
1000
,
0001
0100
0010
1000
0100
0010
0001
0100
0010
1000
0001
1000
0010
1000
0001
0000
,
1001
0000
0000
0000
0000
0000
1000
0100
,
0001
0000
0000
0000
0000
0000
1000
0010
,
0001
0000
0000
0000
0000
0000
1000
0010
,
0001
0000
0000
0000
0000
0000
1000
0100
,
0001
0000
0000
0000
0000
0000
0001
0100
,
1000
0000
0000
0000
0000
0000
0001
0010
,
1000
0000
0000
0000
0000
0000
0001
1000
,
0001
0000
0000
0000
,
1001
0000
0000
0001
0000
0010
0001
0000
0100
0000
0010
0000
1000
0001
0100
0001
,
1000
0000
0000
0010
0000
1000
0100
0000
1000
0000
0100
0000
0010
0001
0010
0100
,
0010
0000
0000
0001
0000
1000
0001
0000
0100
0000
0010
0000
0100
0001
1000
0001
,
0010
0000
0000
0001
0000
1000
0010
0000
0100
0000
0010
0000
1000
0100
0010
0100
,
1000
0000
0000
0010
0000
0010
0001
0000
1000
0000
0010
0000
0100
0001
0010
0001
,
1000
0000
0000
0100
0000
0100
0001
0000
0010
0000
0100
0000
1000
0001
0010
0001
,
0100
0000
0000
1000
0000
0100
0001
0000
0010
0000
0100
0000
0010
0001
1000
0010
,
0100
0000
0000
0010
0000
0001
0010
0000
1000
0000
0001
0000
0100
0010
1000
0001
,
0010
0000
0001
0100
0000
0001
0100
0000
0010
0000
1000
0000
0100
0010
0001
1000
,
0010
0000
1000
0100
0000
1000
0100
0000
1000
0000
0010
0000
0100
0001
0010
0001
,
0100
0000
0010
1000
0000
0010
0100
0000
0010
0000
1000
0000
0100
0010
0001
1000
,
0010
0000
0100
0001
0000
0010
0001
0000
0100
0000
0010
0000
1000
0001
0010
0001
,
1000
1000
0010
0010
0100
0100
0001
0001
,
0010
0010
0100
0100
1000
1000
0001
0001
,
1000
0010
0100
0001
1000
0100
0010
0001
0010
0100
1000
0010
0100
0001
1000
0001
,
0100
0000
0100
0000
0010
0000
0010
0000
1000
0001
1000
0001
2000
0000
0000
3000
1001
0000
0000
0000
0001
0000
0010
0000
0000
0000
0001
0000
0100
0000
0000
0000
,
0010
0000
1000
0000
0001
1000
0010
1000
0001
0000
1000
0100
0000
0010
0001
0000
,
0100
0000
0001
0000
0010
0001
1000
0001
0100
0000
0001
0010
0000
0001
0100
0000
,
0010
0000
1000
0000
0001
0010
0100
1000
0001
0000
1000
0001
0000
0100
0010
0000
,
1000
0000
0001
0000
0010
0100
1000
0010
0100
0000
0001
0010
0000
1000
0010
0000
,
0100
0000
1000
0000
0001
0100
0010
1000
0001
0000
0010
0100
0000
0001
0100
0000
,
1000
0000
0100
0000
0010
0001
1000
0001
0100
0000
0010
0001
0000
0010
1000
0000
,
0010
0000
0100
0000
0001
1000
0100
1000
0010
0000
1000
0100
0000
0001
0100
0000
,
0010
0000
0001
0000
1000
0010
0100
0001
1000
0000
0001
0010
0000
0001
0100
0000
,
0010
1000
0100
0000
1000
0001
0100
0001
1000
0000
0010
0100
0000
0010
1000
0000
,
0001
0010
0001
0000
1000
0010
1000
0100
0010
0000
0100
1000
0000
0010
0100
0000
,
0001
1000
0001
0000
0010
0001
1000
0010
0100
0000
0010
1000
0001
0000
1000
0000
,
0001
0010
0100
0000
1000
0001
0010
0001
1000
0000
0010
0100
0000
0001
0010
0000
,
0001
0100
0001
0000
0100
0010
1000
0010
0100
0000
0001
0010
0000
0100
0010
0000
,
0001
1000
0100
0000
1000
0010
0100
0001
0100
0000
0001
0010
0000
0100
0010
0000
,
0001
1000
0010
0000
0100
0010
1000
0010
0100
0000
0001
0010
0100
1000
0001
0100
,
0010
1000
0010
1000
0001
0000
1000
0000
0001
0100
0010
1000
0001
0000
1000
0100
,
0010
0001
0010
0100
1000
0010
0100
0010
1000
0000
0001
0100
0001
0010
0100
1000
,
0010
1000
0001
0010
0001
1000
0100
1000
0010
0100
0001
1000
0100
0000
1000
0001
,
0010
0100
1000
0100
0010
0001
1000
0001
0100
0000
0010
1000
0010
0100
0001
0010
,
0100
1000
0010
0100
0001
1000
0100
0000
1100
0000
0000
0000
0101
0000
0000
0000
,
1100
0000
0100
0010
0011
0000
1010
0000
,
0011
0000
0001
1000
0001
0001
0100
0100
,
0010
0000
0010
0000
1000
0000
1000
0000
0001
0010
0001
1000
0010
0100
0001
1000
,
0100
0010
0001
0100
0010
1000
0001
0010
0100
0000
0000
0000
0000
0000
0000
0000
;

//--------------- dance-double - Fred-104 ----------------
#NOTEDATA:;
#STEPSTYPE:dance-double;
#DESCRIPTION:Fred-104;
#DIFFICULTY:Easy;
#METER:6;
#CREDIT:Fred-104;
#NOTES:
00000000
00000000
00000000
00000000
,
00000000
00000000
00000000
00000000
,
00000000
00000000
00000000
00000000
,
00000000
00000000
00000000
00000000
,
00000000
00000000
00000000
00000000
,
00000000
00000000
00000000
00000000
,
00000001
00000000
00001000
00000000
,
00000001
00000000
00000100
00001000
,
00010000
00000000
01000000
00000000
,
10000000
00100000
00010000
00001000
,
00011000
00000000
00010000
00001000
,
00000010
00000000
00000001
00001000
,
00000100
00000000
00000010
00000001
,
00001000
00000000
00000010
00000100
,
00000110
00000000
00000001
00000000
,
00001000
00000000
00000010
00000000
,
00010000
00010000
00001000
00001000
,
00100000
00010000
00100000
00000000
00001000
00010000
00001000
00000000
,
00011000
00000000
00000000
00100000
,
00001000
00000000
00000000
00000010
,
00010000
00000000
00000000
01000000
,
00001000
00000000
00000000
00000100
,
00010000
00000000
00000000
01000000
,
00010000
00000000
00000000
00000010
,
00001000
00000000
00000000
00010000
,
00001000
00000000
00000000
00000000
,
00011000
00000000
00001000
00000000
,
00010000
00100000
01000000
00010000
,
10000000
00000000
00010000
00000000
,
10000000
01000000
00100000
00001000
,
00010000
00000000
00001000
00000000
,
00010000
00000010
00001000
00000010
,
00001000
00000000
00000001
00000000
,
00000100
00000010
00000100
00000001
,
00001001
00000000
00000001
00000000
,
00000100
00001000
00010000
01000000
,
00100000
00000000
00010000
00000000
,
10000000
01000000
00100000
00010000
,
10000000
00100000
01000000
00010000
,
00100000
00001000
00010000
00000010
,
00001000
00000100
00001000
00000000
00000100
00010000
00000100
00000000
,
00022000
00000000
00000000
00033000
00011000
00000000
00001000
00000000
,
00100000
00001000
00010000
00001000
,
00000010
00000000
00001000
00010000
,
00001000
01000000
00001000
00010000
,
00001000
00000000
00000010
00000100
,
00001000
00000001
00001000
00000010
,
00000100
00000000
00000010
00010000
,
00001000
00100000
00010000
01000000
,
00001000
00000000
00010000
00000100
,
00001000
00000000
00000100
00001000
00000100
00000000
00010000
00000000
,
00001000
00000000
00100000
00010000
,
01000000
00000000
00001000
00010000
00001000
00000000
00100000
00000000
,
00001000
00000000
01000000
00001000
,
00010000
00000000
00001000
00010000
00001000
00000000
00100000
00000000
,
00001000
00000000
00010000
00000010
,
00001000
00000000
00000010
00000100
00000010
00000000
00001000
00000000
,
00000100
00010000
00001000
00000000
00011000
00000000
00001000
00000000
,
00100000
00010000
00100000
00000000
00010000
00000000
01000000
00000000
,
00100000
10000000
00100000
10000000
,
01000000
00100000
01000000
00000000
00100000
00000000
00001000
00000000
,
00010000
00001000
00011000
00000000
,
00010000
00001000
00000010
00000000
,
00001000
00010000
00100000
00010000
,
00001000
00000000
00000100
00000000
00001000
00010000
00001000
00000000
,
00010000
01000000
00010000
00000000
00011000
00000000
00000000
00000000
;

//--------------- dance-double - Fred-104 ----------------
#NOTEDATA:;
#STEPSTYPE:dance-double;
#DESCRIPTION:Fred-104;
#DIFFICULTY:Medium;
#METER:11;
#CREDIT:Fred-104;
#NOTES:
00000000
00000000
00000000
00000000
,
00000000
00000000
00000000
00000000
,
00000000
00000000
00000000
00000000
,
00000000
00000000
00000000
00000000
,
00000000
00000000
00000000
00000000
,
00000000
00000000
00000000
00000000
,
10000000
00000000
01000000
00000000
10000000
00000000
00000000
00100000
00000000
00000000
10000000
00000000
01000000
00000000
00100000
00000000
,
00001000
00000000
00010000
00000000
00001000
00000000
00000000
01000000
00000000
00001000
00000000
00000000
00010000
00000000
00000100
00000000
,
00001000
00000000
00000010
00000000
00000100
00000000
00000000
00000010
00000000
00000000
00001000
00000000
00000100
00000000
00010000
00000000
,
00001000
00000000
00100000
00000000
00010000
00000000
00000000
01000000
00100000
01000000
00000000
00000000
00010000
00000000
10000000
00000000
,
00010000
00000000
10000000
00100000
00010000
00001000
00000010
00000100
,
00001000
00000000
00000001
00000100
00001000
00000100
00000001
00000010
,
00000001
00000000
00001000
00000001
00000100
00001000
00010000
00100000
,
01000000
00000000
00010000
10000000
00100000
01000000
00010000
10000000
,
11000000
01010000
00011000
00001010
,
00000011
00000101
00001100
00011000
,
00001000
00010000
00100000
00000000
00010000
00001000
00000010
00000000
,
00001000
00010000
00000100
00001000
00000100
00000010
00000001
00001000
,
00001001
00000000
00000000
00000000
00000000
00000000
00000001
00000010
,
00001000
00000000
00000000
00000000
00000000
00000000
00010000
01000000
,
10000000
00000000
00000000
00000000
00000000
00000000
10000000
00100000
,
00010000
00000000
00000000
00000000
00000000
00000000
00001000
00000100
,
00000001
00000000
00000000
00000000
00000000
00000000
00000001
00000100
,
00001000
00000000
00000000
00000000
00000000
00000000
00010000
00100000
,
10000000
00000000
00000000
00000000
00000000
00000000
00010000
10000000
,
00010000
00000000
00000000
00000000
,
00011000
00000000
00000000
00001000
00000000
00000000
01000000
00000000
00010000
00000000
00100000
00000000
00001000
00000000
00010000
00000000
,
00001000
00000000
00000000
01000000
00000000
00000000
00010000
00000000
01000000
00000000
00100000
00000000
01000000
00000000
00001000
00000000
,
00010000
00000000
00000000
00000100
00000000
00000000
00001000
00000000
00000100
00000000
00000010
00000000
00001000
00000000
00010000
00000000
,
00100000
00000000
00000000
01000000
00000000
00000000
00010000
00000000
10000000
00000000
01000000
00000000
00100000
00000000
00010000
00000000
,
01000000
00000000
00000000
00010000
00000000
00000000
00100000
00000000
00001000
00000000
00010000
00000000
00001000
00000000
00000010
00000000
,
00000100
00000000
00000000
00001000
00000000
00000000
00000010
00000000
00000100
00000000
00000001
00000000
00001000
00000000
00000100
00000000
,
00000010
00000000
00000000
00000001
00000000
00000000
00000100
00000000
00001000
00000000
00010000
00000000
00100000
00000000
10000000
00000000
,
00010000
00000000
00000000
01000000
00000000
00000000
00100000
00000000
10000000
00000000
01000000
00000000
00100000
00000000
00001000
00000000
,
00010000
00000000
00000000
00000000
00010000
00000000
00000000
00000000
00010000
00000000
00000000
00000000
00000100
00000000
00001000
00000100
,
00001000
00000000
00000000
00000000
00001000
00000000
00000000
00000000
00001000
00000000
00000000
00000000
00000010
00000000
00000100
00000010
,
00000100
00000000
00000000
00000000
00000100
00000000
00000000
00000000
00000100
00000000
00000000
00000000
00000001
00000000
00001000
00000001
,
00001000
00000000
00000000
00000000
00001000
00000000
00000000
00000000
00001000
00000000
00000010
00000000
00010000
00000000
00001000
00100000
,
00001000
00100000
00010000
00000000
10000000
01000000
00010000
00000000
,
00001000
00000010
00000100
00000000
00001000
00000010
00000100
00000000
,
00000001
00000010
00000100
00000010
00001000
00010000
00100000
01000000
,
00010000
00010000
10000000
10000000
00010000
10000000
00020000
00000000
01030000
00000000
00000000
00100000
00000000
00000000
01000000
00000000
,
00100000
00000000
10000000
00000000
00100000
00000000
01000000
00000000
00001000
00000000
00000000
00010000
00000000
00000000
00001000
00000000
,
00100000
00000000
00010000
00000000
01000000
00000000
00010000
00000000
00100000
00000000
00000000
00001000
00000000
00000000
00010000
00000000
,
00000100
00000000
00001000
00000000
00000010
00000000
00001000
00000000
00000100
00000000
00000000
00010000
00000000
00000000
00001000
00000000
,
00010000
00000000
00000010
00000000
00001000
00000000
00000100
00000000
00010000
00000000
00000000
00001000
00000000
00000000
01000000
00000000
,
00100000
00000000
01000000
00000000
00010000
00000000
00100000
00000000
00001000
00000000
00000000
00010000
00000000
00000000
00001000
00000000
,
00000010
00000000
00000100
00000000
00001000
00000000
00000010
00000000
00010000
00000000
00000000
00001000
00000000
00000000
00100000
00000000
,
00001000
00000000
00010000
00000000
00001000
00000000
01000000
00000000
00010000
00000000
00000000
00100000
00000000
00000000
00001000
00000000
,
00010000
00000000
00000010
00000000
00001000
00000000
00000100
00000000
00010000
00000000
00001000
00010000
00000000
00000010
00010000
00000000
,
00001000
00100000
00010000
10000000
00100000
01000000
00010000
10000000
,
01000000
00000000
00100000
00000000
01000000
00000000
10000000
00000000
00010000
00000000
00100000
01000000
00000000
00100000
01000000
00000000
,
10000000
00100000
00010000
00001000
00000010
00000100
00001000
00000001
,
00000100
00000000
00000010
00000000
00001000
00000000
00000010
00000000
00000100
00000000
00000001
00000010
00000000
00000001
00000010
00000000
,
00000001
00000100
00000010
00001000
00000100
00010000
00001000
00010000
,
00100000
00000000
01000000
00000000
00010000
00000000
10000000
00000000
00100000
00000000
01000000
00100000
00000000
10000000
00100000
00000000
,
01000000
00010000
00100000
00001000
00010000
00001000
01000000
00001000
,
00010000
00000000
00001000
00000000
00010000
00000000
00000000
00000000
00001000
00000000
00010000
00000010
00000000
00001000
00000010
00000000
,
00010000
00000000
00000100
00000000
00001000
00000000
00000100
00000000
00000010
00000000
00000100
00001000
00000000
00000010
00001000
00000000
,
00000001
00000000
00000010
00000000
00001000
00000000
00010000
00000000
00001000
00000000
00010000
00100000
00000000
01000000
00010000
00000000
,
10000000
00000000
01000000
00000000
10000000
00000000
00100000
00000000
01000000
00000000
00010000
00100000
00000000
00010000
01000000
00000000
,
00001000
00010000
00001000
01000000
01100000
00000000
01010000
00000000
,
00011000
00010100
00101000
00010010
,
00101000
00000000
00011000
00000000
00010000
00001000
00000010
00000000
,
00001000
00010000
00100000
00000000
00010000
00001000
00100000
00001000
,
00010000
00000010
00010000
00001000
00011000
00000000
00000000
00000000
;

//--------------- dance-double - Fred-104 ----------------
#NOTEDATA:;
#STEPSTYPE:dance-double;
#DESCRIPTION:Fred-104;
#DIFFICULTY:Hard;
#METER:16;
#CREDIT:Fred-104;
#NOTES:
00000000
00000000
00000000
00000000
,
00000000
00000000
00000000
00000000
,
00000000
00000000
00000000
00000000
,
00000000
00000000
00000000
00000000
,
00000000
00000000
00000000
00000000
,
00000000
00000000
00000000
00000000
,
00010000
00000000
00001000
00000000
00000010
00000000
00000100
00010000
00000000
00001000
00100000
00000000
01000000
00000000
00010000
00000000
,
00001000
00000000
00010000
00000000
00000100
00000000
00001000
00000001
00000000
00000010
00000000
00001000
00010000
00000000
01000000
00000000
,
00100000
00000000
00010000
00000000
01000000
00000000
00001000
00010000
00000000
00001000
00100000
00000000
00001000
00000000
00010000
00000000
,
00000010
00000000
00001000
00000000
00001001
00000000
00000000
00000001
00000100
00000010
00001000
00010000
01000000
00100000
10000000
00010000
,
10000000
00000000
00100000
10000000
00010000
00000000
01000000
00100000
00000000
00010000
00100000
00000000
10000000
00000000
00010000
00000000
,
01000000
00000000
00001000
00010000
00001000
00000000
00000010
00000100
00000000
00001000
00000000
00000010
00010000
00000000
00001000
00000000
,
00100000
00000000
00010000
01000000
00001000
00000000
00100000
00001000
00000000
00010000
00001000
00000000
00000010
00000000
00000100
00000000
,
00001000
00000000
00000001
00001000
00000010
00000000
00001000
00000100
00000000
00000001
00000000
00000100
00010000
00000000
00001000
00000000
,
00011000
00000000
00010010
00000000
00011000
00000000
00010000
00001000
,
00011000
00000000
01001000
00000000
00011000
00000000
00001000
00010000
,
00000010
00001000
00000100
00010000
00001000
01000000
00010000
00100000
,
00001000
00010000
00000010
00001000
00000001
00000100
00000010
00000100
00001000
00010000
00100000
01000000
00010000
10000000
01000000
00000000
,
01100000
00000000
00000000
00000000
00000000
00000000
10000000
01000000
,
00010000
00000000
00000000
00000000
00000000
00000000
00001000
00000010
,
00000001
00000000
00000000
00000000
00000000
00000000
00000001
00000100
,
00001000
00000000
00000000
00000000
00000000
00000000
00010000
00100000
,
10000000
00000000
00000000
00000000
00000000
00000000
10000000
00001000
,
00010000
00000000
00000000
00000000
00000000
00000000
00001000
00010000
,
00000001
00000000
00000000
00000000
00000000
00000000
00001000
00000001
,
00010000
00000000
00000000
00000000
,
00011000
00000000
00000000
00010000
00000000
00000100
00001000
00000000
00000010
00000000
00001000
00000000
00000001
00000100
00000001
00000100
,
00000010
00000000
00000000
00001000
00000000
00000001
00000010
00000000
00000100
00000000
00001000
00000000
00000100
00010000
00001000
00010000
,
01000000
00000000
00000000
00100000
00000000
00010000
10000000
00000000
00100000
00000000
10000000
00000000
01000000
00100000
00010000
01000000
,
00001000
00000000
00000000
00010000
00000000
00000100
00001000
00000000
00000010
00000000
00010000
00000000
00001000
00010000
01000000
00100000
,
00010000
00000000
00000000
00001000
00000000
00010000
00001000
00000000
00000010
00000000
00000100
00000000
00010000
00001000
00100000
01000000
,
00010000
00000000
00000000
00001000
00000000
00010000
00000100
00000000
00001000
00000000
00000100
00000000
00000010
00000001
00001000
00000001
,
00000100
00000000
00000000
00000010
00000000
00001000
00000001
00000000
00000010
00000000
00000100
00000000
00000001
00000100
00001000
00000001
,
00000100
00000000
00000000
00000010
00000000
00001000
00000100
00000000
00010000
00000000
00001000
00000000
00100000
00010000
10000000
00100000
,
01000000
00000000
00100000
01000000
00000000
00100000
01000000
00000000
00100000
00000000
10000000
00000000
01000000
00100000
01000000
10000000
,
00100000
00000000
01000000
00010000
00000000
01000000
00010000
00000000
00100000
00000000
00001000
00000000
00010000
00000010
00001000
00000010
,
00010000
00000000
00000100
00001000
00000000
00000100
00001000
00000000
00000001
00000000
00000100
00000000
00000010
00001000
00000001
00001000
,
00000100
00000000
00000010
00000001
00000000
00001000
00000001
00000000
00000100
00000000
00000010
00000000
00001000
00000100
00000010
00000001
,
00000100
00000100
00001000
00001000
00010000
00010000
01000000
01000000
,
10000000
10000000
00010000
00010000
01000000
01000000
00100000
00100000
,
10000000
01000000
10000000
00100000
01000000
00010000
00100000
00001000
00010000
00000100
00001000
00000010
00000100
00000001
00000010
00000100
,
00001000
00000000
00001000
00000000
00000001
00000000
00000001
00000000
00001000
00000001
00001000
00000001
00002000
00000000
00000000
00003000
00001100
00000000
00000000
00000000
00001000
00000000
00000010
00000000
00000000
00000000
00000100
00000000
00000001
00000000
00000000
00000000
,
00001000
00000000
00000001
00000000
00000010
00000100
00001000
00000100
00010000
00000000
00001000
01000000
00000000
00001000
00010000
00000000
,
00001000
00000000
00100000
00000000
00010000
01000000
00100000
10000000
00100000
00000000
01000000
00001000
00000000
00010000
00001000
00000000
,
00000010
00000000
00000100
00000000
00010000
00001000
01000000
00001000
00010000
00000000
00001000
00000010
00000000
00000100
00001000
00000000
,
00000001
00000000
00000100
00000000
00000010
00001000
00000100
00001000
00000001
00000000
00001000
00000100
00000000
00000001
00000100
00000000
,
00001000
00000000
00000001
00000000
00000100
00000010
00001000
00000001
00000010
00000000
00001000
00010000
00000000
00100000
01000000
00000000
,
00010000
00000000
10000000
00000000
00100000
10000000
01000000
00100000
01000000
00000000
10000000
00010000
00000000
00100000
01000000
00000000
,
00100000
00000000
01000000
00000000
00010000
00001000
00000010
00000100
00001000
00000000
00000010
00001000
00000000
00000100
00010000
00000000
,
00000010
00000000
00010000
00000000
00001000
00010000
00001000
01000000
00010000
00000000
00010000
10000000
00000000
00100000
01000000
00000000
,
00010000
10000000
01000000
10000000
00010000
00100000
01000000
00100000
00010000
00000000
01000000
00001000
00000000
00010000
00000100
00000000
,
00001000
00000100
00000010
00000100
00001000
00000010
00000100
00000001
00001000
00000000
00000010
00001000
00000000
00000100
00010000
00000000
,
00001000
00010000
00000010
00010000
00001000
00100000
00010000
01000000
00001000
00000000
00010000
00001000
00000000
00100000
00010000
00000000
,
10000000
00010000
00100000
01000000
10000000
00100000
01000000
00010000
01000000
00000000
00010000
00100000
00000000
00010000
01000000
00000000
,
00001000
00010000
00001000
00000010
00000001
00000010
00000100
00001000
00000010
00000000
00001000
00000001
00000000
00000010
00000100
00000000
,
00010000
00001000
00000100
00000001
00001000
00000100
00000010
00000001
00001000
00000000
00000001
00000010
00000000
00001000
00010000
00000000
,
00100000
01000000
00010000
10000000
00010000
01000000
00100000
01000000
00010000
00000000
00001000
00000100
00000010
00000100
00001000
00010000
,
00100000
01000000
10000000
00010000
01000000
00100000
10000000
00010000
10000000
00000000
10000000
00010000
00100000
00000000
00010000
10000000
,
00100000
10000000
00010000
00100000
01000000
00100000
00001000
00010000
00000100
00000000
00001000
00000001
00000100
00000010
00001000
00000000
,
00000001
00000010
00000100
00001000
00000100
00000010
00000001
00001000
00000010
00000000
00001000
00000001
00000100
00000000
00000001
00000010
,
00000100
00000010
00000001
00000100
00001000
00010000
00100000
01000000
00010000
00000000
10000000
00010000
00100000
00010000
10000000
00000000
,
00100000
10000000
01000000
00100000
00010000
01000000
00001000
00000000
00011000
00000000
00000000
00000000
00010100
00000000
00000000
00000000
,
00011000
00000000
00010000
00001000
00011000
00000000
00101000
00000000
,
00011000
00000000
00001000
00010000
00000010
00001000
00000100
00010000
,
00001000
00000000
01000000
00000000
00010000
00000000
00100000
00000000
00001000
00010000
00000010
00001000
00000100
00010000
00001000
00100000
,
00010000
01000000
00001000
00010000
00000010
00001000
00000100
00010000
00001000
00000000
00000000
00000000
00000000
00000000
00000000
00000000
;
