#TITLE:Zirkfied;
#ARTIST:iconoclasm;
#GENRE:SPACE REQUIEM;
#BANNER:Zirkfied.png;
#BACKGROUND:Zirkfied-bg.png;
#CDTITLE:./CDTitles/Q-pro, Mimi, Nyami & Pastel-kun no minna de uchuu sensou!!.png;
#MUSIC:Zirkfied.ogg;
#SAMPLESTART:85.702;
#SAMPLELENGTH:15;
#BPMS:0=105,20=210,204=105,242=210;
#STOPS:246=0.571;
#TIMESIGNATURES:0=4=4,240=6=4,246=2=4,248=4=4;
#BGSTAGE:30;

//--------------- dance-single - Fred-104 ----------------
#NOTES:
     dance-single:
     Fred-104:
     Beginner:
     5:
     :
0000
0000
0000
0000
,
0000
0000
0000
0000
,
0000
0000
0000
0000
,
0001
0000
0001
0000
,
1000
1000
1000
0000
,
1001
0000
0000
0000
,
1001
0000
0000
0000
,
0001
0000
0001
0000
,
1001
0000
0000
0000
,
1001
0000
0000
0000
,
1001
0000
0000
0000
,
1000
0000
1000
0000
,
1001
0000
0000
0000
,
0001
0000
0001
0000
,
1001
0000
0000
0000
,
1000
0000
0000
0000
,
1000
0000
0100
0000
,
0001
0000
0000
0000
,
0001
0000
0100
0000
,
1000
0000
1000
0000
,
0001
0000
0001
0000
,
0100
0000
0100
0000
,
0010
0010
0010
0000
,
1000
0000
0000
0000
,
0001
0000
0010
0000
,
1000
0000
1000
0000
,
0100
0000
0001
0000
,
1000
0000
0000
0000
,
0001
0000
0000
0000
,
1000
0000
0001
0000
,
1000
1000
1000
1000
,
1001
0000
0000
0000
,
0000
0000
0000
0000
,
1001
0000
0000
0000
,
0000
0000
0000
0000
,
0002
0003
0002
0003
,
2000
3000
2000
3000
,
0002
0003
0002
0003
,
2000
3000
2000
3000
,
0001
0000
1000
0000
,
0100
0000
0010
0000
,
0001
0000
0001
0000
,
2002
0000
3003
0000
,
1000
0000
0010
0000
,
0001
0000
0001
0000
,
0010
0000
0100
0000
,
0010
0000
1000
0000
,
1000
0000
0100
0000
,
0001
0000
0010
0000
,
0100
0000
0010
0000
,
1000
0000
0001
0000
,
1001
0000
0000
0000
,
0000
0000
0000
0000
,
0000
0000
0000
0000
,
0000
0000
0000
0000
,
0002
0003
2000
3000
,
0002
0003
2000
3000
,
0020
0030
0200
0300
,
0002
0003
2000
3000
,
0200
0000
0320
0032
,
2003
3002
2003
0000
,
0000
0000
3000
0000
,
0001
0001
0000
0100
,
0100
0000
0001
0000
,
1000
0000
0100
0000
,
0001
0000
0010
0000
,
1000
0000
0000
1000
,
0001
0000
0000
0001
,
0100
0000
0010
0000
,
0100
0000
0001
0000
,
1000
1000
0000
0100
,
0100
0000
1000
0000
,
0001
0000
0100
0000
,
1000
0000
0010
0000
,
0001
0000
0000
0001
,
1000
0000
0000
1000
,
0100
0000
0010
0000
,
0100
0000
1000
0000
,
1001
0000
0000
0000
,
0000
0000
0000
0000
,
0000
0000
0000
0000
,
0000
0000
0000
0000
,
1001
0000
0000
0000
,
1001
0000
0000
0000
,
0001
0000
0001
0000
,
1001
0000
0000
0000
,
1000
0000
1000
0000
,
0100
0000
0100
0000
,
0001
0000
0100
0000
,
0010
0000
0100
0000
,
1000
0000
1000
0000
,
0001
0000
1000
0000
,
0010
0000
0100
0000
,
0001
0000
1000
0000
,
0100
0100
0100
0220
,
0000
0000
0000
0000
,
0000
0000
0000
0000
,
0330
0000
0000
0000
;

//--------------- dance-single - Fred-104 ----------------
#NOTES:
     dance-single:
     Fred-104:
     Easy:
     9:
     :
0000
0000
0000
0000
,
0000
0000
0000
0000
,
0000
0000
0000
0000
,
1000
0100
1000
0100
,
0010
0010
0001
0001
1000
0000
0110
0000
,
1001
0000
0000
0100
,
1001
0000
0000
0010
,
1001
0001
1001
1000
,
1001
0000
0110
0010
,
0110
0000
0000
1000
,
1100
0000
0000
0001
,
0101
0100
0010
1000
,
1001
0000
0001
1000
,
0100
0100
0100
0100
,
1001
0000
0000
0000
,
0001
0000
0000
0010
0000
0000
0100
0000
,
0100
1000
1000
0001
,
0100
0100
0010
0100
,
0001
0000
1000
0000
0001
1000
0001
0000
,
1000
0000
0000
0100
0000
0000
0001
0000
,
0001
0000
0000
0010
0000
0000
1000
0000
,
0001
0000
0010
0000
,
0100
0100
1000
1000
,
1001
0000
0000
1000
0000
0000
0010
0000
,
0100
0100
0001
1000
,
0200
0300
0020
0030
,
0200
0300
1000
0001
,
1000
0000
1000
0000
0001
0000
0100
0001
,
0100
0010
1000
1000
,
0002
0003
0020
0030
,
0100
0100
0010
0001
,
1001
0000
0000
0000
,
0000
0000
0000
0000
,
0110
0000
0000
0000
,
2002
0000
0000
3003
,
2000
3200
0320
0032
,
2003
3200
0320
0032
,
2003
3020
0230
0302
,
2003
3020
0230
0302
,
1003
0100
1000
0100
,
0001
0010
0001
0010
,
1000
1000
0001
0001
,
1001
1001
2002
3003
,
1000
0000
1000
0010
,
0001
0000
0001
0010
,
0100
0000
0010
1000
,
0001
0001
0010
0100
,
1000
1000
0001
0001
,
0100
0100
0010
0010
,
0100
0100
0001
0001
,
1000
0100
0010
0001
,
1001
1000
0001
0001
,
0100
0100
0001
0001
,
0010
0010
0100
0100
,
1000
0010
0100
0001
,
2000
3100
0002
0003
,
0002
0103
2000
3000
,
1000
0001
0100
0010
,
0100
0100
0001
1000
,
0002
0000
0000
0003
2000
3000
0002
0003
,
2000
0000
0000
3000
0000
0000
0002
0000
0000
0003
0000
0000
1000
0000
0000
0000
1000
0000
0000
0000
1000
0000
0000
0000
,
0001
0000
0001
0000
0001
0000
0000
0000
0000
0000
0000
0000
,
1000
0020
0000
0031
,
0010
0100
0010
1000
,
0001
0010
2000
3000
,
1000
0010
0002
0003
,
1000
0000
0000
0100
0000
0000
0001
0000
,
1000
0000
0000
0010
0000
0000
0001
0000
,
1000
0001
0010
0100
,
0110
0000
1000
1000
,
0001
0020
0000
0130
,
0010
1000
0010
0001
,
1000
0010
0002
0003
,
0001
0010
2000
3000
,
1000
0200
0000
0301
,
0100
1000
0001
0100
,
0010
0010
0100
0100
,
0001
0010
0001
0000
1000
0100
1000
0000
,
1001
0000
0000
0000
,
0000
0000
0000
0000
,
0000
0000
0000
0000
,
0001
0000
0100
0100
,
0110
0000
0000
1000
,
1010
0000
0000
0001
,
0101
0100
0110
0010
,
1001
0000
0100
0100
,
1001
0000
0001
1000
,
0100
0100
0010
0001
,
1000
0010
0100
0010
,
1000
0001
0010
0001
,
1000
0100
0100
0001
,
0001
0100
0010
0100
,
1000
0010
0001
0010
,
1000
0100
0001
0100
,
1000
1000
0001
2002
,
0000
0000
0000
0000
,
0000
0000
0000
0000
,
3003
0000
0000
0000
;

//--------------- dance-single - Fred-104 ----------------
#NOTES:
     dance-single:
     Fred-104:
     Medium:
     14:
     :
0000
0000
0000
0000
,
0000
0000
0000
0000
,
0000
0000
0000
0000
,
0001
0000
0100
0010
0100
0000
0001
1000
0001
0010
0100
0000
1000
0001
1000
0000
,
0001
0000
0100
0000
0100
0010
0100
0010
0100
0000
0000
0100
0001
0000
0000
1000
,
1001
0000
0000
1100
,
0101
0000
0000
1010
,
0011
1000
0110
0001
,
0110
0000
0000
0000
0000
0001
1000
0000
0000
0100
0000
0000
,
0110
0000
0000
1100
,
0011
0000
0000
1010
,
0101
1000
0110
1000
,
1001
0000
0000
0000
0000
0001
0100
0000
0000
0010
0000
0000
,
1000
0001
0010
0100
0000
0000
1000
0001
0100
0010
0000
0000
,
1001
0000
0000
0000
,
0001
0010
0100
0010
0000
0100
1000
0001
,
0100
0010
1000
0000
0100
0010
0001
1000
,
0010
0100
1000
0000
0100
0001
1000
0100
,
0010
0001
1000
0010
0100
0001
1000
0000
,
0001
0010
1000
0010
0000
0010
0001
1000
,
0001
0100
1000
0100
0000
0100
0001
1000
,
0002
0010
2003
0100
,
3001
1000
0100
0010
0001
1000
0001
0000
,
1000
0100
1000
0001
0100
0010
1000
0010
,
0100
0001
1000
0001
0010
0100
1000
0001
,
1000
0100
0001
0000
1000
0010
0001
0000
,
1000
0001
0010
0100
0001
0100
0010
0001
,
1000
0001
0100
1000
0100
0001
0100
0010
,
1000
0001
0010
1000
0010
0001
0010
0100
,
1000
0001
0100
0010
1000
0100
0010
0001
,
0100
0010
1000
0001
0010
0100
1000
0001
,
1001
0000
0000
0000
,
0000
0000
0000
0000
0000
0000
0000
0100
,
1001
0000
0000
0000
,
0001
0010
0100
1000
0000
0000
0001
0100
0010
1000
0000
0000
,
0002
0023
2030
3020
,
0230
0302
0203
2300
,
3002
0203
2300
3200
,
0320
0032
0023
2030
,
3001
0001
0010
0100
1000
1000
0001
0100
,
0010
0010
1000
0001
0100
0100
0001
0010
,
0100
0000
0100
1000
0000
1000
0001
0000
0001
0010
0000
0010
,
0100
0000
0000
0110
0000
0000
0001
1000
0001
1000
0000
0000
,
1001
0000
0000
0001
0000
0001
0010
0000
0010
1000
0000
1000
,
0010
0000
0000
0010
0000
0010
0001
0000
0001
1000
0000
1000
,
0001
0000
0000
1000
0000
1000
0100
0000
0100
0001
0000
0001
,
1000
0000
1000
0010
0000
0010
0001
0000
0001
1000
0000
0000
,
0001
0010
0001
0010
0000
0000
0100
1000
0100
1000
0000
0000
,
0001
0100
0001
0100
0000
0000
0010
1000
0010
1000
0000
0000
,
0001
0010
0001
0010
0100
1000
0100
1000
0001
1000
0000
0000
,
0001
1000
0001
1000
0001
1000
0010
0100
0010
0100
0010
0100
,
0001
0010
1000
0100
,
0001
0010
1000
0100
,
0001
0000
1000
0000
0100
0000
0010
0001
,
1000
0100
0010
0001
1000
0100
0010
0001
,
2000
0000
3001
0001
0200
0000
0320
0000
,
2030
0000
3001
0001
1000
0010
0100
0001
,
2000
0000
3100
0010
0001
0010
0100
1000
,
0001
0000
0100
0000
0010
0000
1000
0001
1000
0000
0100
0000
0010
0000
0000
0010
,
0001
1000
0001
1000
0001
0010
0001
0010
0100
1000
0100
1000
0001
1000
0001
1000
,
0010
0000
0000
0100
0000
0000
0001
0000
0000
1000
0000
0000
0010
0000
0000
0100
0000
0000
0001
0000
0000
1000
0000
0000
0001
0000
0000
0000
0000
0000
0000
0000
0010
0000
0000
0000
0000
0000
0000
0000
0110
0000
0000
0000
0000
0000
0000
0000
,
1000
0000
0010
0000
0110
0000
0000
0000
0000
0000
0000
0000
,
1000
0100
0020
0000
0000
1030
0010
0001
,
1000
0001
0100
0010
1000
0001
0010
0100
,
1000
0100
0001
0000
0001
0100
1000
0000
,
0001
0100
1000
0000
1000
0100
0001
0000
,
1000
0001
0100
0020
0000
0031
0020
0000
,
1030
0001
0010
2000
0000
3010
0200
0000
,
1300
0001
0100
0001
1000
0100
0010
0001
,
1001
0000
0000
0000
1000
1000
1000
1000
,
0001
0100
0020
0000
0000
0031
0010
0100
,
0001
0010
0100
0001
0100
1000
0001
1000
,
0001
0010
1000
0000
1000
0010
0002
0000
,
1003
0010
0001
0000
0001
0010
2000
0000
,
3001
1000
0200
0000
0000
0310
0100
0001
,
0100
1000
0001
0100
1000
0100
0001
1000
,
0001
0010
1000
0010
0100
0001
0100
1000
,
0001
0010
0100
1000
0100
0010
0001
1000
,
1001
0000
0000
0000
,
0000
0000
0000
0000
,
0000
0000
0000
0000
,
2000
0000
0000
0000
0000
3000
1001
0000
0000
0110
0000
0000
,
1001
0000
0000
1010
,
0101
0000
0000
1100
,
0011
0100
1001
0100
,
0110
0000
0000
0110
0000
0000
0001
1000
0001
1000
0000
0000
,
1001
0000
0000
1000
0000
1000
0100
0000
0100
0010
0000
0010
,
0001
0000
0001
1000
0000
1000
0001
0000
0001
0100
0000
0100
,
0010
0000
0010
1000
0000
1000
0001
0000
0001
0010
0000
0010
,
0100
0000
0100
1000
0000
1000
0001
1000
0001
1000
0000
0000
,
1001
0000
0001
0100
0000
0001
1000
0000
0001
0010
0000
0000
,
0001
1000
0100
0010
0000
0000
0001
1000
0010
0100
0000
0000
,
0001
0010
0001
0010
0000
0000
0100
1000
0100
1000
0000
0000
,
0001
1000
0001
1000
0001
1000
0010
0100
0010
0100
0010
0100
,
0002
0000
1003
2002
,
0000
0000
0000
0000
,
0000
0000
0000
0000
,
3003
0000
0000
0000
;

//--------------- dance-single - Fred-104 ----------------
#NOTES:
     dance-single:
     Fred-104:
     Hard:
     18:
     :
0000
0000
0000
0000
,
0000
0000
0000
0000
,
0000
0000
0000
0000
,
1000
0000
0001
1000
0100
0000
0010
0100
1000
0001
0100
0000
0010
1000
0010
0000
,
0100
0000
0110
0000
0010
0100
0010
0100
0010
0000
0000
1000
0001
0000
0000
1000
,
1001
0000
0000
1010
,
0101
0000
0000
0011
,
1100
0001
1010
0001
,
0110
0000
0000
0000
0000
0001
1001
0000
0000
0100
0000
0000
,
0110
0000
0000
0011
,
1010
0000
0000
1100
,
0101
1000
0011
1000
,
0001
0100
0010
1000
0100
0010
0110
0000
0000
1001
0000
0000
,
0001
0010
0100
1000
0010
0100
0001
0100
0010
1000
0100
0010
,
0011
0000
0000
0000
,
1000
0001
0100
2000
0000
3001
1000
0100
,
0001
1000
0200
0000
0301
1000
0010
0001
,
1000
0010
0200
0000
1300
0001
0010
1000
,
0001
0000
1000
0000
0100
0010
0100
0010
0001
0000
1000
0000
0001
0000
0000
0000
,
1001
1000
0010
0002
0000
1003
0001
0010
,
1000
0001
0010
2000
0000
3001
1000
0010
,
0002
1003
0200
0310
0002
1003
0020
0130
,
0001
0000
1000
0100
0010
0100
1000
0100
0010
0001
1000
0001
0100
0010
1000
0001
,
2000
0000
3001
0000
1000
0000
0100
0010
0100
0010
0100
0000
0002
0000
0103
0000
,
1000
0001
0100
0010
0002
1003
0100
0001
,
2000
0000
3100
0000
0010
0000
0001
1000
0002
0000
0103
0000
0010
0000
1000
0001
,
2000
0000
3001
0000
0010
0000
0100
0001
0200
0000
1300
0000
2002
0000
3003
0000
,
2000
0000
3010
0000
0001
0000
1000
0000
0001
0000
0010
0000
1000
0000
0001
1000
,
0002
0013
1000
0001
1000
0010
0002
1003
,
0100
0010
0001
0000
1000
0000
0001
0000
0100
0010
1000
0000
0001
0000
1000
0000
,
0001
0010
0001
0010
0100
0010
0100
0010
0001
1000
0001
1000
0010
0100
0001
1000
,
0100
0000
0000
0000
,
0000
0000
0000
0000
0000
0000
0000
0110
,
1001
0000
0000
0000
,
1000
0100
0001
1000
0010
0001
1000
0010
0001
1000
0100
0001
,
0020
1000
0100
0031
,
2000
0100
0001
3010
,
2000
3200
0302
0203
,
0320
0000
2030
0000
3020
0000
0032
0003
,
1001
1000
0100
0010
0011
0001
1000
0010
,
0110
0100
0001
1000
1001
0001
0010
0100
,
1000
0010
0100
1000
0001
0010
0100
0001
0010
0100
1000
0100
,
0110
0000
0000
0110
0000
0000
0001
1000
0100
0001
1000
0010
,
0001
0000
0000
1100
0000
1000
0001
0010
0100
1000
0010
0100
,
0001
0000
1000
0001
0100
0001
0010
0100
0010
0100
1000
0010
,
1000
0000
0000
1001
0000
0001
0100
0010
1000
0100
0010
0001
,
1000
0100
0010
1000
0001
0100
0010
0001
1000
0001
0000
0000
,
1000
0100
0010
1000
0010
0001
1000
0010
0001
0010
0100
0001
,
0010
0100
0001
0100
1000
0001
0100
1000
0100
0010
1000
0100
,
0010
0001
0100
0010
1000
0100
0010
0100
1000
0010
0100
0001
,
1000
0010
0001
1000
0100
0001
1000
0100
0001
1000
0010
0001
,
2001
3000
0000
0000
0010
0000
0000
0000
0001
0000
0000
0000
0100
0000
0000
0000
,
1000
0010
0001
0100
,
1000
0000
0001
0000
0100
0000
0010
1000
,
0001
0001
0010
0010
0100
0100
1000
1000
,
0002
0000
1003
1000
0200
0000
0320
0000
,
0032
0000
1003
1000
0001
0100
0010
1000
,
0002
0000
0013
0010
0100
1000
0010
1000
,
0100
0000
0010
0000
0001
0000
0100
0001
0010
0000
0100
0000
1000
0000
0000
0001
,
1000
0001
1000
0001
1000
0001
1000
0001
1000
0001
1000
0001
1000
0000
0000
0000
0010
0100
0010
0100
0010
0100
0010
0000
0100
0001
0100
0001
0100
0001
0100
0000
,
0001
0000
0000
1000
0000
0000
0001
0000
0000
1000
0000
0000
0001
0000
0000
1000
0000
0000
0001
0000
0000
1000
0000
0000
0001
0000
0000
0000
0000
0000
1000
0000
0000
0000
0000
0000
0001
0000
0000
0000
0000
0000
1000
0000
0000
0000
0000
0000
1100
0000
0000
0000
0000
0000
0000
0000
0000
0000
0000
0000
0000
0000
0000
0000
0101
0000
0000
0000
0000
0000
0000
0000
0000
0000
0000
0000
0000
0000
0000
0000
1010
0000
0000
0000
0000
0000
0000
0000
0000
0000
0000
0000
0000
0000
0000
0000
,
0011
0000
1100
0000
1001
0000
0000
0000
0000
0000
0000
0000
,
0001
1000
0100
1000
0002
0000
0000
0000
0000
0000
1003
0010
0100
0001
0100
0001
,
1000
0100
1000
0100
0010
0001
0010
0001
1000
0001
1000
0010
0100
0010
1000
0001
,
2000
3001
0200
1300
0002
1003
0200
0301
,
2000
3001
0020
1030
0002
1003
0020
0031
,
1000
0001
0100
0001
1000
0000
0002
0000
0000
0000
0013
0000
0200
0000
0000
0000
,
0310
0001
1000
0001
0100
0000
0020
0000
0000
0000
1030
0000
0002
0000
0000
0000
,
0013
0100
1000
0100
0010
0000
0001
0000
0100
0000
0010
0000
1000
0000
0001
0000
,
0100
0000
0010
1000
0010
0100
0010
1000
0010
0000
0010
0000
0100
0000
0100
0000
,
0001
1000
0100
0010
0002
0000
0000
0000
1003
0000
0001
0100
0010
1000
0010
0100
,
0001
1000
0100
0010
0100
1000
0001
0100
0001
1000
0010
1000
0001
0010
0100
1000
,
0001
0010
0001
0000
0100
0000
0010
0000
1000
0100
1000
0000
0010
0000
0100
0000
,
0001
0100
0001
0000
0010
0000
0100
0000
1000
0010
1000
0000
0100
0000
0010
0000
,
0001
1000
0010
1000
0002
0000
0000
0000
0103
0000
0010
0000
0001
0000
0010
0000
,
1000
0001
1000
0010
0100
0001
1000
0100
0010
0100
1000
0001
0100
0010
1000
0001
,
2000
0000
3001
0010
2000
0000
3010
0100
0002
0000
0103
1000
0002
0000
1003
0001
,
0100
0010
1000
0001
0010
0001
1000
0100
1000
0001
0100
0001
0010
0100
1000
0000
,
1001
0000
0000
0000
,
0000
0000
0000
0000
,
0000
0000
0000
0000
,
1000
0010
0100
0001
0100
0010
1010
0000
0000
1001
0000
0000
,
1000
0001
0100
1000
0001
0010
0100
0001
1000
1100
0000
0000
,
0001
1000
0100
0010
1000
0001
0100
0010
0001
0011
0000
0000
,
0101
0000
0010
1000
0000
0000
1100
0000
0010
0001
0000
0000
,
1000
0100
0010
0001
0010
0100
1000
0010
0100
0001
0010
0100
,
1100
0000
0000
0001
1000
0010
0001
1000
0100
0010
1000
0100
,
0010
0000
0010
0001
0000
0001
1000
0001
1000
0010
1000
0001
,
0010
0100
0001
0100
1000
0001
0100
1000
0100
0010
1000
0100
,
0010
1000
0010
0001
0000
0001
0100
1000
0001
0010
1000
0001
,
1000
0000
1000
0100
0000
0100
0001
0000
0001
1000
0010
0001
,
1000
0100
0010
1000
0010
0001
1000
0010
0100
1000
0100
0001
,
1000
0100
0001
0100
0010
0001
0100
0010
0001
0010
1000
0001
,
1000
0100
0001
0100
1000
0001
1000
0010
0001
0010
1000
0001
,
0010
1000
0001
0100
1000
0100
0110
0000
0000
2002
0000
0000
,
0000
0000
0000
0000
,
0000
0000
0000
0000
,
3003
0000
0000
0000
;

//--------------- dance-double - Fred-104 ----------------
#NOTES:
     dance-double:
     Fred-104:
     Easy:
     9:
     :
00000000
00000000
00000000
00000000
,
00000000
00000000
00000000
00000000
,
00000000
00000000
00000000
00000000
,
00010000
00000000
10000000
00000000
01000000
00010000
00001000
00000000
,
00010000
00000000
00000100
00000000
00000010
00000000
00001000
00000000
00010000
00000000
00000000
00001000
01000000
00000000
00000000
00000000
,
10010000
00000000
00000000
11000000
,
00110000
00000000
00000000
00101000
,
00001000
00010000
00000010
00001000
,
00001001
00000000
00000100
00000100
,
00001001
00000000
00000000
00000001
,
00000101
00000000
00000000
00010000
,
00011000
00001000
01000000
00010000
,
00110000
00000000
01000000
01000000
,
10000000
00100000
00010000
00001000
,
00011000
00000000
00000000
00000000
,
00010000
00000000
00000000
00000100
00000000
00000000
00000010
00000000
,
00000001
00001000
00000010
00000100
,
00001000
00010000
00001000
01000000
,
00010000
00100000
01000000
10000000
,
00010000
00000000
00000000
01000000
00000000
00000000
10000000
00000000
,
10000000
00000000
00000000
01000000
00000000
00000000
00010000
00000000
,
10000000
00100000
00010000
00001000
,
00010000
00000000
00010000
00000000
00001000
00010000
00001000
00000000
,
00011000
00000000
00000000
00010000
00000000
00000000
00001000
00000000
,
00000100
00000010
00000001
00001000
,
00000020
00000030
00020000
00030000
,
00000020
00000030
00010000
00001000
,
00010000
00000000
00100000
00000000
01000000
00000000
00010000
10000000
,
00010000
00100000
01000000
10000000
,
00200000
00300000
00020000
00030000
,
00001000
00010000
01000000
10000000
,
01100000
00000000
00000000
00000000
,
00000000
00000000
00000000
00000000
,
00011000
00000000
00000000
00000000
,
00000220
00000000
00000000
00000330
,
00000002
00000023
00002030
00023000
,
00032000
00003200
00002300
00023000
,
00230000
00320000
00032000
00023000
,
02030000
23000000
30020000
20030000
,
31000000
00010000
00001000
00000010
,
00000001
00000100
00001000
00010000
,
00001000
00001000
00010000
00010000
,
00011000
00011000
00022000
00033000
,
00001000
00001000
00010000
00010000
,
00100000
00100000
01000000
01000000
,
00010000
00010000
10000000
10000000
,
01000000
01000000
00010000
00010000
,
00001000
00010000
00100000
00010000
,
00001000
00010000
01000000
00010000
,
00001000
00000010
00001000
00010000
,
00001000
00000100
00000001
00001000
,
00001001
00000001
00000010
00000010
,
00001000
00001000
00010000
00010000
,
01000000
01000000
10000000
10000000
,
00010000
10000000
00100000
00010000
,
00002000
00013000
00002000
00003000
,
00020000
00031000
00020000
00030000
,
00001000
00010000
00000100
00000010
,
00000001
00000100
00001000
00010000
,
00002000
00000000
00000000
00003000
00020000
00030000
00002000
00003000
,
00020000
00000000
00000000
00030000
00000000
00000000
00002000
00000000
00000000
00003000
00000000
00000000
00010000
00000000
00000000
00000000
00010000
00000000
00000000
00000000
00010000
00000000
00000000
00000000
,
00001000
00000000
00001000
00000000
00001000
00000000
00000000
00000000
00000000
00000000
00000000
00000000
,
00010000
00002000
00000000
00003100
,
00000010
00000100
00000001
00001000
,
00000001
00000001
00000100
00000100
,
00001000
00001000
00010000
00010000
,
00001000
00000000
00000000
01000000
00000000
00000000
00010000
00000000
,
00100000
00000000
00000000
01000000
00000000
00000000
10000000
00000000
,
00100000
00010000
00001000
00010000
,
00011000
00000000
00010000
00010000
,
00001000
00020000
00000000
01030000
,
00100000
10000000
00100000
00010000
,
10000000
00100000
00010000
00001000
,
00000100
00000001
00000010
00000100
,
00010000
00002000
00000000
00013000
,
00000010
00000100
00000001
00001000
,
00000100
00000010
00001000
00010000
,
00001000
00100000
00001000
00000000
00010000
00000010
00010000
00000000
,
00011000
00000000
00000000
00000000
,
00000000
00000000
00000000
00000000
,
00000000
00000000
00000000
00000000
,
00010000
00000000
00001000
00001000
,
00011000
00000000
00000000
00000100
,
00001001
00000000
00000000
00010000
,
00011000
00001000
00010100
00010000
,
00011000
00000000
00001000
01000000
,
01010000
00000000
00010000
10000000
,
00100000
00100000
00010000
00001000
,
00010000
00100000
01000000
00100000
,
10000000
01000000
00010000
00001000
,
00010000
00001000
00000010
00001000
,
00010000
00001000
00000100
00001000
,
00010000
01000000
00010000
00001000
,
00010000
00100000
00010000
00001000
,
00010000
01000000
10000000
20020000
,
00000000
00000000
00000000
00000000
,
00000000
00000000
00000000
00000000
,
30030000
00000000
00000000
00000000
;

//--------------- dance-double - Fred-104 ----------------
#NOTES:
     dance-double:
     Fred-104:
     Medium:
     14:
     :
00000000
00000000
00000000
00000000
,
00000000
00000000
00000000
00000000
,
00000000
00000000
00000000
00000000
,
00000001
00000000
00000100
00000010
00000100
00000000
00001000
00010000
00001000
00010000
00001000
00000000
01000000
00000000
00010000
00000000
,
00100000
00000000
01000000
00000000
10000000
00010000
01000000
00100000
00010000
00000000
00000000
00010000
00001000
00000000
00000000
00010000
,
00011000
00000000
00000000
00010010
,
00001001
00000000
00000000
00000110
,
00001001
00000100
00011000
00100000
,
10010000
00000000
00000000
00000000
00000000
10000000
01000000
00000000
00000000
00100000
00000000
00000000
,
00011000
00000000
00000000
00010100
,
01001000
00000000
00000000
00101000
,
00010010
00001000
00010100
00001000
,
00011000
00000000
00000000
00000000
00000000
00010000
00001000
00000000
00000000
00010000
00000000
00000000
,
00001000
00000000
00001000
00000100
00000000
00000100
00000001
00000000
00000001
00000010
00000000
00000000
,
00000110
00000000
00000000
00000000
,
00010000
00001000
01000000
00010000
00100000
01000000
10000000
00010000
,
01000000
00100000
10000000
00100000
01000000
00010000
10000000
01000000
,
00010000
00001000
00010000
00000100
00000010
00000001
00001000
00000001
,
00000100
00000010
00000100
00001000
00010000
00100000
10000000
00010000
,
10000000
01000000
00010000
00001000
00000010
00000001
00001000
00000000
,
00000001
00000100
00001000
00010000
00100000
10000000
00010000
00000000
,
11000000
00010000
10100000
00010000
,
10000000
00100000
00010000
00001000
00000100
00000001
00001000
00000000
,
00000001
00000100
00000001
00000100
00000010
00000100
00001000
00010000
,
00001000
01000000
00010000
00100000
00001000
00010000
00000010
00001000
,
00000100
00010000
00001000
00010000
00100000
10000000
01000000
00010000
,
00001000
00010000
00000100
00000010
00000001
00000100
00001000
00000000
,
00010000
00001000
01000000
00001000
00010000
00000100
00000010
00000001
,
00001000
00000010
00010000
00001000
00010000
00100000
10000000
00010000
,
10000000
10000000
01000000
00010000
00001000
00001000
00000010
00000001
,
00001000
00000001
00000100
00001000
00010000
00001000
00100000
00000000
,
00011000
00000000
00000000
00000000
,
00000000
00000000
00000000
00000000
00000000
00000000
00000000
01000000
,
10010000
00000000
00000000
00000000
,
10000000
01000000
00100000
00010000
00000000
00000000
10000000
00100000
01000000
00010000
00000000
00000000
,
20000000
32000000
03200000
00320000
,
00032000
00003200
00000320
00000032
,
00000203
00000320
00002030
00023000
,
02030000
03200000
20300000
30020000
,
10030000
01000000
00010000
00001000
00010000
00001000
00000010
00000001
,
00001000
00000001
00000100
00001000
00010000
00100000
10000000
00010000
,
00100000
00000000
00100000
01000000
00000000
01000000
00010000
00000000
00010000
00001000
00000000
00001000
,
00010000
00000000
00000000
00011000
00000000
00000000
00010000
00001000
00010000
00001000
00000000
00000000
,
00011000
00000000
00000000
00010000
00000000
00010000
00000100
00000000
00000100
00000010
00000000
00000010
,
00000001
00000000
00000000
00001000
00000000
00001000
00000001
00000000
00000001
00000100
00000000
00000100
,
00000010
00000000
00000000
00001000
00000000
00001000
00000001
00000000
00000001
00000010
00000000
00000010
,
00000100
00000000
00000100
00010000
00000000
00010000
00001000
00010000
00001000
00010000
00000000
00000000
,
00001000
00100000
00001000
00100000
00000000
00000000
00010000
10000000
00010000
10000000
00000000
00000000
,
01000000
00100000
01000000
00100000
00000000
00000000
00001000
00010000
00001000
00010000
00000000
00000000
,
00000010
00000000
00000010
00001000
00000000
00001000
00000100
00000000
00000100
00000010
00000000
00000010
,
00000001
00000000
00000001
00000100
00000000
00000100
00001000
00000000
00001000
00010000
00000000
00010000
,
00001000
00010000
01000000
00100000
,
00001000
00010000
00100000
01000000
,
00001000
00000000
00010000
00000000
00000100
00000000
00000010
00001000
,
00010000
00001000
00000100
00000010
00010000
00001000
00000100
00000010
,
00020000
00000000
00031000
00001000
00000020
00000000
00000032
00000000
,
00002003
00000000
00003001
00000001
00000100
00001000
00010000
00100000
,
00020000
00000000
00031000
00010000
01000000
10000000
00010000
01000000
,
00100000
00000000
10000000
00000000
01000000
00000000
00100000
00010000
00100000
00000000
00001000
00000000
00010000
00000000
00000000
00010000
,
00001000
00010000
00001000
00010000
00001000
00000100
00000001
00000010
00000100
00000010
00000100
00000010
00001000
00010000
00001000
00010000
,
01000000
00000000
00000000
00100000
00000000
00000000
00010000
00000000
00000000
10000000
00000000
00000000
00100000
00000000
00000000
00010000
00000000
00000000
00001000
00000000
00000000
00010000
00000000
00000000
00001000
00000000
00000000
00000000
00000000
00000000
00000000
00000000
00000100
00000000
00000000
00000000
00000000
00000000
00000000
00000000
00000001
00000000
00000000
00000000
00000000
00000000
00000000
00000000
,
00000010
00000000
00001000
00000000
00010000
00000000
00000000
00000000
00000000
00000000
00000000
00000000
,
00010000
00001000
00000200
00000000
00000000
00000310
00000001
00000010
,
00001000
00000001
00000010
00001000
00010000
00001000
00010000
00000100
,
00000010
00000010
00000001
00001000
00000010
00000010
00010000
00001000
,
00100000
00100000
01000000
10000000
00100000
00100000
01000000
00010000
,
10000000
01000000
00010000
02000000
00000000
03100000
00002000
00000000
,
00013000
00000100
00000010
00000200
00000000
00000301
00000200
00000000
,
00001300
00000001
00000100
00000010
00000100
00001000
00010000
00001000
,
00011000
00000000
00000000
00000000
00001000
00001000
00010000
00010000
,
00001000
00010000
02000000
00000000
00000000
13000000
01000000
00100000
,
00010000
10000000
00100000
00010000
00100000
01000000
00100000
00010000
,
00001000
00001000
00010000
00000010
00001000
00001000
00000001
00000010
,
00001000
00001000
00010000
00100000
10000000
10000000
00010000
00100000
,
01000000
00010000
02000000
00000000
00000000
03100000
01000000
10000000
,
00010000
10000000
00100000
01000000
10000000
01000000
00010000
10000000
,
01000000
00100000
01000000
00010000
00001000
00010000
00100000
01000000
,
00010000
10000000
01000000
00100000
00010000
00001000
00000100
00000010
,
00000011
00000000
00000000
00000000
,
00000000
00000000
00000000
00000000
,
00000000
00000000
00000000
00000000
,
00000200
00000000
00000000
00000000
00000000
00000300
00000110
00000000
00000000
00011000
00000000
00000000
,
01100000
00000000
00000000
10100000
,
00011000
00000000
00000000
01010000
,
10100000
00100000
00110000
00010000
,
00011000
00000000
00000000
00011000
00000000
00000000
00001000
00010000
00001000
00010000
00000000
00000000
,
00011000
00000000
00000000
00001000
00000000
00001000
00010000
00000000
00010000
00100000
00000000
00100000
,
10000000
00000000
10000000
00010000
00000000
00010000
10000000
00000000
10000000
01000000
00000000
01000000
,
00100000
00000000
00100000
00001000
00000000
00001000
00010000
00000000
00010000
00000100
00000000
00000100
,
00000010
00000000
00000010
00000001
00000000
00000001
00000100
00001000
00010000
00001000
00000000
00000000
,
00011000
00000000
00010000
00001000
00000000
00010000
00000010
00000000
00010000
00001000
00000000
00000000
,
00010000
00001000
01000000
00001000
00000000
00000000
00010000
00000100
00001000
00000100
00000000
00000000
,
00010000
00000000
00010000
00001000
00000000
00001000
00000100
00000000
00000100
00000010
00000000
00000010
,
00001000
00000000
00001000
00000100
00000000
00000100
00000010
00000000
00000010
00000001
00000000
00000001
,
00001000
00000001
00001000
00000001
00001000
00000001
00001000
00000000
00000000
00002002
00000000
00000000
,
00000000
00000000
00000000
00000000
,
00000000
00000000
00000000
00000000
,
00003003
00000000
00000000
00000000
;

//--------------- dance-double - Fred-104 ----------------
#NOTES:
     dance-double:
     Fred-104:
     Hard:
     18:
     :
00000000
00000000
00000000
00000000
,
00000000
00000000
00000000
00000000
,
00000000
00000000
00000000
00000000
,
00001000
00000000
00010000
00000100
00001000
00000000
00000100
00010000
00001000
00010000
00100000
00000000
01000000
00010000
10000000
00000000
,
01000000
00000000
01000000
00000000
00100000
00001000
00010000
00001000
00000100
00000000
00000000
00000100
00000001
00000000
00000000
00000010
,
00000110
00000000
00000000
00011000
,
01100000
00000000
00000000
10100000
,
10010000
01000000
00011000
00000100
,
00001001
00000000
00000000
00000000
00000000
00000001
00000011
00000000
00000000
00000100
00000000
00000000
,
00001001
00000000
00000000
00010010
,
01001000
00000000
00000000
10010000
,
01100000
10000000
01100000
00010000
,
10000000
01000000
00010000
00001000
00000100
00000001
00001001
00000000
00000000
00001001
00000000
00000000
,
00001000
00000001
00000100
00000010
00000100
00001000
00010000
00100000
01000000
00100000
10000000
00010000
,
10010000
00000000
00000000
00000000
,
10000000
01000000
00010000
00001000
00000010
00000001
00001000
00000001
,
00000100
00001000
00010000
00001000
00100000
00010000
00000010
00001000
,
00010000
00001000
01000000
00001000
00010000
00100000
10000000
00010000
,
00100000
00000000
01000000
00000000
00010000
00000000
00000100
00000000
00001000
00000000
00000001
00000000
00001000
00000001
00001000
00000000
,
00000001
00000000
00000100
00000000
00001000
00000000
00010000
00000000
00100000
00000000
10000000
00010000
10000000
00000000
00010000
00000000
,
10000000
00000000
01000000
00000000
00010000
00000000
00001000
00000000
00000010
00000000
00000001
00001000
00000001
00000000
00001000
00000000
,
00000020
00000130
00020000
01030000
00002000
01003000
00020000
00031000
,
00000100
00000000
00000010
00000100
00001000
00000100
00010000
00001000
01000000
00010000
01000000
00001000
00010000
00001000
00010000
00000000
,
00002000
00013000
01000000
00100000
00010000
00000010
00002000
00013000
,
00100000
01000000
00010000
00000100
00000020
00010030
00001000
01000000
,
00002000
00013000
01000000
00100000
00002000
00003010
00000100
00010000
,
00200000
01300000
00100000
00001000
00000020
00010030
00022000
00033000
,
00002000
00000000
00013000
00000000
00100000
00000000
01000000
00000000
10000000
00000000
00010000
00000000
00001000
00000000
00010000
00000010
,
00020000
00031000
00000010
00000100
00000001
00001000
00020000
00031000
,
00020000
00031000
00000100
00000001
00002000
00003001
00000010
00001000
,
00010000
00001000
00010000
00001000
01000000
00010000
10000000
00010000
00100000
00001000
00010000
00000100
00001000
00000100
00000010
00000000
,
00000011
00000000
00000000
00000000
,
00000000
00000000
00000000
00000000
00000000
00000000
00000000
00000001
,
00001001
00000000
00000000
00000000
,
00000001
00000010
00000100
00010000
00001000
00100000
01000000
10000000
00010000
01000000
00100000
00010000
,
00002000
00023000
00230000
02300000
,
03002000
00203000
02300000
03020000
,
00032000
02003000
03020000
00030200
,
00000320
00020030
00032000
00003020
,
00000130
00010000
00001000
00000100
00000010
00000001
00000010
00001000
,
00000100
00010000
01000000
00100000
00010000
10000000
00100000
00010000
,
00001000
00010000
01000000
00100000
00010000
10000000
00100000
01000000
00100000
00010000
00001000
00010000
,
00011000
00000000
00000000
00011000
00000000
00000000
00010000
00001000
00000100
00000001
00001000
00000100
,
00000010
00000000
00000000
00000011
00000000
00000001
00000100
00000000
00000100
00001000
00000000
00001000
,
00010000
00000000
00010000
00001000
00000000
00001000
00010000
00100000
01000000
10000000
01000000
00010000
,
10000000
00000000
10000000
01000000
00000000
01000000
00100000
00001000
00010000
00001000
00000100
00000010
,
00000100
00000001
00001000
00000100
00000010
00000001
00000100
00000001
00000010
00000100
00000000
00000000
,
00001000
00000001
00000100
00000010
00000100
00001000
00010000
00001000
01000000
00010000
00100000
00001000
,
00010000
00001000
00000010
00000100
00000010
00000001
00001000
00000001
00000100
00000010
00010000
00001000
,
00010000
00001000
00100000
01000000
10000000
00010000
01000000
00100000
00010000
00100000
01000000
00010000
,
10000000
01000000
00010000
00001000
00000010
00000001
00001000
00000001
00000100
00001000
00010000
00100000
,
10000000
00010000
10000000
00100000
,
00010000
00001000
00000100
00000001
,
00001000
00000000
00000001
00000000
00000010
00000000
00001000
00010000
,
00001000
00010000
01000000
00010000
01000000
10000000
00010000
10000000
,
00020000
00000000
10030000
00100000
00020000
00000000
00032000
00000000
,
00023000
00000000
00031000
00010000
01000000
00010000
00001000
00000010
,
00002000
00000000
00013000
00001000
00000100
00000001
00001000
00000001
,
00000010
00000000
00000100
00000000
00001000
00000000
00010000
00100000
01000000
00000000
10000000
00000000
00010000
00000000
00000000
10000000
,
00010000
01000000
00010000
01000000
00010000
01000000
00010000
01000000
00010000
01000000
00010000
01000000
00010000
00000000
00000000
00000000
00100000
00001000
00100000
00001000
00100000
00001000
00100000
00000000
00001000
00010000
00001000
00010000
00001000
00010000
00001000
00000000
,
00010000
00000000
00000000
00000010
00000000
00000000
00010000
00000000
00000000
00000010
00000000
00000000
00010000
00000000
00000000
00000010
00000000
00000000
00010000
00000000
00000000
00000000
00000000
00000000
00000010
00000000
00000000
00000000
00000000
00000000
00001000
00000000
00000000
00000000
00000000
00000000
00000100
00000000
00000000
00000000
00000000
00000000
00000010
00000000
00000000
00000000
00000000
00000000
00000011
00000000
00000000
00000000
00000000
00000000
00000000
00000000
00000000
00000000
00000000
00000000
00000000
00000000
00000000
00000000
00001010
00000000
00000000
00000000
00000000
00000000
00000000
00000000
00000000
00000000
00000000
00000000
00000000
00000000
00000000
00000000
00011000
00000000
00000000
00000000
00000000
00000000
00000000
00000000
00000000
00000000
00000000
00000000
00000000
00000000
00000000
00000000
,
01010000
00000000
11000000
00000000
10010000
00000000
00000000
00000000
00000000
00000000
00000000
00000000
,
10000000
00010000
10000000
00010000
20000000
00000000
00000000
00000000
00000000
00000000
30100000
10000000
00010000
10000000
01000000
00000000
,
00100000
00010000
00100000
00001000
00010000
00000100
00001000
00000000
00000100
00000010
00000001
00001000
00000010
00001000
00000001
00000000
,
00002000
00003001
00000200
00001300
00020000
00130000
20000000
30010000
,
20000000
31000000
00020000
00031000
00000020
00000031
00002000
00003001
,
00000100
00000010
00000100
00000010
00000100
00000000
00002000
00000000
00000000
00000000
00013000
00000000
00002000
00000000
00000000
00000000
,
00013000
01000000
00010000
01000000
00100000
00000000
00020000
00000000
00000000
00000000
10030000
00000000
00020000
00000000
00000000
00000000
,
10030000
01000000
10000000
01000000
00100000
00000000
00010000
00000000
00001000
00000000
00000100
00000000
00000010
00000000
00000001
00000000
,
00001000
00000000
00000001
00000100
00000010
00001000
00000010
00000100
00000010
00000000
00000010
00000000
00010000
00000000
00010000
00000000
,
00001000
00100000
00010000
00100000
00002000
00000000
00000000
00000000
00103000
00000000
00010000
10000000
00010000
01000000
00100000
10000000
,
00010000
10000000
01000000
00100000
00010000
00100000
00001000
00000000
00010000
00000010
00001000
00000010
00000100
00000001
00001000
00000000
,
00000001
00000010
00000100
00000000
00010000
00000000
00001000
00000000
00100000
00010000
10000000
00000000
00010000
00000000
01000000
00000000
,
00001000
00010000
00000100
00000000
00000010
00000000
00000001
00000000
00001000
00000010
00000100
00000000
00001000
00000000
00010000
00000000
,
00001000
00010000
00000100
00010000
00002000
00000000
00000000
00000000
00013000
00000000
00001000
00000000
00000010
00000000
00000001
00000000
,
00001000
00000001
00000010
00000100
00010000
00001000
00100000
00000000
01000000
10000000
00010000
01000000
00100000
10000000
00010000
00000000
,
20000000
30100000
02000000
03010000
00002000
00003010
00000200
00000301
,
00001000
00000010
00000100
00000001
00001000
00000100
00010000
00001000
01000000
00010000
10000000
01000000
00100000
00010000
01000000
00100000
,
10000000
00000000
00000000
00000000
,
00000000
00000000
00000000
00000000
,
00000000
00000000
00000000
00000000
,
10000000
00100000
00010000
00001000
00000100
00000001
00001001
00000000
00000000
00001001
00000000
00000000
,
00000001
00000100
00000010
00000100
00001000
00010000
00100000
01000000
00100000
10100000
00000000
00000000
,
10000000
01000000
00100000
01000000
00010000
00001000
00000010
00000100
00000010
00000011
00000000
00000000
,
00000101
00001010
01010000
10100000
,
00010000
00100000
01000000
10000000
00100000
00010000
00001000
00000100
00000001
00000010
00000100
00001000
,
00001001
00000000
00000000
00000001
00000000
00000001
00000100
00000000
00000100
00001000
00010000
00001000
,
00010000
00000000
00010000
00001000
00000000
00001000
01000000
00010000
00100000
01000000
10000000
00010000
,
10000000
01000000
00100000
01000000
00010000
00001000
00010000
00100000
01000000
00100000
10000000
00010000
,
10000000
00000000
10000000
01000000
00000000
01000000
00010000
00001000
00010000
00000100
00000010
00000001
,
00001000
00000000
00001000
00000010
00000000
00000010
00000001
00000000
00000001
00001000
00000100
00000001
,
00001000
00000100
00000010
00000001
00001000
00000010
00000100
00000001
00000010
00000100
00010000
00001000
,
00010000
00100000
10000000
00100000
00010000
00001000
00010000
01000000
10000000
01000000
00010000
00001000
,
00010000
00001000
00000100
00000001
00000100
00001000
00010000
00001000
00000010
00000001
00000010
00001000
,
00010000
00001000
00000100
00000001
00000010
00001000
00010000
00000000
00000000
00022000
00000000
00000000
,
00000000
00000000
00000000
00000000
,
00000000
00000000
00000000
00000000
,
00033000
00000000
00000000
00000000
;
