#TITLE:斬刀鬼;
#ARTIST:Des-ROW・組;
#TITLETRANSLIT:Zantouki;
#ARTISTTRANSLIT:Des-ROW・Gumi;
#BANNER:Zantouki.png;
#BACKGROUND:Zantouki-bg.png;
#CDTITLE:./CDTitles/RB VOLZZA.png;
#MUSIC:Zantouki.ogg;
#SAMPLESTART:58.244;
#SAMPLELENGTH:15;
#BPMS:0=145,136=244,208=220,230=197,234=158.75,236=172,239=213.5,243=244;
#TIMESIGNATURES:0=4=4,224=6=4,236=3=4,239=4=4;
#BGSTAGE:4;

//--------------- dance-single - Fred-104 ----------------
#NOTES:
     dance-single:
     Fred-104:
     Beginner:
     4:
     :
0000
0000
0000
0000
,
0000
0000
0000
0000
,
0000
0000
0000
0000
,
0000
0000
0000
0000
,
0000
0000
0000
0000
,
0000
0000
0000
0000
,
1000
0000
1000
0000
,
0001
0000
0001
0000
,
0001
0000
1000
0000
,
0001
0001
0001
0000
,
0001
0000
0010
0000
,
0010
0000
1000
0000
,
1000
0000
1000
0000
,
0100
0000
0010
0010
,
0100
0000
0100
0000
,
0001
0000
0001
0000
,
1000
0000
0100
0000
,
0001
0000
0100
0100
,
1000
0000
1000
0000
,
0001
0000
0001
0000
,
1000
0000
1000
0000
,
0001
0001
0001
0000
,
0100
0000
0100
0000
,
0010
0000
0010
0000
,
0100
0000
0100
0000
,
0001
0001
0001
0000
,
1001
0000
0000
0000
,
1000
0000
0000
0000
,
0001
0000
0000
0000
,
1000
0000
0000
0000
,
0100
0000
0100
0000
,
0010
0000
0010
0000
,
0001
0000
0001
0000
,
1000
1000
1000
0000
,
1000
0000
0000
0000
,
0000
0000
0000
0000
,
0001
0000
0000
0000
,
0001
0000
0000
0000
,
1000
0000
0000
0000
,
1001
0000
0000
0000
,
1000
0000
0000
0000
,
1000
0000
0000
0000
,
0001
0000
0000
0000
,
1001
0000
0000
0000
,
0001
0000
0000
0000
,
0010
0000
0000
0000
,
0010
0000
0000
0000
,
1000
0000
0000
0000
,
1000
0000
0000
0000
,
0010
0000
0000
0000
,
0100
0000
0010
0000
,
0010
0000
0001
0000
,
1001
0000
0000
0000
,
0000
0000
0000
0000
,
0000
0000
0000
0000
,
0000
0000
0000
0000
,
0001
0000
0000
0000
,
0000
0000
1000
0000
,
0000
0000
0000
0000
,
0000
0000
0000
0001
,
0000
0000
0000
1000
,
0000
1000
0000
0100
,
0000
0100
0000
0001
,
0000
0001
0000
0100
,
0000
0100
0000
0010
,
0000
0010
0000
0100
,
0000
0100
0000
1000
,
0000
1000
0000
0001
,
0000
1000
0000
0001
,
0000
0001
0000
0100
,
0000
0100
0000
0010
,
0000
0010
0000
0100
,
0000
0100
0000
1000
,
0000
1000
0000
0100
,
0000
0100
0000
0001
,
0000
0001
0000
1000
,
0000
1000
0000
0001
,
0000
0000
0000
1000
,
1000
0000
0000
0000
,
0000
0000
0000
0000
,
0000
0000
0000
0000
2002
0000
0000
0000
0000
0000
0000
0000
0000
0000
0000
3003
;

//--------------- dance-single - Fred-104 ----------------
#NOTES:
     dance-single:
     Fred-104:
     Easy:
     9:
     :
0000
0000
0000
0000
,
0000
0000
0000
0000
,
0000
0000
0000
0000
,
0000
0000
0000
0000
,
0000
0000
0000
0000
,
0000
0000
0000
0000
,
1000
1000
0100
0100
,
0010
0001
0010
0000
0001
1000
0001
0000
,
0110
1000
0110
0001
,
0100
0010
0100
0000
0001
1000
0001
0000
,
1000
0100
1000
0000
0010
0000
0100
0000
,
0001
0010
0001
0000
1000
0000
0001
0000
,
0100
0010
0100
0000
0010
0000
1000
0000
,
0100
0010
0100
0000
0010
0001
0010
0000
,
0001
0100
0001
0000
1000
0000
0001
0000
,
0010
0100
0010
0000
0100
0000
1000
0000
,
0010
1000
0010
0000
0100
0001
0100
0000
,
0001
1000
0001
1000
0001
1000
0001
0000
,
1000
0000
0100
0000
0010
0010
0010
0000
,
0001
0000
0100
0000
0010
0010
0010
0000
,
0100
0001
0100
0000
0001
1000
0001
0000
,
0110
0000
1001
0000
0001
1000
0001
0000
,
1000
0000
0000
1000
0000
0000
1000
0000
0000
1000
0000
0000
1000
0000
0000
0000
,
0001
0000
0000
0001
0000
0000
0001
0000
0000
0001
0000
0000
0001
0000
0000
0000
,
1000
0010
0100
0000
0001
0001
1000
0000
,
0110
0000
1001
0000
0001
1000
0001
0000
,
1000
0100
0010
0000
0001
0000
1000
0000
,
0010
1000
0001
0000
0010
0000
0010
0000
,
0100
0100
1000
0000
0001
0000
0100
0000
,
0010
1000
0010
0000
0100
0001
0100
0000
,
0001
0010
0100
1000
0100
1000
1000
0000
,
0001
0100
0010
1000
0010
1000
1000
0000
,
0110
0000
1001
0000
1000
0001
0010
0000
,
0100
0010
0100
0010
0001
1000
0001
0000
,
2000
3000
0000
0000
0000
0000
0000
0000
0000
0000
0000
0000
0000
0000
0000
0000
0000
0000
0000
0000
0000
0000
0000
0000
1000
0000
0000
0000
0000
0000
0000
0000
0000
0000
0000
0000
0000
0000
0000
0000
0000
0000
0000
0000
0000
0000
0000
0000
1000
0000
0000
0000
0000
0000
0000
0000
0000
0000
0000
0000
0000
0000
0000
0000
,
0000
1000
0000
0000
2002
0003
3000
0000
,
0001
0000
0000
0001
0000
0000
0010
0000
,
0100
0000
0000
0100
0000
0000
1000
0000
,
0001
0000
0000
1000
0000
0000
0001
0000
,
0200
0000
0310
0010
,
0100
0000
0000
0001
0000
0000
1000
0000
,
0100
0000
0000
0010
0000
0000
0001
0000
,
1000
0000
0000
0001
0000
0000
0100
0000
,
0020
0230
0320
0230
,
0310
0000
0000
1000
0000
0000
0001
0000
,
1000
0000
0000
0100
0000
0000
0010
0000
,
1000
0000
0000
0010
0000
0000
0001
0000
,
0100
0010
0100
0100
,
0001
0000
0000
1000
0000
0000
0100
0000
,
0010
0000
0000
0001
0000
0000
0100
0000
,
0010
0000
0000
1000
0000
0000
0001
0000
,
0010
0100
0010
0010
,
2002
3003
0000
0000
0000
0000
0000
0000
0000
0000
0000
0000
0000
0000
0000
0000
0000
0000
0000
0000
0000
0000
0000
0000
0000
0000
0000
0000
0000
0000
0000
0000
1000
0000
0000
0000
0000
0000
0000
0000
0000
0000
0000
0000
0000
0000
0000
0000
0000
0000
0000
0000
0000
0000
0000
0000
0000
0000
0000
0000
0000
0000
0000
0000
,
1000
0000
0000
1000
0000
0000
1000
0000
,
0000
1000
0000
0001
,
0001
0000
0000
1000
0000
0000
0001
0000
,
0100
0000
0000
0010
0000
0000
0220
0000
,
0000
0330
0000
0000
2002
0000
3003
0000
,
1000
0000
0002
0003
,
2000
3000
0000
0000
0000
0000
0000
0000
0000
0000
0000
0000
0000
0000
0000
0000
1000
0000
0000
0000
0000
0000
0000
0000
0000
0000
0000
0000
0000
0000
0000
0000
1000
0000
0000
0000
0000
0000
0000
0000
0000
0000
0000
0000
0000
0000
0000
0000
0002
0003
0000
0000
0000
0000
0000
0000
0000
0000
0000
0000
0000
0000
0000
0000
,
0000
0000
0000
0000
0000
0000
0000
0000
1000
0000
0000
0000
0000
0000
0000
0000
0000
0000
0000
0000
0000
0000
0000
0000
0000
0000
0000
0000
0000
0000
0000
0000
0010
0000
0000
0000
0000
0000
0000
0000
0000
0000
0000
0000
0000
0000
0000
0000
0220
0330
0000
0000
0000
0000
0000
0000
0000
0000
0000
0000
0000
0000
0000
0000
,
0000
0100
0000
0000
0001
0000
1000
0000
,
0000
0100
0000
0000
0010
0000
0001
0000
,
0000
1000
0000
0000
0010
0000
0100
0000
,
0001
1000
0100
0010
,
0000
0001
0000
0000
1000
0000
0010
0000
,
0000
0100
0000
0000
0010
0000
1000
0000
,
0000
0100
0000
0000
0010
0000
0001
0000
,
1000
0001
0100
0010
,
0000
1000
0000
0000
0001
0000
0010
0000
,
0000
0100
0000
0000
0010
0000
0001
0000
,
0000
0100
0000
0000
0010
0000
0100
0000
,
0001
0010
0100
1000
,
0000
0001
0000
0000
1000
0000
0010
0000
,
0000
1000
0000
0000
0100
0000
0010
0000
,
0000
0001
0000
0000
0100
0000
0010
0000
,
0100
0010
0000
0110
,
0000
0000
0000
0010
,
0010
0000
0000
0000
,
0000
0000
0000
0000
,
0000
0000
0000
0000
2002
0000
0000
0000
0000
0000
0000
0000
0000
0000
0000
3003
;

//--------------- dance-single - Fred-104 ----------------
#NOTES:
     dance-single:
     Fred-104:
     Medium:
     13:
     :
0000
0000
0000
0000
,
0000
0000
0000
0000
,
0000
0000
0000
0000
,
0000
0000
0000
0000
,
0000
0000
0000
0000
,
0000
0000
0000
0000
,
0001
0000
0000
0010
0000
0000
0010
0000
0100
0000
0000
1000
0000
0000
1000
0000
,
0001
0000
0100
0000
0000
0000
0100
0000
0010
0100
0000
0100
0010
0000
1000
0000
,
0001
0000
0000
0000
1000
0000
0010
0000
0001
0000
0000
0010
0000
0000
1000
0000
,
0001
0001
1000
1000
0010
0100
1001
0000
,
1000
0100
1000
0100
0001
0100
1000
0001
,
1000
0010
1000
0010
0001
0010
1000
0000
,
0001
0010
0100
1000
0010
0100
0010
1000
,
0001
0010
1000
0010
0100
0010
0001
1000
,
0010
1000
0001
1000
0100
0010
0100
1000
,
0001
0100
0010
0100
0001
0010
0100
1000
,
0010
0100
0010
1000
0100
0010
0001
1000
,
0010
0001
0010
0100
0010
1000
1001
0000
,
1000
0100
0100
0010
0010
0001
1000
0010
,
0100
0000
0010
0000
0100
0001
0000
0001
0100
0000
0010
0000
1000
0000
1000
0000
,
0001
0010
0100
1000
0001
1000
0010
0100
,
0110
0000
0000
0000
1001
0000
0000
0000
1000
0000
0100
0000
0010
0001
0010
0000
,
0001
0000
0000
0001
0000
0000
0001
0000
1000
0010
0000
0100
0010
0000
1000
0000
,
0001
0000
0000
0001
0000
0000
0001
0000
1000
0100
0000
0010
0100
0000
1000
0000
,
0001
0000
0100
0000
0000
0010
0000
0010
0000
0010
0000
0010
0100
0000
0001
0000
,
1001
0000
1000
0100
0001
1000
0010
0001
,
1000
0000
0001
0000
0100
0000
0000
0010
0000
0010
0100
0000
0100
0000
0001
0000
,
1000
0000
0100
0000
0010
0000
0000
0001
0000
0001
1000
0000
1000
0000
0001
0000
,
0100
0000
0010
0000
1000
0000
0000
0100
0000
0100
1000
0000
1000
0000
0001
0000
,
0100
0000
1000
0000
0001
0000
0000
0010
0000
0010
0100
0000
0100
0000
0001
0000
,
1000
0000
0100
0000
0010
0001
0000
0010
0001
0000
1000
0000
0001
0000
0100
0000
,
0010
0000
1000
0000
0001
0010
0000
0001
0010
0000
0100
0000
1000
0000
0001
0000
,
1001
0000
0000
0000
1100
0000
0000
0100
0010
0000
0001
0000
1000
0000
0001
0000
,
0101
0000
0000
0100
0010
0000
1000
0000
0100
0000
0001
0000
0100
0000
1000
0000
,
2002
3003
0000
0000
0000
0000
0000
0000
0000
0000
0000
0000
0000
0000
0000
0000
0000
0000
0000
0000
0000
0000
0000
0000
0001
0000
0000
0000
0000
0000
0000
0000
0000
0000
0000
0000
0000
0000
0000
0000
0000
0000
0000
0000
0000
0000
0000
0000
0001
0000
0000
0000
0000
0000
0000
0000
0000
0000
0000
0000
0000
0000
0000
0000
,
0000
0000
0002
0003
0000
0000
0000
0000
0001
0000
1000
0000
0001
0000
0000
0000
,
1000
0000
0001
0010
0000
0100
1000
0000
,
0001
0000
1000
0010
0000
0100
0001
0000
,
1000
0000
0100
0010
0000
0001
1000
0000
,
1001
0000
0000
0001
1000
0000
0010
0000
,
1000
0000
0001
0010
0000
0100
0010
0000
,
0001
0000
1000
0010
0000
0100
0010
0000
,
1000
0000
0001
0010
0000
0100
1000
0000
,
0002
0203
0320
2030
,
3100
0000
0010
0001
0000
1000
0010
0000
,
1000
0000
0001
0010
0000
0100
0010
0000
,
0001
0000
0100
0010
0000
1000
0100
0000
,
0010
0001
0010
0000
0001
1000
0001
0000
,
0100
0000
0010
1000
0000
0010
0100
0000
,
0001
0000
1000
0100
0000
0010
0100
0000
,
1000
0000
0010
0100
0000
0010
1000
0000
,
0100
0100
0010
0010
,
2002
3003
0000
0000
0000
0000
0000
0000
0000
0000
0000
0000
0000
0000
0000
0000
0000
0000
0000
0000
0000
0000
0000
0000
0000
0000
0000
0000
0000
0000
0000
0000
0001
0000
0000
0000
0000
0000
0000
0000
0000
0000
0000
0000
0000
0000
0000
0000
0000
0000
0000
0000
0000
0000
0000
0000
0000
0000
0000
0000
0000
0000
0000
0000
,
0001
0000
0000
0001
0000
0000
0001
0000
,
0000
0001
0000
1000
,
1000
0000
0000
1000
0000
0000
1000
0000
,
0001
0000
0000
1000
0000
0000
2002
0000
,
0000
3003
0000
0000
2002
0000
3003
0000
,
1000
0000
0000
0000
0000
0000
0000
0000
0000
0000
0000
0000
0000
0000
0000
0000
0000
0000
0000
0000
0000
0000
0000
0000
0000
0000
0000
0000
0000
0000
0000
0000
0002
0003
0000
0000
0000
0000
0000
0000
0000
0000
0000
0000
0000
0000
0000
0000
0001
0000
0000
0000
0000
0000
0000
0000
0000
0000
0000
0000
0000
0000
0000
0000
,
2000
3000
0000
0000
0000
0000
0000
0000
0000
0000
0000
0000
0000
0000
0000
0000
0100
0000
0000
0000
0000
0000
0000
0000
0000
0000
0000
0000
0000
0000
0000
0000
0010
0000
0000
0000
0000
0000
0000
0000
0000
0000
0000
0000
0000
0000
0000
0000
0002
0003
0000
0000
0000
0000
0000
0000
0000
0000
0000
0000
0000
0000
0000
0000
,
0000
0000
0000
0000
0000
0000
0000
0000
1000
0000
0000
0000
0000
0000
0000
0000
0000
0000
0000
0000
0000
0000
0000
0000
0000
0000
0000
0000
0000
0000
0000
0000
0001
0000
0000
0000
0000
0000
0000
0000
0000
0000
0000
0000
0000
0000
0000
0000
2002
3003
0000
0000
0000
0000
0000
0000
0000
0000
0000
0000
0000
0000
0000
0000
,
1000
0100
0000
1000
0010
0000
0100
0000
,
0001
0010
0000
0100
1000
0000
0001
0000
,
0100
0001
0000
1000
0001
0010
0001
0000
,
1000
0010
0100
0000
0010
0000
1000
0000
,
0001
0010
0000
0100
1000
0000
0100
0000
,
0010
0001
0000
1000
0001
0000
0100
0000
,
0010
1000
0000
0010
0100
0010
1000
0000
,
0001
0010
0001
0000
1000
0000
0001
0010
,
0001
0010
0000
0100
1000
0000
0001
0100
,
0001
0100
0000
0010
1000
0000
0100
0010
,
0100
0010
0000
0001
1000
0010
1000
0000
,
0010
0100
0001
0000
1000
0100
0010
0100
,
0010
0001
0010
0001
1000
0000
0001
0100
,
0010
1000
0010
1000
0001
0000
1000
0100
,
0010
0001
0010
0100
1000
0001
0100
0010
,
0100
0010
0100
0000
0100
0000
0110
0000
,
0000
0000
0000
0010
,
0010
0000
0000
0000
,
0000
0000
0000
0000
,
0000
0000
0000
0000
0200
0000
0000
0000
0000
0000
0000
0000
0000
0000
0000
0300
;

//--------------- dance-single - Fred-104 ----------------
#NOTES:
     dance-single:
     Fred-104:
     Hard:
     15:
     :
0000
0000
0000
0000
,
0000
0000
0000
0000
,
0000
0000
0000
0000
,
0000
0000
0000
0000
,
0000
0000
0000
0000
,
0000
0000
0000
0000
,
1000
0000
0000
1000
0100
0000
0100
0000
0001
0000
0000
0100
0000
0000
0010
0000
,
0000
0000
0000
0000
0000
0000
0000
0000
0000
0000
0000
0000
0000
0000
0000
0000
0000
0000
0000
0000
0000
0000
0000
0000
0011
0000
0000
0000
0000
0000
0000
0000
0000
0000
0000
0000
0000
0000
0000
0000
0000
0000
0000
0000
0000
0000
0000
0000
0000
0000
0000
0000
0000
0000
0000
0000
0000
0000
0000
0000
0000
0000
0000
0000
0000
0000
0000
0000
0000
0000
0000
0000
1001
0000
0000
0000
0000
0000
0000
0000
0000
0000
0000
0000
0000
0000
0000
0000
0000
0000
0000
0000
0000
0000
0000
0000
0001
0000
0000
0000
0000
0000
0000
0000
0000
0000
0000
0000
0000
1000
0000
0000
0000
0000
0000
0000
0000
0000
0000
0000
0000
0000
0000
0000
0000
0000
0000
0000
0000
0000
0000
0000
0000
0000
0000
0000
0000
0000
0000
0001
0000
0000
0000
0000
1000
0000
0000
0000
0000
0000
0000
0000
0000
0000
0000
0000
0000
0000
0000
0000
0000
0000
0000
0000
0000
0000
0000
0000
1000
0000
0000
0000
0000
0000
0000
0000
0000
0000
0000
0000
0000
0000
0000
0000
0000
0000
0000
0000
0000
0000
0000
0000
,
0001
0000
0000
0000
0101
0000
0100
0010
0100
0000
0100
1000
0100
0000
0001
0000
,
1000
0000
0000
0000
0000
0000
0100
0000
0000
0000
0000
0000
0010
0000
0000
0000
0000
0000
0001
0000
1000
0000
0001
0000
1000
0000
0000
0000
0000
0000
0010
0000
0000
0100
0000
0000
0010
0000
0000
0000
0000
0000
0010
0000
0000
1000
0000
0000
,
0001
0010
0000
0010
0100
1000
0100
1000
0001
1000
0000
1000
0010
1000
0010
1000
,
0001
0010
0100
0010
0000
0010
0000
0010
0001
1000
0001
1000
0001
0000
0000
0000
,
1001
0000
0000
1000
0010
0100
0010
0100
0010
1000
0000
1000
0001
1000
0001
1000
,
0100
0000
0100
0010
0001
0010
0001
0010
0001
1000
0001
1000
0001
0100
0010
1000
,
0001
0000
1000
0100
0010
0000
0010
0001
1000
0000
1010
0000
0110
0000
0101
0000
,
0001
1000
0001
0100
0010
0000
0100
0001
1000
0000
1100
0000
0110
0000
0011
0000
,
1001
0000
1000
0010
1000
0001
1000
0001
0010
0100
0010
0100
0010
0001
0010
0001
,
0010
0001
1000
0001
1000
0010
0100
0000
0001
1000
0001
1000
0002
0000
2003
0000
,
3010
0000
1000
0001
1000
0001
1000
0100
0010
0100
0010
0100
0020
0000
0032
0000
,
1003
0001
0100
0000
0010
1000
0000
1000
0001
0010
0001
0010
0200
0000
2300
0000
,
3001
0100
0001
0100
0010
1000
0010
1000
0001
0000
0001
0010
0100
0000
1000
0000
,
0120
0000
1000
0130
0020
0000
0001
0130
0010
0000
1000
0000
0001
1000
0001
0000
,
0010
0100
0000
0100
1000
0001
1000
0000
0010
1000
0010
0100
0010
0000
0010
0000
,
1000
0001
1000
0100
0000
1000
0001
0000
0100
0010
0001
0000
0010
1000
0001
0000
,
1000
0000
0100
0010
0001
0010
0001
0010
0000
0010
0000
0010
0200
0000
2300
0000
,
3020
0000
0100
0031
0020
0000
0001
0130
0010
1000
0001
0000
1000
0001
0010
0000
,
0012
0000
0013
0000
0100
1000
0000
0010
0000
1000
0100
0010
0001
0000
1000
0000
,
0001
0000
0100
0000
0010
1000
0000
0100
0000
1000
0010
0100
0001
0000
1000
0000
,
0100
0000
0010
0000
0001
0000
1000
0010
0000
0100
0001
0010
0100
0000
1000
0000
,
0010
0000
0100
0000
0001
0000
1000
0100
0000
0010
0001
0100
0010
1000
0001
0000
,
0010
0000
0100
0000
1000
0001
0000
0001
1000
0010
1000
0010
0100
0000
0001
0000
,
1000
0000
0100
0000
0010
0001
0000
0001
1000
0000
0001
0100
1000
0000
1000
0100
,
0001
0000
0000
1000
0100
0000
0000
0100
0001
0100
0010
0000
0010
0100
1000
0000
,
1001
0000
0000
1000
0100
0000
0010
0100
0010
0100
0010
0000
0100
1000
0001
0000
,
0202
0303
0000
0000
0000
0000
0000
0000
0000
0000
0000
0000
0000
0000
0000
0000
0000
0000
0000
0000
0000
0000
0000
0000
1010
0000
0000
0000
0000
0000
0000
0000
0000
0000
0000
0000
0000
0000
0000
0000
0000
0000
0000
0000
0000
0000
0000
0000
1001
0000
0000
0000
0000
0000
0000
0000
0000
0000
0000
0000
0000
0000
0000
0000
,
0000
0000
0002
0003
0000
0000
0000
0000
1000
0000
0001
0000
1000
0000
0000
0000
,
1001
0000
1000
0100
1000
0100
0010
0000
,
0011
0000
1000
0010
1000
0010
0100
0000
,
0101
0000
0001
0100
1000
0100
0010
0000
,
0110
0000
0000
0001
1000
0000
0001
1000
,
1001
0000
1000
0100
0010
0100
1000
0000
,
1001
0000
1000
0010
0100
0010
1000
0000
,
1001
0000
1000
0010
1000
0001
0010
0100
,
2000
3002
0203
0320
,
1030
0000
0001
0100
1000
0100
0001
0000
,
1001
0000
0001
0010
1000
0010
0001
0000
,
1001
0000
1000
0100
0000
0010
0001
1000
,
0001
0100
0010
1000
0100
0010
0001
1000
,
0001
0000
1000
0010
0100
0010
1000
0001
,
1000
0000
0001
0010
0100
0010
0001
1000
,
0001
0100
0001
1000
0100
0010
0001
1000
,
1010
0101
1100
0011
,
2002
3003
0000
0000
0000
0000
0000
0000
0000
0000
0000
0000
0000
0000
0000
0000
0000
0000
0000
0000
0000
0000
0000
0000
0000
0000
0000
0000
0000
0000
0000
0000
0001
0000
0000
0000
0000
0000
0000
0000
0000
0000
0000
0000
0000
0000
0000
0000
0000
0000
0000
0000
0000
0000
0000
0000
0000
0000
0000
0000
0000
0000
0000
0000
,
1000
0000
0000
0001
0000
0000
1000
0000
,
0000
0010
0000
0100
,
0100
0000
0000
0010
0000
0000
0010
0000
,
1000
0000
0000
1100
0000
0000
0202
0000
,
0000
0303
0000
0000
2002
0000
3003
0000
,
1000
0000
0000
0000
0000
0000
0000
0000
0000
0000
0000
0000
0000
0000
0000
0000
0000
0000
0000
0001
0000
0000
0000
0000
0000
0000
0000
0000
0000
0000
0000
0000
2000
3000
0000
0000
0000
0000
0000
0000
0000
0000
0000
0000
0000
0000
0000
0000
0002
0000
0000
0000
0003
0000
0000
0000
0000
0000
0000
0000
0000
0000
0000
0000
,
0022
0033
0000
0000
0000
0000
0000
0000
0000
0000
0000
0000
0000
0000
0000
0000
1010
0000
0000
0000
0000
0000
0000
0000
0000
0000
0000
0000
0000
0000
0000
0000
0101
0000
0000
0000
0000
0000
0000
0000
0000
0000
0000
0000
0000
0000
0000
0000
2200
3300
0000
0000
0000
0000
0000
0000
0000
0000
0000
0000
0000
0000
0000
0000
,
0000
0000
0000
0000
0001
0000
0000
0000
0000
0000
0000
0000
0000
0000
0000
0000
0000
0000
0000
0000
0000
0000
0000
0000
0010
0000
0000
0000
0000
0000
0000
0000
0000
0000
0000
0000
0000
0000
0000
0000
0000
0000
0000
0000
0000
0000
0000
0000
0000
0000
0000
0000
0000
0000
0000
0000
0000
0000
0000
0000
0000
0000
0000
0000
0000
0000
0000
0000
0000
0000
0000
0000
0010
0000
0000
0000
0000
0000
0000
0000
0000
0000
0000
0000
0000
0000
0000
0000
0000
0000
0000
0000
0000
0000
0000
0000
0100
0000
0000
0000
0000
0000
0000
0000
0000
0000
0000
0000
0000
0000
0000
0000
0000
0000
0000
0000
0000
0000
0000
0000
0000
0000
0000
0000
0000
0000
0000
0000
0000
0000
0000
0000
0000
0000
0000
0000
0000
0000
0000
0000
0000
0000
0000
0000
2002
0000
0000
3003
0000
0000
0000
0000
0000
0000
0000
0000
0000
0000
0000
0000
0000
0000
0000
0000
0000
0000
0000
0000
0000
0000
0000
0000
0000
0000
0000
0000
0000
0000
0000
0000
0000
0000
0000
0000
0000
0000
0000
0000
0000
0000
0000
0000
,
0001
0100
0000
0010
1000
0000
1001
0000
,
0001
1000
0100
0010
0100
1000
0001
0000
,
1000
0010
0000
0100
0001
0000
1001
0000
,
0001
1000
0010
0100
0001
0000
1001
0000
,
0001
0010
0000
0100
0001
0000
0101
0000
,
0100
1000
0001
0100
0010
1000
0001
0000
,
1000
0100
0000
0100
0010
1000
0010
0100
,
1000
0100
0010
0001
1000
0001
0100
0000
,
0001
1000
0000
0010
1000
0001
0010
0000
,
0100
0010
0000
0001
1000
0010
1000
0000
,
0001
0010
0000
0100
0010
0100
1000
0001
,
0100
0010
1000
0001
0010
0100
0010
0000
,
0001
0100
0010
1000
0001
1000
0100
0000
,
0010
0001
0100
0010
0100
0001
1000
0100
,
0010
0001
1000
0010
1000
0001
0010
1000
,
0010
0100
0010
0001
0010
0000
1001
0000
,
0000
0000
0000
0100
,
0100
0000
0000
0000
,
0000
0000
0000
0000
,
0000
0000
0000
0000
0110
0000
0000
0000
0000
0000
0000
0000
0000
0000
0000
0100
;

//--------------- dance-double - Fred-104 ----------------
#NOTES:
     dance-double:
     Fred-104:
     Easy:
     9:
     :
00000000
00000000
00000000
00000000
,
00000000
00000000
00000000
00000000
,
00000000
00000000
00000000
00000000
,
00000000
00000000
00000000
00000000
,
00000000
00000000
00000000
00000000
,
00000000
00000000
00000000
00000000
,
00010000
00010000
00001000
00001000
,
00010000
00000100
00001000
00000000
00000010
00000100
00000001
00000000
,
00001001
00000000
00000001
00000000
00000100
00001000
00010000
00000000
,
00001000
00100000
00010000
00000000
10000000
00100000
01000000
00000000
,
00100000
10000000
00010000
00000000
10000000
01000000
00100000
00000000
,
00001000
00010000
00000100
00000000
00001000
00000010
00001000
00000000
,
00000100
00000010
00000001
00000000
00001000
00000010
00010000
00000000
,
00001000
00010000
00001000
00000000
00100000
00010000
10000000
00000000
,
00020000
01000000
01030000
00100000
,
10000000
00010000
00100000
00000000
00001000
00010000
00000010
00000000
,
00000200
00000001
00000301
00000010
,
00000100
00001000
00000010
00000000
00010000
00001000
00010000
00000000
,
00001000
00100000
00010000
00000000
01000000
00000000
00100000
00000000
,
01000000
01000000
01000000
00000000
00010000
10000000
01000000
00000000
,
00010000
00010000
00010000
00000000
00001000
00000000
00000100
00000000
,
00000010
00001000
00000100
00000000
00000010
00000010
00000010
00000000
,
00000001
00000000
00000000
00000001
00000000
00000000
00000100
00000000
00000000
00001000
00000000
00000000
00010000
00000000
00000000
00000000
,
00001000
00000000
00000000
00001000
00000000
00000000
00010000
00000000
00000000
01000000
00000000
00000000
10000000
00000000
00000000
00000000
,
00010000
01000000
00100000
00000000
01000000
00100000
00010000
00000000
,
00011000
00000000
00011000
00000000
00001000
00010000
00001000
00000000
,
00010000
00000100
00001000
00000000
00000001
00000000
00001000
00000000
,
00000100
00000010
00000001
00000000
00001000
00000000
00000010
00000000
,
00010000
00001000
00100000
00000000
01000000
00000000
10000000
00000000
,
00010000
01000000
00100000
00000000
10000000
01000000
00100000
00000000
,
00001000
00010000
00001000
00010000
00000100
00000010
00000100
00000000
,
00000010
00000001
00000010
00000001
00000100
00001000
00000100
00000000
,
00001100
00000000
00011000
00000000
00010000
00001000
01000000
00000000
,
01100000
00000000
10010000
00000000
00010000
10000000
00010000
00000000
,
20000000
30000000
00000000
00000000
00000000
00000000
00000000
00000000
00000000
00000000
00000000
00000000
00000000
00000000
00000000
00000000
00000000
00000000
00000000
00000000
00000000
00000000
00000000
00000000
10000000
00000000
00000000
00000000
00000000
00000000
00000000
00000000
00000000
00000000
00000000
00000000
00000000
00000000
00000000
00000000
00000000
00000000
00000000
00000000
00000000
00000000
00000000
00000000
01000000
00000000
00000000
00000000
00000000
00000000
00000000
00000000
00000000
00000000
00000000
00000000
00000000
00000000
00000000
00000000
,
00000000
01000000
00000000
00000000
20020000
00030000
30000000
00000000
,
10000000
00000000
00000000
01000000
00000000
00000000
10000000
00000000
,
01000000
00000000
00000000
00010000
00000000
00000000
00001000
00000000
,
00010000
00000000
00000000
00000100
00000000
00000000
00010000
00000000
,
00002000
00000000
00013000
00010000
,
00000100
00000000
00000000
00000010
00000000
00000000
00000001
00000000
,
00000100
00000000
00000000
00000010
00000000
00000000
00001000
00000000
,
00000001
00000000
00000000
00000010
00000000
00000000
00000100
00000000
,
00002000
00003200
00002300
00003200
,
00010300
00000000
00000000
00001000
00000000
00000000
01000000
00000000
,
00001000
00000000
00000000
00010000
00000000
00000000
00001000
00000000
,
00100000
00000000
00000000
00010000
00000000
00000000
10000000
00000000
,
00100000
01000000
00010000
00010000
,
10000000
00000000
00000000
01000000
00000000
00000000
00100000
00000000
,
00010000
00000000
00000000
00100000
00000000
00000000
00001000
00000000
,
00010000
00000000
00000000
00000010
00000000
00000000
00001000
00000000
,
00000001
00001000
00000001
00001000
,
00001001
00000000
00000001
00000000
,
00001000
00000000
00000000
00001000
00000000
00000000
00001000
00000000
,
00000000
00000010
00000000
00010000
,
00010000
00000000
00000000
00001000
00000000
00000000
00010000
00000000
,
00001000
00000000
00000000
00010000
00000000
00000000
00022000
00000000
,
00000000
00033000
00000000
00000000
00022000
00000000
00033000
00000000
,
00010000
00000000
00000020
00000030
,
00002000
00003000
00000000
00000000
00000000
00000000
00000000
00000000
00000000
00000000
00000000
00000000
00000000
00000000
00000000
00000000
00001000
00000000
00000000
00000000
00000000
00000000
00000000
00000000
00000000
00000000
00000000
00000000
00000000
00000000
00000000
00000000
00001000
00000000
00000000
00000000
00000000
00000000
00000000
00000000
00000000
00000000
00000000
00000000
00000000
00000000
00000000
00000000
00000200
00000300
00000000
00000000
00000000
00000000
00000000
00000000
00000000
00000000
00000000
00000000
00000000
00000000
00000000
00000000
,
00000000
00000000
00000000
00000000
00000000
00000000
00000000
00000000
00000010
00000000
00000000
00000000
00000000
00000000
00000000
00000000
00000000
00000000
00000000
00000000
00000000
00000000
00000000
00000000
00000000
00000000
00000000
00000000
00000000
00000000
00000000
00000000
00000001
00000000
00000000
00000000
00000000
00000000
00000000
00000000
00000000
00000000
00000000
00000000
00000000
00000000
00000000
00000000
00000002
00000003
00000000
00000000
00000000
00000000
00000000
00000000
00000000
00000000
00000000
00000000
00000000
00000000
00000000
00000000
,
00000000
00001000
00000000
00000000
00000001
00000000
00000010
00000000
,
00000000
00000100
00000000
00000000
00010000
00000000
00001000
00000000
,
00000000
00100000
00000000
00000000
00010000
00000000
01000000
00000000
,
00100000
01000000
00010000
10000000
,
00000000
01000000
00000000
00000000
00100000
00000000
00001000
00000000
,
00000000
00010000
00000000
00000000
00000010
00000000
00010000
00000000
,
00000000
00001000
00000000
00000000
00010000
00000000
00000100
00000000
,
00000010
00000001
00001000
00000001
,
00000000
00000100
00000000
00000000
00001000
00000000
00010000
00000000
,
00001000
00100000
00010000
10000000
,
00000000
00010000
00000000
00000000
01000000
00000000
00100000
00000000
,
10000000
00100000
10000000
00010000
,
00000000
10000000
00000000
00000000
01000000
00000000
00100000
00000000
,
00000000
00001000
00000000
00000000
00010000
00000000
00000100
00000000
,
00000000
00000010
00000000
00000000
00000001
00000000
00000100
00000000
,
00000010
00000100
00001000
00011000
,
00000000
00000000
00000000
00010000
,
00000010
00000000
00000000
00000000
,
00000000
00000000
00000000
00000000
,
00000000
00000000
00000000
00000000
00002002
00000000
00000000
00000000
00000000
00000000
00000000
00000000
00000000
00000000
00000000
00003003
;

//--------------- dance-double - Fred-104 ----------------
#NOTES:
     dance-double:
     Fred-104:
     Medium:
     13:
     :
00000000
00000000
00000000
00000000
,
00000000
00000000
00000000
00000000
,
00000000
00000000
00000000
00000000
,
00000000
00000000
00000000
00000000
,
00000000
00000000
00000000
00000000
,
00000000
00000000
00000000
00000000
,
00001000
00000000
00000000
00001000
00000000
00000000
00010000
00000000
00001000
00000000
00000000
00010000
00000000
00000000
00000010
00000000
,
00000100
00000000
00000001
00000000
00000000
00000000
00000001
00000000
00001000
00000100
00000000
00000100
00010000
00000000
00001000
00000000
,
00010000
00000000
00000000
00000000
00001000
00000000
00010000
00000000
00100000
00000000
00000000
10000000
00000000
00000000
01000000
00000000
,
00010000
00010000
00001000
00001000
00010000
00001000
00011000
00000000
,
00001000
00010000
00100000
10000000
01000000
00100000
00001000
00000000
,
00010000
00001000
00000010
00000001
00000100
00000010
00001000
00000000
,
00000001
00000100
00001000
00010000
00001000
00010000
00000100
00010000
,
00001000
00010000
01000000
00100000
00010000
10000000
00100000
00000000
,
01000000
00001000
00010000
00000010
00001000
00000100
00010000
00001000
,
01000000
00010000
00100000
01000000
10000000
10000000
00010000
00010000
,
01000000
00010000
00001000
00000100
00000010
00000001
00000100
00001000
,
00010000
00100000
10000000
01000000
00100000
00001000
00011000
00000000
,
00001000
00001000
00010000
00010000
00000010
00000100
00000010
00001000
,
00000100
00000000
00000010
00000000
00001000
00010000
00000000
00010000
00001000
00000000
00100000
00000000
01000000
00000000
01000000
00000000
,
00100000
00010000
00100000
00001000
00000010
00001000
00010000
00001000
,
01001000
00000000
00000000
00000000
00010100
00000000
00000000
00000000
00010000
00000000
00001000
00000000
00010000
00001000
00010000
00000000
,
00001000
00000000
00000000
00010000
00000000
00000000
00100000
00000000
10000000
00010000
00000000
10000000
00010000
00000000
00100000
00000000
,
01000000
00000000
00000000
00010000
00000000
00000000
00001000
00000000
00000010
00000100
00000000
00001000
00000001
00000000
00001000
00000000
,
00000010
00000000
00010000
00000000
00000000
00001000
00000000
00001000
00000000
00001000
00000000
00001000
00010000
00000000
00001000
00000000
,
00011000
00000000
00001000
00010000
00100000
10000000
01000000
00010000
,
00001000
00000000
00010000
00000000
00000100
00000000
00001000
00000001
00000000
00001000
00000001
00000000
00000010
00000000
00000000
00000000
,
00000100
00000000
00010000
00000000
00001000
00000000
00010000
00000010
00000000
00010000
00001000
00000000
00010000
00000000
00000000
00000000
,
00100000
00000000
01000000
00000000
00100000
00000000
10000000
01000000
00000000
00100000
00001000
00000000
00010000
00000000
00000000
00000000
,
00001000
00000000
00100000
00000000
01000000
00000000
10000000
00010000
00000000
01000000
00100000
00000000
10000000
00000000
01000000
00000000
,
00010000
00000000
00001000
00000000
00010000
00001000
00000000
00001000
00010000
00000000
00000100
00000000
00010000
00000000
00001000
00000000
,
01000000
00000000
00010000
00000000
00100000
00001000
00000000
00001000
00010000
00000000
00001000
00000000
00000100
00000000
00000010
00000000
,
00001010
00000000
00000000
00001000
00000010
00000000
00000000
00000100
00001000
00000000
00010000
00000000
00001000
00000000
01000000
00000000
,
01010000
00000000
00000000
00010000
10000000
00000000
01000000
00000000
00010000
00000000
00001000
00000000
00000010
00000000
00000001
00000000
,
00002002
00003003
00000000
00000000
00000000
00000000
00000000
00000000
00000000
00000000
00000000
00000000
00000000
00000000
00000000
00000000
00000000
00000000
00000000
00000000
00000000
00000000
00000000
00000000
00001000
00000000
00000000
00000000
00000000
00000000
00000000
00000000
00000000
00000000
00000000
00000000
00000000
00000000
00000000
00000000
00000000
00000000
00000000
00000000
00000000
00000000
00000000
00000000
00001000
00000000
00000000
00000000
00000000
00000000
00000000
00000000
00000000
00000000
00000000
00000000
00000000
00000000
00000000
00000000
,
00000000
00001000
00000000
00000000
00000001
00001000
00000001
00000000
,
00001000
00000000
00000010
00000100
00000000
00001000
00010000
00000000
,
00001000
00000000
01000000
00010000
00000000
10000000
00010000
00000000
,
00100000
00000000
01000000
00010000
00000000
00001000
00010000
00000000
,
00011000
00000000
00000000
00001000
00010000
00000000
00010000
00000000
,
00000100
00000000
00001000
00000001
00000000
00001000
00000100
00000000
,
00000010
00000000
00001000
00010000
00000000
00001000
00010000
00000000
,
00001000
00000000
00100000
00010000
00000000
10000000
00010000
00000000
,
00200000
00302000
00023000
02030000
,
13000000
00000000
00010000
10000000
00000000
00100000
10000000
00000000
,
01000000
00000000
00100000
00001000
00000000
00010000
00000010
00000000
,
00001000
00000000
00000100
00000010
00000000
00000100
00001000
00000000
,
00000001
00001000
00000001
00000000
00000100
00001000
00000100
00000000
,
00001000
00000000
00010000
00001000
00000000
00100000
00001000
00000000
,
00010000
00000000
00000010
00001000
00000000
00000010
00010000
00000000
,
00001000
00000000
00010000
00100000
00000000
01000000
00010000
00000000
,
10000000
10000000
00010000
00010000
,
20020000
30030000
00000000
00000000
00000000
00000000
00000000
00000000
00000000
00000000
00000000
00000000
00000000
00000000
00000000
00000000
00000000
00000000
00000000
00000000
00000000
00000000
00000000
00000000
00000000
00000000
00000000
00000000
00000000
00000000
00000000
00000000
10000000
00000000
00000000
00000000
00000000
00000000
00000000
00000000
00000000
00000000
00000000
00000000
00000000
00000000
00000000
00000000
00000000
00000000
00000000
00000000
00000000
00000000
00000000
00000000
00000000
00000000
00000000
00000000
00000000
00000000
00000000
00000000
,
01000000
00000000
00000000
01000000
00000000
00000000
00010000
00000000
,
00000000
00001000
00000000
00001000
,
00001000
00000000
00000000
00000100
00000000
00000000
00000001
00000000
,
00000001
00000000
00000000
00001000
00000000
00000000
00002002
00000000
,
00000000
00003003
00000000
00000000
00002002
00000000
00003003
00000000
,
00000001
00000000
00000000
00000000
00000000
00000000
00000000
00000000
00000000
00000000
00000000
00000000
00000000
00000000
00000000
00000000
00000000
00000000
00000000
00000000
00000000
00000000
00000000
00000000
00000000
00000000
00000000
00000000
00000000
00000000
00000000
00000000
00002000
00003000
00000000
00000000
00000000
00000000
00000000
00000000
00000000
00000000
00000000
00000000
00000000
00000000
00000000
00000000
00001000
00000000
00000000
00000000
00000000
00000000
00000000
00000000
00000000
00000000
00000000
00000000
00000000
00000000
00000000
00000000
,
00000020
00000030
00000000
00000000
00000000
00000000
00000000
00000000
00000000
00000000
00000000
00000000
00000000
00000000
00000000
00000000
00010000
00000000
00000000
00000000
00000000
00000000
00000000
00000000
00000000
00000000
00000000
00000000
00000000
00000000
00000000
00000000
00001000
00000000
00000000
00000000
00000000
00000000
00000000
00000000
00000000
00000000
00000000
00000000
00000000
00000000
00000000
00000000
00200000
00300000
00000000
00000000
00000000
00000000
00000000
00000000
00000000
00000000
00000000
00000000
00000000
00000000
00000000
00000000
,
00000000
01000000
00000000
00000000
10000000
00000000
10010000
00000000
,
00010000
00100000
00000000
01000000
10000000
00000000
00010000
00000000
,
01000000
00001000
00000000
00010000
00000100
00000000
00010000
00000000
,
00001000
00010000
00000000
00000100
00000010
00000001
00001000
00000000
,
00000010
00010000
00001000
00000000
00010000
00000000
00001000
00000000
,
00100000
00010000
00000000
10000000
00010000
00000000
01000000
00000000
,
00100000
10000000
00000000
01000000
00100000
00000000
00001000
00000000
,
00010000
00000100
00000000
00010000
00001000
01000000
00001000
00000000
,
00010000
00001000
00000100
00000000
00000010
00000000
00001000
00000100
,
00001000
00000100
00000000
00000010
00000001
00000000
00001000
00000001
,
00001000
00000001
00000000
00000100
00000010
00000000
00000100
00001000
,
00000100
00001000
00000000
00010000
00001000
00000000
01000000
00010000
,
10000000
00000000
01000000
00100000
00010000
00000000
00100000
00001000
,
00100000
00001000
00010000
00001000
00010000
00000000
00000010
00001000
,
00000010
00001000
00000010
00000100
00000010
00000000
00001000
00000001
,
00000010
00000100
00001000
00000100
00010000
00001000
00100000
00010000
,
00100000
00010000
00010000
10010000
,
00000000
00000000
00000000
10000000
,
10000000
00000000
00000000
00000000
,
00000000
00000000
00000000
00000000
,
00000000
00000000
00000000
00000000
00022000
00000000
00000000
00000000
00000000
00000000
00000000
00000000
00000000
00000000
00000000
00033000
;

//--------------- dance-double - Fred-104 ----------------
#NOTES:
     dance-double:
     Fred-104:
     Hard:
     16:
     :
00000000
00000000
00000000
00000000
,
00000000
00000000
00000000
00000000
,
00000000
00000000
00000000
00000000
,
00000000
00000000
00000000
00000000
,
00000000
00000000
00000000
00000000
,
00000000
00000000
00000000
00000000
,
00010000
00000000
00000000
00001000
00000000
00000000
00000010
00000000
00000001
00000000
00000000
00000100
00000000
00000000
00001000
00000000
,
00000000
00000000
00000000
00000000
00000000
00000000
00000000
00000000
00000000
00000000
00000000
00000000
00000000
00000000
00000000
00000000
00000000
00000000
00000000
00000000
00000000
00000000
00000000
00000000
00011000
00000000
00000000
00000000
00000000
00000000
00000000
00000000
00000000
00000000
00000000
00000000
00000000
00000000
00000000
00000000
00000000
00000000
00000000
00000000
00000000
00000000
00000000
00000000
00000000
00000000
00000000
00000000
00000000
00000000
00000000
00000000
00000000
00000000
00000000
00000000
00000000
00000000
00000000
00000000
00000000
00000000
00000000
00000000
00000000
00000000
00000000
00000000
00110000
00000000
00000000
00000000
00000000
00000000
00000000
00000000
00000000
00000000
00000000
00000000
00000000
00000000
00000000
00000000
00000000
00000000
00000000
00000000
00000000
00000000
00000000
00000000
00100000
00000000
00000000
00000000
00000000
00000000
00000000
00000000
00000000
00000000
00000000
00000000
00000000
10000000
00000000
00000000
00000000
00000000
00000000
00000000
00000000
00000000
00000000
00000000
00000000
00000000
00000000
00000000
00000000
00000000
00000000
00000000
00000000
00000000
00000000
00000000
00000000
00000000
00000000
00000000
00000000
00000000
00000000
10000000
00000000
00000000
00000000
00000000
00010000
00000000
00000000
00000000
00000000
00000000
00000000
00000000
00000000
00000000
00000000
00000000
00000000
00000000
00000000
00000000
00000000
00000000
00000000
00000000
00000000
00000000
00000000
00000000
00010000
00000000
00000000
00000000
00000000
00000000
00000000
00000000
00000000
00000000
00000000
00000000
00000000
00000000
00000000
00000000
00000000
00000000
00000000
00000000
00000000
00000000
00000000
00000000
,
10000000
00000000
00000000
00000000
10010000
00000000
00010000
01000000
00100000
00000000
00010000
00001000
00000100
00000000
00000010
00000000
,
00000001
00000000
00000000
00000000
00000000
00000000
00001000
00000000
00000000
00000000
00000000
00000000
00000100
00000000
00000000
00000000
00000000
00000000
00000010
00000000
00001000
00000000
00000010
00000000
00001000
00000000
00000000
00000000
00000000
00000000
00000001
00000000
00000000
00000010
00000000
00000000
00000100
00000000
00000000
00000000
00000000
00000000
00000100
00000000
00000000
00010000
00000000
00000000
,
00001000
01000000
00000000
01000000
00100000
10000000
00100000
10000000
01000000
00100000
00000000
00100000
00001000
00010000
00001000
00010000
,
00001000
00000100
00001000
00000100
00000000
00000100
00000001
00000100
00000001
00000010
00000100
00010000
00001000
00000000
00000000
00000000
,
01100000
00000000
00000000
00010000
10000000
01000000
00100000
01000000
00100000
01000000
00000000
01000000
00010000
00001000
00010000
00001000
,
00010000
00000000
00010000
00000010
00000100
00001000
00000100
00001000
00000001
00000010
00000001
00000010
00000100
00000001
00001000
00000001
,
00000010
00000000
00000100
00001000
00000010
00000000
00000100
00000001
00000010
00000000
00000110
00000000
00010100
00000000
00011000
00000000
,
00010000
00001000
00000000
00010000
00100000
00000000
01000000
10000000
01000000
00000000
01010000
00000000
00110000
00000000
10010000
00000000
,
01100000
00000000
10000000
01000000
00010000
00001000
00010000
00001000
00000010
00000100
00000010
00000100
00001000
00000010
00001000
00000010
,
00010000
00001000
00010000
00000100
00000010
00000001
00001000
00000000
00000010
00000100
00000010
00000100
00002000
00000000
00023000
00000000
,
00031000
00000000
01000000
00010000
00100000
10000000
00100000
10000000
00010000
01000000
00010000
01000000
00200000
00000000
00320000
00000000
,
01030000
00100000
00010000
00000000
00001000
00010000
00000000
00010000
00001000
00000010
00001000
00000010
00000002
00000000
00002003
00000000
,
00003010
00000100
00000010
00000100
00000001
00001000
00000001
00001000
00000100
00000000
00000100
00000010
00001000
00000000
00010000
00000000
,
00012000
00000000
00010000
00003010
00002000
00000000
00000010
00013000
00001000
00000000
00100000
00000000
01000000
10000000
01000000
00000000
,
00100000
00000000
00001000
00010000
00000000
00010000
00000100
00000000
00000010
00001000
00000001
00000100
00000010
00000000
00000100
00000000
,
00001000
00000000
00000001
00000100
00000000
00000100
00001000
00000000
00010000
00001000
01000000
00100000
01000000
00000000
00010000
00000000
,
00100000
00000000
01000000
10000000
00010000
01000000
00000000
01000000
00000000
01000000
00000000
01000000
00200000
00000000
00320000
00000000
,
00032000
00000000
00010000
00003010
00002000
00000000
00000010
00013000
00001000
00010000
00000100
00000000
00000010
00000001
00001000
00000000
,
00001001
00000000
00000001
00000000
00000100
00001000
00000000
00001000
00000000
00010000
00100000
01000000
00100000
00000000
10000000
00000000
,
00010000
00000000
10000000
00000000
01000000
00010000
00000000
00010000
00000000
00001000
00000010
00000100
00000010
00000000
00000001
00000000
,
00001000
00000000
00000001
00000000
00000100
00000000
00000010
00001000
00000000
00000100
00010000
00001000
00100000
00000000
01000000
00000000
,
10000000
00000000
00010000
00000000
01000000
00000000
00001000
00100000
00000000
00001000
00010000
00000100
00000010
00000001
00001000
00000000
,
00000001
00000000
00000100
00000000
00001000
00010000
00000000
00010000
00000010
00001000
00000010
00010000
00001000
00000000
00100000
00000000
,
01000000
00000000
00100000
00000000
00010000
10000000
00000000
10000000
00010000
00000000
10000000
00100000
00010000
00000000
00001000
00000100
,
00000001
00000000
00000000
00000000
00001001
00000000
00000000
00000001
00000100
00000010
00000100
00000000
00001000
00010000
00001000
00000000
,
00011000
00000000
00000000
00010000
00000100
00000000
00001000
00000001
00001000
00000001
00001000
00000000
00000010
00010000
00001000
00000000
,
00022000
00033000
00000000
00000000
00000000
00000000
00000000
00000000
00000000
00000000
00000000
00000000
00000000
00000000
00000000
00000000
00000000
00000000
00000000
00000000
00000000
00000000
00000000
00000000
00001000
00000000
00000000
00000000
00000000
00000000
00000000
00000000
00000000
00000000
00000000
00000000
00000000
00000000
00000000
00000000
00000000
00000000
00000000
00000000
00000000
00000000
00000000
00000000
00010000
00000000
00000000
00000000
00000000
00000000
00000000
00000000
00000000
00000000
00000000
00000000
00000000
00000000
00000000
00000000
,
00000000
00000000
00200000
00300000
00000000
00000000
00000000
00000000
10000000
00000000
00010000
00000000
10000000
00000000
00000000
00000000
,
10010000
00000000
10000000
01000000
00010000
00001000
00000010
00000000
,
00000011
00000000
00000001
00000100
00001000
00010000
00100000
00000000
,
10100000
00000000
10000000
01000000
00010000
00001000
00010000
00000000
,
00011000
00000000
00000000
00010000
00001000
00000000
00000100
00000010
,
00001000
00000000
00000001
00000010
00001000
00010000
01000000
00000000
,
11000000
00000000
10000000
00100000
00010000
00001000
00000100
00000000
,
00000101
00000000
00000001
00001000
00000001
00000010
00001000
00100000
,
02000000
23000000
30200000
00320000
,
00031000
00000000
00010000
00001000
00000010
00001000
00010000
00000000
,
00001000
00000000
00010000
00001000
00000100
00001000
00010000
00000000
,
00011000
00000000
00010000
00001000
00000000
00001000
00010000
01000000
,
10000000
00010000
01000000
00100000
00010000
00001000
00010000
00000100
,
00000010
00000000
00000001
00001000
00000010
00000100
00001000
00010000
,
00100000
00000000
10000000
00010000
00100000
01000000
00010000
00001000
,
00010000
00000100
00000010
00000001
00001000
00000010
00000100
00000001
,
00000011
00000110
00001100
00010100
,
00022000
00033000
00000000
00000000
00000000
00000000
00000000
00000000
00000000
00000000
00000000
00000000
00000000
00000000
00000000
00000000
00000000
00000000
00000000
00000000
00000000
00000000
00000000
00000000
00000000
00000000
00000000
00000000
00000000
00000000
00000000
00000000
00010000
00000000
00000000
00000000
00000000
00000000
00000000
00000000
00000000
00000000
00000000
00000000
00000000
00000000
00000000
00000000
00000000
00000000
00000000
00000000
00000000
00000000
00000000
00000000
00000000
00000000
00000000
00000000
00000000
00000000
00000000
00000000
,
00001000
00000000
00000000
00001000
00000000
00000000
00001000
00000000
,
00000000
00000100
00000000
00000010
,
00000010
00000000
00000000
00001000
00000000
00000000
00001000
00000000
,
00000001
00000000
00000000
00000101
00000000
00000000
00022000
00000000
,
00000000
00033000
00000000
00000000
20200000
00000000
30300000
00000000
,
00010000
00000000
00000000
00000000
00000000
00000000
00000000
00000000
00000000
00000000
00000000
00000000
00000000
00000000
00000000
00000000
00000000
00000000
00000000
10000000
00000000
00000000
00000000
00000000
00000000
00000000
00000000
00000000
00000000
00000000
00000000
00000000
02000000
03000000
00000000
00000000
00000000
00000000
00000000
00000000
00000000
00000000
00000000
00000000
00000000
00000000
00000000
00000000
00020000
00000000
00000000
00000000
00030000
00000000
00000000
00000000
00000000
00000000
00000000
00000000
00000000
00000000
00000000
00000000
,
00022000
00000000
00000000
00033000
00000000
00000000
00000000
00000000
00000000
00000000
00000000
00000000
00000000
00000000
00000000
00000000
00000000
00000000
00000000
00000000
00000000
00000000
00000000
00000000
00000000
00000000
00000000
00000000
00000000
00000000
00000000
00000000
00000000
00000000
00000000
00000000
00000000
00000000
00000000
00000000
00000000
00000000
00000000
00000000
00000000
00000000
00000000
00000000
00110000
00000000
00000000
00000000
00000000
00000000
00000000
00000000
00000000
00000000
00000000
00000000
00000000
00000000
00000000
00000000
00000000
00000000
00000000
00000000
00000000
00000000
00000000
00000000
00000000
00000000
00000000
00000000
00000000
00000000
00000000
00000000
00000000
00000000
00000000
00000000
00000000
00000000
00000000
00000000
00000000
00000000
00000000
00000000
00000000
00000000
00000000
00000000
10100000
00000000
00000000
00000000
00000000
00000000
00000000
00000000
00000000
00000000
00000000
00000000
00000000
00000000
00000000
00000000
00000000
00000000
00000000
00000000
00000000
00000000
00000000
00000000
00000000
00000000
00000000
00000000
00000000
00000000
00000000
00000000
00000000
00000000
00000000
00000000
00000000
00000000
00000000
00000000
00000000
00000000
00000000
00000000
00000000
00000000
00000000
00000000
20020000
00000000
00000000
00000000
00000000
00000000
00000000
00000000
30030000
00000000
00000000
00000000
00000000
00000000
00000000
00000000
00000000
00000000
00000000
00000000
00000000
00000000
00000000
00000000
00000000
00000000
00000000
00000000
00000000
00000000
00000000
00000000
00000000
00000000
00000000
00000000
00000000
00000000
00000000
00000000
00000000
00000000
00000000
00000000
00000000
00000000
00000000
00000000
,
00000000
00000000
00000000
00000000
10000000
00000000
00000000
00000000
00000000
00000000
00000000
00000000
00000000
00000000
00000000
00000000
00000000
00000000
00000000
00000000
00000000
00000000
00000000
00000000
00100000
00000000
00000000
00000000
00000000
00000000
00000000
00000000
00000000
00000000
00000000
00000000
00000000
00000000
00000000
00000000
00000000
00000000
00000000
00000000
00000000
00000000
00000000
00000000
00000000
00000000
00000000
00000000
00000000
00000000
00000000
00000000
00000000
00000000
00000000
00000000
00000000
00000000
00000000
00000000
00000000
00000000
00000000
00000000
00000000
00000000
00000000
00000000
00100000
00000000
00000000
00000000
00000000
00000000
00000000
00000000
00000000
00000000
00000000
00000000
00000000
00000000
00000000
00000000
00000000
00000000
00000000
00000000
00000000
00000000
00000000
00000000
00010000
00000000
00000000
00000000
00000000
00000000
00000000
00000000
00000000
00000000
00000000
00000000
00000000
00000000
00000000
00000000
00000000
00000000
00000000
00000000
00000000
00000000
00000000
00000000
00000000
00000000
00000000
00000000
00000000
00000000
00000000
00000000
00000000
00000000
00000000
00000000
00000000
00000000
00000000
00000000
00000000
00000000
00000000
00000000
00000000
00000000
00000000
00000000
00022000
00000000
00000000
00033000
00000000
00000000
00000000
00000000
00000000
00000000
00000000
00000000
00000000
00000000
00000000
00000000
00000000
00000000
00000000
00000000
00000000
00000000
00000000
00000000
00000000
00000000
00000000
00000000
00000000
00000000
00000000
00000000
00000000
00000000
00000000
00000000
00000000
00000000
00000000
00000000
00000000
00000000
00000000
00000000
00000000
00000000
00000000
00000000
,
00010000
00000010
00000000
00001000
00000100
00000000
00000110
00000000
,
00000010
00000001
00000100
00001000
00010000
00001000
01000000
00000000
,
00100000
10000000
00000000
01000000
00010000
00000000
00011000
00000000
,
00001000
00010000
01000000
00010000
00001000
00000000
00011000
00000000
,
00010000
00001000
00000000
00000100
00000010
00000000
00001010
00000000
,
00001000
00000100
00000001
00000100
00001000
00000001
00001000
00000000
,
00000001
00000100
00000000
00000100
00001000
00010000
00100000
01000000
,
10000000
01000000
00010000
00100000
01000000
00010000
00001000
00000000
,
00010000
00000100
00000000
00000010
00000100
00001000
00000010
00000000
,
00010000
00001000
00000000
01000000
00010000
00100000
00001000
00000000
,
00010000
00000100
00000000
00000001
00000100
00000010
00000100
00001000
,
00000010
00000100
00001000
00010000
00100000
00010000
00001000
00000000
,
00010000
00000100
00000010
00000001
00001000
00000010
00010000
00000000
,
00001000
00010000
00100000
10000000
01000000
00100000
00010000
10000000
,
00100000
00010000
00001000
00010000
00000010
00001000
00000100
00000010
,
00001000
00000001
00000100
00001000
00000100
00000010
00000001
00000000
,
00000000
00000000
00000000
00000001
,
00000001
00000000
00000000
00000000
,
00000000
00000000
00000000
00000000
,
00000000
00000000
00000000
00000000
00011000
00000000
00000000
00000000
00000000
00000000
00000000
00000000
00000000
00000000
00000000
10000000
;
