#VERSION:0.83;
#TITLE:零 - ZERO -;
#ARTIST:TËЯRA;
#TITLETRANSLIT:ZERO;
#ARTISTTRANSLIT:TERRA;
#GENRE:HYPER J-POP ZERO;
#BANNER:ZERO.png;
#BACKGROUND:ZERO-bg.png;
#CDTITLE:./CDTitles/bm IIDX 14 GOLD.png;
#MUSIC:ZERO.ogg;
#SAMPLESTART:44;
#SAMPLELENGTH:15;
#BPMS:0=180;
#BGSTAGE:22;

//--------------- dance-single - Fred-104 ----------------
#NOTEDATA:;
#STEPSTYPE:dance-single;
#DESCRIPTION:Fred-104;
#DIFFICULTY:Beginner;
#METER:4;
#CREDIT:Fred-104;
#NOTES:
0000
0000
0000
0000
,
0000
0000
0000
0000
,
0000
0000
0000
0000
,
0000
0000
0000
0000
,
0000
0000
0000
0000
,
2000
0000
3000
0000
,
0002
0000
0003
0000
,
2000
0000
3000
0000
,
0002
0003
2000
3000
,
0200
0000
0300
0000
,
0020
0000
0030
0000
,
0200
0000
0300
0000
,
0020
0030
0002
0003
,
1000
0000
0000
0000
,
0001
0000
0000
0000
,
0100
0000
0000
0000
,
0001
0000
1000
0000
,
0001
0000
0010
0000
,
0010
0000
0100
0000
,
1000
0000
1000
0000
,
0001
0000
1000
1000
,
1000
0000
0000
0000
,
0001
0000
0010
0010
,
0010
0000
0000
0000
,
0100
0000
0010
0010
,
0010
0000
0000
0000
,
0001
0000
1000
1000
,
1000
0000
0000
0000
,
0010
0000
0100
0100
,
0100
0000
0000
0000
,
0001
0000
0000
0000
,
1000
0000
0001
0000
,
2002
0000
3003
0000
,
1000
0000
0100
0000
,
0010
0000
0001
0001
,
0001
0000
1000
0000
,
0001
0000
0100
0100
,
0100
0000
0010
0000
,
0100
0000
0001
0000
,
1000
0000
0001
0000
,
0010
0010
0010
0000
,
0100
0000
1000
0000
,
0001
0000
1000
0000
,
0010
0000
0100
0000
,
0001
0000
1000
1000
,
2000
0000
0000
3000
,
0002
0003
2000
3000
,
0020
0000
0000
0030
,
0200
0300
0002
0003
,
1000
1000
1000
0000
,
0001
0001
0001
0000
,
0100
0000
0010
0000
,
0100
0100
0100
0100
,
0110
0000
0000
0000
,
0001
0000
0000
0000
,
1000
0000
0001
0000
,
0100
0000
0010
0000
,
0110
0000
0000
0000
,
0001
0000
1000
0000
,
0100
0000
1000
0000
,
0001
0001
0001
0000
,
2000
3000
0002
0003
,
0200
0300
0020
0030
,
2000
3000
0002
0003
,
1000
1000
1000
1000
,
1001
0000
0000
0000
,
0001
0000
0000
0000
,
0000
0000
0000
0000
,
1000
0000
0000
0000
,
0000
0000
0000
0000
,
0010
0000
0000
0000
,
0100
0000
0000
0000
,
0001
0000
1000
0000
,
1001
0000
0000
0000
,
0001
0000
0010
0000
,
0100
0000
1000
1000
,
1000
0000
0001
0000
,
0100
0000
0010
0010
,
0020
0000
0000
0030
,
2000
3000
0002
0003
,
0020
0000
0000
0030
,
0200
0300
0020
0030
,
0200
0000
0000
0300
,
2000
3000
0002
0003
,
1000
0000
0001
0000
,
1000
1000
1000
1000
,
2000
0000
0000
0000
,
0000
0000
0000
0000
,
0000
0000
0000
3000
,
2002
0000
0000
0000
,
3003
0000
0000
0000
;

//--------------- dance-single - Fred-104 ----------------
#NOTEDATA:;
#STEPSTYPE:dance-single;
#DESCRIPTION:Fred-104;
#DIFFICULTY:Easy;
#METER:7;
#CREDIT:Fred-104;
#NOTES:
0000
0000
0000
0000
,
0000
0000
0000
0000
,
0000
0000
0000
0000
,
0000
0000
0000
0000
,
0000
0000
0000
0000
,
2000
0000
0000
3000
,
0002
0003
2000
3000
,
0020
0000
0000
0030
,
0200
0302
2003
3002
,
0023
0000
0000
0030
,
0200
0300
2000
3000
,
0002
0000
0000
0003
,
2000
3200
0320
0032
,
1003
0000
0001
1000
,
0010
0000
0100
0010
,
0100
0000
0000
0001
0000
0000
1000
0000
,
0100
0000
0010
0001
,
1000
0000
0000
0001
0000
0000
0100
0000
,
0010
0000
0000
0100
0000
0000
0001
0000
,
1000
0001
0010
0000
,
0110
0000
1001
0000
,
0001
0000
0000
0100
0000
0000
0010
0000
,
2000
3000
0100
0010
,
0100
0000
0000
1000
0000
0000
0001
0000
,
0200
0300
0010
0100
,
0010
0000
0000
1000
0000
0000
0100
0000
,
0020
0030
0001
1000
,
0001
0000
0000
0100
0000
0000
0001
0000
,
1001
0000
0110
0000
,
1000
0000
0000
0100
0000
0000
0001
0000
,
0001
0000
0000
0100
0000
0000
1000
0000
,
0001
0000
0000
0100
0000
0000
0010
0000
,
2002
0000
3003
0000
,
1000
0000
0000
0100
0000
0000
0010
0000
,
0100
0000
0000
1000
0000
0000
0010
0000
,
0100
0000
0000
0001
0000
0000
0010
0000
,
0100
0000
0000
1000
0000
0000
0001
0000
,
0200
0000
0310
1000
,
0001
0001
0100
0100
,
1000
1000
0010
0010
,
0001
1000
1001
0000
,
1000
0000
0000
0100
0000
0000
0010
0000
,
0100
0000
0000
1000
0000
0000
0001
0000
,
0100
0000
0000
0001
0000
0000
0010
0000
,
0100
0000
0000
0010
0000
0000
0001
0000
,
2000
0000
3100
0010
,
0001
0100
1000
0010
,
0002
0000
1003
0001
,
1000
0100
0001
0010
,
1000
1000
0100
0100
,
0001
0001
0010
0010
,
1000
0100
0010
0001
,
0100
0000
0010
0000
1000
0001
1000
0000
,
1001
0000
0001
0010
,
0110
0000
1000
0010
,
0110
0000
0001
1000
,
0001
0001
0100
0100
,
0110
0000
0010
1000
,
1001
0000
1000
0100
,
0010
0100
1000
0001
,
0100
0100
0010
0010
,
0110
0000
0001
0000
,
1000
0000
0100
0010
,
0011
0000
1100
0000
,
0001
0100
0010
1000
,
2002
0000
0000
3003
,
2000
0000
0000
0000
,
3002
0000
0000
0000
,
0203
0000
0000
0000
,
0320
0000
0000
0030
,
1001
0000
1000
0000
,
0100
0100
0010
0010
,
0001
1000
0010
0100
,
0002
0000
2000
3003
,
0001
0000
0000
0010
0000
0000
0100
0000
,
0010
0000
0000
0100
0000
0000
1000
0000
,
0010
0000
0000
0100
0000
0000
0001
0000
,
0010
0000
0000
0100
0000
0000
1000
0000
,
0002
0000
1003
0100
,
1000
0100
0001
0100
,
2000
0000
3001
1000
,
0001
0100
1000
0100
,
0002
0000
1003
0010
,
2000
3100
0002
0013
,
1000
0100
1000
0001
,
0100
0000
0010
0000
0100
0001
0100
0000
,
2002
0000
0000
0000
,
0000
0000
0000
0000
,
0000
0000
0000
3003
,
0220
0000
0000
0000
,
0330
0000
0000
0000
;

//--------------- dance-single - Fred-104 ----------------
#NOTEDATA:;
#STEPSTYPE:dance-single;
#DESCRIPTION:Fred-104;
#DIFFICULTY:Medium;
#METER:10;
#CREDIT:Fred-104;
#NOTES:
0000
0000
0000
0000
,
0000
0000
0000
0000
,
0000
0000
0000
0000
,
0000
0000
0000
0000
,
0000
0000
0000
0000
,
0002
0000
1003
0100
,
0020
0000
0032
0000
,
2003
0000
0000
3001
,
0200
0320
2030
3002
,
0023
0000
0000
0130
,
2000
0000
3002
0000
,
0203
0000
0000
0310
,
1000
0010
1000
0000
0001
0010
0001
0000
,
1001
0000
0000
0000
0001
0000
0010
0100
,
0200
0000
0000
0000
1300
0000
0010
0010
,
0100
0000
0000
0001
0000
0000
1000
1000
,
0200
0000
0000
0000
0310
0000
0001
0001
,
1000
0000
0000
0001
0000
0000
0100
0000
,
0010
0100
0001
1000
,
0100
0000
0010
0000
0001
1000
0001
0000
,
0100
0000
0100
0000
0001
1000
0001
1000
,
0100
0000
0000
0010
0000
0000
0001
0000
,
1000
0000
0001
0100
0001
0000
1000
0000
,
0100
0000
0000
0010
0000
0000
0100
0000
,
1000
0000
0010
0100
0001
0000
1000
0000
,
0100
0000
0010
0001
0000
0010
0100
0000
,
1000
0000
0001
0000
0100
0010
0100
0000
,
0001
0000
1000
0100
0000
0001
0100
0000
,
1000
0001
2002
3003
,
1100
0000
0100
0010
0000
0010
0001
0000
,
0101
0000
0001
0100
0000
0100
0010
0000
,
1010
0101
1100
0011
,
2002
0000
3003
0000
,
1000
0000
0100
0010
0000
0001
1000
0000
,
0010
0000
0100
0010
0000
1000
0001
0000
,
0010
0000
0100
1000
0000
0010
0100
0000
,
0010
0000
1000
0001
0000
0010
0100
0000
,
2000
0000
0010
0000
0010
0000
3010
0100
,
0002
0023
0230
2300
,
3001
0101
1000
1100
,
0001
0000
0011
0000
1100
0000
0001
1000
,
0010
0000
0100
0010
0000
1000
0001
0010
,
0100
0000
1000
0010
0000
0100
0010
1000
,
0001
0000
0010
0100
0000
0010
0001
1000
,
0010
0000
0100
0001
0000
1000
0001
0010
,
0200
0000
1000
0000
1000
0000
1300
0001
,
0100
0110
0001
1001
,
2000
0000
0100
0000
3100
1000
0001
0100
,
0010
1010
0100
0101
,
0001
0011
1000
1010
,
0001
0101
1000
1100
,
0001
0100
0001
0100
0010
1000
0010
1000
,
0001
0010
0100
1000
0100
0010
0001
1000
,
1001
0000
0000
0000
0001
0100
0010
1000
,
0001
0000
0000
0000
1000
0100
0010
0001
,
1000
0000
0000
0001
0100
0010
0100
0001
,
1000
0100
0010
0011
,
1001
0000
0001
0000
0100
0010
0100
0010
,
0100
0000
0001
0000
1000
0100
1000
0100
,
0010
0001
1000
0010
,
0100
0001
1000
0000
0100
0010
0001
0000
,
2000
3200
0320
0032
,
2003
3002
0203
0310
,
1100
0010
0101
0010
,
1000
0100
0010
0000
0001
0100
0010
0000
,
2002
0000
0000
3003
,
2000
0000
0000
0000
,
3200
0000
0320
0000
,
0032
0000
0000
0000
,
2003
0000
3002
0003
,
2002
0000
0000
3003
,
0002
0203
0320
2030
,
3002
0023
0230
2300
,
3001
0000
0000
2000
0002
0000
3003
0000
,
1010
0000
0001
1000
0000
0010
0100
0000
,
0001
0000
1000
0100
0000
0010
0100
0000
,
1000
0000
0010
0100
0000
0010
1000
0000
,
0001
0000
0010
0100
0000
1000
0001
0100
,
0001
0000
1000
0000
0001
0010
0100
0000
,
1100
0010
0101
0010
,
1000
0000
0001
0000
0010
0100
0010
0000
,
0011
0100
1010
0100
,
0001
0000
1000
0000
0100
0010
0001
0000
,
0110
1000
0110
0001
,
1000
0100
0010
0000
0001
0100
0010
0000
,
1000
0001
0100
0001
0010
0100
1000
0001
,
0200
0000
0000
0000
,
0000
0000
0000
0000
,
0000
0000
0000
0300
,
2002
0000
0000
0000
,
3003
0000
0000
0000
;

//--------------- dance-single - Fred-104 ----------------
#NOTEDATA:;
#STEPSTYPE:dance-single;
#DESCRIPTION:Fred-104;
#DIFFICULTY:Hard;
#METER:14;
#CREDIT:Fred-104;
#NOTES:
0000
0000
0000
0000
,
0000
0000
0000
0000
,
0000
0000
0000
0000
,
0000
0000
0000
0000
,
0000
0000
0000
0000
,
2000
0000
3002
0023
,
0230
0000
2300
0000
,
3020
0000
1030
0002
,
0023
0000
0032
0000
0203
0000
0310
1000
,
0002
0000
0013
0200
,
2300
0000
0000
0000
0000
0000
0000
0000
3002
0000
0000
0000
0000
0000
1003
0010
,
2000
0000
3002
2003
,
3010
0000
1000
0000
0001
0010
0001
0010
0001
0000
0010
0000
0100
0000
1000
0001
,
1000
0010
0000
1000
0000
0001
0010
0100
,
1000
1000
0000
0001
0000
1000
0010
0100
,
0001
0001
0000
0010
0000
0100
0010
0001
,
0001
1000
0000
0100
0010
0000
0011
0000
,
1001
0000
0001
0100
0000
0010
1000
0000
,
1100
0000
0100
0010
0001
0000
1000
0001
,
0100
0001
1000
0100
0010
0001
0100
0001
,
0010
0000
0000
0000
0100
0000
0000
0000
1000
0001
1000
0001
1000
0001
1000
0001
,
1000
0000
0100
0010
0001
1000
0010
0000
,
0110
0000
0100
0001
1000
0001
0010
0100
,
1000
0000
0010
1000
0100
0010
0100
0000
,
0110
0000
1000
0010
0001
0010
0100
0001
,
1000
0000
0001
0010
1000
0010
0001
0000
,
1001
0000
1000
0010
0100
1000
0100
0001
,
1000
0000
0100
0010
0001
1000
0010
0000
,
0110
0000
0001
1000
0100
0010
0100
0000
,
1100
0000
0100
0010
0001
1000
0010
0000
,
0110
0000
0100
0001
1000
0001
0010
0000
,
0110
1100
0101
0110
,
2002
0000
0000
0000
0000
0000
3003
0000
0001
1000
0001
1000
0001
1000
0001
1000
,
0001
0010
0010
0100
0010
0010
0001
1000
,
0010
1000
1000
0100
1000
1000
0010
0100
,
0001
0010
0010
0100
0010
0010
0001
1000
,
0010
0100
0100
0001
0100
0100
0010
1000
,
0002
0000
0010
0000
1000
0000
0103
0010
,
2000
3200
0302
0203
,
1300
1100
0001
0101
,
1001
0000
0000
0000
0001
0000
1000
0000
0010
0100
0010
0000
1000
0000
0001
0000
,
1000
0100
0010
1000
0010
0001
1000
0001
,
0100
0010
0001
0010
0100
0010
1000
0001
,
0010
0100
0001
0100
1000
0001
0100
1000
,
0100
0010
0100
0001
1000
0100
0010
0001
,
2000
0000
0010
0000
0001
0000
3100
0010
,
0002
0023
0230
2300
,
3002
0000
0100
0000
1003
0100
0010
0001
,
0100
0110
0001
1001
,
1100
0101
1010
0011
,
1100
0101
0011
1010
,
0001
0010
0001
0010
0100
1000
0100
1000
,
0001
0000
0100
0000
0010
0000
1000
0000
0001
0010
0001
0010
0001
0010
0001
0010
,
0100
0000
0000
0000
0000
0000
0000
0000
1100
0000
0100
0000
0010
0000
0001
1000
,
0001
0000
0000
0000
0101
0001
1000
0100
,
0110
0000
0010
0001
1000
0001
0010
0100
,
1100
0000
0101
0000
1000
0100
0110
0000
,
1001
0000
0001
1000
0010
0010
0100
0001
,
0101
0000
1001
1000
0100
0010
0001
1000
,
0001
0000
0100
0000
1000
0000
0100
0000
0010
0000
1000
0000
0001
0000
1000
0001
,
1000
0100
0001
1000
0010
0001
0010
0100
,
2000
3002
0203
2300
,
3002
0000
0023
0000
2030
0000
3001
1000
,
1100
0010
0101
0010
,
1000
0000
0100
0000
0010
0000
0001
0000
0010
0000
0001
0000
1000
0001
1000
0001
,
1000
0001
1000
0001
1000
0001
1000
0001
1000
0001
1000
0001
1000
0000
0000
0000
,
1001
0000
0000
1000
0000
0000
0010
0000
,
0100
0000
0000
0001
0000
0000
0010
0000
,
0100
0000
0000
0010
0000
0000
0001
0000
,
1000
0000
0000
0010
0000
0000
0100
0000
,
0202
0000
0000
0000
0303
0000
1000
0100
,
0110
0001
0101
1000
,
0001
0100
0010
1000
,
0002
0000
0000
0000
0000
0000
0013
0000
0200
0000
0000
0000
1300
0001
1000
0001
,
1000
0100
0001
1000
0010
0100
1000
0001
,
0100
0010
0001
1000
0100
0010
1000
0001
,
0010
0100
0001
1000
0010
0001
1000
0010
,
0001
1000
0100
0010
1000
0100
0010
0001
,
2002
0000
0000
0000
0000
0000
3003
0000
0001
0000
1000
0100
1000
0000
0010
0000
,
0110
0001
1000
0000
0110
1000
0001
0000
,
0202
0000
0000
0000
0000
0000
0303
0000
1000
0000
0100
0010
0100
0000
0010
0000
,
0011
0100
1000
0000
1010
0100
0001
0000
,
1001
0000
0000
0000
1000
0000
0010
0000
0100
0000
0001
1000
0001
0000
0100
0000
,
0101
0010
1000
0000
1100
0010
0001
0000
,
1000
0010
0100
0001
0010
0100
1000
0001
,
0100
0000
0010
0000
1000
0000
0001
0000
0010
0100
0010
0100
0010
0100
0010
0100
,
2000
0000
0000
0000
,
0000
0000
0000
0000
,
0000
0000
0000
3000
,
2002
0000
0000
0000
,
3003
0000
0000
0000
;

//--------------- dance-double - Fred-104 ----------------
#NOTEDATA:;
#STEPSTYPE:dance-double;
#DESCRIPTION:Fred-104;
#DIFFICULTY:Easy;
#METER:7;
#CREDIT:Fred-104;
#NOTES:
00000000
00000000
00000000
00000000
,
00000000
00000000
00000000
00000000
,
00000000
00000000
00000000
00000000
,
00000000
00000000
00000000
00000000
,
00000000
00000000
00000000
00000000
,
00000002
00000000
00000000
00000003
,
00000200
00000300
00002000
00003000
,
00020000
00000000
00000000
00030000
,
02000000
23000000
30020000
20030000
,
30200000
00000000
00000000
00300000
,
00020000
00030000
00002000
00003000
,
00000020
00000000
00000000
00000030
,
00000002
00002003
00003020
00020030
,
00031000
00000000
00010000
00001000
,
00100000
00000000
00010000
10000000
,
00010000
00000000
00000000
10000000
00000000
00000000
01000000
00000000
,
00100000
00000000
00001000
00010000
,
00001000
00000000
00000000
00000010
00000000
00000000
00000001
00000000
,
00000010
00000000
00000000
00000100
00000000
00000000
00010000
00000000
,
00001000
00010000
00001000
00000000
,
00011000
00000000
01100000
00000000
,
10000000
00000000
00000000
01000000
00000000
00000000
00010000
00000000
,
00002000
00003000
01000000
00010000
,
00100000
00000000
00000000
00001000
00000000
00000000
00010000
00000000
,
00200000
00300000
10000000
00010000
,
10000000
00000000
00000000
01000000
00000000
00000000
00100000
00000000
,
00002000
00003000
00010000
00001000
,
00000010
00000000
00000000
00000100
00000000
00000000
00001000
00000000
,
00001001
00000000
00000110
00000000
,
00000001
00000000
00000000
00000100
00000000
00000000
00001000
00000000
,
00010000
00000000
00000000
01000000
00000000
00000000
10000000
00000000
,
10000000
00000000
00000000
00100000
00000000
00000000
00010000
00000000
,
00022000
00000000
00033000
00000000
,
00001000
00000000
00000000
00010000
00000000
00000000
00100000
00000000
,
01000000
00000000
00000000
00010000
00000000
00000000
10000000
00000000
,
01000000
00000000
00000000
00100000
00000000
00000000
00001000
00000000
,
00010000
00000000
00000000
00000010
00000000
00000000
00010000
00000000
,
00002000
00000000
00013000
00001000
,
00000100
00000001
00001000
00000100
,
00000010
00000001
00000100
00001000
,
00010000
00001000
00011000
00000000
,
00010000
00000000
00000000
00000010
00000000
00000000
00001000
00000000
,
00000100
00000000
00000000
00000010
00000000
00000000
00000001
00000000
,
00001000
00000000
00000000
00000100
00000000
00000000
00010000
00000000
,
00001000
00000000
00000000
01000000
00000000
00000000
00100000
00000000
,
20000000
00000000
31000000
00100000
,
00001000
00010000
00100000
10000000
,
02000000
00000000
03100000
00001000
,
00010000
00001000
00000100
00000001
,
00001000
00001000
00000100
00000100
,
00000001
00000001
00000010
00000010
,
00001000
00000001
00000100
00001000
,
00010000
00000000
00001000
00000000
00000010
00000001
00001000
00000000
,
00001001
00000000
00000010
00010000
,
00011000
00000000
01000000
00001000
,
00011000
00000000
00001000
00010000
,
00100000
00100000
01000000
01000000
,
01010000
00000000
10000000
01000000
,
01100000
00000000
00001000
00010000
,
00100000
01000000
00100000
00010000
,
00001000
00001000
00010000
00010000
,
00011000
00000000
00001000
00000000
,
00010000
00000000
00000100
00001000
,
00001010
00000000
00000101
00000000
,
00000001
00000100
00001000
00010000
,
00022000
00000000
00000000
00033000
,
00002000
00000000
00000000
00000000
,
00023000
00000000
00000000
00000000
,
02030000
00000000
00000000
00000000
,
03200000
00000000
00000000
00300000
,
10010000
00000000
10000000
00000000
,
01000000
01000000
00100000
00100000
,
00001000
00010000
00001000
00000100
,
00000020
00000000
00002000
00003030
,
00000001
00000000
00000000
00000100
00000000
00000000
00001000
00000000
,
00010000
00000000
00000000
00100000
00000000
00000000
01000000
00000000
,
00010000
00000000
00000000
10000000
00000000
00000000
00100000
00000000
,
00010000
00000000
00000000
00001000
00000000
00000000
00000010
00000000
,
00000002
00000000
00001003
00000001
,
00000100
00000010
00000100
00001000
,
00020000
00000000
00031000
00010000
,
00100000
01000000
00010000
10000000
,
02000000
00000000
03100000
00001000
,
00020000
00030000
00002000
00003000
,
00010000
00001000
00000010
00000001
,
00000010
00000100
00001000
00000000
00000100
00010000
00001000
00000000
,
00022000
00000000
00000000
00000000
,
00000000
00000000
00000000
00000000
,
00000000
00000000
00000000
00033000
,
00002002
00000000
00000000
00000000
,
00003003
00000000
00000000
00000000
;

//--------------- dance-double - Fred-104 ----------------
#NOTEDATA:;
#STEPSTYPE:dance-double;
#DESCRIPTION:Fred-104;
#DIFFICULTY:Medium;
#METER:11;
#CREDIT:Fred-104;
#NOTES:
00000000
00000000
00000000
00000000
,
00000000
00000000
00000000
00000000
,
00000000
00000000
00000000
00000000
,
00000000
00000000
00000000
00000000
,
00000000
00000000
00000000
00000000
,
00020000
00000000
00030010
00001000
,
00000020
00000000
00000230
00000000
,
00000302
00000000
00000000
00000103
,
00002000
00023000
02030000
23000000
,
30020000
00000000
00000000
10030000
,
00200000
00000000
00320000
00000000
,
00032000
00000000
00010000
00013000
,
00001000
00010000
00000010
00000000
00001000
00000001
00001000
00000000
,
00001001
00000000
00000000
00000000
00000001
00000000
00000100
00000010
,
00000020
00000000
00000000
00000000
00001030
00000000
00000001
00000010
,
00000010
00000000
00000000
00000100
00000000
00000000
00010000
00010000
,
00002000
00000000
00000000
00000000
00103000
00000000
00010000
00010000
,
10000000
00000000
00000000
01000000
00000000
00000000
00100000
00000000
,
00001000
00010000
00100000
10000000
,
00010000
00000000
00100000
00000000
01000000
10000000
01000000
00000000
,
00100000
00000000
00100000
00000000
00001000
00010000
00001000
00010000
,
00001000
00000000
00000000
00010000
00000000
00000000
00000010
00000000
,
00010000
00000000
00001000
00000100
00000010
00000000
00001000
00000000
,
00000001
00000000
00000000
00000100
00000000
00000000
00001000
00000000
,
00010000
00000000
00100000
01000000
00010000
00000000
10000000
00000000
,
01000000
00000000
00100000
00010000
00000000
00100000
00001000
00000000
,
00010000
00000000
00100000
00000000
01000000
00010000
10000000
00000000
,
01000000
00000000
00100000
00001000
00000000
00010000
00000100
00000000
,
00000010
00000001
00002002
00003003
,
00000110
00000000
00000001
00000100
00000000
00000010
00001000
00000000
,
00000110
00000000
00001000
00000100
00000000
00000010
00000001
00000000
,
00000101
00001100
00011000
00110000
,
20200000
00000000
00000000
30300000
00010000
10000000
00010000
00000000
,
10000000
00000000
01000000
00100000
00000000
00001000
00010000
00000000
,
00100000
00000000
01000000
00100000
00000000
10000000
01000000
00000000
,
00100000
00000000
00001000
00010000
00000000
00001000
00000010
00000000
,
00000001
00000000
00000100
00000010
00000000
00010000
00001000
00010000
,
00002000
00000000
00100000
00000000
00100000
00000000
00103000
00001000
,
00020000
00032000
00003020
00000032
,
00000103
00000110
00010000
00011000
,
01000000
00000000
00100000
01000000
00010000
10000000
01000000
00100000
,
00001000
00000000
00010000
00001000
00000000
00000100
00000001
00000100
,
00000010
00000000
00001000
00000010
00000000
00010000
00001000
00010000
,
00100000
00000000
01000000
00100000
00000000
10000000
00010000
01000000
,
00001000
00000000
00010000
00100000
00000000
01000000
00010000
10000000
,
02000000
00000000
00100000
00000000
00100000
00000000
03100000
00001000
,
00010000
00011000
00000010
00000110
,
00002000
00000000
00000001
00000000
00003001
00000010
00000100
00010000
,
00001000
00010100
00001000
01001000
,
00001000
00110000
01000000
01100000
,
10000000
01100000
00001000
00011000
,
00010000
00001000
00010000
00001000
00000010
00000100
00000010
00000100
,
00000010
00000001
00000100
00001000
00010000
00100000
01000000
00010000
,
10010000
00000000
00000000
00000000
10000000
01000000
00100000
00010000
,
00100000
00000000
00000000
00000000
00001000
00010000
00000010
00010000
,
00001000
00000000
00000000
00010000
00001000
00000100
00000001
00000010
,
00000100
00010000
00001000
00011000
,
01001000
00000000
00001000
00000000
01000000
00010000
01000000
00010000
,
10000000
00000000
01000000
00000000
00100000
00001000
00100000
00001000
,
00010000
00100000
01000000
00010000
,
10000000
01000000
00010000
00000000
00001000
00000100
00000001
00000000
,
00002000
00003200
00000320
00002030
,
00023000
00230000
02300000
03010000
,
11000000
00010000
00101000
00010000
,
00001000
00010000
00000100
00010000
00001000
01000000
00100000
10000000
,
20020000
00000000
00000000
30030000
,
20000000
00000000
00000000
00000000
,
30200000
00000000
00320000
00000000
,
00032000
00000000
00000000
00000000
,
00003020
00000000
00000230
00000300
,
00002200
00000000
00000000
00003300
,
00000002
00002003
00003200
00000320
,
00002030
00023000
00230000
02300000
,
03010000
00000000
00000000
20000000
00020000
00000000
30030000
00000000
,
11000000
00000000
01000000
00100000
00000000
00001000
00010000
00000000
,
00001000
00000000
00010000
00001000
00000000
00000010
00000001
00000000
,
00000010
00000000
00000100
00001000
00000000
00000100
00010000
00000000
,
00001000
00000000
00100000
00010000
00000000
10000000
01000000
00100000
,
00001000
00000000
00010000
00000000
00001000
00010000
00000010
00000000
,
00001100
00000010
00000101
00000010
,
00001000
00000000
00000001
00000000
00000100
00001000
00010000
00000000
,
00011000
01000000
10010000
00010000
,
01000000
00000000
00100000
00000000
10000000
01000000
00100000
00000000
,
00101000
00001000
00010010
00010000
,
00001000
00010000
00100000
01000000
00010000
10000000
01000000
00100000
,
00001000
00010000
00000100
00000010
00000001
00000100
00001000
00010000
,
02000000
00000000
00000000
00000000
,
00000000
00000000
00000000
00000000
,
00000000
00000000
00000000
03000000
,
22000000
00000000
00000000
00000000
,
33000000
00000000
00000000
00000000
;

//--------------- dance-double - Fred-104 ----------------
#NOTEDATA:;
#STEPSTYPE:dance-double;
#DESCRIPTION:Fred-104;
#DIFFICULTY:Hard;
#METER:15;
#CREDIT:Fred-104;
#NOTES:
00000000
00000000
00000000
00000000
,
00000000
00000000
00000000
00000000
,
00000000
00000000
00000000
00000000
,
00000000
00000000
00000000
00000000
,
00000000
00000000
00000000
00000000
,
00002000
00000000
00023000
00032000
,
00023000
00000000
00030020
00000000
,
00002030
00000000
00000000
00003200
,
00000320
00000000
00002030
00000000
00023000
00000000
00130000
01000000
,
00020000
00000000
00000000
00130000
,
02000000
00000000
03002000
00000000
,
00003200
00000000
00000010
00000320
,
00000031
00000000
00001000
00000000
00000010
00010000
00000010
00010000
00001000
00000000
00010000
00000000
01000000
00000000
00100000
00010000
,
10000000
00100000
00000000
01000000
00000000
00001000
00010000
00000010
,
00001000
00001000
00000000
00000100
00000000
00000001
00000100
00001000
,
00000001
00000001
00000000
00000100
00000000
00001000
00010000
01000000
,
10000000
10000000
00000000
01000000
00100000
00001000
00011000
00000000
,
00000110
00000000
00001000
00000010
00000100
00000001
00001000
00000000
,
00000011
00001100
01010000
10100000
,
00010000
01000000
10000000
01000000
00010000
10000000
01000000
00010000
,
00001000
00000000
00000010
00000000
00000100
00000000
00001000
00000000
00000001
00001000
00000001
00001000
00000001
00001000
00000001
00001000
,
00000001
00000010
00001000
00010000
00100000
10000000
00010000
00000000
,
01100000
00000000
10000000
00100000
00010000
00100000
10000000
00000000
,
00010000
10000000
01000000
00010000
00001000
00000100
00000001
00000000
,
00001001
00000000
00001000
00000010
00000100
00001000
00010000
00100000
,
01000000
00010000
10000000
01000000
00010000
00001000
00010000
00000000
,
00011000
00000000
00000010
00001000
00000001
00000010
00001000
00010000
,
00001000
01000000
00100000
00010000
00001000
00100000
01000000
00000000
,
11000000
00000000
10000000
00010000
00100000
00010000
10000000
00100000
,
10000000
01000000
00010000
00001000
00000100
00000001
00000010
00000000
,
00000001
00000100
00001000
00010000
01000000
10000000
00010000
00000000
,
10100000
01010000
00001100
00000011
,
00002002
00000000
00000000
00000000
00000000
00000000
00003003
00000000
00000100
00001000
00000100
00001000
00000001
00000100
00000001
00000100
,
00000010
00000100
00001000
00010000
00100000
01000000
00010000
00100000
,
01000000
00010000
00001000
00000010
00000100
00001000
00000010
00010000
,
00001000
00010000
00100000
01000000
00001000
00010000
01000000
00100000
,
00010000
01000000
00100000
00001000
00000010
00000100
00001000
00010000
,
00002000
00000000
00010000
00000000
01000000
00000000
00013000
00001000
,
00000200
00000302
00002003
00003100
,
00000110
00000001
00001000
00000000
00000110
00001000
00000001
00000000
,
00001000
00000000
00000001
00000000
00000100
00000000
00001000
00000000
00010000
00100000
01000000
00000000
00010000
01000000
00100000
00000000
,
10000000
01000000
00100000
00001000
00000010
00000100
00001000
00000001
,
00000100
00010000
01000000
00100000
10000000
01000000
00010000
00001000
,
00010000
00100000
01000000
00001000
00010000
01000000
10000000
00010000
,
01000000
00100000
01000000
00001000
00000100
00000010
00001000
00000001
,
00000020
00000000
00000100
00000000
00000001
00000000
00000130
00001000
,
00000020
00020030
00230000
02300000
,
03020000
00000000
01000000
00000000
10000000
00000000
00130000
01000000
,
00200000
00000000
00302000
00000000
00023000
00000000
00030020
00000030
,
00001010
00000101
00011000
10100000
,
10000000
01000000
00010000
00000000
00001000
00000100
00000001
00000000
,
00000001
00001000
00000100
00000010
00001000
00010000
01000000
00100000
,
00010000
00000000
10000000
00000000
00100000
00000000
01000000
00000000
00001000
00010000
00001000
00010000
00000010
00010000
00000010
00010000
,
00001000
00000000
00000000
00000000
00000000
00000000
00000000
00000000
00011000
00000000
00010000
00000000
00000100
00000000
00000010
00000001
,
00001000
00000000
00000000
00000000
00000011
00000001
00000100
00000010
,
00001000
00000000
00000001
00000010
00001000
00010000
01000000
00100000
,
00110000
00000000
11000000
00000000
00100000
00001000
00011000
00000000
,
00001001
00000000
00000001
00000100
00000010
00000100
00001000
00010000
,
00011000
00000000
00001000
00010000
01000000
00100000
00010000
10000000
,
00100000
00000000
10000000
00000000
01000000
00000000
00100000
00000000
00001000
00000000
00000010
00000000
00000100
00000000
00001000
00000001
,
00001000
00000001
00000010
00001000
00010000
00001000
00000100
00000010
,
00002000
00003200
00000320
00020030
,
00230000
00000000
02300000
00000000
23000000
00000000
30100000
01000000
,
01010000
00000000
00001000
00000000
00010100
00010000
00001000
00000000
,
00010000
00000000
00010000
00000000
00001000
00000000
00001000
00000000
00010000
00000010
00010000
00000010
00001000
00000001
00000010
00000001
,
00000010
00000100
00000010
00000100
00000010
00000100
00000010
00000100
00000010
00000100
00000010
00000100
00000010
00000000
00000000
00000000
,
00001001
00000000
00000000
00000001
00000000
00000000
00010000
00000000
,
00001000
00000000
00000000
01000000
00000000
00000000
00010000
00000000
,
10000000
00000000
00000000
00001000
00000000
00000000
00010000
00000000
,
00000100
00000000
00000000
00010000
00000000
00000000
00001000
00000000
,
00022000
00000000
00000000
00000000
00033000
00000000
00001000
00100000
,
00110000
10100000
11000000
01010000
,
10000000
01000000
00010000
00001000
,
00000020
00000000
00000000
00000000
00000000
00000000
00000031
00000000
00000020
00000000
00000000
00000000
00000130
00001000
00000001
00001000
,
00000010
00000100
00001000
00010000
00100000
01000000
00010000
00100000
,
01000000
00010000
00001000
00000010
00000100
00001000
00000010
00010000
,
00001000
00010000
01000000
00100000
00010000
00001000
00000100
00000010
,
00000001
00000100
00001000
00010000
00100000
10000000
00010000
00100000
,
02200000
00000000
00000000
00000000
00000000
00000000
03300000
00000000
10000000
00000000
01000000
00100000
01000000
00000000
00100000
00000000
,
00101000
00001000
00011000
00000000
00010010
00010000
00011000
00000000
,
00000220
00000000
00000000
00000000
00000000
00000000
00000330
00000000
00001000
00000000
00000010
00000100
00000010
00000000
00001000
00000000
,
00001010
00001000
00001001
00000000
00000011
00000001
00001001
00000000
,
00000110
00000000
00000000
00000000
00000001
00000000
00000010
00000000
00001000
00000000
00010000
00100000
01000000
00000000
00010000
00000000
,
01010000
01000000
01100000
00000000
11000000
01000000
01100000
00000000
,
00010000
00100000
10000000
00100000
00010000
10000000
01000000
00010000
,
00001000
00000000
00000100
00000000
00000001
00000000
00001000
00000000
00000100
00000010
00000100
00000010
00000001
00000010
00000001
00000010
,
00000200
00000000
00000000
00000000
,
00000000
00000000
00000000
00000000
,
00000000
00000000
00000000
00000300
,
00022000
00000000
00000000
00000000
,
00033000
00000000
00000000
00000000
;
