#TITLE:ZERO-ONE;
#ARTIST:Mr.T;
#GENRE:ELECTROSHOCK;
#BANNER:ZERO-ONE.png;
#BACKGROUND:ZERO-ONE-bg.png;
#CDTITLE:./CDTitles/bm IIDX 7th style.png;
#MUSIC:ZERO-ONE.ogg;
#SAMPLESTART:73.31;
#SAMPLELENGTH:15;
#BPMS:0=160;
#BGSTAGE:22;

//--------------- dance-single - Fred-104 ----------------
#NOTES:
     dance-single:
     Fred-104:
     Beginner:
     1:
     :
0000
0000
0000
0000
,
0000
0000
0000
0000
,
0000
0000
0000
0000
,
0000
0000
0000
0000
,
0000
0000
0000
0000
,
1000
0000
0000
0000
,
0000
0000
0000
0000
,
0001
0000
0000
0000
,
0000
0000
0000
0000
,
1000
0000
0000
0000
,
0010
0000
0000
0000
,
1000
0000
0000
0000
,
0000
0000
0000
0000
,
0001
0000
0000
0000
,
0100
0000
0000
0000
,
0001
0000
0000
0000
,
0000
0000
0000
0000
,
1000
0000
0000
0000
,
0010
0000
0000
0000
,
1000
0000
0000
0000
,
0001
0000
0000
0000
,
1000
0000
0000
0000
,
0000
0000
0000
0000
,
0001
0000
0000
0000
,
0000
0000
0000
0000
,
1000
0000
0000
0000
,
0100
0000
0000
0000
,
1000
0000
0000
0000
,
0010
0000
0000
0000
,
1000
0000
0000
0000
,
0000
0000
0000
0000
,
0001
0000
0000
0000
,
0000
0000
0000
0000
,
1000
0000
0000
0000
,
0000
0000
0000
0000
,
0001
0000
0000
0000
,
0000
0000
0000
0000
,
1000
0000
0000
0000
,
0001
0000
0000
0000
,
1000
0000
0000
0000
,
0000
0000
0000
0000
,
0001
0000
0000
0000
,
0000
0000
0000
0000
,
1000
0000
0000
0000
,
0000
0000
0000
0000
,
0001
0000
0000
0000
,
0100
0000
0000
0000
,
0001
0000
0000
0000
,
1000
0000
0000
0000
,
0001
0000
0000
0000
,
0010
0000
0000
0000
,
0001
0000
0000
0000
,
1000
0000
0000
0000
,
0001
0000
0000
0000
,
1000
0000
0000
0000
,
0100
0000
0000
0000
,
0000
0000
0000
0000
,
1000
0000
0000
0000
,
0001
0000
0000
0000
,
1000
0000
0000
0000
,
0010
0000
0000
0000
,
1000
0000
0000
0000
,
0000
0000
0000
0000
,
0001
0000
0000
0000
,
0000
0000
0000
0000
,
1000
0000
0000
0000
;

//--------------- dance-single - Fred-104 ----------------
#NOTES:
     dance-single:
     Fred-104:
     Easy:
     7:
     :
0000
0000
0000
0000
,
0000
0000
0000
0000
,
0000
0000
0000
0000
,
0000
0000
0000
0000
,
0000
0000
0000
0000
,
1000
1000
0010
0010
,
0100
0100
0001
0001
,
1000
0100
0010
0001
,
0100
0010
0100
0000
0001
1000
0001
0000
,
1001
1000
0000
0010
,
0000
0100
0001
1000
,
0001
0010
0000
0100
,
0000
1000
0001
0100
,
0010
1000
0000
0100
,
0000
0000
0010
0000
0001
0000
0100
0010
,
0100
0001
0000
1000
,
0001
0000
1000
0000
0001
0100
0010
0000
,
0200
0300
0200
0300
,
0001
0000
1000
0000
0100
0010
0100
0000
,
0020
0030
0020
0030
,
0001
0000
1000
0000
0001
0100
0001
0000
,
0010
0000
0100
0000
,
1000
0001
0100
0010
,
1000
0000
0010
1000
,
0001
0000
0100
0000
0010
1000
0010
0000
,
0200
0300
0200
0300
,
0001
0000
1000
0000
0100
0010
0001
0000
,
0200
0300
0200
0300
,
0010
0000
1000
0000
0100
1000
0001
0000
,
0100
0010
1000
0000
,
0001
1000
0100
0010
,
0001
1000
0001
0000
0100
0000
0010
0000
,
1000
0100
1000
0000
0001
0010
0001
0000
,
0200
0000
0020
0330
,
2000
0000
0002
3003
,
0200
0000
0020
0330
,
1000
0100
0001
0100
,
2000
0000
0020
3030
,
0002
0000
0200
0303
,
2000
0000
0200
3300
,
1000
0000
0001
0000
0100
0010
0100
0000
,
0001
0010
0110
0000
,
1000
0010
0110
0000
,
0001
0100
0110
0000
,
1000
0000
0100
0000
0010
0000
0001
1000
,
0001
1000
1100
0000
,
1000
0001
0101
0000
,
0001
0100
0110
0000
,
1000
0000
0010
0000
0100
0000
0001
1000
,
0002
0103
2000
3100
,
0001
1000
0001
0000
0100
0000
0010
0000
,
2000
3010
0002
0013
,
1000
0001
1000
0000
0010
0000
0100
0000
,
0001
1000
0001
0000
0010
0000
0100
0000
,
1000
0010
0100
0000
0010
0000
1000
0000
,
0001
1000
0010
0000
0100
0000
0001
0000
,
1000
0010
0100
0000
0001
1000
0001
0000
,
1000
0100
0010
0001
,
1000
0000
0001
0000
0100
0010
0100
0000
,
0001
1000
0001
0010
,
0100
0000
1000
0000
0001
0100
0001
0000
,
2000
0000
3200
0000
,
0320
0000
0032
0000
,
0203
0000
0320
0000
,
0130
0001
1000
0001
,
1001
0000
0000
0000
;

//--------------- dance-single - Fred-104 ----------------
#NOTES:
     dance-single:
     Fred-104:
     Medium:
     11:
     :
0000
0000
0000
0000
,
0000
0000
0000
0000
,
0000
0000
0000
0000
,
0000
0000
0000
0000
,
0000
0000
0000
0000
,
0002
0100
0000
0103
,
2000
0100
0000
3100
,
0002
1000
0000
1003
,
0001
0100
0000
0001
0100
0000
0010
1000
0000
0010
0000
0000
1000
0000
0001
0000
,
1000
0000
1100
0000
0001
0100
0010
0000
,
0100
0000
0110
0000
0010
1000
0001
0000
,
1000
0000
1010
0000
0010
0100
0001
0000
,
0100
0000
0110
0000
0010
1000
0001
0000
,
1000
0100
0010
0000
1000
0010
0100
0000
,
1000
0010
0100
0000
1000
0100
0010
0000
,
1000
0010
0001
0000
1000
0100
0001
0000
,
1000
0100
0000
1000
0001
0000
0100
0010
0000
1000
0000
0000
0001
0000
0010
0000
,
0100
0000
0000
1000
0000
1000
0000
0000
0100
0000
0000
0001
0000
0001
0000
0000
,
0100
1000
0001
0000
0100
0000
0010
0000
,
0100
0000
0000
0001
0000
0001
0000
0000
0100
0000
0000
1000
0000
1000
0000
0000
,
0100
0001
1000
0000
0100
0000
0010
0000
,
0001
0100
0001
0000
0010
0100
1000
0000
,
0010
1000
0001
0100
0010
1000
0001
0000
,
1000
0100
0010
0000
0001
1000
0010
0000
,
0100
0010
0000
1000
0001
0000
1000
0100
0000
0010
0000
0000
0001
0000
1000
0000
,
0001
0000
0000
0010
0000
0010
0000
0000
1000
0000
0000
0010
0000
0010
0000
0000
,
0001
1000
0010
0000
0100
0001
1000
0000
,
0001
0000
0000
0100
0000
0100
0000
0000
1000
0000
0000
0100
0000
0100
0000
0000
,
0001
0010
0100
0000
1000
0001
0100
0000
,
0010
1000
0100
0000
1000
0010
0100
0000
,
0010
1000
0001
1000
0100
0010
0001
0000
,
1000
0001
0100
0000
0001
1000
0010
0000
,
0100
0001
0000
0100
0001
0000
1000
0001
0000
1000
0000
0000
0001
0000
0100
0000
,
0020
2030
0200
3300
,
0020
0032
0200
0303
,
0002
2003
0200
3300
,
1000
0000
0001
0000
0100
0010
0100
0000
,
0002
0023
0200
0330
,
2000
3020
0200
0330
,
0002
2003
0002
3003
,
0001
0100
0000
0010
1000
0000
0001
0010
0000
0100
0000
0000
1000
0000
0001
0000
,
0100
0010
1000
0010
0100
0001
1000
0000
,
0001
0010
0100
1000
0100
0010
0001
0000
,
1000
0001
0100
0001
1000
0001
0010
0000
,
0100
1000
0001
0100
0010
1000
0010
0100
,
0001
1000
0100
0010
0001
1000
0010
0000
,
0100
0001
1000
0001
0010
0100
0010
0000
,
0001
1000
0010
0100
0001
1000
0100
0000
,
1000
0100
0000
1000
0001
0000
0100
0010
0000
1000
0000
0000
0001
0000
0010
0000
,
0001
0000
0000
0100
0000
0002
0000
0000
1003
0000
0000
0100
0000
0020
0000
0000
,
0031
0000
1000
0000
0001
0000
0100
0010
0000
0000
0100
0000
0001
0000
1000
0000
,
0100
0000
0000
1000
0000
0020
0000
0000
0130
0000
0000
0001
0000
0020
0000
0000
,
0130
0000
0010
0000
0001
0000
1000
0001
0000
0000
0100
0000
0010
0000
1000
0000
,
0001
0010
0000
0000
0001
0000
1000
0000
0001
0000
0100
0000
0010
0000
0000
0000
,
0100
0001
1000
0000
0100
0010
0001
1000
,
0010
0100
0000
0000
0010
0000
0100
0000
0001
0000
1000
0000
0100
0000
0000
0000
,
1000
0100
0000
1000
0001
0000
0010
0100
0000
0010
0000
0000
0001
0000
1000
0000
,
0001
0000
0101
0000
0010
1000
0001
0000
,
1000
0000
1100
0000
0100
0010
0001
0000
,
1000
0000
0110
0000
0001
0010
0100
0000
,
1000
0000
0110
0000
0001
0100
0010
0000
,
2000
0010
0000
3010
,
0002
0010
0000
0013
,
2000
0001
0000
3001
,
1000
0100
0000
0010
0001
0000
1000
0010
0000
0100
0000
0001
1000
0000
0001
0010
,
0100
0000
0000
0000
;

//--------------- dance-single - Fred-104 ----------------
#NOTES:
     dance-single:
     Fred-104:
     Hard:
     15:
     :
0000
0000
0000
0000
,
0000
0000
0000
0000
,
0000
0000
0000
0000
,
0000
0000
0000
0000
,
0000
0000
0000
0000
,
1000
1010
0001
0011
,
1000
1100
0001
0101
,
1000
0110
0001
0110
,
1000
0010
0100
0001
1000
0000
0100
1000
0000
0001
0000
1000
0001
0100
0010
1000
,
0001
0010
0000
0010
0100
0000
1000
0000
0001
0100
0000
0100
0010
0000
1000
0000
,
0001
0010
0000
0010
0001
0000
1000
0000
0010
0100
0000
0100
0001
0000
1000
0001
,
0010
0000
0100
0000
1000
0001
0100
0000
0010
0000
1000
0000
0100
0010
0001
0000
,
1000
0001
0100
0000
0001
1000
0010
1000
0001
0000
0010
0000
0100
1000
0100
0000
,
1000
0100
0000
0100
0010
0000
0001
0000
1000
0010
0000
0010
0100
0000
0001
0000
,
1000
0001
0000
0001
0010
0000
0100
0000
1000
0001
0000
0001
0100
0000
0010
0000
,
1000
0000
0001
0000
0010
0100
1000
0000
0100
0000
0010
0000
0001
1000
0010
0000
,
0100
0001
1000
0001
0010
0000
0010
0001
0000
1000
0000
0010
0100
0001
1000
0001
,
1000
0000
0000
0100
0000
0010
0000
0000
1000
0000
0000
0010
0000
0100
0000
0000
,
1000
0000
0001
0000
0100
0000
0010
0100
0000
0000
0001
0000
0100
0000
0001
0000
,
1000
0000
0000
0010
0000
0100
0000
0000
1000
0000
0000
0100
0000
0010
0000
0000
,
1000
0000
0001
0000
1000
0000
0100
0010
0000
0000
0001
0000
1000
0000
0001
0000
,
0010
0001
0000
0001
1000
0000
0001
0000
0100
0000
0001
1000
0001
0010
0000
0001
,
1000
0000
0100
0000
1000
0000
0001
0000
0100
0000
0001
0100
0010
0000
1000
0000
,
0001
0010
0000
0010
0100
0000
1000
0000
0001
0100
0010
0000
1000
0000
0001
0000
,
1000
0100
1000
0100
0010
0000
0010
0001
0000
1000
0000
0001
0100
0010
1000
0001
,
0010
0000
0000
0100
0000
1000
0000
0000
0001
0000
0000
0100
0000
0001
0000
0000
,
1000
0000
0010
0000
0100
0000
1000
0100
0000
0000
0010
0000
0100
0000
0001
0000
,
1000
0000
0000
0001
0000
0100
0000
0000
0010
0001
0000
0010
0000
0100
0000
0000
,
0001
0000
1000
0000
0100
0000
1000
0001
0000
0000
1000
0000
0100
0000
0010
0000
,
0100
1000
0000
1000
0001
0000
0100
0000
0010
0000
0100
0001
0100
0000
0001
0000
,
1000
0000
0100
0010
0100
0000
1000
0000
0001
0000
1000
0001
0100
0000
0010
0000
,
1000
0001
0000
0001
0010
0000
0100
0000
0010
0001
1000
0000
0100
0000
1000
0000
,
0001
0010
0001
0010
0100
0000
0100
1000
0000
0001
0000
0100
0010
1000
0010
0100
,
0002
2003
3020
0000
,
2030
3002
0203
0000
,
0302
0203
0320
0000
,
0032
0000
0023
0000
0230
0000
0301
1000
,
0200
2300
3002
0000
,
0203
0320
0032
0000
,
0023
0230
0302
0000
,
0103
0010
0000
0010
1000
0000
0001
1000
0000
1000
0100
0010
0001
0000
1000
0001
,
1000
0000
0100
0000
1000
0001
0000
0001
0100
0000
0100
0010
0000
0010
1000
0000
,
0001
0000
0010
0000
0100
1000
0000
1000
0001
0000
0001
0100
0000
0100
0010
0000
,
0100
0000
0001
0000
1000
0100
0000
0100
0010
0000
0010
0100
0000
0100
1000
0000
,
0001
0100
0000
0001
1000
0001
0000
0010
0001
1000
0000
0001
1000
0000
0010
0000
,
0100
0000
0001
0000
1000
0010
0000
0100
0001
0000
1000
0100
0000
0010
0001
0000
,
1000
0000
0001
0000
0010
0001
0000
1000
0100
0000
0010
0100
0000
1000
0001
0000
,
1000
0000
0010
0000
0100
0001
0000
1000
0100
0000
0010
0001
0000
1000
0001
0000
,
1000
0100
1000
0100
0010
0000
0010
0100
0000
1000
0000
0001
1000
0000
0100
0000
,
2000
0000
0000
3100
0000
0010
0000
0000
2000
0000
0000
3010
0000
0100
0000
0000
,
1000
0000
0001
0000
0010
0000
0100
0001
0000
0000
0100
0000
0010
0000
0001
0000
,
2000
0000
0000
3010
0000
0100
0000
0000
2000
0000
0000
3100
0000
0010
0000
0000
,
1000
0000
0001
0000
0100
0000
0010
0001
0000
0000
0010
0000
0100
0000
0001
0000
,
1000
0100
0000
0100
0010
0000
0100
0000
1000
0000
0001
0100
0001
1000
0100
0000
,
1000
0001
0010
0000
0001
1000
0010
1000
0001
0000
1000
0100
0010
0000
0001
0000
,
1000
0010
0000
0010
0100
0000
0001
0000
0100
0000
0010
0000
1000
0000
0001
0000
,
1000
0001
1000
0100
1000
0000
0001
0010
0000
0100
0000
1000
0001
0100
0010
1000
,
0001
1000
0000
0001
1000
0000
0100
0000
0010
0001
0000
0010
0001
0000
1000
0000
,
0001
0100
0000
0001
0100
0000
0010
0000
1000
0001
0000
1000
0100
0000
0010
0001
,
0000
1000
0000
0001
0100
0000
0010
0000
0100
0010
0000
0100
0010
0000
1000
0000
,
0001
0010
0000
0001
0010
0000
0100
0000
1000
0001
0000
0100
0010
0000
1000
0001
,
2000
0010
0000
3010
,
0002
0100
0000
0103
,
2000
0001
0000
3001
,
1000
0010
0100
0001
1000
0000
0001
0010
0000
0100
0000
1000
0001
0100
0010
0100
,
0001
0000
0000
0000
;

//--------------- dance-double - Fred-104 ----------------
#NOTES:
     dance-double:
     Fred-104:
     Easy:
     7:
     :
00000000
00000000
00000000
00000000
,
00000000
00000000
00000000
00000000
,
00000000
00000000
00000000
00000000
,
00000000
00000000
00000000
00000000
,
00000000
00000000
00000000
00000000
,
00001000
00001000
00010000
00010000
,
01000000
01000000
10000000
10000000
,
00010000
01000000
00100000
10000000
,
01000000
00100000
01000000
00000000
00100000
00000000
00001000
00000000
,
00011000
00010000
00000000
00000010
,
00000000
00010000
00001000
00010000
,
00000100
00010000
00000000
00000100
,
00000000
00001000
00000001
00001000
,
00000001
00000100
00000000
00000010
,
00000000
00000000
00000100
00000000
00001000
00000000
00010000
00100000
,
01000000
00010000
00000000
10000000
,
00010000
10000000
01000000
00100000
,
00002000
00003000
00002000
00003000
,
00010000
00000000
00001000
00000000
00010000
00000100
00010000
00000000
,
00002000
00003000
00002000
00003000
,
00010000
00000000
00001000
00000000
01000000
00001000
01000000
00000000
,
00001000
00000000
00010000
00000000
,
00001000
00100000
00010000
10000000
,
01000000
00000000
00100000
00001000
,
00010000
00000000
00001000
00000000
00010000
00000010
00010000
00000000
,
00002000
00003000
00002000
00003000
,
00010000
00000000
00001000
00000000
00000100
00000010
00001000
00000000
,
00000200
00000300
00000200
00000300
,
00000010
00000000
00000001
00000000
00001000
00000001
00001000
00000000
,
00000010
00010000
00001000
00000000
,
00010000
00001000
01000000
00100000
,
01000000
00010000
01000000
00000000
00010000
00000000
10000000
00000000
,
01000000
00100000
01000000
00000000
00100000
00001000
00100000
00000000
,
00002000
00000000
00013000
00000000
,
00020000
00000000
00031000
00000000
,
00002000
00000000
00013000
00000000
,
00010000
00001000
00000010
00001000
,
00020000
00000000
00002000
00033000
,
00002000
00000000
00020000
00033000
,
00020000
00000000
00002000
00033000
,
00001000
00000000
00010000
00000000
01000000
00100000
01000000
00000000
,
10000000
01000000
00100000
00001000
,
00010000
00001000
00011000
00000000
,
00010000
00001000
00000010
00000100
,
00001000
00000000
00000100
00000000
00000010
00000000
00000001
00001000
,
00000001
00000100
00001000
00010000
,
00001000
00010000
00011000
00000000
,
00001000
00010000
00100000
10000000
,
00010000
10000000
02000000
03000000
,
20000000
30100000
00020000
00130000
,
10000000
00000000
01000000
00000000
00100000
00010000
00100000
00000000
,
00002000
00013000
00200000
00310000
,
00001000
00000000
00010000
00000000
00000010
00001000
00000010
00000000
,
00001000
00000001
00001000
00000000
00000001
00000000
00000010
00000000
,
00000100
00001000
00000100
00000000
00010000
00000000
00001000
00000000
,
01000000
00001000
01000000
00000000
00001000
00000000
01000000
00000000
,
00010000
10000000
00010000
00000000
01000000
00100000
01000000
00000000
,
00010000
10000000
01000000
00100000
,
00001000
00000000
00010000
00000000
00001000
00010000
00001000
00000000
,
00010000
00001000
00000010
00000100
,
00010000
00000000
00001000
00000000
00000100
00000001
00001000
00000000
,
00000200
00000000
00000320
00000000
,
00000032
00000000
00002003
00000000
,
00003200
00000000
00020300
00000000
,
00031000
00010000
01000000
10000000
,
10010000
00000000
00000000
00000000
;

//--------------- dance-double - Fred-104 ----------------
#NOTES:
     dance-double:
     Fred-104:
     Medium:
     11:
     :
00000000
00000000
00000000
00000000
,
00000000
00000000
00000000
00000000
,
00000000
00000000
00000000
00000000
,
00000000
00000000
00000000
00000000
,
00000000
00000000
00000000
00000000
,
00010000
00001000
00000010
00000001
,
00001000
00000100
00000010
00000001
,
00000100
00001000
00010000
00100000
,
01000000
00010000
00000000
10000000
00010000
00000000
10000000
01000000
00000000
00100000
00000000
00000000
00010000
00000000
10000000
00000000
,
01000000
00100000
00001000
00000000
00010000
00000010
00001000
00000000
,
00000001
00000100
00000010
00000000
00000100
00001000
00010000
00000000
,
00100000
01000000
00010000
00000000
00100000
01000000
10000000
00000000
,
00100000
10000000
01000000
00000000
00010000
00001000
00010000
01000000
,
10000000
00010000
01000000
00000000
00100000
10000000
01000000
00000000
,
00010000
00001000
00000010
00000000
00000100
00001000
00000001
00000010
,
00000100
00000010
00001000
00000000
00010000
01000000
00100000
00000000
,
00010000
10000000
00000000
00100000
01000000
00000000
00010000
10000000
00000000
01000000
00000000
00000000
00100000
00000000
00001000
00000000
,
00010000
00000000
00000000
00001000
00000000
00000010
00000000
00000000
00001000
00000000
00000000
00010000
00000000
00100000
00000000
00000000
,
00010000
00001000
00010000
00000000
00000100
00000000
00010000
00000000
,
00001000
00000000
00000000
00010000
00000000
01000000
00000000
00000000
00010000
00000000
00000000
00001000
00000000
00000100
00000000
00000000
,
00001000
00010000
00001000
00000000
01000000
00000000
00001000
00000000
,
00100000
00010000
10000000
00000000
00100000
01000000
00010000
00000000
,
01000000
00100000
00010000
00001000
00000100
00000010
00001000
00000000
,
00000010
00010000
00001000
00000000
00100000
00010000
01000000
00000000
,
00010000
00100000
00000000
01000000
00100000
00000000
00010000
01000000
00000000
00001000
00000000
00000000
00010000
00000000
00001000
00000000
,
00010000
00000000
00000000
00001000
00000000
00000010
00000000
00000000
00000100
00000000
00000000
00010000
00000000
00001000
00000000
00000000
,
00000010
00000100
00010000
00001000
00010000
00000000
00001000
00000000
,
00010000
00000000
00000000
01000000
00000000
00100000
00000000
00000000
00001000
00000000
00000000
00010000
00000000
01000000
00000000
00000000
,
00100000
00001000
00010000
00001000
01000000
00000000
00100000
00000000
,
10000000
01000000
00100000
00000000
00001000
00010000
00001000
00000000
,
00010000
00000010
00001000
00000000
00000001
00000010
00000100
00000010
,
00000001
00000100
00001000
00000000
00010000
01000000
10000000
00000000
,
00010000
01000000
00000000
00100000
10000000
00000000
00010000
00100000
00000000
01000000
00000000
00000000
00100000
00000000
00010000
00000000
,
10000000
00100000
02200000
03300000
,
00100000
00001000
00022000
00033000
,
00010000
00000010
00002020
00003030
,
00001000
00000000
00000100
00000000
00000001
00000100
00001000
00000000
,
00000001
00000100
00000220
00000330
,
00010000
00001000
00022000
00033000
,
00001000
01000000
02200000
03300000
,
00010000
10000000
00000000
00100000
01000000
00000000
00010000
00100000
00000000
01000000
00000000
00000000
10000000
00000000
00010000
00000000
,
10000000
00100000
01000000
00100000
00010000
00001000
00000100
00000000
,
00000010
00001000
00000001
00000010
00000100
00000010
00000001
00000000
,
00000100
00001000
00010000
00100000
01000000
00010000
10000000
00000000
,
00010000
00100000
01000000
00100000
10000000
00100000
00010000
00000000
,
10000000
01000000
00100000
00001000
00010000
00001000
01000000
00000000
,
00001000
00010000
00001000
00000010
00000100
00001000
00000100
00000000
,
00000010
00000001
00001000
00000010
00000100
00000001
00001000
00000000
,
00000001
00000010
00000000
00000100
00001000
00000000
00000100
00010000
00000000
00001000
00000000
00000000
00010000
00000000
00001000
00000000
,
01000000
00000000
00000000
00010000
00000000
00200000
00000000
00000000
01300000
00000000
00000000
10000000
00000000
00200000
00000000
00000000
,
01300000
00000000
00010000
00000000
10000000
00000000
01000000
00100000
00000000
00000000
00001000
00000000
00010000
00000000
00001000
00000000
,
00000100
00000000
00000000
00000010
00000000
00020000
00000000
00000000
00031000
00000000
00000000
00000100
00000000
00000020
00000000
00000000
,
00010030
00000000
00001000
00000000
00000010
00000000
00000100
00001000
00000000
00000000
00000001
00000000
00000100
00000000
00000010
00000000
,
00000100
00000001
00000000
00000000
00000100
00000000
00000010
00000000
00001000
00000000
00000100
00000000
00010000
00000000
00000000
00000000
,
00000010
00010000
00001000
00000000
00010000
00100000
01000000
00010000
,
10000000
00010000
00000000
00000000
00100000
00000000
01000000
00000000
10000000
00000000
00100000
00000000
01000000
00000000
00000000
00000000
,
10000000
01000000
00000000
00100000
00010000
00000000
01000000
00010000
00000000
00100000
00000000
00000000
00001000
00000000
00010000
00000000
,
00001000
00010000
00100000
00000000
00010000
00001000
00000010
00000000
,
00001000
00010000
01000000
00000000
00010000
00001000
00000100
00000000
,
00001000
00010000
00001000
00000000
00100000
00010000
10000000
00000000
,
00010000
10000000
01000000
00010000
00001000
00000100
00000010
00001000
,
00000200
00000010
00000000
00000310
,
00000002
00000100
00000000
00000103
,
00002000
00000100
00000000
00003100
,
00000001
00000010
00000000
00000100
00000010
00000000
00000001
00001000
00000000
00000010
00000000
00010000
00001000
00000000
00010000
00001000
,
00010000
00000000
00000000
00000000
;

//--------------- dance-double - Fred-104 ----------------
#NOTES:
     dance-double:
     Fred-104:
     Hard:
     15:
     :
00000000
00000000
00000000
00000000
,
00000000
00000000
00000000
00000000
,
00000000
00000000
00000000
00000000
,
00000000
00000000
00000000
00000000
,
00000000
00000000
00000000
00000000
,
00010000
00001000
00100000
00000000
00010000
10000000
01000000
00000000
,
00100000
01000000
00010000
00000000
00001000
00000010
00000100
00000000
,
00001000
00000001
00000100
00000000
00001000
00010000
00100000
00000000
,
01000000
00010000
01000000
00010000
10000000
00000000
00010000
00100000
00000000
01000000
00000000
01000000
10000000
00010000
10000000
01000000
,
10000000
00100000
00000000
00100000
01000000
00000000
00010000
00000000
00100000
00001000
00000000
00001000
00010000
00000000
00001000
00000000
,
00000010
00000100
00000000
00000100
00001000
00000000
00000001
00000000
00000100
00000001
00000000
00000001
00000010
00000000
00000001
00001000
,
00000010
00000000
00000100
00000000
00000001
00001000
00000001
00000000
00000010
00000000
00000100
00000000
00010000
00001000
00010000
00000000
,
00001000
00100000
00001000
00000000
00100000
00010000
00100000
01000000
10000000
00000000
00010000
00000000
01000000
00100000
01000000
00000000
,
00100000
10000000
00000000
00100000
10000000
00000000
01000000
00000000
00100000
00010000
00000000
01000000
00001000
00000000
00010000
00000000
,
00001000
00000100
00000000
00000010
00001000
00000000
00000001
00000000
00000010
00000100
00000000
00000010
00000001
00000000
00001000
00000000
,
00000010
00000000
00010000
00000000
00001000
00010000
00001000
00000000
01000000
00000000
00010000
00000000
00100000
00001000
00100000
00000000
,
00001000
00010000
00001000
00010000
00001000
00000000
00010000
00000010
00000000
00001000
00000000
00001000
00000100
00010000
00001000
00010000
,
00100000
00000000
00000000
01000000
00000000
00010000
00000000
00000000
10000000
00000000
00000000
01000000
00000000
00100000
00000000
00000000
,
10000000
00000000
00100000
00000000
00010000
00000000
10000000
00010000
00000000
00000000
01000000
00000000
00100000
00000000
01000000
00000000
,
00010000
00000000
00000000
00100000
00000000
00001000
00000000
00000000
00010000
00000000
00000000
00001000
00000000
00000010
00000000
00000000
,
00000001
00000000
00001000
00000000
00000001
00000000
00000100
00000010
00000000
00000000
00001000
00000000
00000100
00000000
00000010
00000000
,
00000001
00000100
00000000
00000001
00000100
00000000
00001000
00000000
00010000
00000000
01000000
00100000
00010000
00100000
00000000
00010000
,
10000000
00000000
00100000
00000000
10000000
00000000
01000000
00000000
00100000
00000000
01000000
00100000
00001000
00000000
00010000
00000000
,
00001000
00000010
00000000
00000100
00001000
00000000
00000010
00000000
00010000
00001000
00010000
00000000
00000100
00000000
00001000
00000000
,
00000010
00001000
00000100
00001000
00000100
00000000
00010000
00001000
00000000
00010000
00000000
00100000
01000000
00010000
01000000
00010000
,
01000000
00000000
00000000
00100000
00000000
10000000
00000000
00000000
01000000
00000000
00000000
00100000
00000000
00001000
00000000
00000000
,
00010000
00000000
00001000
00000000
00000010
00000000
00000001
00001000
00000000
00000000
00000001
00000000
00000010
00000000
00000001
00000000
,
00000100
00000000
00000000
00001000
00000000
00000100
00000000
00000000
00000001
00000000
00000000
00000010
00000000
00001000
00000000
00000000
,
00010000
00000000
00100000
00000000
01000000
00000000
00010000
10000000
00000000
00000000
00100000
00000000
10000000
00000000
01000000
00000000
,
10000000
00010000
00000000
00100000
00010000
00000000
01000000
00000000
00100000
00000000
10000000
01000000
10000000
00000000
00100000
00000000
,
01000000
00000000
00100000
00010000
00001000
00000000
00000100
00000000
00000010
00000000
00001000
00000001
00001000
00000000
00000001
00000000
,
00000010
00000001
00000000
00000001
00001000
00000000
00000010
00000000
00000100
00000010
00001000
00000000
00000001
00000000
00000010
00000000
,
00000001
00000100
00000001
00000100
00000010
00000000
00001000
00000100
00000000
00000010
00000000
00000001
00001000
00000010
00010000
00001000
,
00020000
00000000
00000020
00030030
,
00020000
00000000
00002000
00033000
,
00002000
00000000
00200000
00303000
,
00002000
00000000
00020000
00033000
,
00002000
01000000
00020000
00033000
,
00020000
00000100
00002000
00033000
,
00020000
00032000
00020000
00033000
,
00010000
00000100
00001000
00000100
00010000
00000000
00000010
00001000
00000000
00000100
00000000
00001000
00000010
00000000
00000100
00000001
,
00001000
00000000
00000001
00000000
00000010
00000001
00000000
00001000
00000001
00000000
00000100
00000001
00000000
00001000
00000001
00000000
,
00001000
00000000
00000100
00000000
00010000
00000010
00000000
00010000
00001000
00000000
00010000
00000100
00000000
00010000
00001000
00000000
,
00100000
00000000
00010000
00000000
01000000
00001000
00000000
00010000
00001000
00000000
00100000
00001000
00000000
00010000
00000010
00000000
,
00001000
00000100
00000000
00000100
00010000
00001000
00000000
00001000
00100000
00010000
00000000
00010000
01000000
00000000
00001000
00000000
,
00010000
00000000
00000100
00000000
00001000
00000010
00000000
00000010
00000100
00000000
00000100
00000001
00000000
00000001
00001000
00000000
,
00000001
00000000
00000010
00000000
00000100
00010000
00000000
00010000
00001000
00000000
00001000
00100000
00000000
00100000
00010000
00000000
,
01000000
00000000
00010000
00000000
00100000
01000000
00000000
01000000
10000000
00000000
10000000
00010000
00000000
00010000
00100000
00000000
,
00010000
01000000
00010000
10000000
00010000
00000000
00100000
00001000
00000000
00010000
00000000
00001000
00000010
00000000
00000001
00000000
,
00002000
00000000
00000000
00003010
00000000
00000100
00000000
00000000
00000002
00000000
00000000
00000013
00000000
00000100
00000000
00000000
,
00010000
00000000
00001000
00000000
00100000
00000000
01000000
00100000
00000000
00000000
00010000
00000000
01000000
00000000
00100000
00000000
,
20000000
00000000
00000000
31000000
00000000
00010000
00000000
00000000
00002000
00000000
00000000
00013000
00000000
00100000
00000000
00000000
,
10000000
00000000
01000000
00000000
00100000
00000000
00010000
01000000
00000000
00000000
00010000
00000000
00100000
00000000
00001000
00000000
,
00010000
00001000
00000000
00000010
00000100
00000000
00001000
00000000
00000001
00000000
00000100
00000000
00000010
00000000
00001000
00000000
,
00000010
00010000
00000010
00000000
00010000
00001000
00010000
00000000
00001000
00000000
01000000
00010000
01000000
00000000
00001000
00000000
,
00010000
00000100
00000000
00001000
00000010
00000000
00010000
00000000
00001000
00000000
00100000
00010000
01000000
00000000
00001000
00000000
,
00010000
00001000
00010000
00000010
00001000
00000000
00000100
00010000
00000000
00001000
00000000
00010000
00100000
01000000
00010000
10000000
,
00010000
00100000
00000000
01000000
00100000
00000000
00010000
00000000
10000000
00100000
00000000
01000000
00100000
00000000
10000000
00000000
,
01000000
00100000
00000000
00001000
00010000
00000000
00000100
00000000
00001000
00000010
00000000
00001000
00000100
00000000
00010000
00000100
,
00001000
00000010
00000000
00000100
00000001
00000000
00001000
00000000
00000100
00000010
00000000
00000001
00001000
00000000
00000001
00000000
,
00000100
00000010
00000000
00000100
00001000
00000000
00010000
00000000
00100000
01000000
00000000
00010000
10000000
00000000
01000000
00100000
,
00020000
10000000
00000000
10030000
,
00200000
00010000
00000000
00310000
,
00002000
00000010
00000000
00003010
,
00000001
00001000
00000100
00001000
00000001
00000000
00000100
00000010
00000000
00000100
00000000
00001000
00010000
00100000
01000000
00010000
,
10000000
00000000
00000000
00000000
;
