#TITLE:ZENDEGI DANCE;
#ARTIST:ARM × BEMANI Sound Team "U1 overground";
#ARTISTTRANSLIT:ARM x U1 overground;
#GENRE:ORBITALIC ORIENTAL ELECTRO;
#BANNER:ZENDEGI DANCE.png;
#BACKGROUND:ZENDEGI DANCE-bg.png;
#CDTITLE:./CDTitles/bm IIDX 26 Rootage.png;
#MUSIC:ZENDEGI DANCE.ogg;
#SAMPLESTART:45.001;
#SAMPLELENGTH:15;
#BPMS:0=160;

//--------------- dance-single - Fred-104 ----------------
#NOTES:
     dance-single:
     Fred-104:
     Beginner:
     3:
     :
0000
0000
0000
0000
,
0000
0000
0000
0000
,
0000
0000
0000
0000
,
0000
0000
0000
0000
,
0000
0000
0000
0000
,
0000
0000
0000
0000
,
1000
0000
0000
0000
,
0001
0000
0000
0000
,
1000
0000
0000
0000
,
1000
0000
0000
0000
,
0100
0000
0100
0000
,
0010
0000
0010
0000
,
1001
0000
0000
0000
,
0000
0000
0000
0000
,
0001
0000
0001
0000
,
0010
0000
0010
0000
,
1000
0000
1000
0000
,
0100
0000
0100
0000
,
0001
0000
1000
0000
,
1000
0000
0001
0000
,
1001
0000
0000
0000
,
1001
0000
0000
0000
,
1000
1000
0010
0000
,
0010
0010
0001
0000
,
0001
0001
0100
0000
,
0100
0100
1000
0000
,
0002
0000
0000
0003
,
2000
0000
0000
3000
,
0000
0000
0000
0000
,
0000
0000
0000
0000
,
1000
0000
1000
0000
,
0010
0000
0010
0000
,
1000
0000
1000
0000
,
0001
0000
1000
0000
,
1001
0000
0000
0000
,
0001
0000
0010
0000
,
0010
0000
0100
0000
,
1001
0000
0000
0000
,
1000
0000
1000
0000
,
0001
0000
0001
0000
,
0010
0000
0100
0000
,
0010
0000
0001
0000
,
1001
0000
0000
0000
,
1000
0000
0001
0000
,
1001
0000
0000
0000
,
1001
0000
0000
0000
,
0001
0000
0000
0000
,
0010
0000
0000
0000
,
1000
0000
0000
0000
,
0100
0000
0000
0000
,
0001
0000
0001
0000
,
1000
0000
1000
0000
,
0100
0000
0100
0000
,
0010
0010
0010
0000
,
0002
0000
0000
0003
,
2000
0000
0000
3000
,
0002
0000
0000
0003
,
2000
0000
0000
3000
,
1001
0000
0001
0000
,
1000
0000
0010
0000
,
0100
0000
0100
0000
,
0002
0003
0002
0003
,
1000
0000
0001
0000
,
2000
0000
3000
0000
,
0001
0000
1000
0000
,
0010
0000
0010
0000
,
0100
0000
0100
0000
,
1001
0000
0000
0000
,
0001
0000
0001
0000
,
0010
0000
0010
0000
,
1000
0000
0010
0000
,
0100
0000
0010
0000
,
0001
0000
0001
0000
,
1000
0000
0010
0000
,
1001
0000
0000
0000
,
1001
0000
0000
0000
,
0001
0000
1000
0000
,
0002
0003
2000
3000
,
2002
0000
0000
0000
,
0000
0000
0000
3003
;

//--------------- dance-single - Fred-104 ----------------
#NOTES:
     dance-single:
     Fred-104:
     Easy:
     8:
     :
0000
0000
0000
0000
,
0000
0000
0000
0000
,
0000
0000
0000
0000
,
0000
0000
0000
0000
,
0000
0000
0000
0000
,
0000
0000
0000
0000
,
0001
0000
0010
0010
,
0100
0000
0100
0000
1000
0001
1000
0000
,
0001
0000
0100
0100
,
0010
0000
0100
0000
0001
1000
0001
0000
,
1001
0000
1000
0100
,
0010
0001
0100
0010
,
2002
0000
3003
0000
,
1001
1001
1001
0000
,
0001
0010
0200
0300
,
1000
0010
0200
0300
,
0010
0010
1000
0100
,
0010
0010
0001
1000
,
1001
0000
0001
0100
,
0010
0010
0100
0001
,
1001
0000
1000
0100
,
1000
0001
2000
3000
,
0001
0100
2000
3000
,
0001
0010
2000
3000
,
0001
0010
2000
3000
,
0001
0100
2000
3000
,
0001
0001
1000
1000
,
0010
0100
0010
0000
1000
0001
1000
0000
,
0000
0000
0000
0000
,
1001
1001
1001
0000
,
0001
1000
0010
0010
,
0100
0001
2000
3000
,
0001
0010
0100
1000
,
0001
0100
0110
0000
,
1001
0000
0001
1000
,
0010
0010
1000
0100
,
0010
0000
0001
1000
,
0001
0100
0110
0000
,
0001
0001
1000
0010
,
1000
0100
0020
0030
,
0001
0001
0100
0010
,
0100
0001
1001
0000
,
1001
0000
1000
0100
,
0001
0100
0010
0100
,
1000
0000
0001
0100
,
1000
0100
0002
0003
,
1000
0000
0000
1000
0000
0000
0010
0000
,
0100
0100
0000
0000
0001
0000
0010
0000
,
0100
0000
0000
0100
0000
0000
0100
0000
,
0010
0001
0010
0001
0010
0000
2002
3003
,
0001
0001
0000
0001
0000
0010
0000
0010
,
0000
0100
0000
0100
1000
0000
1000
0000
,
0010
0010
0000
0010
0000
0100
0000
0100
,
0010
0000
0100
0000
0001
1000
0001
0000
,
2000
0000
3010
0000
,
0002
0000
0013
0000
,
2000
0000
3001
0001
,
0010
0100
0010
0000
0100
0010
0100
0000
,
1001
0000
1000
0010
,
0100
0001
0010
0100
,
1000
1000
0000
0001
0000
0001
0000
0100
,
0020
0130
0020
0130
,
0001
0010
0100
1000
,
0002
0203
0320
2030
,
3001
1000
0100
0010
,
1000
0010
0001
1000
,
0001
0100
0001
0000
1000
0010
1000
0000
,
1001
0000
0000
0000
,
1000
0100
1000
0100
,
0010
0001
0100
0100
,
0010
1000
0010
0000
0100
0001
0100
0000
,
0001
1000
0001
0000
2002
0000
3003
0000
,
0001
0010
0001
0000
0001
0100
0001
0000
,
1000
0100
1000
0000
1000
0010
1000
0000
,
1001
0000
0110
0000
,
1001
0000
0110
0000
,
1001
1001
0110
0110
,
2002
3003
0220
0330
,
2002
0000
0000
0000
,
0000
0000
0000
3003
;

//--------------- dance-single - Fred-104 ----------------
#NOTES:
     dance-single:
     Fred-104:
     Medium:
     13:
     :
0000
0000
0000
0000
,
0000
0000
0000
0000
,
0000
0000
0000
0000
,
0000
0000
0000
0000
,
0000
0000
0000
0000
,
0000
0000
0000
0000
,
1000
0000
1010
0000
0001
0010
1000
0010
,
0001
0010
0100
0100
1000
0010
0100
0100
,
0100
0000
0000
0001
1000
0000
0100
0000
0010
0000
0010
0000
0001
0000
1000
0000
,
0010
0010
0010
0010
0110
0000
1001
0000
,
0001
0000
0000
0001
0000
0000
0001
0000
1000
0000
0100
0000
0010
0000
0001
0000
,
1000
0010
0100
0001
0010
0100
0010
0001
,
2002
0000
3003
0000
,
1001
0110
1001
1001
,
1100
0000
0101
0000
1000
0100
0020
0000
,
0031
0000
1000
0000
0010
0000
0100
0001
0000
0000
0001
0000
1000
0000
0001
0000
,
1000
1000
0100
0010
0001
0001
0100
0010
,
1000
0000
1000
0000
0001
0000
0010
0000
0100
1000
0100
1000
0100
0000
0000
0000
,
2002
0000
3003
0001
0100
1000
0001
0010
,
1000
0000
0000
1000
0100
0000
0010
0000
0001
0000
1000
0000
1100
0000
0000
0000
,
0202
0000
0303
0001
1000
0100
0010
0001
,
1000
1000
1000
0002
0200
0003
0300
0000
,
0001
0100
1000
0000
0001
0010
2000
3000
,
1000
0100
0001
0000
1000
0010
0002
0003
,
0001
0010
1000
0000
0001
0100
2000
3000
,
1000
0010
0001
0000
1000
0100
0002
0003
,
0001
0010
0100
1000
0001
0100
0010
1000
,
0100
0100
0100
0100
0010
0010
0010
0010
,
0000
0001
0100
0010
0100
0000
0110
0000
,
1001
0000
1001
0000
0001
1000
1001
0000
,
1010
0000
0011
0000
1000
0001
0020
0000
,
0130
0000
0010
0000
0001
0000
0100
0010
0000
0000
0010
0000
0100
0000
0001
0000
,
1000
0100
0000
1000
0100
0000
0010
0000
0001
0100
0000
0001
0100
0000
0010
0000
,
1000
0000
1000
0000
0001
0000
0010
0000
0100
0010
0100
0010
0100
0000
1000
0000
,
2002
0000
3003
1000
0010
0001
1000
0100
,
0001
0000
0000
0001
0010
0000
0100
0000
0010
0000
0001
0000
0100
0000
0000
0000
,
0220
0000
0330
0001
1000
0010
0100
0001
,
1000
1000
1000
0100
0010
0100
0110
0000
,
0011
0000
1010
0000
0001
1000
0200
0000
,
0310
0000
0100
0000
1000
0000
0001
0100
0000
0000
0100
0000
0010
0000
0100
0000
,
0001
0001
1000
0010
0100
0100
0001
1000
,
0100
0000
0100
0000
0010
0000
0001
0000
1000
0010
1000
0010
1000
0000
0000
0000
,
2002
0000
3003
1000
0100
0001
1000
0010
,
0100
0000
0000
0100
1000
0000
0001
0000
0100
0000
0010
0000
0100
0000
0000
0000
,
0110
0000
1001
0000
0001
1000
0010
1000
,
0001
0010
1000
0001
0100
1000
0001
0000
,
1001
0000
0000
1000
0000
0000
0010
0000
,
0100
0100
0000
0001
0001
0000
1000
0000
,
0001
0000
0000
0001
0000
0000
0010
0000
,
0100
0000
0000
0000
1000
0000
1000
0000
1000
0000
0001
0000
1001
0000
0000
1000
,
0001
0011
0000
1010
0000
0101
0000
1100
,
0000
0110
0000
0011
0001
1000
0001
0001
,
0100
0110
0000
1010
0000
0101
0000
1100
,
1000
0001
0000
0001
1000
0000
0010
0000
0100
0000
0001
0000
1000
0000
1000
0000
,
0200
0000
0001
0000
0010
0010
0310
0000
,
0100
1000
0001
0100
0010
0100
0110
0000
,
1001
0000
0001
0020
0100
0100
0100
0130
,
1000
1000
1000
1000
0001
0100
0110
0000
,
1000
0000
0000
1000
0000
0000
1000
0000
0001
0000
0010
0000
0100
0000
0010
0000
,
0100
1000
0001
0100
0010
1000
0100
0010
,
0001
0011
0000
1010
0000
0101
0001
1000
,
0200
0010
0000
0000
0310
0000
0001
0000
0200
0010
0000
0000
0310
0000
1000
0000
,
0001
0001
0010
1000
0001
0001
0100
1000
,
0001
0010
0001
0000
0010
0000
0100
0000
1000
0010
1000
0000
0010
0000
0100
0000
,
0101
0000
0001
1000
0100
0001
1000
0010
,
0001
0000
0000
0001
0100
0000
0010
0000
0100
0000
0001
0000
1001
0000
0000
0000
,
0001
0010
1000
0010
0100
0001
0100
1000
,
0020
0100
0100
0130
0001
1000
1001
0000
,
1000
0100
1000
0010
0100
0001
1000
0100
,
0010
0000
0001
0000
1000
0000
0010
0100
0000
0100
0001
0000
1000
0000
0001
0000
,
0010
0010
1000
0001
0100
0100
1000
0001
,
0100
0000
0010
1000
0010
0000
0100
0000
0001
0000
0000
0011
0000
0000
0011
0000
,
1001
0000
0000
1000
0100
0000
0010
0000
0001
0000
0000
0001
0100
0000
0010
0000
,
1000
0001
0010
1000
0010
0100
0010
0001
,
2002
0000
3003
0001
0100
1000
0100
0001
,
2002
0000
3003
1000
0100
0001
0100
1000
,
0001
1000
0001
0000
1000
0001
1000
0000
0001
1000
0001
1000
0001
0000
0000
0000
,
2000
3010
0002
0103
,
2200
0000
0000
0000
,
0000
0000
0000
3300
;

//--------------- dance-single - Fred-104 ----------------
#NOTES:
     dance-single:
     Fred-104:
     Hard:
     16:
     :
0000
0000
0000
0000
,
0000
0000
0000
0000
,
0000
0000
0000
0000
,
0000
0000
0000
0000
,
0000
0000
0000
0000
,
0000
0000
0000
0000
,
0001
0000
0000
0001
1000
0000
0010
0000
2010
0000
3002
0000
0023
0000
0230
0000
,
0302
0000
0000
0000
0000
0000
0103
0000
0000
0000
0000
0000
2000
0000
0000
0000
0000
0000
3002
0000
0000
0000
0000
0000
0103
0000
0000
0000
1000
0000
0000
0000
0100
0000
0000
0000
0010
0000
0000
1000
0000
0000
0010
0000
0000
1000
0000
0000
,
0002
0000
0000
1003
0100
1000
0100
1000
0200
0000
0310
0001
0020
0000
0031
0000
,
0012
0000
0010
0000
0010
0000
0013
0000
0210
0000
2300
0000
3001
1000
0001
1000
,
0001
0000
0000
0100
0000
0000
0001
0000
2000
0000
3200
0000
0320
0000
0032
0000
,
0203
0000
0320
0000
0032
0000
2003
0000
3200
0000
0320
0000
2030
0000
3002
0003
,
2002
0000
3000
0003
,
1001
0000
0000
0000
1001
0000
0000
0000
1000
0001
0000
0001
1000
0000
0001
0000
,
1001
0000
0110
0000
1000
0100
0002
0000
,
1003
0000
0010
0000
0100
0000
1000
0002
0000
0000
0103
0000
0010
0000
1000
0000
,
0001
0100
0001
0100
0001
0000
1000
0000
0001
0010
0001
0010
0001
0000
1000
0000
,
0001
0000
0100
0010
0100
0000
0001
0000
0010
0100
0010
0100
0010
0000
0000
0000
,
1001
0000
0000
0000
0110
0000
1000
0000
0001
0100
0010
1000
0001
0100
0010
1000
,
0001
0000
0000
0001
0010
0000
1000
0000
0010
0100
0010
0100
0010
0000
0001
0000
,
2002
0000
0003
0000
3001
0000
0100
0000
0001
0000
1000
0001
1000
0000
0100
0000
,
0010
0100
0010
0100
0010
0000
0001
0000
1000
0000
0001
2000
0002
0000
3003
0000
,
0001
0100
0001
0100
0010
0100
0010
0200
0002
0000
0300
0000
0003
0000
1000
0001
,
1000
0100
1000
0100
0010
0100
0010
0200
2000
0000
0300
0000
3000
0000
0001
1000
,
0001
0010
0001
0010
0100
0010
0100
0020
0002
0000
0030
0000
0003
0000
1000
0001
,
1000
0010
1000
0010
0100
0010
0100
0020
2000
0000
0030
0000
3000
0000
0000
0000
,
0001
0010
0100
0000
1000
0000
0001
0000
1000
0010
0100
0000
0001
0000
1000
0000
,
0001
0010
0100
1000
0001
1000
0010
1000
0001
0100
0010
1000
0001
1000
0100
0010
,
0000
1000
0010
0001
0100
0000
0110
0000
,
1002
0000
1003
0000
2001
0000
3001
0000
1001
0000
1000
0001
1000
0000
0010
0000
,
1010
0000
0101
0000
1100
0010
0002
0000
,
1003
0000
0100
0000
0001
0000
1000
0020
0000
0000
0130
0000
1000
0000
0001
0000
,
0010
0100
0010
0100
0020
0000
2030
0000
3010
0100
0010
0100
0020
0000
0032
0000
,
1003
0000
0001
0100
0010
0000
1000
0000
1100
0000
0000
0011
0000
0000
1010
0000
,
0101
0000
0000
0000
1001
0000
0001
0000
1000
0100
0010
0001
1000
0100
0010
0001
,
1000
0000
0000
0010
0100
0000
1000
0000
0001
0000
0010
0000
1000
0000
0001
0000
,
2002
0000
3000
0000
1003
0000
0100
0000
0010
0000
0001
1000
0001
0000
0100
0000
,
0001
1000
0100
1000
0001
0000
0100
0010
0100
0001
0100
0001
0100
0000
0010
0000
,
1010
0000
0101
0000
1001
0100
2000
0000
,
3001
0000
0100
0000
1000
0000
0001
0020
0000
0000
0130
0000
0010
0000
1000
0000
,
0100
0010
0100
0010
0200
0000
0302
0000
0103
0010
0100
0010
0200
0000
2300
0000
,
3001
0000
0100
1000
0100
0000
0001
0000
1000
0100
0010
0001
1000
0000
1000
0000
,
1001
0000
0000
0000
0110
0000
1000
0000
0001
0100
0010
1000
0010
0100
0001
1000
,
0100
0000
0000
0100
0001
0000
0100
0000
0010
0000
0100
0000
1100
0000
0000
0000
,
0220
0000
0330
0000
1001
0000
0001
0000
0010
0000
0100
1000
0001
0000
0100
0000
,
0010
0000
1000
0001
0010
0001
1000
0001
0010
0100
1000
0010
0100
0000
0000
0000
,
0001
0000
1000
0000
0100
0000
0010
0000
0001
1000
0001
1000
0010
0100
0010
0100
,
0001
0000
1000
0000
0010
0000
1000
0000
0001
0010
0001
0010
0100
0010
0100
0010
,
0001
0000
1000
0000
0010
0000
0100
0001
0100
0001
0100
0000
0001
1000
0001
1000
,
0100
0000
0010
0001
0010
0100
0010
0001
0010
0000
0010
0000
0110
0000
0000
1000
,
0001
0011
0000
1010
0000
0101
0000
1100
,
0000
0000
0011
0000
0000
0000
0110
0000
1000
0001
0100
0010
0100
0001
1000
0100
,
1000
1100
0000
0101
0000
0011
0000
1010
,
1000
0000
0000
0001
0000
0000
0000
0000
0000
0001
0000
0000
1000
0000
0000
0000
0000
0000
0100
0000
0000
0010
0000
0000
0100
0000
0000
0010
0000
0000
0001
0000
0000
1000
0000
0000
0010
0000
0000
0000
0100
0000
0000
0000
0001
0000
0000
0000
,
2000
0000
0100
0000
0001
0001
0010
0000
,
3002
0000
0000
0000
0000
0000
1003
0000
0000
0000
0000
0000
0010
0000
0000
0000
0100
0000
0000
0000
1000
0000
0000
0000
0001
0000
0000
0000
0010
0000
0000
0000
1000
0000
0000
0000
0001
0000
0000
1000
0000
0000
0001
0000
0000
1000
0000
0000
,
0020
0000
0030
0001
0010
0001
0010
0100
0020
0000
2030
0000
3002
0000
0023
0000
,
0230
0300
0120
0030
0210
0300
0120
0030
1002
0000
2003
0000
3001
1000
0001
1000
,
0001
0000
0000
0100
0000
0000
0001
0000
2000
0000
3200
0000
0320
0000
2030
0000
,
3002
0203
0302
2003
3020
0032
2003
3020
,
1030
0000
0002
0000
0103
0000
2000
0000
3001
0000
0020
0000
0130
0010
2000
0000
,
3001
0010
0001
0000
2000
0000
3020
0000
0130
0001
0100
0000
0020
0000
2030
0000
,
3001
1000
0100
0010
0002
0000
2003
0000
3001
1000
0010
0100
0002
0000
2003
0000
,
3100
1000
0100
1000
0001
0010
0100
0010
0001
1000
0001
0100
0001
0100
0010
1000
,
0001
0000
0010
0000
0001
0000
1000
0000
0001
0100
0010
1000
0001
0100
0010
1000
,
0001
0010
0100
0010
0100
0000
0001
0000
0100
0000
1000
0000
1001
0000
0000
0000
,
0001
0010
0100
0010
0100
1000
0001
0100
0010
0100
0010
1000
0001
0010
0100
2000
,
0001
0000
0001
0000
0001
0000
3001
0000
1000
0100
0010
0001
1000
0100
0020
0000
,
0031
1000
0010
1000
0001
0000
0010
0100
1000
0000
0001
0000
0200
0000
0000
0000
,
0310
1000
0010
0100
0020
0000
1030
0001
0010
0100
0010
0001
0010
0100
2000
0000
,
3001
0100
0010
1000
0200
0000
0320
0000
0031
0010
0100
1000
0020
0000
0230
0000
,
0301
0000
1000
0001
0010
0000
0100
0000
1100
0000
0000
0101
0000
0000
1010
0000
,
1001
0000
0000
0001
0100
0000
0010
1000
0001
0000
0000
0001
0010
0000
0100
1000
,
0010
0000
0000
0000
0000
0000
1000
0000
0000
0001
0000
0000
0010
0000
0000
0000
0000
0000
0100
0000
0000
0010
0000
0000
0001
0000
0000
0000
0000
0000
1000
0000
0010
0000
1000
0000
0010
0000
0000
0000
0000
0000
0100
0000
0000
0000
0000
0000
,
0202
0000
0000
0000
0303
0000
1000
0000
0010
0000
0100
0001
1000
0001
1000
0000
,
2200
0000
0000
0000
3300
0000
0001
0000
0010
0100
1000
0001
0100
0000
0010
0000
,
1000
0001
0010
0100
1000
0001
0010
0100
1000
0010
0100
0001
0020
0000
0030
0000
,
1200
0310
0201
0310
,
2002
0000
0000
0000
,
0000
0000
0000
3003
;

//--------------- dance-double - Fred-104 ----------------
#NOTES:
     dance-double:
     Fred-104:
     Easy:
     8:
     :
00000000
00000000
00000000
00000000
,
00000000
00000000
00000000
00000000
,
00000000
00000000
00000000
00000000
,
00000000
00000000
00000000
00000000
,
00000000
00000000
00000000
00000000
,
00000000
00000000
00000000
00000000
,
00010000
00000000
00000100
00000100
,
00000010
00000000
00000010
00000000
00000001
00001000
00000001
00000000
,
00000100
00000000
00001000
00001000
,
00010000
00000000
00001000
00000000
00000010
00000001
00000010
00000000
,
00001001
00000000
00000001
00000100
,
00000010
00000100
00001000
00010000
,
00022000
00000000
00033000
00000000
,
00011000
00011000
00011000
00000000
,
00001000
00010000
00200000
00300000
,
10000000
01000000
00020000
00030000
,
00001000
00001000
00010000
00010000
,
00001000
00000010
00000100
00010000
,
00011000
00000000
00010000
00001000
,
00000100
00000010
00010000
00001000
,
00011000
00000000
00001000
00010000
,
01000000
00100000
00002000
00003000
,
00010000
00001000
00000010
00000002
,
00001003
00000001
00000100
00002000
,
00013000
00001000
00000100
00000002
,
00001003
00000001
00000010
00002000
,
00013000
00001000
00010000
00100000
,
01000000
00010000
10000000
00000000
01000000
00100000
00001000
00000000
,
00000000
00000000
00000000
00000000
,
00011000
00000110
00001001
00000000
,
00001000
00000100
00000001
00000100
,
00001000
00000001
00002000
00003000
,
00000100
00000010
00001000
00010000
,
00001000
01000000
01100000
00000000
,
10010000
00000000
10000000
00100000
,
00010000
00100000
10000000
00010000
,
00100000
00000000
00001000
00010000
,
00001000
00000100
00000101
00000000
,
00000001
00000001
00000010
00000010
,
00001000
00010000
00002000
00003000
,
00010000
00001000
01000000
00010000
,
00100000
00001000
00011000
00000000
,
00000110
00000000
00000001
00000010
,
00000100
00000010
00001000
00000010
,
00000001
00000000
00000100
00000010
,
00000100
00001000
00010000
00001000
,
00011000
00000000
00000000
00001000
00000000
00000000
01000000
00000000
,
00010000
00010000
00000000
00000000
10000000
00000000
01000000
00000000
,
00100000
00000000
00000000
00001000
00000000
00000000
00010000
00000000
,
00000100
00001000
00000100
00010000
00001000
00000000
00011000
00000000
,
00010000
00010000
00000000
00001000
00000000
00000010
00000000
00001000
,
00000000
00010000
00000000
00001000
00010000
00000000
00010000
00000000
,
00001000
00001000
00000000
00010000
00000000
00100000
00000000
00010000
,
00001000
00000000
01000000
00000000
00010000
00100000
00001000
00000000
,
00020000
00000000
00031000
00000000
,
00000020
00000000
00001030
00000000
,
00020000
00000000
00031000
00001000
,
00100000
00001000
00010000
00000000
00000010
00001000
00000001
00000000
,
00001001
00000000
00000001
00000010
,
00001000
00010000
01000000
10000000
,
00010000
00010000
00000000
10000000
00000000
10000000
00000000
01000000
,
00200000
00301000
00020000
00030010
,
00010000
00001000
00000100
00000010
,
00020000
00032000
00003020
00000230
,
00010300
00001000
00000100
00000001
,
00001000
00000100
00000010
00000001
,
00001000
00000010
00000100
00000000
00001000
00010000
00001000
00000000
,
00011000
00000000
00000000
00000000
,
10000000
00010000
00100000
01000000
,
10000000
00010000
01000000
00001000
,
00010000
00001000
00100000
00000000
00010000
00100000
00001000
00000000
,
00010000
00000010
00001000
00000000
00002002
00000000
00003003
00000000
,
00000001
00000010
00001000
00000000
00010000
00001000
00010000
00000000
,
00001000
00010000
01000000
00000000
10000000
00010000
10000000
00000000
,
10010000
00000000
01100000
00000000
,
10010000
00000000
01100000
00000000
,
10000000
01000000
00010000
00001000
,
00022000
00033000
00000220
00000330
,
00002002
00000000
00000000
00000000
,
00000000
00000000
00000000
00003003
;

//--------------- dance-double - Fred-104 ----------------
#NOTES:
     dance-double:
     Fred-104:
     Medium:
     13:
     :
00000000
00000000
00000000
00000000
,
00000000
00000000
00000000
00000000
,
00000000
00000000
00000000
00000000
,
00000000
00000000
00000000
00000000
,
00000000
00000000
00000000
00000000
,
00000000
00000000
00000000
00000000
,
00001000
00000000
00011000
00000000
00010000
00010000
00010000
00000000
,
00001000
00010000
00100000
10000000
00010000
10000000
01000000
00010000
,
00001000
00000000
00000000
00001000
00010000
00000000
00000010
00000000
00001000
00000000
00000100
00000000
00010000
00000000
00001000
00000000
,
00000100
00000100
00000100
00000100
00000101
00000000
00000110
00000000
,
00011000
00000000
00000000
00001000
00000000
00000000
00001000
00000000
00010000
00000000
01000000
00000000
00100000
00000000
01000000
00000000
,
10000000
00010000
01000000
00100000
00010000
00001000
00000100
00000001
,
00002002
00000000
00003003
00000000
,
00000110
00000000
00000000
00000000
00000110
00000000
00000000
00000000
00000001
00001000
00000000
00000001
00001000
00000000
00000000
00000000
,
00000110
00000000
00011000
00000000
00010000
00001000
00020000
00000000
,
00031000
00000000
00010000
00000000
00001000
00000000
00100000
00010000
00000000
00000000
00010000
00000000
01000000
00000000
00001000
00000000
,
00010000
00010000
00001000
00000010
00000001
00000001
00000100
00001000
,
00010000
00000000
00010000
00000000
00001000
00000000
00100000
00000000
00010000
10000000
00010000
10000000
00010000
00000000
00000000
00000000
,
02200000
00000000
03300000
10000000
01000000
00010000
10000000
00100000
,
00010000
00000000
00000000
00010000
10000000
00000000
01000000
00000000
00100000
00000000
00001000
00000000
00010000
00000000
00000000
00000000
,
00022000
00000000
00033000
00010000
00001000
00010000
00100000
01000000
,
10000000
01000000
00100000
02000000
00020000
03000000
00030000
00000000
,
10000000
01000000
00010000
00002000
00020000
00003000
00030000
00000000
,
00001000
00010000
00001000
00000020
00000002
00000030
00000003
00000000
,
00000001
00000100
00001000
00020000
00002000
00030000
00003000
00000000
,
00010000
00001000
00010000
00200000
20000000
00300000
30000000
00000000
,
00010000
10000000
01000000
10000000
00010000
10000000
00100000
01000000
,
00100000
00100000
00010000
00010000
00001000
00001000
00010000
00010000
,
00000000
00001000
01000000
00010000
00100000
00000000
01100000
00000000
,
10010000
00000000
10010000
00000000
00100000
00001000
00011000
00000000
,
00010100
00000000
00001001
00000000
00000001
00001000
00000020
00000000
,
00001030
00000000
00000001
00000000
00000010
00000000
00000100
00010000
00000000
00000000
00010000
00000000
00001000
00000000
01000000
00000000
,
00010000
00010000
00100000
01000000
10000000
10000000
00100000
01000000
,
00010000
00000000
10000000
00000000
01000000
00000000
00010000
00000000
00001000
00000000
00000000
00000100
00000000
00000000
00000001
00000000
,
00002002
00000000
00003003
00001000
00000010
00001000
00000001
00000010
,
00000100
00000000
00000000
00000100
00010000
00000000
00001000
00000000
00010000
00000000
00100000
00000000
10000000
00000000
00000000
00000000
,
20020000
00000000
30030000
10000000
01000000
00010000
01000000
00100000
,
00001000
00010000
00001000
00010000
00000010
00000010
00000110
00000000
,
00001010
00000000
00000101
00000000
00001000
00000100
00000020
00000000
,
00000031
00000000
00001000
00000000
00000010
00000000
00000100
00001000
00000000
00000000
00001000
00000000
00010000
00000000
00001000
00000000
,
01000000
01000000
00001000
00010000
00000100
00000100
00010000
00001000
,
00100000
00000000
00100000
00000000
00001000
00000000
00010000
00000000
00000010
00001000
00000010
00001000
00000100
00000000
00000000
00000000
,
00022000
00000000
00033000
00010000
00001000
00000100
00001000
00010000
,
00001000
00000000
00000000
00001000
01000000
00000000
00010000
00000000
00100000
00000000
00001000
00000000
00010000
00000000
00000100
00000000
,
00000110
00000000
00001000
00000001
00000100
00001000
00000001
00000010
,
00001000
00000001
00000010
00001000
00010000
01000000
10000000
00000000
,
10010000
00000000
00000000
10000000
00000000
00000000
01000000
00000000
,
00100000
00100000
00000000
00001000
00001000
00000000
00010000
00000000
,
00011000
00000000
00000000
00010000
00000000
00000000
00000100
00000000
,
00000010
00000000
00000000
00000000
00000001
00000000
00000001
00000000
00001000
00000000
00001000
00000000
00001001
00000000
00000000
00000001
,
00000010
00000100
00000010
00000100
00001000
00000100
00010000
00001000
,
01000000
00010000
00100000
00001000
00100000
00010000
01000000
00010000
,
00100000
01000000
10000000
00010000
01000000
00100000
00010000
00001000
,
00010000
00000100
00000000
00000100
00000010
00000000
00000001
00000000
00000100
00000000
00001000
00000000
00010000
00000000
00010000
00000000
,
00012000
00000000
01000000
00000000
00010000
00010000
00010000
00000000
,
00013000
00001000
00000100
00000010
00000100
00000001
00000011
00000000
,
00001001
00000000
00000001
00000100
00001000
00001000
00010000
00020000
,
00001000
00001000
00001000
00031000
00010000
00001000
00011000
00000000
,
00001000
00000000
00000000
00001000
00000000
00000000
00001000
00000000
00010000
00000000
00000100
00000000
00001000
00000000
00000001
00000000
,
00000100
00000010
00010000
00001000
00100000
01000000
10000000
00010000
,
01000000
01100000
00000000
10100000
00000000
01010000
00010000
10000000
,
01000000
00200000
00000000
00000000
00301000
00000000
00010000
00000000
00000100
00020000
00000000
00000000
00031000
00000000
00010000
00000000
,
00000100
00000100
00000010
00000001
00000100
00000100
00001000
00010000
,
00001000
00010000
00001000
00000000
01000000
00000000
00001000
00000000
00010000
00001000
00010000
00000000
00000100
00000000
00010000
00000000
,
00011000
00000000
00001000
00010000
01000000
10000000
00010000
01000000
,
00100000
00000000
00000000
00100000
10000000
00000000
01000000
00000000
00100000
00000000
00001000
00000000
00011000
00000000
00000000
00000000
,
00010000
00001000
00000010
00000100
00001000
00000010
00000100
00001000
,
00020000
00001000
00001000
00031000
01000000
00001000
00011000
00000000
,
00010000
00001000
00000010
00000001
00001000
00000010
00000100
00000001
,
00001000
00000000
00000100
00000000
00000010
00000000
00001000
00010000
00000000
00010000
00001000
00000000
00010000
00000000
00000100
00000000
,
00001000
00001000
00000001
00000100
00001000
00001000
00010000
00100000
,
01000000
00000000
00010000
10000000
00010000
00000000
00100000
00000000
01000000
00000000
00000000
11000000
00000000
00000000
00110000
00000000
,
10010000
00000000
00000000
10000000
01000000
00000000
00010000
00000000
00001000
00000000
00000000
00001000
00010000
00000000
00000100
00000000
,
00000001
00000100
00001000
00000010
00000100
00001000
00010000
00000000
,
00022000
00000000
00033000
00001000
00010000
00100000
00010000
00001000
,
00022000
00000000
00033000
00010000
00001000
00000010
00001000
00010000
,
00001000
00010000
00001000
00010000
00001000
00010000
00001000
00010000
00001000
00010000
00001000
00010000
00001000
00000000
00000000
00000000
,
00021000
00030010
00012000
01003000
,
00022000
00000000
00000000
00000000
,
00000000
00000000
00000000
00033000
;

//--------------- dance-double - Fred-104 ----------------
#NOTES:
     dance-double:
     Fred-104:
     Hard:
     16:
     :
00000000
00000000
00000000
00000000
,
00000000
00000000
00000000
00000000
,
00000000
00000000
00000000
00000000
,
00000000
00000000
00000000
00000000
,
00000000
00000000
00000000
00000000
,
00000000
00000000
00000000
00000000
,
00010000
00000000
00000000
00010000
00001000
00000000
00100000
00000000
00210000
00000000
00320000
00000000
20030000
00000000
30020000
00000000
,
02030000
00000000
00000000
00000000
00000000
00000000
03100000
00000000
00000000
00000000
00000000
00000000
00020000
00000000
00000000
00000000
00000000
00000000
00032000
00000000
00000000
00000000
00000000
00000000
00013000
00000000
00000000
00000000
00000100
00000000
00000000
00000000
00001000
00000000
00000000
00000000
00000100
00000000
00000000
00000010
00000000
00000000
00000001
00000000
00000000
00001000
00000000
00000000
,
00000020
00000000
00000000
00001030
00000001
00001000
00000010
00001000
00000002
00000000
00000103
00000010
00000200
00000000
00001300
00000000
,
00021000
00000000
00001000
00000000
00001000
00000000
00031000
00000000
00012000
00000000
00023000
00000000
00031000
01000000
00010000
10000000
,
00010000
00000000
00000000
00010000
00000000
00000000
00010000
00000000
20000000
00000000
32000000
00000000
03020000
00000000
00032000
00000000
,
00003020
00000000
00000032
00000000
00002003
00000000
00003020
00000000
00000230
00000000
00002300
00000000
00023000
00000000
00230000
00300000
,
02200000
00000000
00300000
03000000
,
01010000
00000000
00000000
00000000
10010000
00000000
00000000
00000000
10000000
01000000
00000000
00010000
00002000
00000000
00003000
00000000
,
00011000
00000000
00000110
00000000
00001000
00000001
00000020
00000000
,
00000130
00000000
00000010
00000000
00001000
00000000
00010000
00002000
00000000
00000000
01003000
00000000
00010000
00000000
10000000
00000000
,
00010000
00100000
00010000
00100000
00010000
00000000
10000000
00000000
00010000
01000000
00010000
01000000
00010000
00000000
10000000
00000000
,
01000000
00000000
00010000
00001000
00010000
00000000
00001000
00000000
00000010
00000001
00000010
00000001
00001000
00000000
00000000
00000000
,
00000110
00000000
00000000
00000000
00011000
00000000
00010000
00000000
00001000
00100000
00010000
00100000
00001000
00100000
00010000
00100000
,
00001000
00000000
00000000
00001000
00010000
00000000
01000000
00000000
10000000
00010000
10000000
00010000
00100000
00000000
01000000
00000000
,
22000000
00000000
30000000
00000000
13000000
00000000
00100000
00000000
00010000
00000000
00001000
00010000
00001000
00000000
00000100
00000000
,
00000001
00001000
00000001
00001000
00000010
00000000
00000100
00000000
00001000
00000000
00010000
00002000
00020000
00000000
00033000
00000000
,
00010000
00001000
00000010
00000001
00000100
00002000
00023000
00031000
,
00001000
00010000
00100000
10000000
01000000
00020000
00032000
00013000
,
00010000
00001000
00000100
00000001
00000010
00002000
00023000
00031000
,
00001000
00010000
01000000
10000000
00100000
00020000
00032000
00013000
,
00010000
00001000
00000010
00000001
00001000
00000001
00000100
00001000
,
00010000
00001000
00010000
00001000
01000000
00010000
01000000
00001000
00010000
00000100
00001000
00000100
00000010
00000001
00001000
00000010
,
00000000
00010000
00001000
00000100
00000001
00000000
00000011
00000000
,
00001100
00000000
00000000
00000000
00110000
00000000
00000000
00000000
11000000
00000000
10000000
00010000
10000000
00000000
00100000
00000000
,
01100000
00000000
10010000
00000000
10000000
01000000
00020000
00000000
,
00031000
00000000
00010000
00000000
00000100
00000000
00010000
00002000
00000000
00000000
00013000
00000000
00100000
00000000
10000000
00000000
,
00010000
00100000
01000000
00100000
01000000
00000000
00010000
00000000
00001000
00000010
00000100
00000010
00000100
00000000
00001000
00000000
,
00000001
00000000
00000100
00000010
00000100
00000000
00001000
00000000
00010000
00001000
00010000
00001000
00010000
00000000
00010000
00000000
,
00011000
00000000
00000000
00000000
00010100
00000000
00010000
00000000
00001000
01000000
00010000
01000000
00001000
01000000
00010000
01000000
,
00100000
00000000
00000000
00100000
10000000
00000000
01000000
00000000
00010000
00000000
00001000
00000000
00010000
00000000
00000000
00000000
,
00022000
00000000
00030000
00000000
00013000
00000000
00001000
00000000
00000010
00000000
00000001
00000010
00000100
00000000
00001000
00000000
,
00000001
00000100
00000001
00000100
00000010
00000000
00001000
00000001
00000010
00000100
00001000
00000100
00010000
00000000
00001000
00000000
,
00011000
00000000
01100000
00000000
10010000
00010000
20000000
00000000
,
30100000
00000000
01000000
00000000
00100000
00000000
00010000
00002000
00000000
00000000
00013000
00000000
00000010
00000000
00001000
00000000
,
00000001
00000010
00000001
00000010
00000100
00000000
00010000
00000000
00001000
00100000
00001000
00100000
00010000
00000000
10000000
00000000
,
00010000
00000000
00100000
00001000
00100000
00000000
00010000
00000000
01000000
00100000
01000000
00100000
01000000
00000000
00010000
00000000
,
10010000
00000000
00000000
00000000
10000000
00000000
01000000
00000000
00010000
00001000
00010000
00001000
00010000
00000100
00000010
00000100
,
00000010
00000000
00000000
00000001
00000100
00000000
00000010
00000000
00000100
00000000
00001000
00000000
00011000
00000000
00000000
00000000
,
00022000
00000000
00033000
00000000
01100000
00000000
00010000
00000000
10000000
00000000
00010000
01000000
00010000
00000000
10000000
00000000
,
01000000
00000000
00100000
00010000
00100000
00001000
00010000
00000100
00001000
00000000
00000001
00000000
00001001
00000000
00000000
00000000
,
00000001
00000010
00000100
00001000
00000010
00000100
00001000
00010000
,
00001000
00100000
01000000
00010000
00001000
00100000
00010000
01000000
,
00010000
10000000
01000000
00100000
10000000
00100000
00001000
00010000
,
00001000
00000000
00000100
00000000
00000010
00000000
00000001
00000000
00000010
00000000
00010000
00000000
00011000
00000000
00000000
00001000
,
01000000
00000000
00010000
00000000
10000000
00000000
01000000
00000000
00100000
00010000
00100000
00001000
00010000
00000010
00001000
00000000
,
00000001
00000000
00000010
00000000
00000100
00000000
00001000
00000000
00000001
00000100
00000010
00001000
00000010
00010000
00001000
00000000
,
00010000
00000000
00100000
00000000
01000000
00000000
10000000
00000000
01000000
00000000
00010000
00000000
10000000
01000000
00100000
00000000
,
00001000
00010000
00000000
00010000
00001000
00000000
00010000
00000010
00001000
00000010
00001000
00000010
00000100
00000000
00001000
00000000
,
00020000
00000000
00001000
00000000
01000000
01000000
00032000
00000000
,
00023000
00000000
00000000
00000000
00000000
00000000
00031000
00000000
00000000
00000000
00000000
00000000
00100000
00000000
00000000
00000000
00001000
00000000
00000000
00000000
00010000
00000000
00000000
00000000
00000100
00000000
00000000
00000000
00001000
00000000
00000000
00000000
00000010
00000000
00000000
00000000
00010000
00000000
00000000
00001000
00000000
00000000
00010000
00000000
00000000
00001000
00000000
00000000
,
00020000
00000000
00000000
00000000
00031000
01000000
00010000
01000000
00002000
00000000
00203000
00000000
00320000
00000000
00230000
00000000
,
00302000
00003000
00021000
00030000
00012000
00003000
00021000
00030000
01002000
00000000
02003000
00000000
03010000
10000000
00010000
10000000
,
00010000
00000000
00000000
10000000
00000000
00000000
00010000
00000000
20000000
00000000
30200000
00000000
00320000
00000000
00032000
00000000
,
00003200
00000302
00002003
00003200
00000320
00002030
00023000
02030000
,
03100000
00002000
00003010
00000200
00001300
00000200
00020300
00032000
,
00003100
00000001
00000000
00000000
00000020
00000000
00000230
00000000
00010300
00001000
00000000
00000000
00200000
00000000
02300000
00000000
,
13000000
00100000
01000000
00100000
00010000
00000000
00010000
00000000
00001000
00000100
00000010
00000100
00000001
00000000
00000001
00000000
,
00001000
00000100
00000010
00000001
00000010
00000100
00002000
00000000
00003001
00000100
00000010
00001000
00000010
00000100
00000002
00000000
,
00001003
00000000
00000100
00000000
00000010
00000000
00001000
00000000
00010000
00000100
00010000
00000100
00001000
00000001
00001000
00000001
,
00000100
00001000
00010000
00100000
01000000
00010000
10010000
00000000
,
10000000
01000000
10000000
01000000
00100000
00001000
00100000
00001000
00010000
00000010
00010000
00000010
00000100
00000001
00000100
00000002
,
00001000
00000000
00001000
00000000
00001000
00000000
00001003
00000000
00000001
00000100
00000010
00000100
00001000
00010000
00002000
00000000
,
00103000
00010000
10000000
00100000
01000000
00000000
00100000
00010000
00002000
00000000
00000000
00000000
00013000
00000000
00000100
00000000
,
00000010
00000001
00001000
00000010
00000200
00000000
00000301
00000010
00000100
00001000
00000100
00010000
00001000
01000000
00020000
00000000
,
10030000
00100000
01000000
00100000
00010000
00000000
00010000
00000000
00001000
00000100
00000010
00000100
00000001
00000000
00000001
00000000
,
00001000
00000000
00000001
00000010
00000100
00000000
00010000
00000000
00011000
00000000
00000000
00010010
00000000
00000000
00011000
00000000
,
00011000
00000000
00000000
00001000
00010000
00000000
00100000
01000000
00100000
00000000
00000000
10000000
00010000
00000000
00100000
01000000
,
00010000
00000000
00001000
00010000
00000100
00000000
00001000
00000010
00000100
00000010
00001000
00000100
00000010
00000001
00000010
00000000
,
00000022
00000000
00000000
00000000
00000033
00000000
00000001
00000000
00000100
00000000
00001000
00010000
00001000
00010000
00001000
00000000
,
00022000
00000000
00000000
00000000
00033000
00000000
00001000
00000000
00010000
00100000
10000000
00100000
10000000
00000000
00010000
00000000
,
01000000
00100000
10000000
00010000
00100000
00001000
00010000
00000100
00000010
00000001
00000100
00000010
00001000
00000000
00000000
00000000
,
00002002
00003003
00022000
00033000
,
20020000
00000000
00000000
00000000
,
00000000
00000000
00000000
30030000
;
