#TITLE:夕焼け ~Fading Day~;
#ARTIST:JAKAZiD;
#TITLETRANSLIT:Yuuyake ~Fading Day~;
#GENRE:AURAL ADRENALINE;
#CREDIT:Original screenshot taken in Forza Horizon 5;
#BANNER:Yuuyake ~Fading Day~.png;
#BACKGROUND:Yuuyake ~Fading Day~-bg.png;
#CDTITLE:./CDTitles/bm IIDX 18 Resort Anthem.png;
#MUSIC:Yuuyake ~Fading Day~.ogg;
#SAMPLESTART:46.896;
#SAMPLELENGTH:15;
#BPMS:0=174;
#BGSTAGE:16;

//--------------- dance-single - Fred-104 ----------------
#NOTES:
     dance-single:
     Fred-104:
     Beginner:
     3:
     :
0000
0000
0000
0000
,
0000
0000
0000
0000
,
0000
0000
0000
0000
,
0000
0000
0000
0000
,
0000
0000
0000
0000
,
0000
0000
0000
0000
,
1000
0000
0000
0000
,
0000
0000
0000
0000
,
0001
0000
0000
0000
,
0001
0000
0000
0000
,
1000
0000
0000
0000
,
0100
0000
0000
0000
,
0001
0000
0000
0000
,
0010
0000
0000
0000
,
1000
0000
1000
0000
,
0001
0000
0001
0000
,
1000
0000
1000
0000
,
1001
0000
0000
0000
,
2000
0000
0000
0000
,
0000
0000
0000
0000
,
3000
0000
0000
0000
,
0000
0000
0000
0000
,
0002
0000
0000
0000
,
0000
0000
0000
0000
,
0003
0000
0000
0000
,
0000
0000
0000
0000
,
1000
0000
1000
0000
,
0001
0000
0000
0000
,
0100
0000
0001
0000
,
0001
0000
0000
0000
,
1000
0000
0100
0000
,
0100
0000
0000
0000
,
0010
0000
0010
0000
,
0010
0000
0000
0000
,
0001
0000
0001
0000
,
0100
0000
0000
0000
,
1000
0000
1000
0000
,
0100
0000
0000
0000
,
0001
0000
0001
0000
,
1000
0000
0000
0000
,
0100
0000
0010
0000
,
0010
0000
0000
0000
,
0001
0000
0001
0000
,
0010
0000
0000
0000
,
1000
0000
1000
0000
,
0010
0000
0000
0000
,
0001
0000
0001
0000
,
1000
0000
0000
0000
,
0010
0000
0100
0000
,
0100
0000
0000
0000
,
0001
0000
0001
0000
,
1000
0000
0000
0000
,
0100
0000
0010
0000
,
0010
0000
0000
0000
,
0001
0000
1000
0000
,
0001
0000
0000
0000
,
0100
0000
0010
0000
,
0100
0000
0000
0000
,
0001
0000
0001
0000
,
1000
0000
0000
0000
,
0001
0000
0010
0000
,
0100
0000
0000
0000
,
1000
0000
1000
0000
,
0001
0000
0001
0000
,
1000
0000
0001
0000
,
2002
0000
0000
3003
,
1000
0000
1000
0000
,
0010
0000
0001
0000
,
0001
0000
0010
0000
,
0100
0000
0001
0000
,
0001
0000
1000
0000
,
1000
0000
0100
0000
,
0100
0000
0010
0000
,
0001
0000
0001
0000
,
1000
0000
1000
0000
,
0100
0000
0010
0000
,
0100
0000
0001
0000
,
0100
0000
1000
0000
,
1001
0000
0001
0000
,
1001
0000
1000
0000
,
0001
0000
0001
0000
,
1001
0000
0000
0000
,
1001
0000
0000
0000
;

//--------------- dance-single - Fred-104 ----------------
#NOTES:
     dance-single:
     Fred-104:
     Easy:
     7:
     :
0000
0000
0000
0000
,
0000
0000
0000
0000
,
0000
0000
0000
0000
,
0000
0000
0000
0000
,
0000
0000
0000
0000
,
0000
0000
0000
0000
,
1000
0000
0000
0100
0000
0000
0010
0000
,
0001
0000
0000
0100
0000
0000
0010
0000
,
0100
0000
0000
0001
0000
0000
1000
0000
,
1001
0002
2003
3002
,
0013
0100
1000
1000
,
0010
0100
0001
0001
,
0100
0010
1000
1000
,
0100
0010
0001
1000
,
1001
0000
0001
0000
,
1001
0000
1000
0000
,
0001
0001
1000
1000
,
2002
0000
3000
0003
,
1000
0000
0000
0100
0000
0000
1000
0000
,
0001
0000
0000
0100
0000
0000
0001
0000
,
1000
0000
0000
0100
0000
0000
0010
0000
,
0001
0000
0000
1000
0000
1001
0000
0000
,
0001
0000
0000
0100
0000
0000
0010
0000
,
1000
0000
0000
0100
0000
0000
0010
0000
,
0001
0000
0000
0010
0000
0000
0100
0000
,
1000
0000
0000
0001
0000
1001
0000
0000
,
0001
0000
1000
0000
0010
0100
0010
0000
,
1000
0000
0001
0000
0010
0100
0010
0000
,
0001
0000
1000
0000
0001
0100
0001
0000
,
1000
0000
0001
0000
1000
0010
1000
0000
,
0001
0010
2000
3000
,
0001
0100
2000
3000
,
0001
0001
1000
1000
,
2002
0000
0000
3003
,
1000
1000
0100
0100
,
0001
0100
1000
0000
,
0001
0001
0100
0100
,
1000
0100
0001
0000
,
1000
1000
0010
0001
,
0010
0010
1000
0000
,
0001
0001
0010
1000
,
0010
0010
0001
0000
,
1000
1000
0010
0100
,
0001
0010
0100
0000
,
1000
1000
0001
0100
,
0010
1000
0100
0000
,
0010
0010
0001
1000
,
0001
0100
0010
0000
,
0100
0100
0001
0001
,
0000
0000
1000
0000
0000
1000
0000
0000
0001
0000
0000
0000
1000
0000
0000
0000
,
0100
0100
0020
0030
,
0001
1000
0100
0010
,
0100
0000
0100
0000
1000
0000
0000
0001
,
0000
0100
0002
0003
,
0010
0010
0200
0300
,
1000
0001
0010
0100
,
0010
0000
0010
0000
0001
0000
0000
1000
,
0000
0010
2000
3000
,
0001
0001
0020
0030
,
0100
0100
1000
0001
,
0100
0000
0100
0000
0010
0000
0000
0010
,
0000
0100
0001
1000
,
1001
0000
1000
0000
,
1001
0000
0000
0001
,
1000
1000
0001
0001
,
2002
0000
0000
3003
,
1000
0100
2000
3000
,
0001
1000
0020
0030
,
0100
0001
0020
0030
,
0100
0010
0002
0003
,
0100
0010
2000
3000
,
0001
0010
0200
0300
,
1000
0001
2000
3000
,
0001
0100
0020
0030
,
1000
1000
0001
0010
,
0100
1000
0002
0003
,
0100
0100
0010
1000
,
0001
1000
0002
0003
,
1001
0000
0001
0000
,
1001
0000
1000
0000
,
0001
0001
1000
1000
,
2002
0000
3000
0003
,
1001
0000
0000
0000
;

//--------------- dance-single - Fred-104 ----------------
#NOTES:
     dance-single:
     Fred-104:
     Medium:
     12:
     :
0000
0000
0000
0000
,
0000
0000
0000
0000
,
0000
0000
0000
0000
,
0000
0000
0000
0000
,
0000
0000
0000
0000
,
0000
0000
0000
0000
,
0001
0010
0100
0010
0000
0100
1000
0001
,
1000
0010
0100
0001
0000
0100
0001
1000
,
0100
0010
0001
0100
0000
0010
0100
0001
,
1001
0000
1000
1000
0001
0001
2000
0000
,
3100
0010
0001
1000
0001
0100
0010
0010
,
0100
0001
1000
0100
0010
0100
1000
1000
,
0001
0100
0010
1000
0001
0010
0001
0001
,
0100
0000
0010
0000
1000
0000
1000
0000
0100
0000
0000
0100
0000
0000
0010
0000
,
0011
1000
0101
1000
,
1100
0001
1010
0001
,
1000
1000
0100
0100
0010
0010
0001
0001
,
2002
0000
0003
3000
,
0002
0000
0000
0010
0000
0000
0013
0000
,
0200
0000
0000
1000
0000
0000
1300
0000
,
0002
0000
0000
0100
0000
0000
0103
0000
,
0020
0000
0000
0100
0000
0200
0330
0000
,
0002
0000
0000
1000
0000
0000
1003
0000
,
0020
0000
0000
0100
0000
0000
0130
0000
,
0002
0000
0000
0010
0000
0000
0013
0000
,
0200
0000
0000
1000
0000
2000
3300
0000
,
0001
0000
1000
0100
1000
0001
0100
0010
,
1000
0001
0010
0100
0000
0100
0010
0001
,
1000
0000
0001
0100
0001
0010
0100
1000
,
0001
0100
0010
1000
0000
1000
0010
0100
,
0001
0000
1000
0100
1000
0010
1000
0001
,
0010
0100
1000
0001
0200
0000
0320
0000
,
1030
0010
1000
0001
0010
0100
1000
0001
,
0200
0000
0000
0000
0000
0300
0110
0000
,
1000
0000
0100
0000
0000
1000
0000
0000
0001
0000
0000
0100
0000
0000
0010
0000
,
1000
0000
0001
0000
0000
0010
0000
0000
0100
0000
0000
1000
0000
0000
0001
0000
,
1000
0000
0010
0000
0000
1000
0000
0000
0001
0000
0000
0010
0000
0000
0100
0000
,
1000
0000
0001
0000
0000
0100
0000
0000
0010
0000
0000
1000
0000
0000
0001
0000
,
0010
0000
0100
0000
0000
1000
0000
0000
0010
0000
0000
0100
0000
0000
0001
0000
,
1000
0000
0100
0000
0000
0010
0000
0000
0001
0000
0000
1000
0000
0000
0001
0000
,
0100
0000
0010
0000
0000
1000
0000
0000
0100
0000
0000
0010
0000
0000
0001
0000
,
1000
0000
0010
0000
0000
0100
0000
0000
0001
0000
0000
1000
0000
0000
0001
0000
,
0010
0000
0100
0000
1000
0000
0001
0000
0100
0000
0000
1000
0000
0000
0100
0000
,
0001
0000
1000
0000
0100
0000
0010
0000
0001
0000
0000
1000
0000
0000
0010
0000
,
0100
0000
0010
0000
1000
0000
0001
0000
0010
0000
0000
1000
0000
0000
0010
0000
,
0001
0000
1000
0000
0010
0000
0100
0000
0001
0000
0000
1000
0000
0000
0100
0000
,
0010
0000
0001
0000
1000
0000
0010
0000
0001
0000
0000
0010
0000
0000
0100
0000
,
0010
0000
1000
0000
0001
0000
0010
0000
0100
0000
0000
0001
0000
0000
0100
0000
,
1000
0000
0001
0000
0100
0000
1000
0000
0100
0000
0000
0001
0000
0000
1000
0000
,
0000
0000
1100
0000
0000
0110
0000
0000
0011
0000
0010
0000
0001
0000
0000
0000
,
0100
0000
0100
0000
0010
0010
0000
1000
,
0001
0010
1000
0010
0001
0001
0000
0100
,
0010
0000
0000
0010
0000
0000
0010
0000
0100
0000
0001
0000
0100
0000
0100
0000
,
0000
0010
1000
0010
0100
0001
1000
0000
,
0100
0000
0100
0000
0010
0010
0000
0001
,
1000
0010
0001
0010
1000
1000
0000
0100
,
0010
0000
0000
0010
0000
0000
0010
0000
0100
0000
1000
0000
0100
0000
0100
0000
,
0000
0010
0001
0010
0100
1000
0001
0000
,
0110
0000
1001
0000
0001
0010
0000
0010
,
0100
1000
0100
1000
0001
0100
0000
0100
,
1000
0000
0000
0100
0000
0000
0001
0000
1000
0000
0100
0000
0010
0000
0001
0000
,
0000
0001
0100
0010
0100
0001
1000
0000
,
1100
0001
0101
1000
,
0011
1000
1010
0001
,
1000
0100
0010
0001
1000
0010
0100
0001
,
2000
0000
0000
0000
0000
3000
1001
0000
,
0001
0000
0010
0000
0100
0000
0100
0000
1000
0000
0000
0000
0001
0000
0100
0010
,
0000
0100
0010
0000
0100
0000
0001
0000
1000
0000
0000
0100
0000
0000
0010
0000
,
0001
0000
1000
0000
0010
0000
0010
0000
0100
0000
0000
0000
0001
0000
1000
0100
,
0000
1000
0100
0000
0010
0000
0100
0000
1000
0000
0000
0000
1001
0000
0000
0000
,
1000
0000
0010
0000
0100
0000
0100
0000
0001
0000
0000
0000
1000
0000
0100
0010
,
0000
0100
0010
0000
0100
0000
1000
0000
0001
0000
0000
0100
0000
0000
0010
0000
,
1000
0000
0001
0000
0010
0000
0010
0000
0100
0000
0000
0000
1000
0000
0001
0100
,
0000
0001
0100
0000
0010
0000
0100
0000
0001
0000
1000
0000
0001
0000
0000
0000
,
1000
0000
0100
0000
0001
0000
0100
0000
1000
0000
0000
0000
0001
0000
0100
0010
,
0000
0100
0010
0000
0100
0000
0001
0000
1000
0000
0000
0100
0000
0000
0010
0000
,
0001
0000
1000
0000
0010
0000
0001
0000
0010
0000
0000
0000
1000
0000
0001
1000
,
0000
0001
1000
0000
0010
0000
0100
0000
0001
0000
0000
0001
0100
0000
0010
0000
,
1010
0001
0011
1000
,
1100
0001
0101
1000
,
0001
0100
0010
0100
0001
1000
0100
0010
,
0022
0000
0030
0003
,
1001
0000
0000
0000
;

//--------------- dance-single - Fred-104 ----------------
#NOTES:
     dance-single:
     Fred-104:
     Hard:
     16:
     :
0000
0000
0000
0000
,
0000
0000
0000
0000
,
0000
0000
0000
0000
,
0000
0000
0000
0000
,
0000
0000
0000
0000
,
0000
0000
0000
0000
,
0001
0000
0010
0000
0100
0000
1000
0000
0000
0000
1000
0000
0010
1000
0000
1000
,
0010
0000
0100
0000
0001
0000
1000
0000
0000
0000
1000
0000
0100
0010
0000
0010
,
0100
0000
1000
0000
0010
0000
0100
0000
0000
0000
0100
0000
0001
0010
0000
0010
,
0001
0000
0000
0000
1000
0010
1000
0010
0100
0001
1000
0001
0100
0010
0100
0001
,
1000
0000
0200
0000
0310
0100
0001
0000
0100
0000
1000
0000
0001
1000
0000
1000
,
0010
0000
0200
0000
1300
0100
0010
0000
0100
0000
0001
0000
1000
0100
0000
0100
,
0010
0000
0002
0000
1003
0010
0001
0000
0010
0000
0100
0000
0001
1000
0000
1000
,
0001
0000
0020
0000
0130
1000
0100
1000
0001
0000
0100
0010
0000
0010
0100
0000
,
0101
0010
1000
0000
1100
0010
0001
0000
,
1010
0100
0001
0000
0011
0100
1000
0000
,
0011
0001
0101
0100
0110
0010
1010
1000
,
2002
0000
3000
0003
,
1001
0000
0000
0001
0010
0000
0100
0000
,
0100
0100
0000
1000
0001
0000
1000
0000
,
0010
0000
0000
0100
0001
0000
0010
0000
,
0100
0000
0000
1000
0000
1000
0000
0000
,
0001
0000
1000
0100
0010
0000
0010
0002
,
0000
0000
0000
0000
0103
0010
1000
0100
,
0020
0000
0000
0000
,
0000
0000
0030
0000
,
0011
0000
0000
0001
1000
0000
0001
0010
0000
0010
0001
0000
1000
0010
0000
0010
,
1000
0000
0000
1000
0001
0000
0000
0010
0100
0010
0100
0000
1000
0001
1000
0000
,
1100
0000
0000
0100
1000
0000
0001
0010
0000
0010
0001
0000
1000
0010
0000
0010
,
0100
0000
0000
0100
0001
0000
1000
0000
0100
0010
0001
0000
0100
0010
0100
0000
,
0110
0000
0000
0010
1000
0000
0100
0010
0100
0010
0100
0000
0010
0001
0100
0000
,
0110
0000
0010
1000
0010
0000
0100
0000
0001
0100
0010
0000
1000
0100
0010
0000
,
0011
0000
0001
0000
1000
0000
0010
0000
0100
0001
0100
0001
0100
0001
0100
0001
,
1000
0100
1000
0100
0010
0001
0010
0001
1000
0001
1000
0001
1000
0000
0000
0000
,
0001
0000
0010
0000
0100
1000
0000
0001
0010
0000
0100
1000
0000
0001
1000
0000
,
0001
0000
0100
0000
0010
1000
0000
0001
0100
0000
0010
1000
0000
0001
1000
0000
,
0100
0000
0010
0000
0001
1000
0000
0100
0010
0000
0001
1000
0000
0001
1000
0000
,
0010
0000
0100
0000
0001
1000
0000
0010
0100
0000
0001
1000
0000
0001
1000
0000
,
0100
0000
0010
0000
0001
1000
0000
0010
1000
0000
0001
1000
0000
0010
1000
0000
,
0001
0000
0100
0000
0001
1000
0000
0100
0010
0000
0001
1000
0000
0100
1000
0000
,
0001
0000
0010
0000
0001
1000
0000
0010
0100
0000
0001
1000
0000
0010
1000
0000
,
0001
0000
0010
0000
0100
0010
0000
0001
1000
0000
0010
0100
0000
0001
1000
0000
,
0001
0100
0001
0000
1000
0010
0000
0010
0100
0000
0100
0001
0000
0001
1000
0000
,
0100
0010
0100
0000
1000
0001
0000
0001
0010
0000
0010
0100
0000
0100
1000
0000
,
0010
0100
0010
0000
1000
0001
0000
0001
0100
0000
0100
0010
0000
0010
0100
0000
,
0001
0010
0001
0000
1000
0100
0000
0100
0010
0000
0010
0100
0000
0100
1000
0000
,
0001
0100
0010
0000
1000
0001
0000
0010
0100
0000
1000
0010
0000
0100
0001
0000
,
1000
0100
1000
0000
0010
0100
0000
0001
1000
0000
0100
0010
0000
0100
1000
0000
,
0001
0100
0010
0000
0100
0001
0000
0010
0100
0000
1000
0001
0000
0100
0010
0000
,
0000
0000
1010
0000
0000
0101
0000
0000
1100
0000
1000
0001
0010
0100
1000
0001
,
2000
0000
3002
0000
0023
2030
3010
0200
,
2300
0000
3020
0000
0230
2300
3001
0020
,
0130
0000
0001
1000
0000
0100
0010
0000
2000
0000
3020
0000
0032
0000
0203
0000
,
0000
0320
0032
2003
3200
0302
2003
0000
,
3002
0000
2003
0000
3002
0203
0000
0320
,
0230
1300
0200
0310
2000
3002
0013
0002
,
2003
0000
3010
0100
0000
1000
0001
0000
0020
0000
2030
0000
3002
0000
0023
0000
,
0000
2030
3020
0032
2003
3020
0230
0301
,
0102
0000
0103
0010
0200
0000
1300
0000
0200
0000
0320
0000
1030
0000
0002
0000
,
0023
1030
0020
0130
0020
2030
3010
0002
,
0203
0000
0310
1000
0000
0001
0020
0000
0230
0000
0301
0000
2000
0000
3020
0000
,
0031
2000
3020
0032
2003
3200
0302
0003
,
1001
0000
1000
0010
0100
0000
0001
0000
1001
0000
1000
0100
0010
0000
0001
0000
,
0100
0010
0100
0010
1000
0000
0001
0000
0010
0100
0010
0100
1000
0000
0001
0000
,
1000
0100
1000
0100
0010
0001
0010
0001
1000
0010
1000
0010
0100
0001
0100
0001
,
1000
0001
1000
0001
1000
0001
1000
0001
1000
0001
1000
0001
1000
0000
0000
0000
,
0001
0000
0010
0000
0100
0010
0001
0000
2000
0000
0000
0000
3001
0000
0100
1000
,
0000
0100
0001
0000
1000
0100
0010
0000
0001
0000
0100
0010
0000
0010
0100
0000
,
0001
0000
1000
0000
0100
0010
0100
0000
2000
0000
0000
0000
3001
0000
0100
1000
,
0000
0100
0010
0000
0100
0001
1000
0000
0100
0000
0000
0100
0020
0000
0000
0000
,
0031
0000
0100
0000
0010
0100
0001
0000
0020
0000
0000
0000
0130
0000
1000
0001
,
0000
0100
1000
0000
0100
0010
0100
0000
0001
0000
1000
0100
0000
0100
0010
0000
,
0001
0000
1000
0000
0010
0100
0010
0000
2000
0000
0000
0000
3100
0000
0010
1000
,
0000
0010
0100
0000
0010
0001
1000
0000
0001
0100
0001
0100
0010
1000
0001
0000
,
1000
0000
0100
0000
0010
0001
0010
0000
0001
0000
1000
0000
0010
0000
0100
1000
,
0000
0001
0010
0000
0100
0001
1000
0000
0100
0000
0010
0001
0000
0001
1000
0000
,
1001
0000
0001
0000
0010
0100
1000
0000
0001
0000
0010
0000
1000
0000
0001
0100
,
0000
0010
0001
0000
0100
0010
1000
0000
0001
0000
0000
0001
0010
0000
0100
0000
,
1100
0010
0001
0000
0101
0010
1000
0000
,
1010
0100
0001
0000
0011
0100
1000
0000
,
1001
0001
0011
0010
0110
0100
1100
1000
,
2020
0000
3000
0030
,
0101
0000
0000
0000
;

//--------------- dance-double - Fred-104 ----------------
#NOTES:
     dance-double:
     Fred-104:
     Easy:
     7:
     :
00000000
00000000
00000000
00000000
,
00000000
00000000
00000000
00000000
,
00000000
00000000
00000000
00000000
,
00000000
00000000
00000000
00000000
,
00000000
00000000
00000000
00000000
,
00000000
00000000
00000000
00000000
,
00001000
00000000
00000000
00100000
00000000
00000000
00001000
00000000
,
00010000
00000000
00000000
00000010
00000000
00000000
00010000
00000000
,
00001000
00000000
00000000
00010000
00000000
00000000
00000100
00000000
,
00001001
00000002
00002003
00003002
,
00000013
00000100
00001000
00000100
,
00010000
00001000
00010000
00000000
,
00001000
00010000
00100000
10000000
,
00100000
01000000
00010000
00000000
,
10010000
00000000
10000000
00000000
,
10010000
00000000
00010000
00000000
,
10000000
01000000
00100000
00010000
,
20020000
00000000
00030000
30000000
,
00010000
00000000
00000000
10000000
00000000
00000000
01000000
00000000
,
00100000
00000000
00000000
00100000
00000000
00000000
00001000
00000000
,
00010000
00000000
00000000
00001000
00000000
00000000
00010000
00000000
,
00000100
00000000
00000000
00000010
00000000
00000110
00000000
00000000
,
00000001
00000000
00000000
00001000
00000000
00000000
00000010
00000000
,
00000100
00000000
00000000
00001000
00000000
00000000
00010000
00000000
,
00001000
00000000
00000000
00100000
00000000
00000000
00001000
00000000
,
00010000
00000000
00000000
00001000
00000000
00011000
00000000
00000000
,
00001000
00010000
01000000
00100000
,
00010000
00000000
10000000
00000000
00100000
01000000
00100000
00000000
,
10000000
01000000
00010000
00001000
,
00010000
00000000
00000100
00000000
00000010
00000100
00000010
00000000
,
00000001
00000100
00000020
00000030
,
00010000
00001000
02000000
03000000
,
00010000
10000000
01000000
00100000
,
20020000
00000000
00000000
30030000
,
10000000
01000000
00100000
01000000
,
00010000
00001000
00010000
00000000
,
00000100
00001000
00000001
00001000
,
00000010
00001000
00000001
00000000
,
00000001
00000100
00000010
00000100
,
00001000
00010000
00001000
00000000
,
01000000
00010000
10000000
00010000
,
00100000
00010000
10000000
00000000
,
01000000
00100000
01000000
00100000
,
00001000
00010000
00000100
00010000
,
00001000
00010000
00000010
00001000
,
00000001
00001000
00000100
00000000
,
00000010
00000001
00000010
00000001
,
00001000
00000001
00000100
00000010
,
00000100
00001000
00010000
00001000
,
00000000
00000000
00010000
00000000
00000000
00010000
00000000
00000000
00001000
00000000
00000000
00000000
01000000
00000000
00000000
00000000
,
00010000
00010000
20000000
30000000
,
01000000
00000000
00100000
00000000
00001000
00010000
00001000
00000000
,
00010000
00000000
00001000
00000000
00010000
00000000
00000000
00000100
,
00000000
00001000
00000001
00000000
,
00001000
00001000
00000002
00000003
,
00000100
00000000
00000010
00000000
00010000
00001000
00010000
00000000
,
00001000
00000000
00010000
00000000
00001000
00000000
00000000
01000000
,
00000000
00010000
10000000
00000000
,
01000000
01000000
00200000
00300000
,
00001000
00010000
00000100
00000010
,
00000001
00000000
00000100
00000000
00001000
00000000
00000000
00010000
,
00000000
00001000
00010000
00010000
,
00011000
00000000
00001000
00000000
,
00011000
00000000
00010000
00000000
,
00001000
00010000
00000010
00001000
,
00002002
00000000
00000000
00003003
,
00000001
00000100
00002000
00003000
,
00010000
00001000
00020000
00030000
,
00001000
00100000
02000000
03000000
,
00100000
00010000
20000000
30000000
,
00010000
10000000
02000000
03000000
,
00010000
00001000
00020000
00030000
,
00000100
00000010
00000002
00000003
,
00000100
00001000
00020000
00030000
,
00001000
00001000
00100000
00010000
,
10000000
00010000
02000000
03000000
,
00100000
00100000
10000000
01000000
,
00010000
00001000
00010000
00000000
,
00011000
00000000
00010000
00000000
,
00011000
00000000
00001000
00000000
,
00010000
00001000
01000000
00010000
,
20020000
00000000
00030000
30000000
,
10010000
00000000
00000000
00000000
;

//--------------- dance-double - Fred-104 ----------------
#NOTES:
     dance-double:
     Fred-104:
     Medium:
     12:
     :
00000000
00000000
00000000
00000000
,
00000000
00000000
00000000
00000000
,
00000000
00000000
00000000
00000000
,
00000000
00000000
00000000
00000000
,
00000000
00000000
00000000
00000000
,
00000000
00000000
00000000
00000000
,
00001000
00010000
00001000
00010000
00000000
00100000
10000000
00000000
,
00010000
00100000
00010000
00100000
00000000
01000000
10000000
00000000
,
00100000
01000000
00100000
01000000
00000000
00100000
00010000
00000000
,
00011000
00020000
00032000
00023000
,
00031000
00010000
00000010
00001000
00000010
00001000
00000001
00000010
,
00000100
00001000
00000100
00010000
00001000
00100000
01000000
00000000
,
10000000
00010000
01000000
00010000
01000000
00010000
10000000
01000000
,
00100000
00000000
00001000
00000000
00010000
00000000
00000100
00000000
00000010
00000000
00000000
00000001
00000000
00000000
00001000
00000000
,
00001010
00010000
00001100
00010000
,
00010010
00001000
00010100
00001000
,
00010000
00010000
00001000
00001000
00010000
00010000
00001000
00001000
,
00022000
00000000
00003000
00030000
,
00010000
00000000
00002000
00023000
,
00230000
00000000
00000000
00000000
,
00300000
00000000
20000000
32000000
,
03200000
00000000
00000000
00000000
,
00300000
00000000
00000000
00000000
00002000
00000000
00013000
00000200
,
00000000
00000000
00000000
00000000
00000310
00000001
00000100
00001000
,
00020000
00000000
00000000
00000000
,
00000000
00000000
00030000
00000000
,
00001000
00000000
00010000
01000000
10000000
00010000
00000000
00010000
,
01000000
00100000
10000000
00010000
00000000
00100000
01000000
00010000
,
00001000
00000000
00010000
00000100
00000010
00000100
00000000
00000100
,
00001000
00000001
00000100
00000010
00000000
00000001
00000010
00000100
,
00000001
00000000
00001000
00000100
00000010
00001000
00010000
00001000
,
00100000
01000000
10000000
00010000
02000000
00000000
03020000
00000000
,
10030000
01000000
00100000
01000000
00010000
00001000
00000010
00000001
,
00000200
00000000
00000000
00000000
00000000
00000300
00000110
00000000
,
00000001
00000000
00000010
00000000
00000000
00001000
00000000
00000000
00010000
00000000
00000000
00001000
00000000
00000000
00100000
00000000
,
00010000
00000000
10000000
00000000
00000000
00100000
00000000
00000000
01000000
00000000
00000000
00010000
00000000
00000000
10000000
00000000
,
01000000
00000000
00100000
00000000
00000000
01000000
00000000
00000000
00010000
00000000
00000000
00001000
00000000
00000000
00010000
00000000
,
00000100
00000000
00000010
00000000
00000000
00000001
00000000
00000000
00001000
00000000
00000000
00000001
00000000
00000000
00000010
00000000
,
00000001
00000000
00000100
00000000
00000000
00001000
00000000
00000000
00010000
00000000
00000000
00001000
00000000
00000000
01000000
00000000
,
00010000
00000000
10000000
00000000
00000000
01000000
00000000
00000000
00100000
00000000
00000000
00010000
00000000
00000000
10000000
00000000
,
00100000
00000000
01000000
00000000
00000000
00100000
00000000
00000000
00010000
00000000
00000000
00001000
00000000
00000000
00010000
00000000
,
00000010
00000000
00000100
00000000
00000000
00000001
00000000
00000000
00001000
00000000
00000000
00000001
00000000
00000000
00000100
00000000
,
00001000
00000000
00010000
00000000
00001000
00000000
00010000
00000000
00001000
00000000
00000000
01000000
00000000
00000000
00010000
00000000
,
00100000
00000000
01000000
00000000
00100000
00000000
01000000
00000000
10000000
00000000
00000000
00010000
00000000
00000000
01000000
00000000
,
00100000
00000000
00010000
00000000
00100000
00000000
00010000
00000000
00001000
00000000
00000000
00010000
00000000
00000000
00000100
00000000
,
00000010
00000000
00000100
00000000
00000010
00000000
00000100
00000000
00001000
00000000
00000000
00000001
00000000
00000000
00000100
00000000
,
00000010
00000000
00000100
00000000
00001000
00000000
00010000
00000000
00001000
00000000
00000000
01000000
00000000
00000000
00001000
00000000
,
00010000
00000000
00000100
00000000
00000010
00000000
00000001
00000000
00001000
00000000
00000000
00000001
00000000
00000000
00000100
00000000
,
00001000
00000000
00010000
00000000
00001000
00000000
01000000
00000000
00010000
00000000
00000000
10000000
00000000
00000000
01000000
00000000
,
00000000
00000000
01100000
00000000
00000000
00110000
00000000
00000000
00011000
00000000
00001000
00000000
00010000
00000000
00000000
00000000
,
00001000
00000000
00001000
00000000
00010000
00010000
00000000
00000100
,
00000010
00000001
00001000
00000000
00000010
00000100
00000000
00000100
,
00001000
00000000
00000000
00001000
00000000
00000000
00001000
00000000
00010000
00000000
00001000
00000000
01000000
00000000
00010000
00000000
,
00000000
00010000
10000000
01000000
00100000
00001000
00010000
00000000
,
00001000
00000000
00001000
00000000
00010000
00010000
00000000
00000010
,
00000100
00000001
00001000
00000000
00000100
00000010
00000000
00000010
,
00001000
00000000
00000000
00001000
00000000
00000000
00001000
00000000
00010000
00000000
00001000
00000000
00100000
00000000
00010000
00000000
,
00000000
00010000
10000000
00100000
01000000
00001000
00010000
00000000
,
00011000
00000000
00010100
00000000
00000100
00001000
00000000
00001000
,
00000001
00000100
00000010
00000000
00000100
00001000
00000000
00001000
,
00010000
00000000
00000000
00001000
00000000
00000000
00010000
00000000
00001000
00000000
00100000
00000000
01000000
00000000
00100000
00000000
,
00000000
00010000
10000000
00100000
00010000
00001000
00010000
00000000
,
00010100
00001000
00010010
00001000
,
00101000
00010000
01001000
00010000
,
00001000
00001000
00010000
00010000
00001000
00010000
00001000
00010000
,
00002000
00000000
00000000
00000000
00000000
00003000
00011000
00000000
,
00010000
00000000
00000100
00000000
00010000
00000000
00000100
00000000
00001000
00000000
00000000
00000000
00000100
00000000
00000010
00000001
,
00000000
00000010
00000001
00000000
00001000
00000000
00000010
00000000
00000100
00000000
00000000
00001000
00000000
00000000
00010000
00000000
,
00001000
00000000
00100000
00000000
00001000
00000000
00100000
00000000
00001000
00000000
00000000
00000000
00100000
00000000
00010000
00100000
,
00000000
01000000
10000000
00000000
00010000
00000000
01000000
00000000
00100000
00000000
00000000
00000000
00011000
00000000
00000000
00000000
,
00001000
00000000
01000000
00000000
00001000
00000000
01000000
00000000
00010000
00000000
00000000
00000000
01000000
00000000
00100000
10000000
,
00000000
00100000
10000000
00000000
00010000
00000000
00100000
00000000
01000000
00000000
00000000
00010000
00000000
00000000
00001000
00000000
,
00010000
00000000
00000010
00000000
00010000
00000000
00000010
00000000
00010000
00000000
00000000
00000000
00000010
00000000
00001000
00000010
,
00000000
00000100
00000001
00000000
00001000
00000000
00000100
00000000
00000010
00000000
00001000
00000000
00010000
00000000
00000000
00000000
,
00001000
00000000
00010000
00000000
00001000
00000000
01000000
00000000
00010000
00000000
00000000
00000000
00100000
00000000
01000000
10000000
,
00000000
01000000
10000000
00000000
00010000
00000000
01000000
00000000
00100000
00000000
00000000
10000000
00000000
00000000
01000000
00000000
,
00100000
00000000
00001000
00000000
00010000
00000000
00000100
00000000
00000010
00000000
00000000
00000000
00000100
00000000
00001000
00000001
,
00000000
00001000
00000010
00000000
00000100
00000000
00000001
00000000
00001000
00000000
00000000
00001000
00000100
00000000
00010000
00000000
,
00010100
00001000
01001000
00010000
,
00010010
00001000
00101000
00010000
,
00001000
00010000
00000010
00001000
00000010
00000100
00000001
00001000
,
00002002
00000000
00003000
00000003
,
00001001
00000000
00000000
00000000
;

//--------------- dance-double - Fred-104 ----------------
#NOTES:
     dance-double:
     Fred-104:
     Hard:
     16:
     :
00000000
00000000
00000000
00000000
,
00000000
00000000
00000000
00000000
,
00000000
00000000
00000000
00000000
,
00000000
00000000
00000000
00000000
,
00000000
00000000
00000000
00000000
,
00000000
00000000
00000000
00000000
,
00010000
00000000
00001000
00000000
00010000
00000000
00000100
00000000
00000000
00000000
00000100
00000000
00000010
00000001
00000000
00000001
,
00001000
00000000
00000010
00000000
00000100
00000000
00001000
00000000
00000000
00000000
00001000
00000000
00010000
00001000
00000000
00001000
,
00010000
00000000
01000000
00000000
00100000
00000000
00010000
00000000
00000000
00000000
00010000
00000000
01000000
00100000
00000000
00100000
,
10000000
00000000
00000000
00000000
01000000
00100000
00010000
00100000
00001000
00010000
00001000
00000000
00010000
00001000
00010000
00000000
,
00001000
00000000
00010000
00000000
00000100
00010000
00001000
00000000
00010000
00000000
00100000
00000000
10000000
00010000
00000000
00010000
,
00100000
00000000
01000000
00000000
00010000
01000000
00100000
00000000
00010000
00000000
10000000
00000000
00100000
00010000
00000000
00010000
,
00001000
00000000
00010000
00000000
00000100
00001000
00000001
00000000
00000100
00000000
00000010
00000000
00000001
00000010
00000000
00000010
,
00000100
00000000
00000001
00000000
00001000
00000100
00000010
00000001
00001000
00000000
00000001
00000010
00000000
00001000
00010000
00000000
,
00010100
00011000
00010010
00011000
,
01001000
00011000
00101000
00011000
,
00010000
00010000
00000100
00000100
00000010
00000010
00000001
00000001
,
00002002
00000000
00000003
00003000
,
00001001
00000000
00000001
00000100
00000000
00000100
00001000
00000000
,
00010000
00000000
00001000
01000000
00000000
01000000
00100000
00000000
,
10000000
00000000
00010000
00100000
00000000
00100000
01000000
00000000
,
00010000
00000000
01000000
10000000
00000000
10010000
00000000
00000000
,
00010000
00000000
10000000
01000000
00000000
00100000
00001000
00000000
,
00010000
00000000
00000100
00000010
00000000
00000001
00001000
00000000
,
00000001
00000000
00000100
00000010
00000000
00000100
00001000
00000000
,
00010000
00000000
00001000
00010000
00000000
00011000
00000000
00000000
,
00010000
00000000
00001000
00000000
00000100
00000000
00000010
00000001
00000010
00000001
00000010
00000000
00000100
00000001
00001000
00000000
,
00000001
00000000
00000010
00000000
00001000
00000000
00010000
00000000
00001000
00010000
00001000
00000000
01000000
00000000
00010000
10000000
,
00010000
00000000
00100000
00000000
01000000
00000000
00100000
00010000
00100000
00010000
10000000
00000000
00100000
01000000
00100000
00000000
,
00010000
00001000
00000100
00000010
00000100
00001000
00010000
00001000
,
00011000
00000000
00010000
00000000
00000100
00000000
00010000
00001000
00010000
00001000
00010000
00000000
00100000
01000000
00100000
00000000
,
10000000
00010000
01000000
00100000
00020000
00000000
00032000
00000000
,
00003100
00000000
00000010
00000000
00000100
00000000
00000001
00000000
00001000
00000100
00001000
00000000
00000100
00010000
00000100
00000000
,
00010000
00001000
00010000
00001000
00010000
00001000
00010000
00001000
00010000
00001000
00010000
00001000
00010000
00000000
00000000
00000000
,
00001000
00000000
00010000
00000000
00000010
00001000
00000000
00000010
00010000
00000000
00000010
00001000
00000000
00000010
00010000
00000000
,
00001000
00000000
00010000
00000000
00000100
00001000
00000000
00000100
00010000
00000000
00000100
00001000
00000000
00000100
00010000
00000000
,
00001000
00000000
00010000
00000000
00001000
00100000
00000000
00001000
00010000
00000000
00001000
00100000
00000000
00001000
00010000
00000000
,
00001000
00000000
00010000
00000000
00001000
01000000
00000000
00001000
00010000
00000000
00001000
01000000
00000000
00001000
00010000
00000000
,
00001000
00000000
00100000
00000000
00010000
10000000
00000000
00010000
01000000
00000000
00010000
10000000
00000000
00010000
01000000
00000000
,
00001000
00000000
00010000
00000000
00000100
00000010
00000000
00000001
00001000
00000000
00000100
00000010
00000000
00000001
00001000
00000000
,
00000001
00000000
00000100
00000000
00000010
00001000
00000000
00000001
00000100
00000000
00000010
00010000
00000000
00001000
00100000
00000000
,
00010000
00000000
10000000
00000000
01000000
00100000
00000000
00010000
10000000
00000000
00100000
01000000
00000000
00010000
10000000
00000000
,
01000000
00100000
01000000
00000000
00100000
00001000
00000000
00001000
00010000
00000000
00010000
00001000
00000000
00001000
00000100
00000000
,
00000001
00001000
00000001
00000000
00000010
00000100
00000000
00000100
00001000
00000000
00001000
00000001
00000000
00000001
00000100
00000000
,
00001000
00010000
00001000
00000000
00100000
00010000
00000000
00010000
01000000
00000000
01000000
00100000
00000000
00100000
10000000
00000000
,
00010000
01000000
00010000
00000000
00100000
00001000
00000000
00001000
00010000
00000000
00010000
00000010
00000000
00000010
00001000
00000000
,
00000100
00000010
00000001
00000000
00001000
00000010
00000000
00010000
00001000
00000000
00100000
00010000
00000000
10000000
00010000
00000000
,
01000000
00100000
10000000
00000000
00010000
00100000
00000000
00001000
00010000
00000000
00000010
00001000
00000000
00000001
00001000
00000000
,
00000100
00000010
00000001
00000000
00001000
00000010
00000000
00010000
00001000
00000000
01000000
00010000
00000000
00100000
01000000
00000000
,
00000000
00000000
11000000
00000000
00000000
01010000
00000000
00000000
00011000
00000000
00010000
00001000
00010000
00000100
00001000
00000100
,
00000010
00000000
00000011
00000000
00000001
00001000
00000000
00001000
,
00000200
00000310
00002000
00013000
00002000
00203000
01300000
20000000
,
30020000
00000000
01030000
00100000
00000000
00100000
00010000
00000000
00002000
00000000
00000000
00000000
00013000
00000000
00000100
00000000
,
00000000
00000200
00000320
00002030
00003002
00000203
00000320
00000031
,
00000100
00000000
00000110
00000000
00010000
00001000
00000000
00001000
,
00020000
01030000
00200000
10300000
00200000
00320000
10030000
00200000
,
00320000
00000000
00031000
00010000
00000000
00010000
00001000
00000000
00000200
00000000
00000000
00000000
00000301
00000000
00000010
00000000
,
00000000
00000020
00002030
00023000
00032000
00003200
00002300
00013000
,
00100000
00000000
10100000
00000000
00010000
00100000
00000000
00100000
,
20000000
30100000
02000000
03100000
00002000
00023000
01030000
00020000
,
00032000
00000000
00013000
00001000
00000000
00001000
00000010
00000000
00000200
00000000
00000000
00000000
00001300
00000000
00000001
00000000
,
00000000
00000002
00000023
00002030
00023000
02030000
03020000
00031000
,
00011000
00000000
00001000
00010000
00000100
00000000
00001000
00000000
00001001
00000000
00000001
00000100
00000010
00000000
00000100
00000000
,
00001000
00010000
00001000
00010000
00001000
00000000
01000000
00000000
00001000
00010000
00001000
00010000
00001000
00000000
00000100
00000000
,
00000001
00001000
00000001
00000000
00000100
00000010
00000100
00000000
00001000
00010000
00001000
00010000
01000000
00100000
01000000
00100000
,
00010000
10000000
00010000
10000000
00010000
10000000
00010000
10000000
00010000
10000000
00010000
10000000
00010000
00000000
00000000
00000000
,
10000000
00000000
00100000
00000000
01000000
00100000
00010000
00000000
00002000
00000000
00000000
00000000
00013000
00000000
00000010
00001000
,
00000000
00001000
00000100
00000000
00000010
00000001
00001000
00000000
00000001
00000000
00000100
00000010
00000000
00000100
00001000
00000000
,
00010000
00000000
00001000
00000000
01000000
00010000
00100000
00000000
00002000
00000000
00000000
00000000
00013000
00000000
00100000
10000000
,
00000000
10000000
00010000
00000000
00100000
00001000
00010000
00000000
00001000
00000000
00000000
00001000
00000100
00000000
00000010
00000000
,
00010000
00000000
00001000
00000000
00010000
00001000
01000000
00000000
00020000
00000000
00000000
00000000
00130000
00000000
01000000
10000000
,
00000000
10000000
00010000
00000000
01000000
00001000
00010000
00000000
00001000
00000000
00010000
00000100
00000000
00010000
00001000
00000000
,
00010000
00000000
00001000
00000000
00000010
00000100
00000010
00000000
00000002
00000000
00000000
00000000
00000013
00000000
00000100
00001000
,
00000000
00000010
00000100
00000000
00001000
00010000
00001000
00000000
00010000
00001000
00100000
00010000
00100000
01000000
10000000
00000000
,
10010000
00000000
10000000
00000000
01000000
00100000
00010000
00000000
00100000
00000000
00001000
00000000
00010000
00000000
00000010
00000100
,
00000000
00000100
00001000
00000000
00000100
00000001
00000100
00000000
00000001
00000000
00001000
00000100
00000000
00000010
00000001
00000000
,
00001000
00000000
00000010
00000000
00000100
00001000
00010000
00000000
00001000
00000000
01000000
00000000
00010000
00000000
00100000
01000000
,
00000000
01000000
00010000
00000000
01000000
00100000
00010000
00000000
10000000
00000000
00000000
10000000
00100000
00000000
00010000
00000000
,
00011000
01010000
00011000
00001100
,
00011000
00110000
00011000
00001010
,
00010000
00010000
00001000
00001000
00000100
00000100
00001000
00001000
,
00022000
00000000
00003000
00030000
,
00011000
00000000
00000000
00000000
;
