#TITLE:悠久のPEGASUS;
#ARTIST:SOUND HOLIC Vs. T.Kakuta feat. Nana Takahashi;
#TITLETRANSLIT:Yuukyuu no PEGASUS;
#BANNER:Yuukyuu no PEGASUS.png;
#BACKGROUND:Yuukyuu no PEGASUS-bg.png;
#CDTITLE:./CDTitles/GITADORA Tri-Boost.png;
#MUSIC:Yuukyuu no PEGASUS.ogg;
#SAMPLESTART:93.6;
#SAMPLELENGTH:15;
#BPMS:0=200;
#BGSTAGE:29;

//--------------- dance-single - 悠久のFRED ----------------
#NOTES:
     dance-single:
     悠久のFRED:
     Beginner:
     5:
     :
0000
0000
0000
0000
,
0000
0000
0000
0000
,
0000
0000
0000
0000
,
0000
0000
0000
0000
,
0000
0000
0000
0000
,
0000
0000
0000
0000
,
1000
0000
0000
0000
,
0001
0000
0100
0000
,
0010
0000
0000
0000
,
0100
0000
0001
0000
,
0001
0000
0001
0000
,
1000
0000
1000
0000
,
0001
0000
0100
0000
,
0010
0000
0010
0000
,
0010
0000
0100
0000
,
0001
0000
1000
0000
,
1000
0000
0001
0000
,
2000
3000
0002
0003
,
1000
0000
0010
0000
,
0100
0000
0001
0000
,
0100
0000
0100
0000
,
0001
0000
1000
0000
,
0001
0000
0010
0000
,
0001
0000
1000
0000
,
0001
0000
1000
0000
,
0001
0000
0000
1001
0000
0000
0000
0000
,
1000
0000
0010
0000
,
0100
0000
0001
0000
,
0001
0000
0100
0000
,
0001
0000
0010
0000
,
0001
0000
1000
0000
,
0001
0000
1000
0000
,
1000
0000
0010
0000
,
2000
0000
3000
0000
,
0001
0000
0100
0000
,
0001
0000
0010
0000
,
0001
0000
0000
0000
,
1000
0000
0010
0000
,
0100
0000
0000
0000
,
0001
0000
1000
0000
,
0001
0000
1000
0000
,
1001
0000
0000
0000
,
0001
0000
0000
0000
,
1000
0000
0010
0000
,
0200
0000
0000
0000
,
0300
0000
0001
0001
,
0001
0000
1000
0000
,
0001
0000
0100
0000
,
0001
0000
1000
0000
,
2002
0000
3003
0000
,
0001
0000
1000
0000
,
0010
0000
0100
0000
,
0001
0000
1000
0000
,
0001
0000
0100
0000
,
0001
0000
0001
0000
,
1000
0000
1000
0000
,
0001
0000
1000
0000
,
1001
0000
0000
0000
,
0001
0000
0000
0000
,
0100
0000
0000
0000
,
0010
0000
0000
0000
,
1000
0000
0001
0000
,
1000
0000
0000
0000
,
0010
0000
0000
0000
,
0100
0000
0000
0000
,
0001
0000
1000
0000
,
0001
0000
0000
0000
,
1000
0000
0000
0000
,
0010
0000
0100
0000
,
0010
0010
0010
0000
,
1000
0000
0000
0000
,
0001
0000
0100
0000
,
0001
0000
0000
0000
,
1000
0000
0010
0000
,
0100
0000
0001
0000
,
0100
0000
0100
0000
,
0001
0000
1000
0000
,
0001
0000
0000
0001
0000
0000
1000
0000
,
2002
0000
3003
0000
,
1000
0000
0010
0000
,
0100
0100
0100
0000
,
0001
0000
1000
0000
,
0001
0000
0100
0100
,
0100
0000
0010
0000
,
0100
0000
0010
0000
,
1000
0000
1000
0000
,
0001
0000
0001
0000
,
1001
0000
0000
0000
,
1000
0000
0000
0000
,
0001
0000
0000
0000
,
0100
0000
0010
0000
,
0100
0000
0000
0000
,
0001
0000
1000
0000
,
0001
0000
0000
0000
,
1000
0000
0001
0000
,
1000
0000
0000
0000
,
0010
0000
0000
0000
,
1000
0000
0001
0000
,
1000
1000
1000
1000
,
0001
0000
2002
0000
,
0000
3003
0000
0000
;

//--------------- dance-single - 悠久のFRED ----------------
#NOTES:
     dance-single:
     悠久のFRED:
     Easy:
     10:
     :
0000
0000
0000
0000
,
0000
0000
0000
0000
,
0000
0000
0000
0000
,
0000
0000
0000
0000
,
0000
0000
0000
0000
,
0000
0000
0000
0000
,
1000
0000
0000
0010
0000
0000
0100
0000
,
0000
0001
0000
0000
0100
0000
0001
0000
,
0010
0000
0000
0001
0000
0000
1000
0000
,
0001
0000
0000
0001
0000
0000
0001
0000
1000
0000
0010
0000
1000
0000
0010
0000
,
0100
0000
0000
0010
0000
0000
0100
0000
,
0000
0001
0000
0000
1000
0000
0100
0000
,
1000
0000
0000
0001
0000
0000
0010
0000
,
0000
0100
0000
0000
0010
0000
0001
0000
,
1000
0000
0000
0100
0000
0000
1000
0000
,
0000
0001
0000
0000
0100
0000
0010
0000
,
0100
0000
0000
0001
0000
0000
1000
0000
,
0001
0000
0000
0000
0200
0000
0000
0301
0000
0000
1000
0000
0001
0000
0100
0000
,
0001
0001
0100
0010
,
1000
0000
0000
0000
0001
0010
0001
0000
,
1000
0000
0010
0200
0000
0000
0300
0000
,
0001
0000
1000
0000
0001
1000
0001
0000
,
1000
0100
0010
0001
,
0100
0000
0000
0000
0001
1000
0001
0000
,
0100
0100
0010
0010
,
1000
0000
0000
1001
0000
0000
0000
0000
,
0001
0001
0010
0100
,
1000
0000
0000
0000
0100
1000
0010
0000
,
0100
0000
0001
1000
0000
0000
0001
0000
,
0100
0010
0100
0001
,
1000
0100
1000
0000
0001
0100
0001
0000
,
1001
0000
0100
0010
,
0100
0000
0000
0001
0000
0000
1000
0000
,
0001
0010
0001
0000
1000
0010
1000
0000
,
1001
0000
0001
0000
,
0100
0010
1000
0100
,
0010
0000
0001
0000
,
1000
0001
0100
0010
,
1000
0000
0001
0000
,
1000
0100
0010
0001
,
1000
1000
0001
0001
,
1000
0000
0001
0000
1000
0001
1000
0001
,
1000
0000
0000
0010
0000
0000
0100
0000
,
0002
0000
2003
3001
,
0100
0100
0001
1000
,
0001
0010
0001
0000
1000
0010
1000
0000
,
0001
0000
0000
0100
0000
0000
0010
0000
,
1000
0000
0000
0010
0000
0000
0100
0000
,
0001
0000
0000
1000
0000
0000
0001
0000
,
2002
3003
0220
0330
,
0100
0100
0001
1000
,
0001
0100
0010
0000
1000
0100
0010
0000
,
0001
0000
0001
0100
0000
0000
0100
0000
,
1000
0000
0100
0000
0001
1000
0000
0000
,
0001
0100
0000
0000
0100
0010
0000
0000
,
0010
1000
0000
0000
1000
0100
0000
0000
,
0100
0000
0000
0000
0010
0000
0000
0000
0001
0000
0000
1000
0000
0000
1000
0000
,
0001
0000
0000
0000
0100
0000
0010
0000
0100
0000
0000
0100
0000
0000
0010
0000
,
1000
0001
1000
0001
1000
0000
0010
0000
,
0100
0100
0001
1000
,
0001
0001
0000
0000
1000
0000
0001
0000
,
1010
1010
0101
0101
,
1000
0000
0001
0000
0100
0010
0100
0000
,
0001
0000
1000
0000
0100
0010
0100
0000
,
2000
3010
0002
0013
,
1000
0000
0001
0000
0100
0010
0100
0000
,
0002
0003
0020
0030
,
0200
0300
2000
3000
,
0001
0100
0010
0100
,
0001
1000
2002
3003
,
0200
0000
0302
0000
,
2003
0000
3002
0000
,
0203
0000
0310
0100
,
0001
0100
0001
0000
1000
0100
1000
0000
,
0001
0010
1000
0010
,
0001
0100
0010
1000
,
0001
0000
0010
0000
0001
0000
0010
0000
0001
0000
0000
1000
0000
0000
0001
0000
,
1000
0000
0000
0010
0000
0000
0100
0000
,
2002
0000
3003
0000
,
1000
0100
1000
0000
0010
0100
0010
0000
,
0100
0001
0100
0000
0001
1000
0001
0000
,
0100
0000
0100
0010
0000
0010
0100
0000
,
0001
0000
0010
0000
0100
0100
0000
0000
,
1000
0010
0000
0000
0010
0100
0000
0000
,
0100
0001
0000
0000
0001
1000
0000
0000
,
1000
0000
0000
0000
0001
0000
0000
0000
0100
0000
0000
0100
0000
0000
0100
0000
,
0020
2030
3001
1000
,
0001
0010
0000
0200
0000
0000
0300
0000
,
2002
0000
0000
3003
,
0001
0100
0010
0100
,
0001
0000
1000
0000
0001
1000
0001
1000
,
0001
0000
0001
0010
0000
0010
0001
0000
,
1000
0000
0000
0010
0000
0000
0010
0000
,
0100
0000
0100
0001
0000
0001
1000
0000
,
0100
1000
0001
0100
,
0010
0000
0010
0100
0000
0100
0001
0000
,
0010
0000
0000
0100
0000
0000
1000
0000
,
0001
0000
0001
0100
0000
0100
0010
0000
,
1000
0010
1000
0000
0001
0100
0001
0000
,
1000
0100
0010
0001
0200
0000
0000
0000
,
0000
0300
0000
0000
;

//--------------- dance-single - 悠久のFRED ----------------
#NOTES:
     dance-single:
     悠久のFRED:
     Medium:
     14:
     :
0000
0000
0000
0000
,
0000
0000
0000
0000
,
0000
0000
0000
0000
,
0000
0000
0000
0000
,
0000
0000
0000
0000
,
0000
0000
0000
0000
,
1000
0000
0010
1000
0000
0100
1000
0000
,
0010
1000
0000
0100
1000
0001
0100
0000
,
0001
0000
0010
0001
0000
1000
0001
0000
,
0100
0000
0000
0100
0000
0000
0100
0000
0001
0000
0010
0000
0100
0000
1000
0000
,
0001
0100
0100
0001
0100
0100
0001
0100
,
0010
1000
1000
0010
1000
0001
0100
0010
,
1000
0100
0100
1000
0100
0100
1000
0100
,
0010
0001
1000
0010
0100
0001
1000
0000
,
0001
0010
0010
0001
0010
0010
0001
0010
,
0001
0100
0010
1000
0100
0010
0100
1000
,
0010
0100
0100
0001
0100
0100
0010
0100
,
0001
0000
0000
0000
0200
0000
0000
0320
0000
0000
1030
0001
1000
0000
0010
0000
,
0100
0000
0001
0000
1000
0000
0100
0000
0010
0000
0000
0100
0000
0000
1000
0001
,
1000
0000
1001
0000
0001
0100
0010
0100
,
0001
0100
0010
1000
0001
0000
1000
0010
,
0000
1010
0000
0101
0000
0001
1000
0001
,
0100
0010
0100
0001
1000
0100
0001
0100
,
0010
0000
0100
0100
0000
0001
1000
0100
,
1100
0010
0101
0010
,
1000
0100
0010
0001
0000
0100
0010
0100
,
0001
0000
0000
0000
0000
0000
0000
0000
0010
0000
0000
0000
0000
0000
0000
0000
0001
0000
0000
0000
0000
0000
0000
0000
0100
0000
0000
0000
0000
0000
0000
0000
0001
0000
0000
0000
0000
0000
0000
0000
1000
0000
0000
0000
0000
0000
0000
0000
0020
0030
0000
0000
0000
0000
0000
0000
0020
0030
0000
0000
0000
0000
0000
0000
,
0001
0000
0000
0000
0000
0000
0000
0000
0000
0000
0000
0000
0000
0000
0000
0000
0200
0300
0000
0000
0000
0000
0000
0000
0200
0300
0000
0000
0000
0000
0000
0000
1000
0000
0000
0000
0000
0000
0000
0000
0001
0000
0000
0000
0000
0000
0000
0000
0100
0000
0000
0000
0000
0000
0000
0000
0010
0000
0000
0000
0000
0000
0000
0000
,
1000
0000
0001
0020
0000
0000
0000
0000
,
0130
1000
0100
0010
0100
0001
1000
0010
,
1000
0000
0000
0000
0000
0000
0000
0000
0100
0000
0000
0000
0000
0000
0000
0000
0001
0000
0000
0000
0000
0000
0000
0000
0100
0000
0000
0000
0000
0000
0000
0000
1000
0000
0000
0000
0000
0000
0000
0000
0000
0000
0000
0000
0000
0000
0000
0000
0020
0030
0000
0000
0000
0000
0000
0000
0020
0030
0000
0000
0000
0000
0000
0000
,
0001
0000
0100
0100
0000
0010
0100
0001
,
1000
0000
0010
0010
0000
1000
0100
1000
,
0001
0100
1000
0100
0001
1000
0001
0000
,
0100
0010
0110
0002
,
2003
3100
0002
0103
,
1000
0001
0101
0001
,
1000
0010
0100
0001
0010
0100
0010
0001
,
1000
0000
0010
0000
0110
0000
0100
0001
,
1000
0000
0010
0100
0000
0100
0001
1000
,
0001
0010
0001
0100
0010
1000
0100
1000
,
1001
0000
0110
0000
0001
1000
0010
0100
,
0001
0100
0010
1000
0000
1000
0100
0010
,
0002
0100
2003
0010
,
3002
0100
0010
0103
,
0001
0100
0001
0100
1000
0100
1000
0100
,
0001
0100
1000
0100
0000
0001
1000
0001
,
1000
0100
0001
0100
0000
1000
0001
1000
,
0001
0100
0100
1000
0100
0100
0001
1000
,
0002
0000
2000
3003
,
0001
0010
0100
1000
0010
0100
0001
0100
,
0010
1000
0100
0010
0100
1000
0001
0100
,
0001
0010
0100
0010
0000
0001
1000
0100
,
0000
1000
0001
1000
0010
0010
0000
0000
,
1000
0100
0000
0001
1000
0010
0000
0001
,
1000
0100
0000
0001
1000
0010
0000
0001
,
1000
0000
0010
0000
0100
0000
0010
0000
1000
0000
0000
1000
0000
0000
0001
0000
,
0100
0000
0000
0000
0010
0000
0100
0000
0001
0000
0000
1000
0000
0000
0001
0000
,
1000
0100
0010
0001
0000
0100
0010
0100
,
0001
0010
0001
1000
0010
0100
0001
0000
,
0100
0001
1000
0010
0100
0010
1000
0000
,
1100
0110
0011
1001
,
0001
0000
0000
0000
0000
0000
0000
0000
0200
0300
0000
0000
0000
0000
0000
0000
0200
0300
0000
0000
0000
0000
0000
0000
1000
0000
0000
0000
0000
0000
0000
0000
0001
0000
0000
0000
0000
0000
0000
0000
0100
0000
0000
0000
0000
0000
0000
0000
0010
0000
0000
0000
0000
0000
0000
0000
1000
0000
0000
0000
0000
0000
0000
0000
,
0001
0010
0100
0010
0001
0100
0100
0100
,
0010
1000
0100
0100
0010
0001
0100
0100
,
0010
0000
1000
0010
0100
0100
0001
0001
,
1000
0100
0010
0001
1000
0010
0100
0001
,
0100
0010
0100
0001
0010
0100
1000
0001
,
1000
0100
0010
0100
1000
0010
0100
0000
,
1010
0000
0101
0000
1000
0001
0100
0010
,
0100
0000
0010
0000
1000
0000
0100
0010
,
0002
0103
2000
3100
,
0002
0100
0010
0103
,
0001
0100
0010
0100
0001
0100
0010
1000
,
0000
1000
0100
0010
0000
0010
0001
1000
,
0001
0010
0100
0010
0000
0001
1000
0010
,
0100
0000
0010
0000
0010
0000
0100
0000
0001
0000
0000
1000
0000
0000
0001
0000
,
0011
0000
0000
1100
0000
0000
0101
0000
,
2002
0000
3003
0000
,
1000
0100
1000
0100
0000
0010
0100
1000
,
0001
0100
0010
0100
0001
1000
0001
0010
,
0100
1000
0100
0010
0000
0010
0001
1000
,
0000
1000
0001
0100
0010
0100
0000
0000
,
0001
0010
0000
1000
0001
0100
0000
1000
,
0001
0010
0000
1000
0001
0100
0000
1000
,
0001
0000
0100
0000
0010
0000
0010
0000
0100
0000
0000
0001
0000
0000
1000
0000
,
0020
0000
0230
0000
0302
0023
0000
0230
,
0320
0032
0000
2003
0000
0000
3000
0000
,
2002
0000
0000
3003
,
0110
0000
0000
0001
0000
1000
0100
0000
,
1100
0110
0011
1001
,
0001
0010
0100
0010
0001
0010
0100
1000
,
0010
0100
0001
0100
0010
0100
0001
1000
,
0001
0010
0100
0010
0001
0100
0010
1000
,
0001
1000
0100
0010
0001
1000
0010
0000
,
1000
0100
0010
0001
0100
0010
1000
0010
,
0100
0001
0010
0100
1000
0001
0100
0000
,
0001
0001
0100
0100
0010
0010
1000
1000
,
0001
0010
0100
1000
0010
0100
0001
1000
,
0001
1000
0001
1000
0001
1000
0001
1000
0002
0000
0000
0000
0000
0000
0000
0000
,
0000
0003
0000
0000
;

//--------------- dance-single - 悠久のFRED ----------------
#NOTES:
     dance-single:
     悠久のFRED:
     Hard:
     16:
     :
0000
0000
0000
0000
,
0000
0000
0000
0000
,
0000
0000
0000
0000
,
0000
0000
0000
0000
,
0000
0000
0000
0000
,
0000
0000
0000
0000
,
1000
0000
0100
0010
0000
0001
1000
0000
,
0001
0100
0000
1000
0100
0000
0010
1000
,
0100
0000
0010
0001
0000
1000
0001
0000
,
1000
0000
0000
1000
0000
0000
1000
0000
0100
0010
0100
0000
0010
0001
0010
0000
,
1000
0000
0001
0100
0001
0000
1000
0000
0001
0100
0001
0000
0010
0000
0100
0000
,
1000
0010
0100
1000
0100
0001
1000
0000
,
0001
0000
0100
0001
0100
0000
0010
0000
0100
0001
0100
0000
0010
0000
1000
0000
,
0001
0010
0100
1000
0001
0100
0010
1000
,
0100
0000
0010
0001
0010
0000
0100
0000
0010
0001
0010
0000
0100
0000
1000
0000
,
0001
0010
1000
0010
0100
1000
0001
0000
,
1000
0000
0001
0101
0000
0100
0110
0010
,
1000
0000
0000
0000
2010
0000
0000
3020
0000
0000
0130
0010
0100
0000
0001
1000
,
0001
0000
0010
0000
0100
0000
1000
0000
0001
0000
0000
0100
0000
0000
0010
1000
,
0010
0000
1100
0000
0100
0010
0001
0010
,
0001
0000
1000
0010
0100
0000
0001
0010
,
0000
1000
0000
0010
0000
0001
0100
0010
,
1000
0100
0010
0100
1000
0010
0100
0010
,
1000
0000
0001
0001
0000
0100
0010
1000
,
0100
0000
0010
0010
0000
0001
1000
0001
,
1000
0000
0100
0000
0010
0000
0002
0000
0000
0000
0103
0010
0100
0010
0100
0010
,
0100
0001
0010
0001
0100
0001
0010
0001
,
0100
0010
1000
0100
0010
0100
1000
0010
,
0100
0010
1000
0100
0010
0001
1000
0001
,
0100
0001
0010
0100
1000
0010
0100
0000
,
0001
0100
0010
0100
0001
0010
0100
0010
,
0001
0100
0001
0010
0100
1000
0010
1000
,
0100
0010
0001
1000
0001
0100
0010
1000
,
0001
0100
0001
0100
0001
0100
0001
0100
0001
0000
0010
0000
0100
0000
1000
0000
,
0002
0000
0000
0103
,
0020
0000
2030
0000
,
3200
0000
0000
0000
,
0000
0310
0001
1000
0001
0010
0100
0001
,
0200
0000
0000
0000
0000
0000
0000
1300
,
0002
0000
0103
0020
0000
1030
0100
0010
,
0001
0010
1000
0010
0000
0001
0100
0010
,
1010
0000
0101
0000
1000
0100
0010
0001
,
1000
0100
1000
0010
1000
0100
0010
0100
,
1000
0100
0002
0000
1003
0010
0002
0000
,
1003
0001
0100
0001
0010
0100
0010
0001
,
1000
0001
0100
1000
0100
0010
1000
0001
,
1000
0100
0001
0200
0000
1300
0100
0010
,
0001
0100
1000
0200
0000
0301
0100
0010
,
1000
0100
0100
0010
0100
0100
1000
0001
,
2000
0000
0002
3003
,
1000
0100
0010
0001
0100
0010
0100
0001
,
1000
0100
0010
1000
0001
0100
0010
0001
,
1000
0100
0010
0001
0000
0100
0010
0001
,
0000
0010
1000
0001
0100
0020
0000
0000
,
2030
0100
0000
3100
0020
0001
0000
0031
,
0200
0010
0000
0310
0200
0001
0000
0301
,
1000
0000
0001
0000
0100
0010
0100
0000
0001
0000
0000
0101
0000
0000
0100
0000
,
0010
0000
0000
0000
1000
0000
0000
0000
0100
0010
0100
0010
0001
0000
1000
0000
,
0001
0100
0010
2000
0000
0000
0000
0000
,
3001
1000
0001
1000
0001
1000
0001
1000
0100
0010
0100
0010
0001
0000
1000
0000
,
0001
0100
0001
0000
0100
0010
0100
0000
0010
0000
1000
0010
1000
0000
0001
1000
,
0001
0011
0101
1001
,
1000
0000
0100
0010
0100
0000
1000
0000
0010
0000
0100
0000
0010
0000
1000
0000
,
0100
0000
0010
0000
0001
0100
0001
0000
0100
0000
0010
1000
0010
1000
0010
0000
,
0100
0010
0100
0000
0001
0100
0001
0000
1000
0000
0100
0000
0010
0000
0001
0000
,
1000
0010
1000
0010
0100
0001
0100
0001
1000
0000
0001
0000
0200
0000
0000
0000
,
0301
0100
0001
0000
0010
0000
0100
0000
0010
0100
0010
0000
0100
0000
1000
0000
,
0001
0000
0000
0000
0000
0000
0100
0000
0000
0010
0000
0000
0100
0000
0000
0010
0000
0000
0100
0000
0000
0000
0000
0000
0001
0000
0000
0000
0010
0000
0000
0000
0001
0000
0000
0000
0010
0000
0000
0000
0100
0000
0000
0000
1000
0000
0000
0000
,
0100
0000
1000
0000
0100
0010
0001
0000
0100
0000
0001
0000
0100
0010
1000
0000
,
0001
0100
0001
0000
1000
0010
1000
0000
0002
0000
2003
0000
3020
0000
0230
0000
,
0302
0000
0000
0103
,
0220
0330
2020
3030
,
2002
0000
0000
0000
,
3003
1000
0100
0001
1000
0010
0001
1000
,
0001
0100
1000
0200
0000
0301
0100
0010
,
1000
0100
0001
0200
0000
1300
0100
0010
,
0001
0000
0100
0000
0010
0000
0100
0000
0001
0000
0000
1000
0000
0000
0010
0000
,
1010
0000
0000
0110
0000
0000
0101
0000
,
2002
0000
3003
0000
,
1000
0100
0010
0100
1000
0001
0100
0010
,
1000
0001
0010
0100
0001
0100
1000
0001
,
0100
0010
0100
0001
0010
0100
0010
0001
,
1000
0000
0001
0000
0100
0010
0100
0000
0001
0000
1000
0000
0100
0000
1000
0000
,
0002
0010
0000
0013
2000
0010
0000
3010
,
0002
0100
0000
0103
2000
0100
0000
3100
,
0001
0000
0100
0010
0100
0010
0100
0000
0001
0000
0000
0011
0000
0000
0100
0000
,
2000
0000
0010
0000
3100
0010
0001
0100
,
0010
1000
0000
2002
0000
0000
3003
0000
,
1000
0100
0001
1000
0010
0001
1000
0000
,
0001
0100
0001
0000
0010
0000
0001
0000
1000
0000
0001
0100
0001
0100
0010
0100
,
0010
0000
0000
0000
1000
0000
0000
0000
0001
1000
0001
1000
0100
0010
0100
0010
,
0001
0000
0100
0001
0010
0000
0100
0000
0010
0001
0100
0000
0010
0000
1000
0000
,
0001
0000
1000
0010
0100
0000
0010
0000
1000
0100
0010
0000
0100
0000
1000
0000
,
0010
0000
1000
0001
0010
0000
0100
0000
0010
0001
1000
0000
0001
0000
0100
0000
,
0001
0000
0010
0000
0100
0000
1000
0000
0010
1000
0010
1000
0001
0100
0001
0100
,
0001
0000
0010
0100
1000
0000
0010
0000
0100
0001
0010
0000
0100
0000
0010
0000
,
0001
0000
1000
0010
0100
0000
0001
0000
0010
0100
1000
0000
0001
0000
0100
0000
,
0001
0100
0001
0000
0010
0000
0100
0000
1000
0100
1000
0000
0010
0000
0100
0000
,
0001
0010
0001
0000
1000
0010
1000
0000
0001
0100
0001
0100
0010
1000
0010
1000
,
0001
1000
0001
1000
0100
0010
0100
0010
0002
0000
0000
0000
0000
0000
0000
0000
,
0000
0003
0000
0000
;

//--------------- dance-single - 悠久のFRED† ----------------
#NOTES:
     dance-single:
     悠久のFRED†:
     Challenge:
     18:
     :
0000
0000
0000
0000
,
0000
0000
0000
0000
,
0000
0000
0000
0000
,
0000
0000
0000
0000
,
0000
0000
0000
0000
,
0000
0000
0000
0000
,
0001
0000
0010
0100
0000
1000
0100
0000
,
1000
0010
0000
0100
0001
1000
0100
0010
,
0001
0000
1000
0100
0000
0001
0100
0000
,
1000
0000
0000
1000
0000
0000
1000
0000
0001
0100
0001
0100
0010
1000
0010
0000
,
1000
0000
0010
0100
0010
0000
1000
0000
0100
0010
0100
0000
1000
0000
0001
0100
,
0001
0000
1000
0001
0010
0000
0100
0000
1000
0100
0010
0000
0001
0000
1000
0000
,
0001
0000
0100
0010
0100
0000
0001
0000
0010
0100
0010
0000
0001
0000
1000
0000
,
0001
0000
0100
0000
0010
0000
0100
0000
0001
0100
0001
0010
0100
1000
0001
0100
,
0001
0000
1000
0100
0010
0000
0001
0000
1000
0001
0100
0000
0001
0000
1000
0010
,
0100
0000
0001
0010
0100
0000
1000
0000
0001
0100
0010
0000
0100
0000
0010
0000
,
0110
1000
0001
0110
0001
1000
0110
1000
,
0001
0000
0000
0000
2000
0000
0000
3020
0000
0000
0130
0001
1000
0000
0001
0100
,
0010
0000
1000
0000
0100
0000
0010
0100
0010
0000
0000
0100
0000
0000
0010
0001
,
1000
0100
1100
0000
0010
0100
0001
1000
,
0001
0000
0010
0000
0001
0000
0100
0010
0100
0000
0001
0000
0100
0000
0110
0000
,
0000
0000
1100
0000
0000
0000
0101
0000
0000
0000
0100
0010
0100
0000
0001
0000
,
1000
0000
0001
0000
0100
0000
1000
0100
0010
0000
1000
0000
0100
0000
0010
0000
,
0001
0000
0100
1100
0000
0101
0000
0001
,
0100
0000
0001
0010
0100
0000
0010
0100
1000
0000
0001
0100
0010
0000
1000
0000
,
0010
0000
1000
0000
0001
0000
0102
0000
0000
0000
1003
0100
0010
0001
0100
0001
,
0100
0020
2030
3002
2003
3200
0301
0200
,
1300
0000
0010
0000
0100
0001
0200
0000
0302
0000
0023
0000
0230
0000
2300
0000
,
3002
0000
0103
0000
0010
0100
0020
0000
1030
0000
0100
0000
0010
0100
0010
0000
,
0001
0000
0100
0001
0100
0010
1000
0010
1000
0100
0010
0001
1000
0001
0100
0010
,
1000
0000
0100
0000
0010
0001
0010
0000
0001
0000
0100
0000
0010
1000
0010
0000
,
0100
0000
0001
0100
0010
0000
0110
0000
0000
0000
1010
0000
1000
0000
0001
0000
,
0100
0000
0001
0010
0001
0000
1001
0000
0000
0000
1100
0000
0100
0000
0010
0000
,
0001
0100
0001
0100
0001
0100
0001
0100
0001
1000
0100
0010
0001
0100
0010
1000
,
0001
0000
0000
0000
0100
0000
0000
0000
0110
0000
0000
0000
0010
1000
0001
0100
,
0010
0000
1000
0000
0000
0000
0010
0000
0100
0000
0000
0000
0001
0010
0100
0000
,
0010
0000
0000
0000
0001
0000
0000
0000
1001
0000
0000
0000
1000
0000
0010
0100
,
0001
0000
0200
0000
0320
0000
0230
0000
0302
0000
0103
0000
0010
1000
0001
0000
,
0100
0000
0010
0000
1010
0000
1000
0001
,
2000
3200
0302
0203
0000
2300
3100
0002
,
0203
2300
3020
0230
0301
0200
0320
2030
,
3001
0100
0001
0000
1000
0100
1000
0000
0001
0000
0010
0000
0100
0000
1000
0000
,
0001
0000
0100
0010
0100
0000
0001
0000
1000
0100
1000
0100
0010
0000
0001
0000
,
0100
0000
0010
0000
1000
0001
1000
0000
0001
0000
0010
0000
0001
0100
0001
0000
,
1000
0000
0100
0000
0010
0100
0010
0000
0001
0000
0100
0000
0010
0100
0010
0000
,
1000
0100
1000
0000
0001
0100
0001
0000
1000
0000
1000
0000
0010
0000
0100
0000
,
0001
0000
0100
0010
0100
0001
1000
0001
1000
0000
0001
0100
0001
0000
1000
0000
,
0001
0000
0100
0000
0010
0100
0001
0000
0000
0000
1000
0000
0001
0000
0010
0000
,
0110
1000
0001
0110
0001
1000
0110
1000
,
0001
1000
2002
3003
,
0001
0000
0100
0000
0010
0000
0100
0000
0001
1000
0010
0000
1000
0001
0010
0000
,
0001
0000
0010
0000
0100
0000
1000
0000
0001
1000
0100
0000
1000
0001
0100
0000
,
0010
0000
1000
0000
0100
0000
0010
0000
0001
0100
0010
0000
0100
0010
1000
0000
,
0001
0000
0010
0000
0001
0100
0001
0010
0001
0000
0100
0000
0000
0000
0010
0000
,
1000
0010
0200
0000
0000
0000
0301
0100
0010
0100
0002
0000
0000
0000
1003
0000
,
0100
0010
0002
0000
0000
0000
1003
0100
1000
0001
0020
0000
0000
0000
0031
1000
,
0001
0000
0100
0010
0100
0010
0100
0000
0110
0000
0000
0110
0000
0000
1001
0000
,
0001
0000
0100
0000
0010
1000
0010
1000
0001
0000
0000
0100
0000
0000
0010
0000
,
1000
0010
1000
0000
0001
0100
0001
0000
1000
0010
0100
0000
0001
0010
0100
1000
,
0001
0100
0001
0100
0010
0100
0010
0100
0001
1000
0001
1000
0100
0010
0100
0000
,
1000
0100
1000
0000
0001
0100
0001
0000
1000
0000
0001
0010
0001
1000
0010
1000
,
0002
0000
0000
0000
0000
0000
0000
0000
0000
0000
0000
0000
0000
0000
0000
0003
0012
0000
0000
0000
0000
0000
0000
0000
0000
0000
0000
0000
0000
0000
0000
0003
0102
0000
0000
0000
0000
0000
0000
0000
0000
0000
0000
0000
0000
0000
0000
0003
1002
0000
0000
0000
0000
0000
0000
0000
0000
0000
0000
0000
0000
0000
0000
0000
,
1003
0000
0001
0010
0001
0000
0100
0000
0010
0000
1000
0000
0100
0000
0100
0000
,
0010
0000
0001
0000
1000
0000
0010
0100
0010
0000
1000
0000
0100
0010
0001
0000
,
1000
0010
1000
0010
0100
0010
0100
0010
1000
0000
0001
0000
0010
0000
0100
0000
,
1000
0010
1000
0000
0001
0100
0001
0000
1000
0100
1000
0100
0010
0100
0010
0000
,
0001
0100
0010
0100
0001
0100
0010
0000
1000
0100
1000
0010
0100
0010
1000
0100
,
0010
0000
0000
0000
0000
0000
0001
0000
0000
0100
0000
0000
0001
0000
0000
0100
0000
0000
0001
0000
0000
0000
0000
0000
0100
0000
0000
0000
0010
0000
0000
0000
0100
0000
0000
0000
0001
0000
0000
0000
1000
0000
0000
0000
0001
0000
0000
0000
,
1000
0100
1000
0100
1000
0100
0010
0000
0001
0100
0001
0100
0001
0100
0010
0000
,
1000
0010
0100
0000
0001
0100
0010
0000
1000
0100
0010
0001
0200
0000
0320
0000
,
0130
0000
0001
0010
0100
0000
1000
0010
,
1000
1100
0000
1000
0010
0100
0001
1000
,
0001
0000
0100
0001
0010
0000
0100
1000
,
0001
0200
0320
0230
2300
3200
0320
0230
,
0301
0000
0000
0000
0000
0000
0000
0000
0200
0300
0000
0000
0000
0000
0000
0000
0200
0300
0000
0000
0000
0000
0000
0000
2000
0000
0000
0000
0000
0000
0000
0000
3001
0000
0000
0000
0000
0000
0000
0000
0200
0000
0000
0000
0000
0000
0000
0000
0320
0000
0000
0000
0000
0000
0000
0000
2030
0000
0000
0000
0000
0000
0000
0000
,
3002
0023
2030
3020
0031
2000
3020
0230
,
0301
0000
0100
0010
0100
0001
0100
0001
0100
0000
0000
0001
0000
0000
1000
0000
,
1010
0000
0000
0101
0000
0000
1100
0000
,
2002
0000
3003
0000
,
0001
0100
0010
1000
0001
0010
0100
1000
,
0001
0001
0100
0010
1000
1000
0100
0010
,
0001
0000
0000
0000
0000
0000
0000
0000
1000
0000
0000
0000
0000
0000
0000
0000
0200
0300
0000
0000
0000
0000
0000
0000
0200
0300
0000
0000
0000
0000
0000
0000
0001
0000
0000
0000
0000
0000
0000
0000
1000
0000
0000
0000
0000
0000
0000
0000
0020
0030
0000
0000
0000
0000
0000
0000
0020
0030
0000
0000
0000
0000
0000
0000
,
0001
0000
0100
0000
0010
0000
0100
0000
0001
0000
0100
0000
0010
0000
1000
0001
,
0100
0010
0200
0000
0000
0000
0301
0100
0001
0010
0002
0000
0000
0000
1003
0100
,
0010
0100
2000
0000
0000
0000
3001
0100
0010
0100
0002
0000
0000
0000
1003
0000
,
0001
0000
0100
0010
0100
0001
1000
0000
1010
0000
0000
0101
0000
0000
1001
0000
,
0002
0000
0203
0000
0320
2030
0000
3002
,
2003
3200
0000
0320
0000
0000
0030
0000
,
0001
0100
1000
0001
0010
1000
0001
0000
,
1000
0010
1000
0000
0100
0000
0010
0000
0001
0000
0100
0001
1000
0001
0100
0001
,
1000
0000
1000
0000
0001
0000
0001
0000
1000
0100
0010
0001
1000
0010
0100
0001
,
1000
0000
0100
1000
0010
0000
0100
0000
0010
1000
0100
0000
0010
0000
0001
0000
,
1000
0000
0010
1000
0100
0000
0010
0000
0001
0100
0010
0000
0100
0000
0001
0000
,
1000
0000
0100
0010
0001
0000
0010
0000
0100
1000
0001
0000
0100
0000
0010
0000
,
1000
0100
1000
0000
0001
0100
0001
0000
1000
0010
1000
0001
0010
0001
0010
0001
,
1000
0000
0001
0100
0010
0000
0100
0000
0001
0100
0010
0000
1000
0000
0010
0000
,
1000
0000
0001
1000
0100
0000
0010
0000
0100
1000
0001
0000
0100
0000
0010
0000
,
1000
0010
0100
0000
0001
0100
0010
0000
1000
0100
0010
0000
0001
0010
0100
0000
,
1000
0100
1000
0100
0010
0100
0010
0100
0010
0001
0010
0001
1000
0001
1000
0001
,
1000
0001
0010
0100
1000
0010
0100
0001
0200
0000
0000
0000
0000
0000
0000
0000
,
0000
0300
0000
0000
;

//--------------- dance-double - 悠久のFRED ----------------
#NOTES:
     dance-double:
     悠久のFRED:
     Easy:
     10:
     :
00000000
00000000
00000000
00000000
,
00000000
00000000
00000000
00000000
,
00000000
00000000
00000000
00000000
,
00000000
00000000
00000000
00000000
,
00000000
00000000
00000000
00000000
,
00000000
00000000
00000000
00000000
,
00010000
00000000
00000000
01000000
00000000
00000000
00010000
00000000
,
00000000
10000000
00000000
00000000
00010000
00000000
01000000
00000000
,
00100000
00000000
00000000
10000000
00000000
00000000
00100000
00000000
,
01000000
00000000
00000000
01000000
00000000
00000000
01000000
00000000
00100000
00000000
01000000
00000000
00010000
00000000
00000000
00000000
,
10000000
00000000
00000000
01000000
00000000
00000000
00100000
00000000
,
00000000
00001000
00000000
00000000
00010000
00000000
00000010
00000000
,
00010000
00000000
00000000
00000100
00000000
00000000
00001000
00000000
,
00000000
00000010
00000000
00000000
00010000
00000000
00000010
00000000
,
00001000
00000000
00000000
00000100
00000000
00000000
00010000
00000000
,
00000000
00001000
00000000
00000000
00000100
00000000
00000010
00000000
,
00000001
00000000
00000000
00000100
00000000
00000000
00000010
00000000
,
00000100
00000000
00000000
00000000
00000020
00000000
00000000
00000130
00000000
00000000
00000001
00000000
00000100
00000000
00000010
00000000
,
00001000
00000001
00001000
00001000
,
00000010
00000000
00000000
00000000
00000100
00000010
00000100
00000000
,
00000001
00000000
00000100
00000020
00000000
00000000
00000030
00000000
,
00010000
00000000
00001000
00000000
00010000
00000100
00010000
00000000
,
00001000
00100000
00010000
10000000
,
00100000
00000000
00000000
00000000
01000000
00100000
01000000
00000000
,
00010000
00010000
10000000
10000000
,
00100000
00000000
00000000
01100000
00000000
00000000
00000000
00000000
,
01000000
00010000
00100000
00001000
,
00010000
00000000
00000000
00000000
00001000
00010000
00000010
00000000
,
00010000
00000000
00001000
00010000
00000000
00000000
00000100
00000000
,
00001000
00000100
00000010
00000001
,
00000100
00000010
00000100
00000000
00000001
00000100
00000001
00000000
,
00001001
00000000
00000010
00001000
,
00010000
00000000
00000000
00100000
00000000
00000000
10000000
00000000
,
00010000
01000000
00010000
00000000
10000000
01000000
10000000
00000000
,
10010000
00000000
00100000
00000000
,
10000000
10000000
01000000
00100000
,
00001000
00000000
00010000
00000000
,
00001000
00001000
00000100
00000010
,
00000001
00000000
00000100
00000000
,
00000010
00000010
00001000
00000001
,
00000100
00000100
00000010
00000010
,
00001000
00000000
00000001
00000000
00001000
00000001
00001000
00000001
,
00001000
00000000
00000000
00000010
00000000
00000000
00001000
00000000
,
00000200
00000000
00020300
00031000
,
00001000
00010000
00001000
01000000
,
00010000
01000000
00100000
00000000
10000000
00100000
01000000
00000000
,
00010000
00000000
00000000
10000000
00000000
00000000
01000000
00000000
,
00100000
00000000
00000000
00001000
00000000
00000000
00010000
00000000
,
00000010
00000000
00000000
00001000
00000000
00000000
00000100
00000000
,
00020000
00000000
00002000
00033000
,
00010000
00010000
00001000
00000100
,
00000010
00000100
00000010
00000000
00000001
00000100
00000001
00000000
,
00000100
00000000
00000010
00000100
00000000
00000000
00000001
00000000
,
00001000
00000000
00000010
00000000
00001000
00010000
00000000
00000000
,
00010000
00100000
00000000
00000000
00100000
01000000
00000000
00000000
,
01000000
10000000
00000000
00000000
10000000
00010000
00000000
00000000
,
00010000
00000000
00000000
00000000
10000000
00000000
00000000
00000000
01000000
00000000
00000000
01000000
00000000
00000000
01000000
00000000
,
00100000
00000000
00000000
00000000
00001000
00000000
00010000
00000000
00001000
00000000
00000000
00010000
00000000
00000000
00010000
00000000
,
00001000
00010000
00001000
00010000
00001000
00000000
00010000
00000000
,
00000010
00001000
00000100
00010000
,
00001000
00001000
00000000
00000000
00010000
00000000
00001000
00000000
,
00020000
00030000
00002000
00003000
00000200
00000300
00000002
00000003
,
00001000
00000000
00000001
00000000
00000100
00000010
00000100
00000000
,
00000001
00000000
00000010
00000000
00000100
00001000
00000100
00000000
,
00002000
00103000
00020000
01030000
,
00100000
00000000
10000000
00000000
01000000
00100000
01000000
00000000
,
20000000
30000000
02000000
03000000
,
00200000
00300000
00002000
00003000
,
00010000
00010000
00001000
00001000
,
00010000
00001000
00022000
00033000
,
00020000
00000000
00032000
00000000
,
00003200
00000000
00000302
00000000
,
00002003
00000000
00003010
00000100
,
00000001
00000010
00000001
00000000
00001000
00000010
00001000
00000000
,
00000001
00000001
00000100
00000010
,
00001000
00000100
00010000
00001000
,
00100000
00000000
00010000
00000000
00100000
00000000
00010000
00000000
10000000
00000000
00000000
00010000
00000000
00000000
10000000
00000000
,
00100000
00000000
00000000
01000000
00000000
00000000
00010000
00000000
,
20020000
00000000
30030000
00000000
,
01000000
00100000
01000000
00000000
00010000
10000000
00010000
00000000
,
10000000
01000000
10000000
00000000
00010000
01000000
00010000
00000000
,
01000000
00000000
00010000
00100000
00000000
00010000
00100000
00000000
,
00001000
00000000
00010000
00000000
00001000
00001000
00000000
00000000
,
00010000
00001000
00000000
00000000
00001000
00000100
00000000
00000000
,
00000100
00000010
00000000
00000000
00000010
00000001
00000000
00000000
,
00001000
00000000
00000000
00000000
00000010
00000000
00000000
00000000
00000100
00000000
00000000
00000100
00000000
00000000
00000100
00000000
,
00000002
00000023
00000031
00000100
,
00000010
00010000
00000000
00002000
00000000
00000000
00003000
00000000
,
00022000
00000000
00000000
00033000
,
00001000
00001000
00100000
00100000
,
00010000
00000000
00010000
00000000
10000000
00010000
10000000
00010000
,
10000000
00000000
00100000
01000000
00000000
00100000
01000000
00000000
,
00010000
00000000
00000000
10000000
00000000
00000000
01000000
00000000
,
00100000
00000000
00001000
00010000
00000000
00001000
00010000
00000000
,
00000100
00001000
00000100
00000010
,
00000001
00000000
00000100
00000010
00000000
00000100
00000010
00000000
,
00001000
00000000
00000000
00000001
00000000
00000000
00000010
00000000
,
00000100
00000000
00000010
00000001
00000000
00001000
00000010
00000000
,
00010000
00001000
01000000
00001000
,
00010000
00000100
00001000
00000001
00000200
00000000
00000000
00000000
,
00000000
00000300
00000000
00000000
;

//--------------- dance-double - 悠久のFRED ----------------
#NOTES:
     dance-double:
     悠久のFRED:
     Medium:
     14:
     :
00000000
00000000
00000000
00000000
,
00000000
00000000
00000000
00000000
,
00000000
00000000
00000000
00000000
,
00000000
00000000
00000000
00000000
,
00000000
00000000
00000000
00000000
,
00000000
00000000
00000000
00000000
,
00001000
00000000
00001000
00010000
00000000
00001000
00100000
00000000
,
00010000
01000000
00000000
00100000
10000000
00100000
01000000
00000000
,
00010000
00000000
10000000
01000000
00000000
00100000
00001000
00000000
,
00010000
00000000
00000000
00010000
00000000
00000000
00010000
00000000
00001000
00000000
00000100
00000000
00000001
00000000
00000000
00000000
,
00001000
00000100
00000100
00000010
00000100
00000100
00001000
00000010
,
00000100
00000001
00000001
00000010
00000100
00000010
00000001
00000000
,
00000100
00000010
00000010
00001000
00000010
00000010
00000100
00000010
,
00001000
00000000
00000001
00000100
00000010
00001000
00000100
00000000
,
00001000
00000100
00000100
00000010
00000100
00000100
00000001
00000100
,
00000010
00001000
00000100
00010000
00001000
00100000
00010000
00000000
,
01000000
00100000
00100000
10000000
00100000
00100000
01000000
00010000
,
10000000
00000000
00000000
00000000
00010000
00000000
00000000
20000000
00000000
00000000
31000000
00100000
01000000
00000000
00100000
00000000
,
00010000
00000000
00001000
00000000
00000100
00000000
00000010
00000000
00010000
00000000
00000000
00001000
00000000
00000000
00010000
00001000
,
00010000
00000000
00011000
00000000
00001000
00100000
00010000
01000000
,
00100000
10000000
01000000
00100000
01000000
00000000
10000000
00100000
,
00000000
01100000
00000000
01010000
00000000
00010000
00001000
00000100
,
00000001
00001000
00000100
00000010
00000001
00000100
00000010
00001000
,
00000001
00000000
00000100
00000100
00000000
00000010
00000100
00000001
,
00001001
00000010
00011000
00100000
,
00010000
10000000
00010000
10000000
00000000
00100000
01000000
01000000
,
00010000
01000000
00100000
10000000
01000000
00100000
01000000
10000000
,
00010000
00000000
01000000
00100000
00010000
00001000
00000100
00010000
,
00001000
00000000
00010000
00000020
00000000
00000000
00000000
00000000
,
00010030
00000100
00001000
00000100
00000010
00000001
00001000
00000001
,
00000100
00000010
00001000
00000100
00000001
00000000
00000100
00001000
,
00000001
00000000
00000100
00000010
00000000
00001000
00000001
00000010
,
00000100
00000000
00010000
00010000
00000000
00001000
00100000
00001000
,
00100000
00010000
00100000
01000000
10000000
01000000
10000000
00000000
,
00010000
01000000
01100000
00200000
,
20300000
31000000
00020000
00031000
,
00000100
00000001
00001001
00001000
,
00000010
00000100
00000010
00000100
00000001
00000100
00000010
00000100
,
00000001
00000000
00000010
00000000
00000011
00000000
00000001
00000100
,
00000010
00000000
00001000
00001000
00000000
00000001
00000010
00000100
,
00010000
00001000
00000100
00000001
00000000
00001000
00000100
00000010
,
00000001
00000000
00001001
00000000
00000001
00000100
00000001
00000100
,
00000001
00000010
00000100
00010000
00000000
00001000
00100000
00001000
,
00020000
00000100
01030000
00011000
,
00002000
00000010
00103000
00011000
,
00001000
00010000
00001000
00010000
00001000
00100000
00010000
01000000
,
00010000
01000000
10000000
01000000
00000000
00010000
00001000
00010000
,
00001000
00000100
00000001
00000100
00000000
00001000
00010000
00001000
,
00000100
00000001
00000100
00001000
00000010
00000100
00000001
00001000
,
00000002
00000000
00002000
00003003
,
00000001
00000010
00000100
00001000
00000001
00000100
00001000
00000000
,
00010000
01000000
10000000
00010000
01000000
00100000
10000000
00000000
,
00010000
01000000
00100000
01000000
00000000
00010000
10000000
01000000
,
00000000
00100000
00001000
00010000
00100000
01000000
00000000
00000000
,
01000000
00100000
00000000
00100000
00001000
00010000
00000000
00010000
,
00000100
00001000
00000000
00001000
00000010
00000100
00000000
00000100
,
00010000
00000000
00001000
00000000
00100000
00000000
00010000
00000000
01000000
00000000
00000000
01000000
00000000
00000000
00100000
00000000
,
01000000
00000000
00000000
00000000
00010000
00000000
00000000
00000000
10000000
00000000
00000000
01000000
00000000
00000000
00100000
00000000
,
00010000
10000000
01000000
00100000
01000000
00001000
00010000
00000000
,
00001000
00010000
00000100
00001000
00000100
00000010
00001000
00000000
,
00000001
00000010
00000100
00001000
00000001
00000100
00000010
00000000
,
00001001
00000100
00011000
01000000
,
00010000
00000000
01000000
00100000
01000000
00000000
00010000
00000000
01000000
00000000
00100000
00000000
10000000
00000000
00000000
00000000
,
00100000
01000000
00010000
10000000
01000000
00100000
00001000
00000000
,
00010000
00000010
00001000
00000100
00010000
00001000
00010000
00000000
,
00000100
00001000
00000100
00000010
00000001
00001000
00000001
00000000
,
00001000
00000100
00000010
00000001
00000100
00000010
00001000
00000100
,
00001000
00010000
00100000
01000000
10000000
00010000
01000000
00100000
,
10000000
01000000
10000000
01000000
00010000
00001000
00010000
00000000
,
00011000
00000000
00001100
00000000
00000001
00000100
00000010
00001000
,
00000001
00000000
00000100
00000000
00001000
00000000
00010000
00001000
,
00020000
00030000
00002000
00013000
,
00002000
00100000
00000010
00103000
,
00001000
00010000
00001000
01000000
00001000
00010000
00001000
00100000
,
00000000
00001000
00010000
00000010
00000000
00010000
00001000
01000000
,
00010000
00100000
00001000
00010000
00000000
00000100
00010000
00001000
,
00100000
00000000
00010000
00000000
01000000
00000000
00100000
00000000
01000000
00000000
00000000
00100000
00000000
00000000
01000000
00000000
,
01010000
00000000
00000000
00101000
00000000
00000000
00010010
00000000
,
00022000
00000000
00033000
00000000
,
00001000
00100000
01000000
00100000
00000000
00001000
00010000
00000100
,
00001000
00000100
00001000
00000010
00000100
00000010
00001000
00000100
,
00010000
00001000
01000000
00001000
00000000
00001000
00100000
00010000
,
00000000
00010000
01000000
00100000
10000000
00010000
00000000
00000000
,
10000000
01000000
00000000
01000000
00010000
00001000
00000000
00001000
,
00000100
00000001
00000000
00000001
00000010
00001000
00000000
00001000
,
00010000
00000000
00100000
00000000
10000000
00000000
00010000
00000000
01000000
00000000
00000000
01000000
00000000
00000000
01000000
00000000
,
00020000
00000000
20030000
00000000
32000000
03200000
00000000
00302000
,
00023000
00030200
00000000
00020300
00000000
00000000
00030000
00000000
,
00022000
00000000
00000000
00033000
,
00000110
00000000
00000000
00000001
00000000
00001000
00000010
00000000
,
00001010
00000101
00001100
00001001
,
00000001
00000010
00000001
00000010
00001000
00000010
00001000
00000000
,
00010000
00001000
00010000
00100000
00010000
00100000
10000000
00000000
,
00010000
10000000
00010000
01000000
00100000
10000000
00010000
00000000
,
10000000
01000000
00100000
01000000
10000000
00100000
01000000
00000000
,
00010000
10000000
00010000
10000000
01000000
00010000
00001000
00000000
,
00010000
00001000
00010000
00001000
00000100
00000001
00000100
00000000
,
00000001
00000100
00000001
00000100
00000010
00001000
00000001
00000000
,
00000010
00000100
00010000
00001000
00100000
01000000
10000000
00010000
,
01000000
00100000
01000000
00100000
01000000
00100000
01000000
00100000
02000000
00000000
00000000
00000000
00000000
00000000
00000000
00000000
,
00000000
03000000
00000000
00000000
;

//--------------- dance-double - 悠久のFRED ----------------
#NOTES:
     dance-double:
     悠久のFRED:
     Hard:
     16:
     :
00000000
00000000
00000000
00000000
,
00000000
00000000
00000000
00000000
,
00000000
00000000
00000000
00000000
,
00000000
00000000
00000000
00000000
,
00000000
00000000
00000000
00000000
,
00000000
00000000
00000000
00000000
,
00010000
00000000
00000010
00010000
00000000
00001000
00100000
00000000
,
00001000
00010000
00000000
00001000
00100000
00010000
10000000
00000000
,
00010000
00000000
10000000
01000000
00000000
00100000
00001000
00000000
,
00010000
00000000
00000000
00010000
00000000
00000000
00010000
00000000
00000010
00001000
00000010
00001000
00000010
00000000
00000000
00000000
,
00001000
00000000
00000001
00000100
00000001
00000000
00001000
00000000
00000001
00000100
00000001
00000000
00000010
00000000
00000100
00000000
,
00000000
00010000
00001000
00100000
01000000
10000000
00010000
00000000
,
01000000
00000000
00100000
10000000
00100000
00000000
01000000
00000000
00100000
10000000
00100000
00000000
01000000
00000000
00010000
00000000
,
10000000
01000000
00100000
00010000
00001000
00000100
00000010
00000001
,
00001000
00000000
00000010
00000100
00000010
00000000
00001000
00000000
00000100
00010000
00000100
00000000
00010000
00000000
00001000
00000000
,
00000000
00100000
01000000
10000000
00100000
00010000
00001000
00000000
,
00010000
00000000
00001000
00011000
00000000
00010000
00010100
00000100
,
00001000
00000000
00000000
00000000
00001020
00000000
00000000
00000230
00000000
00000000
00000301
00000100
00000001
00000000
00001000
00000010
,
00000100
00000000
00000001
00000000
00001000
00000000
00000100
00000000
00001000
00000000
00000000
00000001
00000000
00000000
00000010
00000001
,
00001000
00000000
00001010
00000000
00000010
00010000
00001000
00010000
,
01000000
00000000
00100000
00010000
10000000
00000000
01000000
00010000
,
00000000
00001000
00000000
00000010
00000000
00000100
00001000
00001000
,
00000001
00000100
00000010
00010000
00001000
00000100
00000001
00001000
,
00000100
00000000
00001000
00000001
00000000
00000100
00000010
00001000
,
00000100
00000000
00010000
00010000
00000000
00001000
00100000
00001000
,
00010000
00000000
00001000
00000000
01000000
00000000
00200000
00000000
00000000
00000000
10300000
00100000
10000000
00100000
10000000
00100000
,
01000000
00010000
10000000
00010000
00100000
01000000
10000000
01000000
,
00100000
00001000
00010000
00001000
01000000
00001000
00010000
00001000
,
00000010
00000100
00001000
00001000
00000100
00000010
00000001
00001000
,
00000001
00000100
00001000
00010000
01000000
10000000
00010000
00000000
,
01000000
00100000
10000000
00010000
00100000
01000000
00010000
01000000
,
10000000
00010000
01000000
00100000
10000000
00010000
01000000
00100000
,
00010000
00001000
00000100
00000010
00001000
00000001
00000010
00000100
,
00001000
00000100
00001000
00000100
00001000
00000100
00001000
00000100
00000010
00000000
00000001
00000000
00001000
00000000
00000010
00000000
,
00020000
00000000
00000000
00031000
,
00200000
00000000
00320000
00000000
,
20030000
00000000
00000000
00000000
,
00000000
30010000
10000000
01000000
00100000
00001000
00010000
00100000
,
20000000
00000000
00000000
00000000
00000000
00000000
00000000
30010000
,
02000000
00000000
03001000
00020000
00000000
00030100
00001000
00000010
,
00000100
00000001
00001000
00000100
00000010
00000001
00001000
00000001
,
00000101
00000000
00001001
00000000
00001000
00001000
00000001
00000001
,
00000010
00000001
00001000
00000010
00010000
00001000
00100000
00001000
,
00021000
00030100
00012000
01003000
,
00001000
00100000
01000000
10000000
00010000
10000000
00100000
01000000
,
00010000
00100000
01000000
00010000
00001000
00000010
00000100
00001000
,
00000001
00000100
00000010
00020000
00000000
00031000
00100000
01000000
,
10000000
00100000
01000000
00002000
00000000
00013000
00000010
00001000
,
00000100
00000010
00001000
00010000
01000000
00100000
00010000
10000000
,
00020000
00000000
20000000
30030000
,
10000000
00010000
01000000
00100000
01000000
00001000
00010000
00000100
,
00001000
00000010
00010000
00001000
00100000
00010000
01000000
00001000
,
00010000
00000100
00001000
00000010
00000100
00001000
00010000
00100000
,
01000000
00000000
00001000
00000000
00010000
00001000
00010000
00000000
00000010
00000000
00010000
00000000
00000000
00000000
00000000
00000000
,
00020000
00001000
00000000
00031000
00200000
00010000
00000000
00310000
,
20000000
00100000
00000000
30100000
02000000
00010000
00000000
03010000
,
00100000
00000000
00010000
00000000
01000000
00100000
01000000
00000000
00010000
00000000
00000000
10000000
00000000
00000000
00010000
00000000
,
01000000
00000000
00000000
00000000
00001000
00000000
00000000
00000000
00010000
00000100
00001000
00000001
00000100
00000000
00000010
00000000
,
00001000
00000100
00000010
00000002
00000000
00000000
00000000
00000000
,
00000103
00000001
00000100
00000001
00000010
00000001
00000010
00000000
00000100
00000000
00001000
00000100
00001000
00000000
00000010
00000000
,
00010000
00001000
00010000
00000000
00000010
00001000
00000010
00000000
00010000
00000000
00001000
00100000
00001000
00000000
00010000
00000000
,
00011000
00010010
00101000
00011000
,
00001000
00000000
00100000
00010000
00100000
00000000
00010000
00000000
10000000
00000000
00010000
00000000
01000000
00000000
00100000
00000000
,
10000000
00000000
01000000
00000000
00100000
01000000
00100000
00000000
01000000
00000000
10000000
00010000
10000000
00000000
01000000
00000000
,
00100000
00001000
00100000
00000000
00001000
00010000
00001000
00000000
00010000
00000000
00000100
00000000
00000010
00000000
00000001
00000000
,
00001000
00000010
00001000
00000010
00000100
00000001
00000100
00000001
00000100
00000000
00000010
00000000
00000200
00000000
00000000
00000000
,
00000301
00001000
00000001
00000000
00000100
00000000
00001000
00000000
00010000
00001000
00010000
00000000
01000000
00000000
00100000
00000000
,
00010000
00000000
00000000
00000000
00000000
00000000
10000000
00000000
00000000
00100000
00000000
00000000
10000000
00000000
00000000
00100000
00000000
00000000
01000000
00000000
00000000
00000000
00000000
00000000
00010000
00000000
00000000
00000000
00100000
00000000
00000000
00000000
01000000
00000000
00000000
00000000
10000000
00000000
00000000
00000000
01000000
00000000
00000000
00000000
00100000
00000000
00000000
00000000
,
00010000
00000000
01000000
00000000
00001000
00010000
00001000
00000000
00010000
00000000
00000100
00000000
00001000
00000010
00000100
00000000
,
00000001
00000100
00000001
00000000
00000100
00000010
00000100
00000000
00000002
00000000
00000203
00000000
00002300
00000000
00023000
00000000
,
00032000
00000000
00000000
00013000
,
00022000
00033000
02002000
03003000
,
00022000
00000000
00000000
00000000
,
00033000
00010000
00001000
00000010
00000001
00000100
00000001
00001000
,
00000010
00000100
00001000
00020000
00000000
00130000
01000000
00010000
,
00100000
01000000
00010000
00002000
00000000
00003010
00000100
00001000
,
00000001
00000000
00000100
00000000
00000010
00000000
00010000
00000000
00001000
00000000
00000000
00000100
00000000
00000000
00000001
00000000
,
00000011
00000000
00000000
00001010
00000000
00000000
00000101
00000000
,
00002200
00000000
00003300
00000000
,
00010000
00001000
00010000
00000010
00001000
00000100
00010000
00001000
,
01000000
00010000
00100000
00001000
00010000
00000010
00010000
00001000
,
00010000
00000100
00001000
00000100
00000010
00001000
00010000
01000000
,
00100000
00000000
00001000
00000000
00010000
00000010
00010000
00000000
00001000
00000000
00010000
00000000
00000000
00000000
00000000
00000000
,
00002000
00010000
00000000
00013000
00000020
00001000
00000000
00001030
,
00000002
00000100
00000000
00000103
00000020
00001000
00000000
00001030
,
00000001
00000000
00001000
00000010
00000100
00000010
00000100
00000000
00000001
00000000
00000000
00000101
00000000
00000000
00000100
00000000
,
00000010
00000000
00001000
00000000
00000001
00000100
00001000
00010000
,
00100000
10000000
00000000
20020000
00000000
00000000
30030000
00000000
,
10000000
01000000
00010000
00001000
00010000
01000000
10000000
00000000
,
00010000
01000000
00010000
00000000
01000000
00000000
00100000
00000000
01000000
00000000
00010000
01000000
00001000
00010000
00001000
00010000
,
00001000
00000000
00000000
00000000
00010000
00000000
00000000
00000000
00000010
00001000
00000010
00001000
00000010
00000100
00000010
00000000
,
00001000
00000000
00000001
00000010
00000001
00000000
00001000
00000000
00000001
00000010
00000001
00000000
00001000
00000000
00000100
00000000
,
00000010
00000000
00000100
00001000
00000100
00000000
00000010
00000000
00000100
00001000
00000100
00000000
00010000
00000000
00001000
00000000
,
00100000
00000000
00001000
00010000
00001000
00000000
01000000
00000000
00001000
00010000
00001000
00000000
00100000
00000000
00010000
00000000
,
01000000
00000000
00001000
00000000
00010000
00000000
00001000
00000000
00100000
00010000
10000000
00010000
01000000
00000000
00000000
00000000
,
00010000
00000000
10000000
01000000
00100000
00000000
01000000
00000000
10000000
00100000
01000000
00000000
00010000
00000000
00100000
00000000
,
00001000
00000000
00010000
00000100
00001000
00000000
00000001
00000000
00001000
00000100
00000010
00000000
00000001
00000000
00001000
00000000
,
00000001
00000100
00000001
00000000
00000010
00000000
00000100
00000000
00010000
00001000
00010000
00000000
00001000
00000000
01000000
00000000
,
00001000
00010000
00001000
00000000
00100000
00001000
00100000
00000000
00010000
01000000
00010000
01000000
00100000
10000000
00100000
10000000
,
00010000
10000000
00010000
10000000
01000000
00100000
00010000
00100000
00002000
00000000
00000000
00000000
00000000
00000000
00000000
00000000
,
00000000
00003000
00000000
00000000
;

//--------------- dance-double - 悠久のFRED† ----------------
#NOTES:
     dance-double:
     悠久のFRED†:
     Challenge:
     18:
     :
00000000
00000000
00000000
00000000
,
00000000
00000000
00000000
00000000
,
00000000
00000000
00000000
00000000
,
00000000
00000000
00000000
00000000
,
00000000
00000000
00000000
00000000
,
00000000
00000000
00000000
00000000
,
00000001
00000000
00000100
00000010
00000000
00000100
00000001
00000000
,
00001000
00000100
00000000
00000010
00000001
00000100
00001000
00000000
,
00010000
00000000
00100000
01000000
00000000
00010000
10000000
00000000
,
00100000
00000000
00000000
00100000
00000000
00000000
00100000
00000000
01000000
00010000
01000000
00010000
10000000
01000000
00100000
00000000
,
00010000
00000000
10000000
01000000
10000000
00000000
01000000
00000000
00100000
01000000
00100000
00000000
00001000
00000000
00010000
00001000
,
00010000
00000000
00001000
01000000
00001000
00000000
00010000
00000000
00000100
00001000
00000100
00000000
00000010
00000000
00000001
00000000
,
00001000
00000000
00000010
00000100
00000010
00000000
00001000
00000000
00000100
00000010
00000100
00000000
00001000
00000000
00000001
00000000
,
00000100
00000000
00000010
00000000
00001000
00000000
00000100
00000000
00000010
00000001
00001000
00000001
00000100
00000010
00000100
00000000
,
00000001
00000000
00000100
00000010
00000100
00000000
00000010
00000000
00001000
00000100
00001000
00000000
00000010
00000000
00010000
00001000
,
00010000
00000000
00000100
00001000
00000100
00000000
00010000
00000000
00001000
01000000
00001000
00000000
00100000
00000000
00010000
00000000
,
02000000
03000000
00000000
00000000
00000000
00000000
00000000
00000000
02000000
03000000
00000000
00000000
00000000
00000000
00000000
00000000
10000000
00000000
00000000
00000000
00000000
00000000
00000000
00000000
00200000
00300000
00000000
00000000
00000000
00000000
00000000
00000000
00200000
00300000
00000000
00000000
00000000
00000000
00000000
00000000
00010000
00000000
00000000
00000000
00000000
00000000
00000000
00000000
01000000
00000000
00000000
00000000
00000000
00000000
00000000
00000000
00100000
00000000
00000000
00000000
00000000
00000000
00000000
00000000
,
10000000
00000000
00000000
00000000
00200000
00000000
00000000
02300000
00000000
00000000
03010000
00100000
00010000
00000000
01000000
00001000
,
01000000
00000000
00001000
00000000
00010000
00000000
00001000
00000000
00000010
00000000
00000000
00000100
00000000
00000000
00001000
00000001
,
00001000
00000000
00000010
00000000
00001000
00001000
00000001
00000100
,
00000010
00000000
00001000
00000000
00000100
00000000
00000010
00000001
00000010
00000000
00000001
00000000
00001000
00000000
00001100
00000000
,
00000000
00000000
00010100
00000000
00000000
00000000
00011000
00000000
00000000
00000000
00001000
00100000
00001000
00000000
00100000
00000000
,
00010000
00000000
01000000
00000000
00100000
00000000
01000000
00010000
01000000
00000000
00100000
00000000
10000000
00000000
00100000
00000000
,
01000000
00000000
00010000
01010000
00000000
00011000
00000000
00010000
,
00000100
00000000
00001000
00000100
00001000
00000000
00000010
00000000
00000100
00000000
00000001
00000010
00000001
00000000
00000100
00000000
,
00000001
00000000
00000100
00000000
00000010
00000000
00002010
00000000
00000000
00000000
00013000
00000010
00001000
00000100
00010000
00000000
,
00001000
00020000
00032000
00203000
00302000
00023000
00030010
00020000
,
00031000
00000000
00100000
00000000
00010000
01000000
00020000
00000000
20030000
00000000
32000000
00000000
23000000
00000000
30020000
00000000
,
01030000
00100000
10000000
01000000
00100000
00001000
00010000
00100000
,
10000000
00000000
00010000
10000000
01000000
00010000
00001000
00010000
00001000
00000010
00000100
00001000
00000100
00001000
00000001
00000000
,
00001000
00000010
00001000
00000100
00000001
00000100
00001000
00000010
,
00000100
00000001
00000001
00001001
00000000
00001010
00001000
00000001
,
00000100
00000000
00000010
00001000
00000010
00000000
00000110
00000000
00000000
00000000
00011000
00000000
00001000
00000000
00100000
00000000
,
00010000
10000000
00010000
10000000
00100000
01000000
00100000
01000000
00001000
00010000
00001000
00010000
00000010
00001000
00000001
00000100
,
00000010
00000000
00000000
00000000
00000100
00000000
00000000
00000000
00000110
00000000
00000000
00000000
00000001
00000100
00000010
00000000
,
00001000
00000000
00000100
00000000
00000000
00000000
00000001
00000000
00000100
00000000
00000000
00000000
00010000
00001000
00010000
00000000
,
00001000
00000000
00000000
00000000
00100000
00000000
00000000
00000000
00110000
00000000
00000000
00000000
00010000
00000000
10000000
00100000
,
01000000
00000000
10000000
00000000
01000000
00000000
00100000
00000000
10000000
00000000
00010000
00000000
00100000
01000000
00100000
00000000
,
00010000
00000000
10000000
00000000
10010000
00000000
10000000
01000000
,
00020000
00032000
00003020
00000230
00000000
00002300
00003010
00000200
,
00000302
00002003
00003200
00002300
00003010
00000200
00000302
00002003
,
00003001
00000010
00000001
00000000
00000100
00000010
00000100
00000000
00000001
00000000
00000100
00000000
00000010
00000000
00001000
00000000
,
00000100
00000000
00010000
00001000
00010000
00000000
00000010
00000000
00001000
00000100
00001000
00000000
00000010
00000000
00010000
00000000
,
00001000
00010000
00000010
00000100
00001000
00010000
00000100
00000010
,
00000001
00001000
00000010
00000100
00001000
00010000
00000100
00001000
,
00000010
00001000
00001000
00000100
00000010
00000001
00000100
00001000
,
00010000
00000000
00100000
00000000
01000000
00010000
10000000
00000000
00100000
00000000
10000000
00000000
01000000
00100000
00010000
00000000
,
10000000
00000000
00100000
00000000
01000000
00001000
00010000
00000000
00000000
00000000
00010000
00000000
00001000
00000000
00000010
00000000
,
00000001
00000100
00000010
00000100
00001000
00010000
00100000
01000000
,
00020000
00000000
20000000
30030000
,
00010000
00000000
10000000
00000000
01000000
00000000
00010000
00000000
00001000
00010000
00001000
00000000
01000000
00001000
01000000
00000000
,
00001000
00000000
00010000
00000000
00000100
00000000
00001000
00000000
00000010
00000100
00000010
00000000
00000100
00000001
00000100
00000000
,
00000001
00000000
00000010
00000000
00000100
00000000
00000001
00000000
00000100
00000010
00000001
00000000
00001000
00000010
00001000
00000000
,
00000001
00000000
00001000
00000000
00000010
00000100
00001000
00000000
00010000
00000000
00100000
00000000
00000000
00000000
01000000
00000000
,
00010000
00100000
20000000
00000000
00000000
00000000
30100000
00000000
00010000
01000000
20000000
00000000
00000000
00000000
31000000
00000000
,
00010000
00100000
00002000
00000000
00000000
00000000
00013000
00000000
00000010
00001000
00000200
00000000
00000000
00000000
00000310
00000001
,
00000100
00000000
00000010
00001000
00000010
00001000
00000001
00000000
00000010
00000000
00000000
00001000
00000000
00000000
00010000
00000000
,
01000000
00000000
00100000
00000000
00010000
10000000
00010000
00000000
10000000
00000000
00000000
01000000
00000000
00000000
00010000
00000000
,
00001000
00000010
00000100
00000000
00001000
00000010
00001000
00000000
00000001
00000100
00000001
00000000
00000100
00000010
00000100
00000001
,
00000100
00000001
00000100
00000010
00001000
00000100
00010000
00001000
00100000
00010000
10000000
00100000
01000000
00010000
10000000
00000000
,
00010000
01000000
00010000
00000000
10000000
01000000
10000000
00000000
00100000
00000000
01000000
00010000
00100000
00001000
00010000
00001000
,
00020000
00000000
00000000
00000000
00000000
00000000
00000000
00000000
00000000
00000000
00000000
00000000
00000000
00000000
00000000
00030000
00021000
00000000
00000000
00000000
00000000
00000000
00000000
00000000
00000000
00000000
00000000
00000000
00000000
00000000
00000000
00030000
00020100
00000000
00000000
00000000
00000000
00000000
00000000
00000000
00000000
00000000
00000000
00000000
00000000
00000000
00000000
00030000
00020010
00000000
00000000
00000000
00000000
00000000
00000000
00000000
00000000
00000000
00000000
00000000
00000000
00000000
00000000
00000000
,
00031000
00000000
00010000
00000010
00010000
00000000
00000010
00000000
00000100
00000000
00000001
00000000
00001000
00000000
00000100
00000000
,
00000010
00000001
00000100
00001000
00010000
01000000
00100000
00010000
,
00100000
01000000
10000000
00000000
00100000
01000000
00010000
00000000
10000000
00000000
01000000
00000000
00010000
00000000
00001000
00000000
,
00000010
00000100
00001000
00000000
00000001
00000100
00000001
00000000
00000100
00000010
00001000
00000010
00000100
00000010
00001000
00000000
,
00000001
00000100
00000001
00000000
00001000
00000100
00001000
00000000
00000010
00010000
00000100
00010000
00001000
01000000
00010000
01000000
,
00100000
00000000
00000000
00000000
00000000
00000000
10000000
00000000
00000000
00010000
00000000
00000000
00100000
00000000
00000000
01000000
00000000
00000000
10000000
00000000
00000000
00000000
00000000
00000000
00010000
00000000
00000000
00000000
01000000
00000000
00000000
00000000
00100000
00000000
00000000
00000000
10000000
00000000
00000000
00000000
01000000
00000000
00000000
00000000
00100000
00000000
00000000
00000000
,
00001000
00010000
00000010
00010000
00001000
00010000
00000010
00000000
00010000
00000100
00001000
00000100
00010000
00000100
00001000
00000000
,
00000100
00000010
00000001
00000000
00000100
00000010
00001000
00000000
00000001
00000010
00000100
00001000
00000020
00000000
00000230
00000000
,
00000301
00000000
00000001
00000010
00001000
00000000
00010000
00100000
,
10000000
10010000
00000000
00010000
01000000
00100000
10000000
01000000
,
00010000
00000000
00001000
00000100
00000001
00000000
00001000
00000001
,
00001000
00000200
00000320
00000230
00000302
00000203
00000320
00000230
,
00001300
00000000
00000000
00000000
00000000
00000000
00000000
00000000
00000020
00000030
00000000
00000000
00000000
00000000
00000000
00000000
00000020
00000030
00000000
00000000
00000000
00000000
00000000
00000000
00000002
00000000
00000000
00000000
00000000
00000000
00000000
00000000
00001003
00000000
00000000
00000000
00000000
00000000
00000000
00000000
00000200
00000000
00000000
00000000
00000000
00000000
00000000
00000000
00000320
00000000
00000000
00000000
00000000
00000000
00000000
00000000
00000032
00000000
00000000
00000000
00000000
00000000
00000000
00000000
,
00002003
00003002
00000203
00002300
00013000
02000000
03200000
00320000
,
01030000
00000000
00100000
01000000
00100000
10000000
00100000
00000000
10000000
00000000
00000000
01000000
00000000
00000000
00100000
00000000
,
01100000
00000000
00000000
00011000
00000000
00000000
00000110
00000000
,
00002002
00000000
00003003
00000000
,
00000001
00000010
00001000
00010000
00100000
10000000
00100000
00010000
,
00001000
00000100
00000001
00000010
00000100
00010000
00100000
00010000
,
00001000
00000010
00000100
00010000
01000000
10000000
00100000
00010000
,
00000100
00000010
00000001
00000100
00001000
00010000
00100000
01000000
,
00010000
10000000
02000000
00000000
00000000
00000000
03100000
00000000
00100000
00010000
00200000
00000000
00000000
00000000
00301000
00000000
,
00010000
00000010
00002000
00000000
00000000
00000000
00003001
00000000
00001000
00000010
00000200
00000000
00000000
00000000
00000301
00000000
,
00000100
00000000
00000001
00000010
00000001
00001000
00000100
00000000
00001100
00000000
00000000
00000101
00000000
00000000
00001001
00000000
,
00000002
00000000
00000023
00000000
00002030
00023000
00000000
02030000
,
23000000
30200000
00000000
02300000
00000000
00000000
03000000
00000000
,
00010000
10000000
01000000
00010000
00001000
00000010
00000001
00000000
,
00001000
00000100
00001000
00000000
00000010
00000000
00000100
00000000
00000001
00000000
00001000
00000001
00001000
00000001
00001000
00000001
,
00001000
00000000
00001000
00000000
00000001
00000000
00000001
00000000
00001000
00000100
00000010
00000001
00001000
00000010
00000100
00000001
,
00000100
00000000
00000010
00001000
00000010
00000000
00001000
00000000
00000001
00000010
00000100
00000000
00001000
00000000
00000100
00000000
,
00010000
00000000
00001000
01000000
00010000
00000000
01000000
00000000
00001000
00100000
00010000
00000000
10000000
00000000
00010000
00000000
,
01000000
00000000
00100000
10000000
01000000
00000000
10000000
00000000
01000000
00100000
00001000
00000000
00010000
00000000
00001000
00000000
,
00010000
00000100
00001000
00000000
00000010
00000100
00000001
00000000
00001000
00000100
00000010
00000001
00000010
00000100
00001000
00000010
,
00010000
00000000
00001000
00010000
00000100
00000000
00010000
00000000
00001000
01000000
00010000
00000000
00100000
00000000
00010000
00000000
,
01000000
00000000
00001000
00010000
00000010
00000000
00010000
00000000
00000100
00001000
00000010
00000000
00000100
00000000
00000100
00000000
,
00000001
00000010
00000001
00000000
00000010
00000100
00000010
00000000
00000100
00001000
00000100
00000000
00001000
00000001
00001000
00000000
,
00000001
00000100
00000001
00000100
00000010
00001000
00000010
00001000
00000100
00010000
00000100
00010000
00001000
00100000
00001000
00100000
,
00010000
01000000
00100000
10000000
01000000
00100000
00001000
00010000
00002000
00000000
00000000
00000000
00000000
00000000
00000000
00000000
,
00000000
00003000
00000000
00000000
;
