#VERSION:0.83;
#TITLE:ユメヒバナ;
#ARTIST:RD-Sounds feat.中恵光城;
#TITLETRANSLIT:Yume hibana;
#ARTISTTRANSLIT:RD-Sounds feat.Mitsuki Nakae;
#BANNER:Yume hibana.png;
#BACKGROUND:Yume hibana-bg.png;
#CDTITLE:./CDTitles/maimai DX Splash.png;
#MUSIC:Yume hibana.ogg;
#SAMPLESTART:69.93;
#SAMPLELENGTH:15;
#BPMS:0=151;

//--------------- dance-single - Fred-104 ----------------
#NOTEDATA:;
#STEPSTYPE:dance-single;
#DESCRIPTION:Fred-104;
#DIFFICULTY:Beginner;
#METER:2;
#CREDIT:Fred-104;
#NOTES:
0000
0000
0000
0000
,
0000
0000
0000
0000
,
0000
0000
0000
0000
,
0000
0000
0000
0000
,
0000
0000
0000
0000
,
0000
0000
0000
0000
,
0000
0000
0000
0000
,
0000
0000
0000
0000
,
0000
0000
0000
0000
,
0000
0000
0000
0000
,
1000
0000
0000
0000
,
0001
0000
0000
0000
,
1000
0000
0000
0000
,
0001
0000
0000
0000
,
1000
0000
0000
0000
,
1000
0000
0000
0000
,
0001
0000
0000
0000
,
0001
0000
0000
0000
,
1000
0000
0000
0000
,
0001
0000
0000
0000
,
0010
0000
0000
0000
,
0100
0000
0000
0000
,
1000
0000
0000
0000
,
0001
0000
0000
0000
,
1000
0000
0000
0000
,
0010
0000
0000
0000
,
1000
0000
0000
0000
,
0001
0000
0000
0000
,
0001
0000
0000
0000
,
1000
0000
0000
0000
,
1000
0000
0000
0000
,
0010
0000
0000
0000
,
0010
0000
0000
0000
,
1000
0000
0000
0000
,
0001
0000
0000
0000
,
0001
0000
0000
0000
,
1000
0000
0000
0000
,
1000
0000
0000
0000
,
0001
0000
0000
0000
,
0001
0000
0000
0000
,
1000
0000
0000
0000
,
1000
0000
0000
0000
,
0001
0000
0000
0000
,
0000
0000
0000
0000
,
1000
0000
0000
0000
,
0100
0000
0000
0000
,
1000
0000
0000
0000
,
0001
0000
0000
0000
,
1000
0000
0000
0000
,
0010
0000
0000
0000
,
1000
0000
0000
0000
,
0001
0000
0000
0000
,
1000
0000
0000
0000
,
0010
0000
0000
0000
,
0001
0000
0000
0000
,
0100
0000
0000
0000
,
1000
0000
0000
0000
,
0001
0000
0000
0000
,
1000
0000
0000
0000
,
0001
0000
0000
0000
,
1000
0000
0000
0000
,
0001
0000
0000
0000
,
1000
0000
0000
0000
,
0010
0000
0000
0000
,
1000
0000
0000
0000
,
0001
0000
0000
0000
,
1000
0000
0000
0000
,
0001
0000
0000
0000
,
1000
0000
0000
0000
,
0001
0000
0000
0000
,
1000
0000
0000
0000
,
0001
0000
0000
0000
,
0100
0000
0000
0000
,
0010
0000
0000
0000
,
0100
0000
0000
0000
,
0100
0000
0000
1001
;

//--------------- dance-single - Fred-104 ----------------
#NOTEDATA:;
#STEPSTYPE:dance-single;
#DESCRIPTION:Fred-104;
#DIFFICULTY:Easy;
#METER:5;
#CREDIT:Fred-104;
#NOTES:
0000
0000
0000
0000
,
0000
0000
0000
0000
,
0000
0000
0000
0000
,
0000
0000
0000
0000
,
0000
0000
0000
0000
,
0000
0000
0000
0000
,
0000
0000
0000
0000
,
0000
0000
0000
0000
,
0000
0000
0000
0000
,
0000
0000
0000
0000
,
1000
0000
0100
0000
,
1000
0001
1000
1000
,
0001
0100
0010
1000
,
0001
1000
1001
0000
,
0001
0001
0010
0010
,
0100
1000
0001
0000
,
0100
0100
0001
1000
,
0100
1000
0001
0000
,
1000
0000
0100
0000
,
0001
0000
0010
1000
,
0001
0000
0010
0000
,
1000
0000
0100
0001
,
0010
0000
0100
0000
,
1000
0010
0100
0010
,
1000
0000
0100
0000
,
0010
0010
1001
0000
,
0001
0100
0001
0100
,
1000
0100
0001
0000
,
1000
0100
1000
0100
,
0001
0100
1000
0000
,
0001
0010
0001
0010
,
1000
0010
1000
0000
,
0010
0001
0010
0001
,
1000
0001
0100
0010
,
0100
0100
0001
1000
,
0002
0003
2000
3000
,
0100
0100
0010
0010
,
0001
1000
0010
0000
,
0100
0100
0010
0010
,
0200
0300
0002
0003
,
1000
0100
0001
0100
,
1000
0001
1000
0000
,
0001
0010
0100
1000
,
0001
0100
1001
0000
,
1000
0100
0020
0030
,
0001
0100
0020
0030
,
0100
0100
0002
0003
,
0010
0100
2000
3000
,
0001
1000
0001
0000
,
0100
0010
0100
0000
,
0001
0001
1000
1000
,
0100
0010
0100
0000
,
1000
0010
1000
0010
,
0100
0000
0001
0000
,
1000
0000
0100
0000
,
0010
0010
0010
0000
,
0001
0000
1000
0000
,
0001
0100
0001
0000
,
1000
0000
0100
0000
,
0010
0010
0010
0000
,
1001
0000
0001
0000
,
1000
0000
0100
0100
,
0100
0000
0010
0000
,
0001
0000
1000
0000
,
1001
0000
0001
0000
,
1000
1000
0100
0000
,
0020
0030
0002
0003
,
2000
0000
3001
0001
,
1001
0000
0000
0000
,
1000
0000
0100
0000
,
0010
0000
0010
0000
,
0001
1000
0001
0000
,
0100
0000
0100
0000
,
0010
0000
0100
0100
,
0001
0000
1000
0000
,
0001
1000
0001
1001
;

//--------------- dance-single - Fred-104 ----------------
#NOTEDATA:;
#STEPSTYPE:dance-single;
#DESCRIPTION:Fred-104;
#DIFFICULTY:Medium;
#METER:10;
#CREDIT:Fred-104;
#NOTES:
0000
0000
0000
0000
,
0000
0000
0000
0000
,
0000
0000
0000
0000
,
0000
0000
0000
0000
,
0000
0000
0000
0000
,
0000
0000
0000
0000
,
0000
0000
0000
0000
,
0000
0000
0000
0000
,
0000
0000
0000
0000
,
0000
0000
0000
0000
,
0001
0010
0110
1000
,
0001
0000
0100
0000
0010
0010
0010
0000
,
1000
0000
0100
0100
0010
0001
1000
0001
,
0101
0000
1001
0000
1000
1000
0001
0001
,
1000
0100
0010
0100
1000
0100
0010
0000
,
0001
1000
0010
1000
0001
0010
0001
0000
,
0010
0100
1000
0100
0010
0100
1000
0000
,
0001
0100
0010
1000
0001
0001
1001
0000
,
1000
0000
0100
0010
0001
0000
0100
0010
,
1000
0000
0001
0010
0100
0000
1000
0010
,
0100
0000
0010
1000
0100
0000
0010
0001
,
0100
0100
0010
1001
,
0110
0000
1000
0100
0001
0000
1000
0010
,
0001
1000
0001
0000
0100
0010
1000
0000
,
0001
0000
0010
0100
1000
0001
0100
0000
,
0001
0000
0010
0000
0001
0001
1001
0000
,
0001
0010
0001
1000
0001
0100
0001
0000
,
1000
0100
1000
0001
1000
0010
1000
0000
,
0100
0010
0001
1000
0010
0100
0001
0000
,
1000
0100
1000
0001
0100
0100
0010
0010
,
0100
0001
1000
0001
0010
0100
1000
0000
,
0001
1000
0001
0010
0001
0010
0100
0000
,
1000
0001
0100
0001
1000
0001
0010
0001
,
1000
0100
0010
0001
1000
0001
1001
0000
,
0110
0000
1001
0000
0001
0100
0010
0000
,
2000
3200
0302
0203
,
1300
0001
1000
0000
0010
0100
0001
0000
,
1000
0100
0010
0001
0010
0100
1000
0001
,
0101
0000
1001
0000
1000
0001
0100
0000
,
0002
0000
0023
0000
2030
0000
3010
0001
,
0010
0001
0010
0100
1000
0000
0010
1000
,
0010
0100
0001
0000
1000
0100
0010
0001
,
1000
0000
0001
0100
0010
0000
0100
0001
,
0010
0100
1000
0001
1001
0000
0000
0000
,
0001
0010
0100
1000
0001
1000
0001
0000
,
0100
0010
1000
0010
0100
0000
0001
1000
,
0001
0100
0001
0100
0010
0000
0100
0001
,
0010
0100
0010
0100
1000
0001
1000
0000
,
0001
0000
1000
0100
0010
0100
1000
0100
,
0010
0001
1000
0001
0100
0000
0010
0100
,
0001
0000
1001
0000
1000
0100
1000
0100
,
0001
0100
0001
0100
1000
0001
1000
0000
,
0001
0010
0001
1000
0010
0000
0100
0000
,
0010
1000
0100
0010
0001
0000
1000
0000
,
0001
0000
0100
0010
1000
0000
0100
0010
,
0001
1000
0010
1000
0100
0000
0000
0000
,
1000
0000
0001
0100
0001
1000
0001
0010
,
0100
0010
0100
0010
0100
0000
1000
0001
,
0100
0000
1000
0100
0001
1000
0001
1000
,
0100
0010
0100
0010
0001
1000
0001
0000
,
1001
0000
1000
0010
1000
0000
0001
0010
,
0001
1000
0010
0100
0010
0010
0010
0000
,
1000
0000
0100
1000
0100
0001
0100
0001
,
0100
1000
0100
1000
0100
0000
0000
0000
,
1000
0000
0001
0010
1000
0000
0010
0001
,
0010
0001
1000
0010
0100
0100
0100
0000
,
0101
1010
0011
1100
,
0001
0010
0100
1000
0001
0000
1001
0000
,
1000
0100
1000
0001
1000
0100
1000
0000
,
0001
0100
0010
0100
0001
0100
0010
1000
,
0010
0100
0010
1000
0001
0010
0100
0000
,
1000
0001
0100
0010
0100
0000
1001
0000
,
0001
0010
0100
1000
0001
0100
0010
0100
,
0001
0010
0100
1000
0010
1000
0001
1000
,
0100
0010
0001
0100
0010
1000
0001
0010
,
0100
1000
0100
1000
0100
0000
1001
0000
;

//--------------- dance-single - Fred-104 ----------------
#NOTEDATA:;
#STEPSTYPE:dance-single;
#DESCRIPTION:Fred-104;
#DIFFICULTY:Hard;
#METER:13;
#CREDIT:Fred-104;
#NOTES:
0000
0000
0000
0000
,
0000
0000
0000
0000
,
0000
0000
0000
0000
,
0000
0000
0000
0000
,
0000
0000
0000
0000
,
0000
0000
0000
0000
,
0000
0000
0000
0000
,
0000
0000
0000
0000
,
0000
0000
0000
0000
,
0000
0000
0000
0000
,
1000
0000
0100
0010
0001
0000
1000
0010
,
0100
0000
0000
0000
0001
0000
1000
0000
0100
0000
0010
0001
0010
0000
0000
0000
,
0001
0000
0000
0000
0001
0000
1000
0010
1000
0000
0001
0000
0010
0000
0100
0000
,
1100
0000
0000
0000
0101
0000
0000
0000
1000
0001
1000
0000
0001
1000
0001
0000
,
0010
0000
0100
0000
1000
0000
0100
0000
0010
0000
0100
1000
0100
0000
0000
0000
,
1000
0000
0001
0000
0010
0000
0001
0000
1000
0001
1000
0001
1000
0000
0000
0000
,
0001
0000
0100
0000
0010
0000
0100
0000
0001
0000
0100
0010
0100
0000
0001
0000
,
1000
0000
0100
0010
0100
0000
1000
0000
0001
0000
0001
0000
1001
0000
0000
0000
,
0001
0000
0010
0100
1000
0000
0001
1000
,
0010
0000
0100
0001
0010
0000
1000
0010
,
0001
0000
0010
0100
1000
0000
0100
1000
,
0010
0000
0100
0000
0100
0010
0110
0000
,
1001
0000
1000
0100
0001
0000
1000
0010
,
0001
0100
1000
0100
0010
0100
1000
0100
,
0001
0000
1000
0100
0010
1000
0010
0001
,
1000
0000
0001
0100
0010
0010
0110
0000
,
0001
0010
0100
1000
0010
1000
0100
0010
,
0001
1000
0010
0100
0010
1000
0100
0010
,
0001
1000
0100
0001
0100
1000
0001
0100
,
0010
0000
1000
0000
0100
0000
0010
0000
0001
0000
0100
0010
0100
0000
0100
0000
,
0010
1000
0100
1000
0010
0100
0001
1000
,
0001
0010
0100
1000
0010
0100
0001
0010
,
0001
0100
0010
0100
1000
0100
0010
0100
,
0001
1000
0100
0010
0001
1000
1001
0000
,
1100
0000
0011
0000
0001
0100
1000
0100
,
0001
0010
0100
0000
1000
0010
0100
0000
,
0001
1000
0100
0010
1000
0001
0100
1000
,
0001
0000
1000
0000
0010
0000
0100
0000
0001
0000
1000
0001
1000
0000
0100
0000
,
0110
0000
0011
0000
0010
0001
1000
0001
,
0010
0001
0100
0010
1000
0000
0001
1000
,
0001
0100
0010
1000
1001
0000
1000
0100
,
0010
0001
1001
0000
0001
0100
1000
0100
,
0001
0000
1000
0100
0001
0000
1000
0010
,
0100
1000
0010
0100
0101
0000
0000
0000
,
1000
0000
0100
0000
1000
0000
0001
0000
0100
0000
0010
0000
1000
0001
1000
0000
,
0100
0000
0010
0000
0001
0000
1000
0000
0010
0000
0100
0000
0001
0010
0001
0000
,
1001
0000
0000
0000
1000
0000
0010
0000
1000
0000
0001
0000
0010
0100
0010
0000
,
0100
0000
1000
0000
0001
0000
0100
0000
0010
1000
0010
1000
0010
1000
0010
0000
,
1010
0000
1000
0100
0010
1000
0010
0001
,
1000
0000
0001
0000
0100
0000
0010
0000
0100
0000
0001
1000
0001
0000
1000
0000
,
1001
0000
0001
0100
0010
0001
1000
0100
,
0001
0000
1000
0000
0001
0000
0010
0000
0100
0000
1000
0001
1000
0000
0010
0000
,
1000
0000
0001
0000
0010
0000
0100
0000
1000
0000
0001
0000
0100
0010
0100
0000
,
0001
0000
1000
0000
0100
0000
0010
0000
0001
0010
0001
0010
0001
0000
1000
0000
,
0010
0000
0001
0000
0010
0000
0100
0000
0010
0000
1000
0000
0001
0010
0001
0000
,
1000
0000
0010
0000
0100
0000
0001
0000
1000
0100
1000
0100
1000
0100
1000
0000
,
1001
0000
0001
0100
0010
0001
1000
0100
,
0001
0000
1000
0000
0100
0000
0010
0000
0001
0000
1000
0010
1000
0000
0001
0000
,
0011
0000
1000
0010
0001
1000
0100
0010
,
1000
0100
0001
0100
1000
1000
1100
0000
,
1001
0000
1000
0010
0001
0000
0010
0100
,
0001
0000
0000
0000
1000
0000
0100
0000
0010
0001
0010
0001
1000
0000
0001
0000
,
1000
0001
0010
0010
0100
1000
0010
0010
,
0100
0000
0001
0100
0001
0100
0001
0100
0001
0100
0001
0100
0001
0000
1000
0000
,
0001
0010
1000
0010
0100
0001
0100
0010
,
0001
0000
1000
0000
0010
0000
0100
0000
0001
1000
0001
1000
0100
0000
0010
0000
,
0001
0010
0100
0000
1000
0010
0100
0000
,
0001
0000
1000
0001
1000
0001
1000
0001
1000
0000
0000
0000
1001
0000
0000
0000
,
0001
0010
0100
0010
0001
1000
0010
0100
,
0010
0000
1000
0000
0001
0000
1000
0100
1000
0000
0001
0100
0001
0000
1000
0000
,
0100
0010
0001
1000
0010
0100
0001
0010
,
0001
0000
1000
0010
1000
0010
1000
0010
1000
0000
0001
0000
1001
0000
0000
0000
,
1000
0001
0010
1000
0001
0100
0010
0001
,
1000
0000
0100
0000
0001
0000
0100
0000
1000
0001
1000
0001
1000
0000
0001
0000
,
0100
0010
1000
0001
0010
0001
1000
0001
,
0100
0000
0010
0100
0010
0100
0010
0100
0010
0000
0010
0000
0110
0000
0000
0000
;

//--------------- dance-double - Fred-104 ----------------
#NOTEDATA:;
#STEPSTYPE:dance-double;
#DESCRIPTION:Fred-104;
#DIFFICULTY:Easy;
#METER:5;
#CREDIT:Fred-104;
#NOTES:
00000000
00000000
00000000
00000000
,
00000000
00000000
00000000
00000000
,
00000000
00000000
00000000
00000000
,
00000000
00000000
00000000
00000000
,
00000000
00000000
00000000
00000000
,
00000000
00000000
00000000
00000000
,
00000000
00000000
00000000
00000000
,
00000000
00000000
00000000
00000000
,
00000000
00000000
00000000
00000000
,
00000000
00000000
00000000
00000000
,
00010000
00000000
00001000
00000000
,
01000000
00001000
00010000
00001000
,
00100000
00010000
10000000
00010000
,
10000000
01000000
01100000
00000000
,
00001000
00001000
00010000
00010000
,
00000100
00010000
00000100
00000000
,
00001000
00000100
00001000
00000100
,
00000010
00000001
00001000
00000000
,
00000001
00000000
00000100
00000000
,
00001000
00000000
00010000
01000000
,
10000000
00000000
00010000
00000000
,
10000000
00000000
00100000
00010000
,
00001000
00000000
00000010
00000000
,
00000001
00001000
00000001
00000100
,
00001000
00000000
00010000
00000000
,
00001000
00001000
00011000
00000000
,
00001000
00010000
00001000
00010000
,
00001000
01000000
00001000
00000000
,
00010000
00001000
00010000
00001000
,
00010000
00000100
00010000
00000000
,
00001000
00010000
00001000
00010000
,
00100000
10000000
00010000
00000000
,
10000000
01000000
00100000
00001000
,
00010000
00010000
00001000
00001000
,
00010000
00001000
00000100
00000001
,
00002000
00003000
00000002
00000003
,
00000010
00000010
00000100
00000100
,
00010000
00001000
00010000
00000000
,
00001000
00001000
00010000
00010000
,
02000000
03000000
20000000
30000000
,
01000000
00100000
00010000
00100000
,
00001000
00010000
00001000
00000000
,
00010000
00010000
00001000
00001000
,
00000010
00000001
00001001
00000000
,
00000001
00001000
00000020
00000030
,
00010000
00001000
00020000
00030000
,
00001000
01000000
00002000
00003000
,
00010000
01000000
20000000
30000000
,
01000000
00100000
00010000
00000000
,
00100000
00001000
00010000
00000000
,
00001000
00001000
00010000
00010000
,
00000010
00010000
00001000
00000000
,
00010000
00001000
00000100
00000001
,
00000010
00000000
00000100
00000000
,
00001000
00000000
00000100
00000000
,
00010000
00010000
00010000
00000000
,
00001000
00000000
00010000
00000000
,
01000000
00100000
00010000
00000000
,
10000000
00000000
01000000
00000000
,
00010000
00010000
00010000
00000000
,
00011000
00000000
00001000
00000000
,
00010000
00000000
00000100
00000100
,
00000100
00000000
00010000
00000000
,
00001000
00000000
01000000
00000000
,
01100000
00000000
00010000
00000000
,
10000000
10000000
01000000
00000000
,
00200000
00300000
00002000
00003000
,
00020000
00000000
00031000
00001000
,
00011000
00000000
00000000
00000000
,
00010000
00000000
00001000
00000000
,
00000010
00000000
00000100
00000000
,
00001000
00000001
00001000
00000000
,
00000001
00000000
00000100
00000000
,
00000001
00000000
00000100
00000010
,
00001000
00000000
00000001
00000000
,
00000010
00000010
00000010
00001001
;

//--------------- dance-double - Fred-104 ----------------
#NOTEDATA:;
#STEPSTYPE:dance-double;
#DESCRIPTION:Fred-104;
#DIFFICULTY:Medium;
#METER:10;
#CREDIT:Fred-104;
#NOTES:
00000000
00000000
00000000
00000000
,
00000000
00000000
00000000
00000000
,
00000000
00000000
00000000
00000000
,
00000000
00000000
00000000
00000000
,
00000000
00000000
00000000
00000000
,
00000000
00000000
00000000
00000000
,
00000000
00000000
00000000
00000000
,
00000000
00000000
00000000
00000000
,
00000000
00000000
00000000
00000000
,
00000000
00000000
00000000
00000000
,
00001000
00010000
00011000
00001000
,
01000000
00000000
00010000
00000000
00100000
01000000
10000000
00000000
,
00100000
00000000
10000000
01000000
00100000
00010000
00100000
00001000
,
00011000
00000000
00010100
00000000
00010000
00010000
00001000
00001000
,
00010000
00001000
00000100
00000010
00001000
00000001
00000010
00000000
,
00000100
00001000
00000001
00000100
00001000
00010000
00001000
00000000
,
01000000
00010000
10000000
00010000
00100000
01000000
10000000
00000000
,
00010000
01000000
00100000
00010000
00001000
00010000
00011000
00000000
,
00010000
00000000
00001000
00000100
00000001
00000000
00001000
00000100
,
00000010
00000000
00000001
00001000
00000010
00000000
00010000
00000000
,
00001000
00000000
00010000
00100000
01000000
00000000
00010000
00100000
,
01000000
10000000
00010000
01100000
,
10010000
00000000
10000000
01000000
00010000
00000000
00001000
00000100
,
00000001
00000010
00000100
00000000
00010000
00001000
00010000
00000000
,
00001000
00000000
01000000
00001000
00010000
00000010
00001000
00000000
,
00000100
00000000
00000010
00000010
00000010
00000000
00000011
00000000
,
00000001
00000000
00000100
00001000
00010000
00001000
00010000
00100000
,
10000000
00000000
01000000
00100000
00010000
00100000
00001000
00010000
,
00000010
00000000
00001000
00000100
00001000
00000001
00000100
00000010
,
00001000
00000001
00000010
00001000
00010000
00000000
00010000
00000000
,
00001000
00010000
00100000
10000000
00010000
00100000
01000000
00000000
,
10000000
00100000
10000000
01000000
00100000
00010000
00100000
00000000
,
00001000
00010000
00001000
00010000
00100000
00010000
00001000
00010000
,
00000010
00001000
00000100
00010000
00001000
01000000
01010000
00000000
,
01100000
00000000
10100000
00000000
10000000
00100000
00010000
00000000
,
00002000
00003020
00000032
00002003
,
00003100
00000010
00000001
00000000
00000100
00001000
00010000
00000000
,
00001000
00100000
00010000
10000000
00010000
00100000
01000000
10000000
,
10010000
00000000
01100000
00000000
10000000
01000000
00010000
00000000
,
00002000
00000000
00003200
00000000
00000302
00000000
00000013
00000100
,
00001000
00000001
00000100
00001000
00010000
00000000
00100000
01000000
,
00100000
10000000
01000000
00000000
00100000
00001000
00010000
00001000
,
00010000
00001000
00000100
00000010
,
00001000
00010000
01000000
00100000
10100000
00000000
00000000
00000000
,
10000000
01000000
10000000
01000000
00010000
00001000
00010000
00000000
,
00001000
00010000
00000100
00001000
00000100
00000000
00000010
00000001
,
00001000
00000010
00000100
00001000
00010000
00000000
00001000
00100000
,
00010000
00100000
01000000
10000000
00010000
01000000
00100000
00000000
,
10000000
00000000
01000000
10000000
00010000
01000000
00001000
00010000
,
00000010
00001000
00000100
00010000
00001000
00000000
00010000
00001000
,
00000100
00000000
00000001
00001000
00000100
00000001
00000100
00000000
,
00001000
00000001
00000100
00001000
00010000
00001000
01000000
00000000
,
00010000
00100000
01000000
00000000
00100000
00010000
10000000
00000000
,
00100000
00010000
00001000
00010000
00001000
00000000
00010000
00000000
,
00001000
00000000
01000000
00001000
00010000
00000000
00001000
00000100
,
00000001
00001000
00000100
00000010
00000100
00000000
00000000
00000000
,
00001000
00000000
00000001
00000100
00000001
00000010
00000100
00001000
,
00000100
00001000
00000100
00001000
00000100
00000000
00010000
00001000
,
00010000
00000000
00100000
10000000
01000000
00000000
00100000
00001000
,
00010000
00000100
00001000
00000100
00010000
00000100
00010000
00000000
,
00011000
00000000
00010000
00001000
00000100
00000000
00000001
00001000
,
00000100
00000010
00000001
00001000
00000010
00000010
00000010
00000000
,
00010000
00000000
00001000
00010000
00100000
00010000
00100000
00010000
,
00001000
00000010
00001000
00010000
00001000
00000000
00000000
00000000
,
00010000
00000000
00001000
00010000
01000000
00000000
00010000
00001000
,
00010000
00000100
00001000
00000001
00000100
00000100
00000100
00000000
,
00000110
00001001
00001010
00010010
,
00010000
00001000
00010000
00001000
00010000
00000000
00011000
00000000
,
00001000
00010000
00001000
00010000
01000000
10000000
01000000
10000000
,
00010000
10000000
00010000
10000000
00100000
00010000
00001000
00000000
,
00010000
00001000
00010000
00001000
00000010
00000001
00000010
00000000
,
00000001
00001000
00000010
00000100
00000001
00000001
00001000
00000000
,
00000001
00000100
00000001
00000100
00001000
00010000
00001000
00000000
,
00010000
00100000
00010000
00100000
10000000
00010000
00100000
00000000
,
01000000
10000000
00100000
10000000
01000000
00100000
00001000
00000000
,
00010000
00001000
00010000
00001000
00010000
00000000
00011000
00000000
;

//--------------- dance-double - Fred-104 ----------------
#NOTEDATA:;
#STEPSTYPE:dance-double;
#DESCRIPTION:Fred-104;
#DIFFICULTY:Hard;
#METER:13;
#CREDIT:Fred-104;
#NOTES:
00000000
00000000
00000000
00000000
,
00000000
00000000
00000000
00000000
,
00000000
00000000
00000000
00000000
,
00000000
00000000
00000000
00000000
,
00000000
00000000
00000000
00000000
,
00000000
00000000
00000000
00000000
,
00000000
00000000
00000000
00000000
,
00000000
00000000
00000000
00000000
,
00000000
00000000
00000000
00000000
,
00000000
00000000
00000000
00000000
,
00010000
00000000
00001000
00000000
00000100
00000001
00001000
00000000
,
00000100
00000000
00000000
00000000
00000010
00000000
00000000
00000000
00000001
00001000
00000001
00001000
00000001
00000000
00000000
00000000
,
00001000
00000000
00000000
00000000
00000001
00000000
00000010
00000100
00000010
00000000
00001000
00000000
00010000
00000000
00001000
00000000
,
00010000
00000000
01000000
00000000
10000000
00000000
00000000
00000000
00010000
10000000
00010000
00000000
10000000
00010000
10000000
00000000
,
01000000
00100000
00001000
00000010
00000100
00010000
00001000
00000000
,
00010000
00000000
00100000
00000000
01000000
00000000
00001000
00000000
00010000
00000100
00010000
00000100
00010000
00000000
00000000
00000000
,
00001000
00000100
00000010
00001000
00100000
01000000
00001000
00010000
,
00001000
00000000
00000010
00000001
00000010
00000000
00000100
00000000
00001000
00000000
00000001
00000000
00001001
00000000
00000000
00000000
,
00000110
00000000
00000001
00000100
00001000
00000000
00010000
00100000
,
10000000
00000000
01000000
00100000
00001000
00000000
00000010
00000100
,
00010000
00000000
00001000
00100000
01000000
00000000
10000000
00100000
,
00010000
00000000
00001000
00000000
00010000
00000010
00010010
00000000
,
00001000
00000000
00010000
00100000
10000000
00000000
01000000
00010000
,
00001000
00000010
00000001
00000010
00000100
00010000
00100000
01000000
,
00001000
00000000
00010000
01000000
00100000
00010000
10000000
00100000
,
00010000
00000000
00001000
00010000
00001000
00001000
00011000
00000000
,
00010000
00001000
00010000
00001000
00000100
00000001
00000100
00000001
,
00000010
00001000
00000010
00001000
00010000
00100000
10000000
00010000
,
00100000
01000000
00100000
01000000
10000000
00100000
00010000
00001000
,
00000100
00000000
00000010
00000000
00000100
00000000
00000010
00000000
00001000
00000000
00000001
00000010
00000100
00000000
00010000
00000000
,
00001000
01000000
00001000
01000000
00010000
00001000
00000100
00010000
,
00001000
00100000
00001000
00100000
00010000
00001000
00000010
00010000
,
00001000
00010000
00100000
01000000
00010000
00100000
01000000
00010000
,
00001000
00010000
00000010
00000100
00001000
00010000
00011000
00000000
,
00101000
00000000
00010010
00000000
00010000
00001000
00000100
00000001
,
00000010
00000001
00000100
00000000
00000010
00001000
00000100
00000000
,
00001000
00000001
00000100
00000010
00010000
00001000
01000000
00010000
,
00100000
00000000
00001000
00000000
00010000
00000000
00001000
00000000
00000010
00000000
00000100
00000010
00000100
00000000
00000010
00000000
,
00000011
00000000
00001100
00000000
00000001
00000100
00001000
00010000
,
00001000
01000000
00001000
01000000
00001000
00010000
00100000
01000000
,
00010000
10000000
01000000
00100000
00110000
00000000
10000000
01000000
,
00010000
00001000
00011000
00000000
00010000
00001000
00000100
00000001
,
00001000
00000000
00000100
00000001
00000100
00000000
00001000
00000001
,
00000100
00001000
00010000
00001000
00011000
00000000
00000000
00000000
,
00001000
01000000
00001000
01000000
00010000
00001000
00000010
00010000
,
00001000
00100000
00001000
00100000
00010000
00001000
00000100
00010000
,
00001000
00010000
00100000
00001000
00000010
00010000
00001000
00010000
,
00000100
00000000
00000010
00000000
00000100
00000000
00001000
00000000
00010000
01000000
00010000
00000000
01000000
00010000
01000000
00000000
,
01100000
00000000
00010000
00100000
01000000
00010000
00000100
00010000
,
00001000
00000100
00000010
00001000
00100000
00010000
00001000
00100000
,
00101000
00000000
00001000
00010000
00100000
01000000
00010000
00001000
,
00000010
00010000
00100000
00010000
00001000
00010000
00011000
00000000
,
00010000
00000010
00001000
00010000
01000000
00001000
00010000
00000010
,
00010000
00000100
00001000
00010000
00100000
00001000
00010000
00000100
,
00010000
00000010
00010000
00100000
01000000
00001000
00010000
00000100
,
00001000
00000000
00010000
00000000
00100000
00000000
00001000
00000000
00010000
00001000
00010000
00001000
00010000
00001000
00010000
00000000
,
00011000
00000000
00010000
00001000
00000010
00000100
00001000
00000010
,
00010000
00100000
01000000
00001000
00010000
00001000
00000100
00001000
,
00011000
00000000
00001000
00010000
00100000
00010000
00001000
00000100
,
00000010
00010000
00001000
00010000
01000000
00100000
00101000
00000000
,
00001000
00010000
00100000
10000000
00010000
00100000
01000000
10000000
,
00100000
00000000
00010000
00000000
00001000
00000000
00010000
00000000
00000100
00001000
00000100
00001000
00000100
00000000
00000010
00000000
,
00000001
00001000
00000010
00000100
00001000
00010000
00100000
10000000
,
00010000
00000000
00100000
00010000
00100000
00010000
00100000
00010000
00100000
00010000
00100000
00010000
00100000
00000000
00001000
00000000
,
00010000
00001000
00000100
00000010
00001000
00000001
00000010
00000100
,
00001000
00000000
00000010
00000000
00000100
00000000
00001000
00000000
00010000
00001000
00010000
00001000
00010000
00000000
00001000
00000000
,
00010000
00100000
10000000
00000000
01000000
00100000
00010000
00000000
,
10000000
00000000
00010000
00100000
00010000
00100000
00010000
00100000
00001000
00000000
00010000
00000000
00011000
00000000
00000000
00000000
,
00010000
00001000
00010000
00001000
00000100
00000010
00000001
00000010
,
00001000
00000000
00000001
00000000
00000010
00000000
00000100
00001000
00000100
00000000
00001000
00000001
00001000
00000000
00000001
00000000
,
00001000
00000010
00000100
00001000
00010000
00100000
01000000
00010000
,
10000000
00000000
01000000
10000000
01000000
10000000
01000000
10000000
01000000
00000000
00100000
00000000
00110000
00000000
00000000
00000000
,
10000000
01000000
00010000
00001000
00010000
00000010
00001000
00000100
,
00000010
00000000
00000001
00000000
00000100
00000000
00001000
00000000
00010000
00001000
00010000
00001000
00010000
00000000
00001000
00000000
,
01000000
00010000
00100000
00001000
00010000
01000000
00100000
00010000
,
10000000
00000000
00100000
01000000
00100000
01000000
00100000
01000000
00100000
00000000
00100000
00000000
01100000
00000000
00000000
00000000
;
