#VERSION:0.83;
#TITLE:雪月夜;
#ARTIST:Ryu*;
#TITLETRANSLIT:Yukizukiyo;
#BANNER:Yukizukiyo.png;
#BACKGROUND:Yukizukiyo-bg.png;
#CDTITLE:./CDTitles/RB VOLZZA.png;
#MUSIC:Yukizukiyo.ogg;
#SAMPLESTART:85.161;
#SAMPLELENGTH:15;
#BPMS:0=155;
#STOPS:143.5=1.548;
#BGSTAGE:3;

//--------------- dance-single - Fred-104 ----------------
#NOTEDATA:;
#STEPSTYPE:dance-single;
#DESCRIPTION:Fred-104;
#DIFFICULTY:Beginner;
#METER:3;
#CREDIT:Fred-104;
#NOTES:
0000
0000
0000
0000
,
0000
0000
0000
0000
,
0000
0000
0000
0000
,
0000
0000
0000
0000
,
0000
0000
0000
0000
,
0000
0000
0000
0000
,
1000
0000
0000
0000
,
0001
0000
0000
0000
,
1000
0000
0000
0000
,
0002
0003
2000
3000
,
2002
0000
0000
3003
,
1000
0000
0010
0000
,
0010
0000
0001
0000
,
0001
0000
0001
0000
,
0010
0000
1000
0000
,
0001
0000
0001
0000
,
0010
0000
1000
0000
,
1000
0000
0010
0000
,
0001
0000
0001
0000
,
1000
0000
1000
0000
,
0010
0000
0001
0000
,
0001
0000
0100
0000
,
0100
0000
0000
0000
,
1000
0000
1000
0000
,
0001
0000
0001
0000
,
0100
0000
0100
0000
,
0001
0000
1000
0000
,
0002
0000
0003
0000
,
0001
0000
0100
0000
,
2000
0000
3000
0000
,
1000
0000
0100
0000
,
0001
0000
0001
0000
,
1000
0000
1000
0000
,
0001
0000
0001
0000
,
1000
0000
0000
0000
,
1001
0000
0000
0000
,
2000
0000
0000
3000
,
0002
0000
0000
0003
,
2000
0000
0000
3000
,
0002
0000
0000
0003
,
0020
0000
0000
0030
,
0200
0000
0000
0300
,
0020
0000
0000
0030
,
0200
0000
0000
0300
,
1000
0000
1000
0000
,
0001
0000
0001
0001
,
0001
0000
0100
0000
,
0001
0000
1000
0000
,
0001
0000
0001
0000
,
1000
0000
1000
0000
,
0001
0000
0001
0000
,
1000
0000
1000
0000
,
0002
0000
0000
0003
,
2000
0000
0000
3000
,
0001
0000
0100
0000
,
0010
0000
0100
0000
,
1000
0000
1000
0000
,
0100
0000
0001
0000
,
1000
0000
0100
0000
,
0001
0000
0001
0000
,
0100
0000
1000
0000
,
1001
0000
0000
0000
,
0001
0000
1000
0000
,
0100
0000
0010
0000
,
0100
0000
0001
0000
,
0001
0000
0100
0000
,
1000
0000
1000
0000
,
0001
0000
0001
0000
,
1001
0000
0000
0000
,
0110
0000
0000
0000
,
1001
0000
0000
0000
;

//--------------- dance-single - Fred-104 ----------------
#NOTEDATA:;
#STEPSTYPE:dance-single;
#DESCRIPTION:Fred-104;
#DIFFICULTY:Easy;
#METER:7;
#CREDIT:Fred-104;
#NOTES:
0000
0000
0000
0000
,
0000
0000
0000
0000
,
0000
0000
0000
0000
,
0000
0000
0000
0000
,
0000
0000
0000
0000
,
0000
0000
0000
0000
,
0010
0010
0010
0010
,
0100
0100
0001
1000
,
0100
0100
0100
0100
,
0020
0030
0002
0003
,
2002
0000
0000
3003
,
1000
1000
0100
0001
,
0001
0100
1000
0000
,
0001
0001
0100
1000
,
1000
0100
0001
0000
,
1000
0100
0010
0100
,
0001
0100
1000
0000
,
0001
0100
1000
0100
,
0001
1000
2002
3003
,
1000
0000
0000
0100
0000
0100
0000
0000
,
0010
0000
0000
0001
0000
0001
0000
0000
,
1000
0000
0000
0010
0000
0010
0000
0000
,
0100
0000
0000
0001
0000
0001
0000
0000
,
0010
0000
0000
0100
0000
0100
0000
0000
,
1000
0000
0000
0001
0000
0001
0000
0000
,
0100
0000
0000
0010
0000
0010
0000
0000
,
0100
0000
0000
0001
0000
0001
1000
0000
,
1001
0000
0001
0010
,
1000
0010
0001
1000
,
1001
0000
1000
0010
,
0001
0000
0000
0000
0010
0000
0000
0000
1000
0000
0000
1000
0000
0000
1000
0000
,
0001
0010
0100
1000
,
0001
0100
0010
1000
,
0001
0010
1000
0100
,
0001
0001
0000
1000
0000
0001
0000
1000
,
2002
0000
0000
0000
0000
0000
0000
3003
,
2000
0000
3010
0001
,
0020
0000
1030
0001
,
2000
0000
3100
0001
,
0200
0000
1300
0001
,
0100
0000
0100
0000
0010
1000
0010
0000
,
0100
0000
0100
0000
0001
0010
0001
0000
,
1000
0000
1000
0000
0100
0010
0100
0000
,
0110
0000
0000
0000
0000
0000
0000
0000
0001
0000
0000
0001
0000
0000
0001
0000
,
1000
1000
1000
1000
,
0001
0001
0100
0100
,
0010
0010
0100
0100
,
0001
0000
0000
0000
0001
0000
0000
0000
1000
0000
0000
1000
0000
0000
1000
0000
,
0001
0100
1000
0000
,
1000
0100
0001
0000
,
1000
0010
0001
0000
,
0001
0010
1000
0000
,
1001
0000
0000
0000
,
0001
1000
2002
3003
,
0001
0000
0000
0000
0010
0000
0000
0010
0000
0000
0010
0000
0100
0000
0000
0000
,
1000
0000
0000
1000
0000
0000
0010
0000
1000
0000
0000
1000
0000
0000
0001
0000
,
0010
0000
0000
0000
0100
0000
0000
0100
0000
0000
0100
0000
0010
0000
0000
0000
,
0001
0000
0000
1000
0000
0000
2002
0000
0000
0000
0000
0000
3003
0000
0000
0000
,
1000
0000
0000
0000
0100
0000
0000
0100
0000
0000
1000
0000
0001
0000
0000
0000
,
0100
0000
0000
0100
0000
0000
0001
0000
0010
0000
0000
0010
0000
0000
0001
0000
,
1000
0000
0000
1000
0000
0000
0001
0000
0000
0001
0000
0000
1000
0000
0000
0000
,
0001
0000
0000
1000
0000
0000
2002
0000
0000
0000
0000
0000
3003
0000
0000
0000
,
1000
0000
0000
0000
0010
0000
0000
0010
0000
0000
0100
0000
0010
0000
0000
0000
,
1000
0000
0000
0100
0000
0000
0100
0000
0010
0000
0000
0001
0000
0000
0001
0000
,
1000
0000
0000
0000
0001
0000
0000
0100
0000
0000
0100
0000
0001
0000
0000
0000
,
0010
0000
0000
0100
0000
0000
0220
0000
0000
0000
0000
0000
0330
0000
0000
0000
,
0001
0000
0000
0000
1000
0000
0000
0010
0000
0000
0010
0000
1000
0000
0000
0000
,
0001
0000
0000
0010
0000
0000
0100
0000
1000
0000
0000
0010
0000
0000
1000
0000
,
0001
0000
0000
0001
0000
0000
0001
0000
0000
0001
0000
0000
0001
0000
0000
0000
,
1000
0000
0000
0001
0000
0000
2002
0000
0000
0000
0000
0000
3003
0000
0000
0000
,
1001
0000
0000
0000
;

//--------------- dance-single - Fred-104 ----------------
#NOTEDATA:;
#STEPSTYPE:dance-single;
#DESCRIPTION:Fred-104;
#DIFFICULTY:Medium;
#METER:12;
#CREDIT:Fred-104;
#NOTES:
0000
0000
0000
0000
,
0000
0000
0000
0000
,
0000
0000
0000
0000
,
0000
0000
0000
0000
,
0000
0000
0000
0000
,
0000
0000
0000
0000
,
1000
1000
0001
0001
,
0100
0000
0100
0010
0100
0010
0100
0000
,
0001
0001
1000
1000
,
0100
0010
0001
0100
,
0220
0000
0000
0330
,
0001
0010
0000
1010
0000
0011
0000
0001
,
1000
0000
0010
0100
0000
0010
0100
0000
0001
0000
1000
0000
0100
0000
0000
0000
,
0001
0100
0000
1100
0000
0110
0000
0010
,
0001
0000
1000
0010
0000
1000
0010
0000
0100
0000
0001
0000
1000
0000
0000
0000
,
0001
0100
0000
0110
0000
0011
0000
0010
,
1000
0000
0001
0010
0000
0100
1000
0000
0001
0000
0100
0000
0010
0000
0000
0000
,
1000
0100
0000
0101
0000
0110
0000
0100
,
1000
0000
0001
1000
0000
0001
0100
0000
0010
0000
0100
0000
0001
0000
0000
0000
,
1000
1100
0000
0110
0000
0011
0000
0001
,
1000
1010
0000
0101
0000
1000
0001
0100
,
0010
0110
0000
1010
0000
0101
0000
1000
,
0100
0110
0000
0011
0000
0001
1000
0001
,
1000
0200
0310
0001
0000
0001
0100
0010
,
1000
0001
0010
0100
0000
0100
1000
0001
,
0100
1000
0100
0010
0000
0010
1000
0001
,
0010
0100
0001
0100
0000
0100
1000
0001
,
2002
0000
3003
0000
1000
0100
1000
0100
,
0001
0100
0001
0100
1000
0010
0001
0010
,
2000
0000
3000
0000
0001
0010
0001
0010
,
1000
0000
0010
0000
0001
0000
1000
0000
0010
0000
0000
0100
0000
0000
0001
0000
,
1000
0100
0010
0100
1000
0100
0010
0000
,
0001
0100
0010
0100
0001
0100
0010
0000
,
0100
0000
0000
0100
0001
0000
0000
0001
1000
0000
0000
1000
0100
0000
0000
0100
,
0010
0001
0000
1010
0000
0101
0000
0100
,
2002
0000
0000
0000
0000
0000
0000
3003
,
1000
0100
1000
0100
0001
0100
0001
0000
,
1000
0010
1000
0010
0001
0010
0001
0000
,
0001
0100
0001
0100
1000
0100
1000
0000
,
0001
0010
0001
0010
1000
0010
1000
0000
,
0001
0010
0100
0010
0001
1000
0010
1000
,
0001
0100
0010
0100
0001
1000
0100
1000
,
0100
0010
0001
1000
0010
1000
0001
0100
,
0110
0000
0000
0000
0001
0000
1000
0000
0100
0000
0000
0010
0000
0000
0001
0000
,
0011
0001
1000
1000
,
0010
0000
0010
0100
0101
0000
1001
0000
,
1100
0100
0010
0010
,
0001
0000
0000
0000
1000
0000
0000
0000
0001
0000
0000
0100
0000
0000
0001
0000
,
1000
0000
0100
0000
1000
0010
0000
0000
1000
0000
0010
0000
1000
0100
0000
0000
,
0010
0000
0001
0000
0100
0001
0000
0000
0100
0000
0001
0000
0010
0001
0000
0000
,
0100
0000
0000
0100
0010
0000
0000
0010
1000
0000
0000
1000
0001
0000
0000
0001
,
0010
0100
1000
0010
0100
0001
1000
0100
,
0010
0001
0000
1010
0000
0101
0000
1000
,
0001
0000
0100
0010
0000
0100
0010
0000
0100
0000
0001
0000
2000
0000
0000
0000
,
3100
0000
0010
0000
0001
1000
0000
1000
0000
0000
0010
0000
0100
0000
0001
0000
,
1000
0000
0000
0100
0000
0000
0001
0000
0100
0000
0000
1000
0000
0000
0001
0000
,
0100
0000
0010
0000
0100
0001
0000
0001
0000
0000
1000
0000
0100
0000
0010
0000
,
0001
0000
0000
1000
0000
0000
2002
0000
0000
0000
0000
0000
3003
0000
0000
0000
,
0001
0000
1000
0000
0010
0100
0000
0100
0000
0000
0010
0000
1000
0000
0100
0000
,
0010
0000
0000
0001
0000
0000
1000
0000
0010
0000
0000
0001
0000
0000
0010
0000
,
1000
0000
0000
1100
0000
0000
0001
0000
0000
0011
0000
0000
1000
0000
0001
0000
,
0100
0000
0000
0010
0000
0000
0220
0000
0000
0000
0000
0000
0330
0000
0000
0000
,
0001
0000
0010
0000
0100
1000
0000
1000
0000
0000
0010
0000
1000
0000
0001
0000
,
0010
0000
0000
0100
0000
0000
0001
0000
0100
0000
0000
1000
0000
0000
0001
0000
,
1000
0000
0001
0000
0100
0010
0000
0010
0000
0000
1000
0000
0100
0000
0010
0000
,
0001
0000
0000
1000
0000
0000
2002
0000
0000
0000
0000
0000
3003
0000
0000
0000
,
0001
0000
0100
0000
0001
1000
0000
1000
0000
0000
0100
0000
0010
0000
0001
0000
,
1000
0000
0000
0010
0000
0000
1000
0000
0001
0000
0000
0010
0000
0000
0100
0000
,
0010
0000
0000
0011
0000
0000
1000
0000
0000
1010
0000
0000
0001
0000
0100
0000
,
0010
0000
0000
0100
0000
0000
0220
0000
0000
0000
0000
0000
0330
0000
0000
0000
,
1001
0000
0000
0000
;

//--------------- dance-single - Fred-104 ----------------
#NOTEDATA:;
#STEPSTYPE:dance-single;
#DESCRIPTION:Fred-104;
#DIFFICULTY:Hard;
#METER:16;
#CREDIT:Fred-104;
#NOTES:
0000
0000
0000
0000
,
0000
0000
0000
0000
,
0000
0000
0000
0000
,
0000
0000
0000
0000
,
0000
0000
0000
0000
,
0000
0000
0000
0000
,
1000
0100
1000
0100
,
0010
0000
0000
0000
0001
0000
1000
0000
0010
0000
1000
0001
1000
0000
0001
0000
,
0010
0100
0010
0100
,
2000
0001
3002
1003
,
2002
0000
0000
0000
0000
0000
0000
0000
0000
0000
3000
0003
1001
0000
0000
0000
,
0002
0100
1003
0010
2000
0100
3001
0010
,
0100
0000
1000
0001
0000
1000
0100
0010
0001
0000
1000
0010
1000
0000
0001
0000
,
2000
0100
3001
0010
0002
0100
1003
0001
,
0100
0000
0010
1000
0000
0010
0100
0001
1000
0000
0100
0010
0001
0000
1000
0000
,
0001
0000
0100
0010
0100
0000
1000
0000
0001
0000
0010
0100
0010
0000
1000
0000
,
0001
0000
0100
0001
0000
1000
0001
0010
0001
0000
0100
0010
1000
0000
0001
0000
,
1000
0000
0100
0010
0100
0000
0001
0000
1000
0000
0010
0100
0010
0000
0001
0000
,
1000
0000
0001
0010
0100
1000
0100
1000
0100
0000
1000
0001
1000
0000
0001
0000
,
0100
0010
0100
0000
0010
1000
0010
0000
1000
0100
1000
0000
0001
0100
0001
0000
,
0010
0100
0010
0000
0100
1000
0100
0000
1000
0010
1000
0000
0001
0010
0001
0000
,
1000
0100
1000
0000
0100
0010
0100
0000
0001
0100
0001
0000
0100
1000
0100
0000
,
1000
0010
1000
0000
0010
0100
0010
0000
0001
0010
0001
0000
0010
1000
0010
0000
,
0100
0001
1000
0000
0100
0010
0001
0000
0100
0010
0001
0000
1000
0100
0010
0000
,
1000
0001
0100
0000
0001
0010
0100
0000
0001
1000
0010
0000
0100
1000
0010
0000
,
0100
0001
1000
0000
0001
1000
0100
0000
0001
1000
0010
0000
0001
0010
0100
0000
,
1000
0001
1000
0000
0001
0100
0010
1000
0001
0000
0010
0100
0010
0000
0100
0000
,
2000
0000
0000
0000
0000
0000
0000
0000
3010
1000
0010
1000
0001
1000
0001
1000
,
0100
0010
0100
0010
0001
1000
0001
1000
0010
0100
0010
0100
0001
1000
0100
0010
,
0002
0000
0000
0000
0000
0000
0000
0000
1003
0010
1000
0010
0100
0001
0100
0001
,
1000
0100
1000
0100
0010
0001
0010
0001
1000
0000
0000
1010
0000
0000
0101
0000
,
1100
0000
1000
0000
0001
0000
0001
0000
0100
0010
0100
0010
0100
0001
0100
0001
,
1000
0000
1000
0000
0100
0000
0100
0000
0010
0001
0010
0001
0100
0001
0100
0001
,
1000
0000
0100
0010
0001
0000
0100
0010
1000
0000
0100
0010
0001
0000
0100
0010
,
1000
1100
0000
0101
0000
1010
0000
0011
,
2002
0000
0000
0000
0000
0000
0000
3003
,
1000
0100
1000
0100
0010
0100
0010
0100
1000
0000
0001
0000
0010
0000
0100
0000
,
1000
0010
1000
0010
0100
0010
0100
0010
1000
0000
0001
0000
0100
0000
0010
0000
,
0100
0001
0100
0001
1000
0001
1000
0001
0100
0000
0001
0000
1000
0000
0100
0000
,
0010
0001
0010
0001
0100
0001
0100
0001
0010
0000
0100
0000
1000
0000
0001
0000
,
0100
0001
1000
0001
0100
0001
1000
0001
0100
0000
0001
0000
0010
0000
0100
0000
,
1000
0001
0010
0001
1000
0001
0010
0001
1000
0000
0010
0000
0100
0000
0001
0000
,
1000
0100
0010
0100
1000
0100
0010
0100
1000
0000
0001
0000
0100
0000
0010
0000
,
0100
0001
1000
0001
0100
0001
1000
0001
0010
0100
1000
0001
0010
0100
1000
0001
,
0100
0100
0010
0010
,
1000
0000
1000
0001
1000
0000
0011
1000
,
1010
0010
0100
0100
,
0101
0000
0000
0000
0001
0000
0000
0000
1100
0000
0000
0110
0000
0000
0011
0000
,
1001
0000
1000
0000
0001
0100
0000
0100
0001
0000
1000
0000
0100
0010
0000
0010
,
0100
0000
1000
0000
0001
0100
0000
0100
0010
0000
1000
0000
0001
1000
0000
1000
,
0100
0000
0010
0001
0100
0000
0010
1000
0100
0000
0010
0001
0100
0000
0010
1000
,
0100
0010
0100
0010
0001
1000
0001
1000
0010
0100
0001
0010
0100
1000
0001
0100
,
0010
1010
0000
0101
0000
1100
0000
0011
,
1001
0000
1000
0100
0000
0010
0100
0010
0001
0000
1000
0010
1000
0000
0001
0000
,
0010
0000
0100
0000
1000
0001
0000
0100
0000
1000
0100
0000
0010
0000
1000
0001
,
0010
0000
0100
0001
0000
0100
1000
0000
0001
0000
0100
1000
0000
0100
0001
1000
,
0001
0000
0010
0000
0100
0001
0100
0001
0000
0100
0010
0000
0001
1000
0010
1000
,
0001
0000
0000
1000
0000
0000
0200
0000
0000
0000
0301
0100
0010
0100
1000
0001
,
1000
0000
0001
0000
1000
0010
0000
0100
0000
1000
0100
0000
0010
0000
1000
0001
,
0010
0000
1000
0010
0000
0100
0010
0000
0001
1000
0000
0010
0000
0001
0010
1000
,
0001
0000
0000
0011
0000
0000
1010
0000
0000
1100
0000
0000
0101
0000
0001
0000
,
1100
0000
0000
0110
0000
0000
0022
0000
0033
0000
0001
1000
0001
1000
0001
0000
,
0100
0000
0001
0000
1000
0100
1000
0100
0000
0010
0100
0000
0001
0000
0100
1000
,
0001
0000
0100
1000
0000
0100
0001
0000
1000
0000
0100
0001
0000
0100
1000
0001
,
1000
0000
0001
0000
0100
0010
0100
0010
0000
0001
0010
0000
1000
0001
0010
0100
,
1000
0000
0010
0100
0000
1000
0100
0000
0010
0000
0100
0001
0010
0001
1000
0001
,
0100
0000
0010
0000
1000
0001
0010
0100
0000
0001
0100
0010
0100
0000
1000
0000
,
0001
0000
0100
1000
0000
0100
0001
0000
1000
0100
1000
0100
0000
0001
0100
1000
,
0001
0000
0000
0101
0000
0000
1100
0000
0000
1010
0000
0000
0011
0000
1000
0000
,
1010
0000
0000
0101
0000
0000
1100
0000
0001
0010
0100
1000
0010
0100
0001
1000
,
0001
0000
0000
0000
;

//--------------- dance-double - Fred-104 ----------------
#NOTEDATA:;
#STEPSTYPE:dance-double;
#DESCRIPTION:Fred-104;
#DIFFICULTY:Easy;
#METER:7;
#CREDIT:Fred-104;
#NOTES:
00000000
00000000
00000000
00000000
,
00000000
00000000
00000000
00000000
,
00000000
00000000
00000000
00000000
,
00000000
00000000
00000000
00000000
,
00000000
00000000
00000000
00000000
,
00000000
00000000
00000000
00000000
,
00010000
00010000
00010000
00010000
,
00001000
00001000
00010000
00001000
,
00000010
00000010
00000001
00000001
,
00000200
00000300
00002000
00003000
,
00022000
00000000
00000000
00033000
,
00010000
00001000
00010000
00000100
,
00001000
00000100
00000010
00000000
,
00000001
00000100
00000010
00000100
,
00001000
00010000
00001000
00000000
,
01000000
00010000
01000000
00010000
,
00100000
01000000
10000000
00000000
,
00010000
10000000
00100000
00010000
,
00001000
00010000
00022000
00033000
,
00010000
00000000
00000000
00001000
00000000
00001000
00000000
00000000
,
00000010
00000000
00000000
00000100
00000000
00000100
00000000
00000000
,
00001000
00000000
00000000
00000001
00000000
00000001
00000000
00000000
,
00000010
00000000
00000000
00000100
00000000
00000100
00000000
00000000
,
00010000
00000000
00000000
00001000
00000000
00001000
00000000
00000000
,
01000000
00000000
00000000
00010000
00000000
00010000
00000000
00000000
,
00100000
00000000
00000000
01000000
00000000
01000000
00000000
00000000
,
10000000
00000000
00000000
00100000
00000000
00100000
00010000
00000000
,
00011000
00000000
00010000
00001000
,
00000100
00001000
00010000
00001000
,
00011000
00000000
00001000
00010000
,
01000000
00000000
00000000
00000000
00010000
00000000
00000000
00000000
00001000
00000000
00000000
00001000
00000000
00000000
00001000
00000000
,
00010000
00100000
01000000
00010000
,
10000000
01000000
10000000
00010000
,
10000000
00100000
00010000
00001000
,
00010000
00010000
00000000
00010000
00000000
00001000
00000000
00001000
,
00022000
00000000
00000000
00000000
00000000
00000000
00000000
00033000
,
00020000
00000000
00031000
00000100
,
00000020
00000000
00001030
00000001
,
00000020
00000000
00000130
00010000
,
00002000
00000000
00013000
00100000
,
10000000
00000000
10000000
00000000
00010000
00100000
00010000
00000000
,
01000000
00000000
01000000
00000000
00001000
00010000
00001000
00000000
,
00010000
00000000
00010000
00000000
00000010
00001000
00000010
00000000
,
00001001
00000000
00000000
00000000
00000000
00000000
00000000
00000000
00001000
00000000
00000000
00001000
00000000
00000000
00001000
00000000
,
00000001
00000001
00000010
00000010
,
00001000
00001000
00010000
00010000
,
00100000
00100000
01000000
01000000
,
00010000
00000000
00000000
00000000
10000000
00000000
00000000
00000000
01000000
00000000
00000000
01000000
00000000
00000000
01000000
00000000
,
00010000
01000000
10000000
00000000
,
10000000
01000000
00010000
00000000
,
10000000
00100000
00010000
00000000
,
00001000
00010000
00001000
00000000
,
00011000
00000000
00000000
00000000
,
01000000
00100000
20020000
30030000
,
00010000
00000000
00000000
00000000
10000000
00000000
00000000
10000000
00000000
00000000
10000000
00000000
01000000
00000000
00000000
00000000
,
00010000
00000000
00000000
00010000
00000000
00000000
00001000
00000000
00010000
00000000
00000000
00000100
00000000
00000000
00010000
00000000
,
00001000
00000000
00000000
00000000
00000100
00000000
00000000
00000100
00000000
00000000
00000100
00000000
00000001
00000000
00000000
00000000
,
00000010
00000000
00000000
00000100
00000000
00000000
00002002
00000000
00000000
00000000
00000000
00000000
00003003
00000000
00000000
00000000
,
00001000
00000000
00000000
00000000
00000010
00000000
00000000
00000010
00000000
00000000
00000100
00000000
00000001
00000000
00000000
00000000
,
00000010
00000000
00000000
00000010
00000000
00000000
00000100
00000000
00010000
00000000
00000000
00010000
00000000
00000000
00001000
00000000
,
01000000
00000000
00000000
01000000
00000000
00000000
00100000
00000000
00000000
00100000
00000000
00000000
01000000
00000000
00000000
00000000
,
00010000
00000000
00000000
10000000
00000000
00000000
20020000
00000000
00000000
00000000
00000000
00000000
30030000
00000000
00000000
00000000
,
10000000
00000000
00000000
00000000
01000000
00000000
00000000
01000000
00000000
00000000
00100000
00000000
00010000
00000000
00000000
00000000
,
00100000
00000000
00000000
00001000
00000000
00000000
00001000
00000000
00010000
00000000
00000000
00001000
00000000
00000000
00001000
00000000
,
00000100
00000000
00000000
00000000
00000001
00000000
00000000
00000010
00000000
00000000
00000010
00000000
00000100
00000000
00000000
00000000
,
00010000
00000000
00000000
00001000
00000000
00000000
00022000
00000000
00000000
00000000
00000000
00000000
00033000
00000000
00000000
00000000
,
00001000
00000000
00000000
00000000
00010000
00000000
00000000
01000000
00000000
00000000
01000000
00000000
00100000
00000000
00000000
00000000
,
00010000
00000000
00000000
10000000
00000000
00000000
01000000
00000000
00100000
00000000
00000000
00010000
00000000
00000000
00100000
00000000
,
00001000
00000000
00000000
00001000
00000000
00000000
00010000
00000000
00000000
00010000
00000000
00000000
00001000
00000000
00000000
00000000
,
00010000
00000000
00000000
00001000
00000000
00000000
00022000
00000000
00000000
00000000
00000000
00000000
00033000
00000000
00000000
00000000
,
00011000
00000000
00000000
00000000
;

//--------------- dance-double - Fred-104 ----------------
#NOTEDATA:;
#STEPSTYPE:dance-double;
#DESCRIPTION:Fred-104;
#DIFFICULTY:Medium;
#METER:12;
#CREDIT:Fred-104;
#NOTES:
00000000
00000000
00000000
00000000
,
00000000
00000000
00000000
00000000
,
00000000
00000000
00000000
00000000
,
00000000
00000000
00000000
00000000
,
00000000
00000000
00000000
00000000
,
00000000
00000000
00000000
00000000
,
00001000
00001000
00010000
00010000
,
00100000
00000000
10000000
00010000
10000000
00000000
01000000
00000000
,
00100000
00001000
00000010
00000100
,
00001000
00000001
00000100
00001000
,
00022000
00000000
00000000
00033000
,
00001000
00010000
00001000
01000000
00010000
00100000
00001000
00010000
,
00001000
00000000
01000000
00010000
00000000
01000000
00100000
00000000
01000000
00000000
00010000
00000000
10000000
00000000
00000000
00000000
,
01000000
00100000
00010000
00100000
00001000
00010000
00000010
00001000
,
00000001
00000000
00001000
00000100
00000000
00001000
00000100
00000000
00000010
00000000
00000001
00000000
00001000
00000000
00000000
00000000
,
00000001
00000100
00000010
00000100
00001000
00010000
00001000
00100000
,
00010000
00000000
10000000
00010000
00000000
10000000
00010000
00000000
01000000
00000000
00100000
00000000
01000000
00000000
00000000
00000000
,
00010000
10000000
01000000
10000000
00100000
00010000
00001000
00010000
,
00001000
00000000
00010000
00000100
00000000
00010000
00000100
00000000
00001000
00000000
00000001
00000000
00000100
00000000
00000000
00000000
,
00000001
00000010
00000000
00001010
00000000
00011000
00000000
00010000
,
00001000
01000000
00000000
01010000
00000000
00010000
10000000
01000000
,
10000000
00010000
00000000
00101000
00000000
00011000
00000000
00010000
,
00000100
00001000
00000000
00001001
00000000
00000001
00000100
00000010
,
00000100
00000001
00000000
00000011
00000000
00001100
00000000
00000001
,
00001000
00000010
00000000
00010010
00000000
00010000
00001000
00100000
,
01000000
10000000
00000000
10010000
00000000
01100000
00000000
10000000
,
00100000
00010000
00000000
00011000
00000000
00001000
00010000
00000100
,
00000020
00000000
00000000
00000000
00000031
00000010
00000001
00000010
,
00001000
00010000
00001000
00010000
00100000
10000000
00100000
10000000
,
02000000
00000000
00000000
00000000
13000000
00100000
10000000
00100000
,
00010000
00000000
00001000
00000000
00000010
00000000
00000001
00000000
00001000
00000000
00000000
00000010
00000000
00000000
00000100
00000000
,
00001000
00010000
00001000
00010000
00100000
01000000
00010000
00000000
,
01000000
00100000
01000000
00100000
10000000
01000000
00010000
00000000
,
00001000
00000000
00000000
00001000
00010000
00000000
00000000
00010000
00001000
00000000
00000000
00001000
00010000
00000000
00000000
00010000
,
00001000
00010000
00100000
10000000
01000000
00010000
01000000
10000000
,
20020000
00000000
00000000
00000000
00000000
00000000
00000000
30030000
,
20000000
00000000
32000000
00000000
03010000
00001000
00020000
00000000
,
00032000
00000000
00003020
00000000
00000031
00001000
00000002
00000000
,
00000203
00000000
00002300
00000000
00013000
00001000
00020000
00000000
,
00230000
00000000
20300000
00000000
30010000
10000000
00020000
00000000
,
10030000
01000000
00020000
00000000
00031000
00000010
00000001
00000000
,
00000001
00000100
00002000
00000000
00013000
00100000
10000000
00000000
,
10000000
00100000
00020000
00000000
00031000
00000100
00000001
00000000
,
00000001
00000000
00000010
00000000
00002000
00000000
00000000
00000000
00013000
00000000
00000000
01000000
00000000
00000000
10000000
00000000
,
10010000
00010000
01000000
01000000
,
00100000
00000000
00100000
10000000
01000000
00000000
00100000
00001000
,
00010000
00001000
00000100
00000001
,
00001001
00000000
00000000
00000000
00001000
00000000
00000000
00000000
00000010
00000000
00000000
00010000
00000000
00000000
00001000
00000000
,
00010000
00000000
00010000
00000000
00001000
01000000
00000000
00000000
00010000
00000000
00010000
00000000
00100000
01000000
00000000
00000000
,
10000000
00000000
10000000
00000000
00100000
01000000
00000000
00000000
00100000
00000000
00100000
00000000
00010000
00001000
00000000
00000000
,
00010000
00000000
00000000
00010000
00001000
00000000
00000000
00001000
00000100
00000000
00000000
00000100
00001000
00000000
00000000
00001000
,
00010000
00001000
00100000
00001000
00010000
00001000
01000000
00001000
,
00010000
00001000
00000000
00001100
00000000
00000101
00000000
00000001
,
00001000
00000000
00000001
00000010
00000000
00000100
00001000
00000000
00000100
00000000
00010000
00000000
00002000
00000000
00000000
00000000
,
00013000
00000000
00001000
00000000
00010000
00000010
00000000
00001000
00000000
00000000
00000010
00000000
00000100
00000000
00000001
00000000
,
00000010
00000000
00000000
00001000
00000000
00000000
00010000
00000000
00001000
00000000
00000000
00100000
00000000
00000000
01000000
00000000
,
10000000
00000000
00010000
00000000
01000000
00100000
00000000
10000000
00000000
00000000
01000000
00000000
00100000
00000000
00001000
00000000
,
00010000
00000000
00000000
00001000
00000000
00000000
00022000
00000000
00000000
00000000
00000000
00000000
00033000
00000000
00000000
00000000
,
00010000
00000000
00001000
00000000
00000010
00000100
00000000
00000010
00000000
00000000
00000001
00000000
00001000
00000000
00000010
00000000
,
00010000
00000000
00000000
00001000
00000000
00000000
00010000
00000000
00100000
00000000
00000000
01000000
00000000
00000000
00010000
00000000
,
10000000
00000000
00000000
01000000
00000000
00000000
00010000
00000000
00000000
00001000
00000000
00000000
00000010
00000000
00000001
00000000
,
00000100
00000000
00000000
00000010
00000000
00000000
00002002
00000000
00000000
00000000
00000000
00000000
00003003
00000000
00000000
00000000
,
00000001
00000000
00000010
00000000
00000100
00001000
00000000
00001000
00000000
00000000
00000100
00000000
00010000
00000000
00001000
00000000
,
00010000
00000000
00000000
00100000
00000000
00000000
01000000
00000000
10000000
00000000
00000000
01000000
00000000
00000000
00010000
00000000
,
10000000
00000000
01000000
00000000
00100000
00001000
00000000
00001000
00000000
00000000
00010000
00000000
00001000
00000000
00000010
00000000
,
00000100
00000000
00000000
00010000
00000000
00000000
00022000
00000000
00000000
00000000
00000000
00000000
00033000
00000000
00000000
00000000
,
00010000
00000000
00001000
00000000
00000100
00000010
00000000
00000100
00000000
00000000
00000001
00000000
00001000
00000000
00000100
00000000
,
00000010
00000000
00000000
00000001
00000000
00000000
00000100
00000000
00001000
00000000
00000000
01000000
00000000
00000000
00010000
00000000
,
00100000
00000000
00000000
01000000
00000000
00000000
10000000
00000000
00000000
00100000
00000000
00000000
00010000
00000000
00001000
00000000
,
00010000
00000000
00000000
00000100
00000000
00000000
00000010
00000000
00000001
00001000
00000001
00001000
00000001
00001000
00000001
00000000
,
00001001
00000000
00000000
00000000
;

//--------------- dance-double - Fred-104 ----------------
#NOTEDATA:;
#STEPSTYPE:dance-double;
#DESCRIPTION:Fred-104;
#DIFFICULTY:Hard;
#METER:16;
#CREDIT:Fred-104;
#NOTES:
00000000
00000000
00000000
00000000
,
00000000
00000000
00000000
00000000
,
00000000
00000000
00000000
00000000
,
00000000
00000000
00000000
00000000
,
00000000
00000000
00000000
00000000
,
00000000
00000000
00000000
00000000
,
00010000
00001000
00010000
00001000
,
00000100
00000000
00000000
00000000
00000010
00000000
00001000
00000000
00000001
00000000
00000010
00000100
00000010
00000000
00000100
00000000
,
00010000
00001000
00010000
00100000
,
20000000
31000000
00020000
00031000
,
00022000
00000000
00000000
00000000
00000000
00000000
00000000
00000000
00033000
00000000
00010000
00001000
00010000
00000000
00000000
00000000
,
00001000
00000100
00000001
00000010
00000001
00000100
00001000
00010000
,
00001000
00000000
00100000
00010000
00000000
00100000
01000000
10000000
00010000
00000000
01000000
00100000
01000000
00000000
00001000
00000000
,
00010000
01000000
10000000
00100000
10000000
01000000
00010000
00001000
,
00010000
00000000
00000010
00001000
00000000
00000010
00000100
00000001
00001000
00000000
00000100
00000010
00000100
00000000
00010000
00000000
,
00001000
00000000
01000000
00100000
01000000
00000000
00001000
00000000
00010000
00000000
00000100
00000010
00000100
00000000
00010000
00000000
,
00001000
00000000
00100000
00010000
00000000
00100000
01000000
00100000
00001000
00000000
00010000
00000010
00001000
00000000
00000010
00000000
,
00001000
00000000
00000100
00000010
00000100
00000000
00001000
00000000
00010000
00000000
01000000
00100000
01000000
00000000
00010000
00000000
,
00001000
00000000
00000100
00000010
00000001
00000010
00000001
00000010
00000001
00000000
00000100
00000010
00000100
00000000
00001000
00000000
,
00010000
00001000
00010000
00000000
00100000
01000000
00100000
00000000
10000000
00010000
10000000
00000000
01000000
00000000
00100000
00000000
,
00001000
00010000
00001000
00000000
00000100
00000010
00000100
00000000
00000001
00001000
00000001
00000000
00000010
00000000
00001000
00000000
,
00010000
00001000
00010000
00000000
00000010
00001000
00000010
00000000
00010000
00001000
00010000
00000000
01000000
00000000
00100000
00000000
,
00010000
10000000
00010000
00000000
01000000
00100000
01000000
00000000
00100000
10000000
00100000
00000000
00010000
00000000
00001000
00000000
,
00010000
00000100
00001000
00000000
00000100
00000010
00000001
00000000
00000100
00000010
00000001
00000000
00001000
00000100
00000010
00000000
,
00010000
00001000
00100000
00000000
00010000
00100000
01000000
00000000
00010000
10000000
00100000
00000000
01000000
10000000
00010000
00000000
,
10000000
01000000
00100000
00000000
00001000
00010000
00000100
00000000
00000010
00001000
00000010
00000000
00000100
00001000
00000001
00000000
,
00000100
00000000
00001000
00000000
00010000
00001000
00010000
00001000
00010000
00000000
00001000
01000000
00001000
00000000
00010000
00000000
,
00002000
00000000
00000000
00000000
00000000
00000000
00000000
00000000
00103000
00010000
00100000
00010000
10000000
01000000
10000000
01000000
,
00100000
00001000
00100000
00001000
00010000
00001000
00010000
00001000
00000100
00000010
00000100
00000010
00001000
00000001
00000010
00000100
,
00002000
00000000
00000000
00000000
00000000
00000000
00000000
00000000
00003001
00000010
00000001
00000010
00000100
00001000
00000100
00001000
,
00000001
00000010
00000100
00010000
00001000
01000000
00010000
00000000
10010000
00000000
00000000
10100000
00000000
00000000
00110000
00000000
,
10000000
00000000
10000000
00000000
01000000
00000000
01000000
00000000
00100000
00001000
00100000
00001000
00010000
00001000
00010000
00001000
,
00000100
00000000
00000100
00000000
00000001
00000000
00000001
00000000
00000010
00000100
00000010
00000100
00001000
00000100
00001000
00000100
,
00010000
00000000
00001000
00100000
00001000
00000000
00010000
00000010
00010000
00000000
00001000
01000000
00001000
00000000
00010000
00000100
,
00010000
00011000
00000000
00010010
00000000
00001100
00000000
00000110
,
00002002
00000000
00000000
00000000
00000000
00000000
00000000
00003003
,
00000001
00000010
00000001
00000010
00000100
00000010
00000100
00000010
00000001
00000000
00000100
00000000
00001000
00000000
00001000
00000000
,
00010000
00001000
00010000
00001000
00100000
00001000
00100000
00001000
00010000
00000000
01000000
00000000
10000000
00000000
10000000
00000000
,
00100000
01000000
00100000
01000000
00010000
01000000
00010000
01000000
00100000
00000000
00010000
00000000
00001000
00000000
00001000
00000000
,
00010000
00000100
00010000
00000100
00000010
00000100
00000010
00000100
00001000
00000000
00000001
00000000
00000100
00000000
00000100
00000000
,
00000010
00001000
00000001
00001000
00000010
00001000
00000001
00001000
00000010
00000000
00000100
00000000
00001000
00000000
00010000
00000000
,
00001000
01000000
00010000
01000000
00001000
01000000
00010000
01000000
00001000
00000000
00010000
00000000
00100000
00000000
10000000
00000000
,
01000000
00100000
00010000
00100000
01000000
00100000
00010000
00100000
00001000
00000000
00010000
00000000
00000100
00000000
00000010
00000000
,
00000001
00000100
00000010
00000100
00000001
00000100
00000010
00000100
00000001
00000010
00000100
00001000
00000100
00010000
00001000
00000000
,
00011000
00001000
00010000
00010000
,
00100000
00000000
00100000
10000000
01000000
00000000
01100000
00100000
,
00101000
00001000
00010000
00010000
,
00000110
00000000
00000000
00000000
00000001
00000000
00000000
00000000
00000011
00000000
00000000
00001010
00000000
00000000
00000101
00000000
,
00001100
00000000
00001000
00000000
00000001
00000010
00000000
00000010
00000100
00000000
00010000
00000000
00001000
01000000
00000000
01000000
,
00010000
00000000
00100000
00000000
01000000
00100000
00000000
00100000
00001000
00000000
00010000
00000000
00100000
10000000
00000000
10000000
,
00010000
00000000
10000000
01000000
00100000
00000000
00001000
00010000
00001000
00000000
00000100
00000010
00001000
00000000
00000100
00000010
,
00000001
00001000
00000001
00000000
00000100
00000010
00000100
00000000
00001000
00010000
00001000
00100000
00010000
00100000
00001000
00010000
,
00001000
00011000
00000000
00110000
00000000
10100000
00000000
11000000
,
10010000
00000000
00010000
10000000
00000000
01000000
10000000
00010000
01000000
00000000
00100000
00010000
00001000
00000000
00010000
00000000
,
00000010
00000000
00001000
00000000
00000100
00000010
00000000
00000001
00000000
00000100
00000010
00000000
00000001
00000000
00000010
00001000
,
00000100
00000000
00000000
00000010
00000000
00000000
00001000
00000000
01000000
00000000
00000000
00010000
00000000
00000000
00100000
01000000
,
10000000
00000000
00010000
00000000
01000000
00100000
00000000
00010000
00000000
00100000
01000000
00000000
00100000
10000000
00010000
00100000
,
01000000
00000000
00000000
00010000
00000000
00000000
00000200
00000000
00000000
00000000
00000301
00001000
00000010
00000100
00001000
00000000
,
00000001
00000000
00001000
00000000
00000010
00000100
00000000
00001000
00000000
00010000
00001000
00000000
01000000
00000000
00010000
00100000
,
01000000
00000000
00000000
00010000
00000000
00000000
01000000
00000000
10000000
00010000
00000000
01000000
00000000
00100000
00010000
00001000
,
00010000
00000000
00000000
00010010
00000000
00000000
00101000
00000000
00000000
00010100
00000000
00000000
01001000
00000000
00001000
00000000
,
00011000
00000000
00000000
00110000
00000000
00000000
20200000
00000000
30300000
00000000
00010000
10000000
00010000
10000000
01000000
00000000
,
00100000
00000000
00001000
00000000
00010000
00001000
00010000
00001000
00000000
00000100
00000010
00000000
00001000
00000000
00000100
00000010
,
00000001
00000000
00000100
00001000
00000000
00000100
00000001
00000000
00000010
00000000
00000100
00001000
00000000
00000100
00010000
00001000
,
00010000
00000000
00100000
00000000
01000000
10000000
01000000
00100000
00000000
10000000
00010000
00000000
10000000
01000000
00100000
00001000
,
00010000
00000000
00001000
00000010
00000000
00000100
00010000
00000000
00001000
00000000
00010000
00001000
00000100
00000010
00001000
00000001
,
00000010
00000000
00000100
00000000
00001000
00000010
00001000
00000010
00000000
00000100
00001000
00000000
00010000
00001000
01000000
00000000
,
00010000
00000000
00100000
10000000
00000000
00100000
01000000
00000000
10000000
00010000
01000000
00010000
00000000
10000000
01000000
00100000
,
00001000
00000000
00000000
00011000
00000000
00000000
00001010
00000000
00000000
00000011
00000000
00000000
00000001
00000000
00000100
00000000
,
00001100
00000000
00000000
00010000
00000000
00000000
00011000
00000000
00001000
00010000
00001000
00100000
00010000
01000000
00100000
10000000
,
00010000
00000000
00000000
00000000
;
