
//----- song ID: ymir -----//
#VERSION:0.83;
#TITLE:ユミル;
#ARTIST:MYTHOLOGIA by MLREC.;
#TITLETRANSLIT:Ymir;
#GENRE:SYMPHONIC-TEK;
#BANNER:Ymir.png;
#BACKGROUND:Ymir-bg.png;
#CDTITLE:./CDTitles/bm IIDX 19 Lincle.png;
#MUSIC:Ymir.ogg;
#SAMPLESTART:84.49;
#SAMPLELENGTH:15;
#BPMS:0=164;
#BGSTAGE:3;

//--------------- dance-single - Fred-104 ----------------
#NOTEDATA:;
#STEPSTYPE:dance-single;
#DESCRIPTION:Fred-104;
#DIFFICULTY:Beginner;
#METER:3;
#CREDIT:Fred-104;
#NOTES:
0000
0000
0000
0000
,
0000
0000
0000
0000
,
0000
0000
0000
0000
,
0000
0000
0000
0000
,
0000
0000
0000
0000
,
0000
0000
0000
0000
,
0000
0000
0000
0000
,
0000
0000
0000
0000
,
0000
0000
0000
0000
,
0000
0000
0000
0000
,
1000
0000
1000
0000
,
0002
0000
0003
0000
,
0001
0000
0001
0000
,
2000
0000
3000
0000
,
0020
0000
0000
0030
,
0200
0000
0000
0300
,
0002
0003
2000
3000
,
1001
0000
0000
0000
,
0001
0000
0001
0000
,
0010
0000
0000
0000
,
1000
0000
1000
0000
,
0100
0000
0000
0000
,
0001
0000
0001
0000
,
1000
0000
0000
0000
,
0100
0000
0010
0000
,
0001
0000
0001
0000
,
1000
0000
1000
0000
,
0010
0000
0000
0000
,
0001
0000
0001
0000
,
0100
0000
0000
0000
,
1000
0000
1000
0000
,
0010
0000
1000
0000
,
1000
0000
0001
0000
,
0010
0000
0001
0000
,
2000
0000
0000
3000
,
0002
0000
0000
0003
,
2000
0000
0000
3000
,
0002
0000
0000
0003
,
1000
0000
0010
0000
,
0001
0000
0100
0000
,
1000
0000
0001
0000
,
1001
0000
0000
0000
,
2000
0000
0000
3000
,
0200
0000
0000
0300
,
0020
0000
0000
0030
,
0002
0000
0000
0003
,
2000
0000
0000
3000
,
0002
0000
0000
0003
,
2000
0000
0000
3000
,
0002
0000
0000
0003
,
1000
0000
1000
0000
,
0100
0000
0100
0000
,
0001
0000
0001
0000
,
0100
0000
0010
0000
,
0100
0000
1000
0000
,
1000
0000
0001
0000
,
0100
0000
0010
0000
,
0100
0000
0001
0001
,
0001
0000
1000
0000
,
0100
0000
0100
0000
,
0010
0000
0001
0000
,
1000
0000
1000
0000
,
0010
0000
0010
0000
,
0001
0000
0001
0000
,
0010
0000
0010
0000
,
0100
0000
0010
0000
,
2000
0000
0000
0000
,
3000
0000
0000
0000
,
0002
0000
0000
0000
,
0003
0000
0000
0000
,
2000
0000
0000
0000
,
3000
0000
0000
0000
,
0002
0003
2000
3000
,
1001
0000
0000
0000
,
0002
0000
0000
0003
,
2000
0000
0000
3000
,
0002
0000
0000
0003
,
2000
0000
0000
3000
,
0001
0000
0010
0000
,
1000
0000
0100
0000
,
0001
0000
1000
0000
,
1001
0000
0000
0000
;

//--------------- dance-single - Fred-104 ----------------
#NOTEDATA:;
#STEPSTYPE:dance-single;
#DESCRIPTION:Fred-104;
#DIFFICULTY:Easy;
#METER:6;
#CREDIT:Fred-104;
#NOTES:
0000
0000
0000
0000
,
0000
0000
0000
0000
,
0000
0000
0000
0000
,
0000
0000
0000
0000
,
0000
0000
0000
0000
,
0000
0000
0000
0000
,
0000
0000
0000
0000
,
0000
0000
0000
0000
,
0000
0000
0000
0000
,
0000
0000
0000
0000
,
1001
0000
0110
0000
,
1001
0000
0001
1000
,
1001
0000
0110
0000
,
1001
0000
0110
0001
,
1000
1000
0010
0010
,
1000
1000
0001
0001
,
0110
0000
0110
0000
,
2002
0000
3003
0000
,
1000
1000
0100
1000
,
0001
0100
0001
0000
,
0010
0010
0100
0010
,
0001
0001
1000
0000
,
0010
0010
1000
0001
,
1000
0100
0010
0000
,
0001
1000
0001
0001
,
0100
0010
0110
0000
,
0100
0100
0001
0001
,
1000
0100
0010
0000
,
0001
0001
1000
1000
,
0010
0100
0001
0000
,
1000
0100
0010
0001
,
0100
0010
1000
0000
,
0001
0001
1000
1000
,
0010
0100
0110
0000
,
1000
0000
0000
1000
0000
0000
1000
0000
,
0001
0000
0000
0001
0000
0000
0001
0000
,
1000
0000
0000
1000
0000
0000
1000
0000
,
0001
0000
0000
0001
0000
0000
0001
0000
,
0100
0000
0000
0010
0000
0000
0100
0000
,
0001
0000
0000
1000
0000
0000
0100
0000
,
0010
0000
0000
0001
0000
0000
1000
0000
,
2002
0000
0000
3003
,
2000
0000
3010
0000
,
0002
0000
0013
0000
,
2000
0000
3100
0000
,
0002
0000
0103
0000
,
1000
1000
0010
1000
,
0001
0001
0010
0100
,
0010
0010
0001
1000
,
0010
0100
0100
0001
,
1000
0100
0001
0000
,
0001
0100
1000
0000
,
0001
0100
1000
0000
,
1000
0100
0001
0000
,
1000
0010
0001
0000
,
0001
0010
1000
0000
,
0001
0010
1000
0000
,
1000
0010
0001
1000
,
1001
0000
0110
0000
,
0001
0010
0100
0100
,
1000
0010
0100
0001
,
1000
0000
0000
0010
0000
0000
1000
0000
,
1001
0000
0110
0000
,
0001
1000
0100
0010
,
0010
0001
1000
0010
,
0100
0000
0000
0100
0000
0000
0001
0000
,
2000
0000
3002
0000
,
2000
0000
3003
0002
,
0023
0000
0230
2300
,
3002
0000
0000
0203
,
0020
0000
0000
0000
,
0330
0000
0000
0200
,
0302
0000
2003
0000
,
0002
0000
3003
0000
,
0001
0000
0000
0001
0000
0000
0001
0000
,
1000
0000
0000
1000
0000
0000
1000
0000
,
0001
0000
0000
0001
0000
0000
0001
0000
,
1000
0000
0000
1000
0000
0000
1000
0000
,
0100
0000
0000
0010
0000
0000
0100
0000
,
1000
0000
0000
0001
0000
0000
0100
0000
,
0010
0000
0000
1000
0000
0000
0001
0000
,
2002
0000
0000
0000
,
3003
0000
0000
0000
;

//--------------- dance-single - Fred-104 ----------------
#NOTEDATA:;
#STEPSTYPE:dance-single;
#DESCRIPTION:Fred-104;
#DIFFICULTY:Medium;
#METER:11;
#CREDIT:Fred-104;
#NOTES:
0000
0000
0000
0000
,
0000
0000
0000
0000
,
0000
0000
0000
0000
,
0000
0000
0000
0000
,
0000
0000
0000
0000
,
0000
0000
0000
0000
,
0000
0000
0000
0000
,
0000
0000
0000
0000
,
0000
0000
0000
0000
,
0000
0000
0000
0000
,
1100
0010
0101
0010
,
1001
0001
0100
0110
,
1010
1000
0011
0001
,
0110
1000
0001
1001
,
0001
0010
0100
0000
1000
0010
0100
0000
,
0010
1000
0001
0000
1000
0100
0010
0000
,
0001
1000
0010
0100
0010
1000
0100
0010
,
0002
0000
2000
3003
,
0001
0000
0010
0000
0100
0010
0001
0000
,
1000
0010
0100
0000
0010
1000
0001
0000
,
1000
0000
0100
0000
0010
1000
0010
0000
,
0001
0100
0010
1000
0001
0010
0100
0000
,
1000
0000
0001
0000
0100
1000
0100
0000
,
0001
0000
1000
0000
0100
0000
0010
0000
0001
0000
0000
0001
0000
0000
0001
0000
,
0100
0000
0010
0000
0100
0001
0010
0000
,
0100
1000
0110
1001
,
0001
0100
0001
0100
0010
1000
0001
0000
,
1000
0100
0010
0001
1000
0010
1000
0000
,
0001
0010
0100
0010
0001
1000
0001
0000
,
0100
0010
1000
0010
0100
0001
1000
0000
,
0001
0010
0001
0010
0100
1000
0001
0100
,
0010
1000
0010
0100
0001
1000
0001
0000
,
0100
0010
0100
0001
1000
0100
0010
0100
,
0010
0100
1000
0010
0100
0001
1000
0000
,
0001
0000
0000
0010
0000
0000
0100
0000
0000
1000
0000
0000
0001
0000
0001
0000
,
1000
0000
0000
0010
0000
0000
0100
0000
0000
0001
0000
0000
1000
0000
1000
0000
,
0001
0000
0000
0100
0000
0000
0010
0000
0000
1000
0000
0000
0001
0000
0001
0000
,
1000
0000
0000
0100
0000
0000
0010
0000
0000
0001
0000
0000
1001
0000
0000
0000
,
0001
0000
0000
0100
0000
0000
1000
0000
0000
0100
0000
0000
0001
0000
0001
0000
,
1000
0000
0000
0100
0000
0000
0001
0000
0000
0100
0000
0000
1000
0000
1000
0000
,
0001
0000
0000
0010
0000
0000
1000
0000
0000
0010
0000
0000
0100
0000
1000
0000
,
2002
0000
0000
3003
,
1000
0000
0000
0100
0000
0000
1000
0000
0000
0010
0000
0000
0100
0000
0001
0000
,
0010
0000
0000
0100
0000
0000
0010
0000
0000
0001
0000
0000
1000
0000
0010
0000
,
0100
0000
0000
0001
0000
0000
0010
0000
0000
0001
0000
0000
1000
0000
0001
0000
,
0010
0000
0000
0100
0000
0000
1000
0000
0000
0001
0000
0000
1001
0000
0000
0000
,
0001
0000
0000
0010
0000
0000
1000
0000
0000
0010
0000
0000
0100
0000
1000
0000
,
0001
0000
0000
0100
0000
0000
1000
0000
0000
0100
0000
0000
0010
0000
1000
0000
,
0001
0000
0000
1000
0000
0000
0100
0000
0000
0001
0000
0000
1000
0000
0010
0000
,
0001
1000
0010
0100
0001
1000
1001
0000
,
0001
0010
1000
0000
0001
0100
1000
0000
,
0001
0000
0100
0001
0000
1000
0001
0000
,
1000
0100
0010
0000
0001
1000
0010
1000
,
0001
0010
0100
1000
0010
0100
0001
0000
,
1000
0010
0001
0000
1000
0100
0010
0000
,
1000
0000
0001
0010
0000
0100
0010
0000
,
0001
1000
0010
0000
0100
0001
1000
0000
,
0100
0010
0001
0100
0010
0000
0110
0000
,
1001
0000
1000
0100
0001
0000
1000
0010
,
0001
0000
0000
1000
0000
0000
0010
0000
0000
0100
0000
0000
0001
0000
1000
0000
,
0200
0001
0010
1300
,
0001
0000
0000
0010
0000
0000
0100
0000
0000
1000
0000
0000
0001
0000
0100
0000
,
0110
1000
0110
0001
,
1000
0000
0000
0001
0000
0000
0100
0000
0000
0010
0000
0000
1000
0000
0001
0000
,
0020
0100
1000
0031
,
1000
0000
0000
0010
0000
0000
0100
0000
0000
0001
0000
0000
0010
0000
0100
0000
,
2000
0000
3002
0000
,
0203
0000
0000
0320
,
2030
0000
3002
0023
,
0230
0000
0000
2300
,
0002
0000
0000
0000
,
0000
0000
3003
0002
,
0203
0000
2300
0000
,
3020
0000
0002
0033
,
1000
0000
0000
0010
0000
0000
0100
0000
0000
0001
0000
0000
1000
0000
1000
0000
,
0001
0000
0000
0010
0000
0000
0100
0000
0000
1000
0000
0000
0001
0000
0001
0000
,
1000
0000
0000
0100
0000
0000
0010
0000
0000
0001
0000
0000
1000
0000
1000
0000
,
0001
0000
0000
0100
0000
0000
0010
0000
0000
1000
0000
0000
1001
0000
0000
0000
,
1000
0000
0000
0100
0000
0000
0001
0000
0000
0100
0000
0000
1000
0000
1000
0000
,
0001
0000
0000
0100
0000
0000
1000
0000
0000
0100
0000
0000
0001
0000
0001
0000
,
1000
0000
0000
0010
0000
0000
0001
0000
0000
0010
0000
0000
0100
0000
0001
0000
,
2002
0000
0000
0000
,
3003
0000
0000
0000
;

//--------------- dance-single - Fred-104 ----------------
#NOTEDATA:;
#STEPSTYPE:dance-single;
#DESCRIPTION:Fred-104;
#DIFFICULTY:Hard;
#METER:15;
#CREDIT:Fred-104;
#NOTES:
0000
0000
0000
0000
,
0000
0000
0000
0000
,
0000
0000
0000
0000
,
0000
0000
0000
0000
,
0000
0000
0000
0000
,
0000
0000
0000
0000
,
0000
0000
0000
0000
,
0000
0000
0000
0000
,
0000
0000
0000
0000
,
0000
0000
0000
0000
,
1000
1000
0001
0100
0010
0010
1000
0001
,
0010
0010
0100
1000
0001
0100
0101
0000
,
1000
1000
0001
0010
0100
0100
0001
0100
,
1000
1000
0001
0100
0010
1000
1001
0000
,
0001
0000
0010
0000
0100
0000
1000
0001
1000
0000
0010
0000
0100
0000
0001
1000
,
0001
0000
0010
0000
0100
0000
0010
0001
0010
0000
0001
0000
2000
0000
0000
0000
,
3010
0000
1000
0000
0100
0000
0010
0001
0010
0000
0100
0000
1000
0000
0001
0100
,
0002
0000
0000
0000
1003
0001
1001
0000
,
1000
0000
0010
0000
1000
0100
1000
0000
0001
0000
0100
0000
0010
0000
1000
0000
,
0001
0000
0010
0000
0100
0010
0100
0000
1000
0000
0001
0100
0001
0000
1000
0000
,
0001
0000
0010
0000
0100
1000
0100
0000
1000
0010
1000
0000
0100
0000
1000
0000
,
0001
0000
0100
0000
0010
1000
0010
0000
1000
0001
1000
0001
0010
0000
0100
0000
,
0010
0000
0001
0000
1000
0010
1000
0000
0010
0100
0010
0000
1000
0000
0001
0000
,
0010
0000
0100
0000
1000
0001
1000
0000
0001
0000
1000
0010
0000
0100
0001
0000
,
1000
0000
0001
0000
0010
0100
0010
0000
0100
1000
0100
1000
0001
0000
0100
0000
,
0010
0000
0000
1000
0000
0000
0001
0000
0010
0000
0100
0000
1000
0000
0000
0000
0000
0000
1001
0000
0000
0000
0000
0000
,
0001
0100
0001
0000
1000
0100
1000
0000
0010
0000
0100
0000
0010
0000
0001
0000
,
0010
0000
1000
0000
0001
0100
0001
0000
1000
0000
0100
1000
0100
0000
0010
0000
,
0001
0010
0001
0000
1000
0010
1000
0000
0100
0000
0010
0000
0100
0000
0001
0000
,
0100
0000
1000
0000
0001
0010
0001
0000
1000
0000
0001
0000
1001
0000
0000
0000
,
0001
0100
0001
0000
1000
0010
1000
0000
0001
0000
0010
0000
0100
0000
0001
0000
,
0100
0000
0010
0000
0001
1000
0001
0000
0100
0010
0100
0010
0100
0000
0001
0000
,
1000
0000
0100
0000
0010
0100
0010
0000
0100
1000
0100
0000
1000
0000
0001
0000
,
1000
0010
1000
0010
1000
0000
0001
1000
0100
0010
0001
0000
1001
0000
0000
0000
,
1100
0000
0000
1000
0000
0000
0001
0000
0000
0100
0000
0000
0110
0000
0010
0000
,
1010
0000
0000
1000
0000
0000
0001
0000
0000
0010
0000
0000
0110
0000
0100
0000
,
1001
0000
0000
0001
0000
0000
0100
0000
0000
0010
0000
0000
1010
0000
1000
0000
,
1001
0000
0000
0001
0000
0000
0010
0000
0000
0100
0000
0000
2002
0000
3003
0000
,
0001
0010
0000
0100
1000
0000
0001
0100
0000
0010
1000
0000
0001
0000
0001
0000
,
1000
0010
0000
0100
0001
0000
1000
0100
0000
0010
0001
0000
1000
0000
1000
0000
,
0001
0100
0000
0010
1000
0000
0001
0010
0000
0100
1000
0000
0001
1000
0010
1000
,
0002
0000
0000
0003
,
1001
0000
0000
1000
0000
0000
0100
0000
0000
0001
0000
0100
0010
0000
0001
0000
,
1000
0000
0000
0001
0000
0000
0100
0000
0000
1000
0000
0100
0010
0000
0100
0000
,
0001
0000
0000
1000
0000
0000
0001
0000
0000
0010
0000
0100
0010
0000
1000
0000
,
0010
0000
0000
0001
0000
0000
1000
0000
0000
0010
0000
0100
0001
0000
1000
0000
,
0001
0000
1000
0100
0000
1000
0001
0000
1000
0010
0000
1000
0001
0000
1000
0000
,
0001
0000
0010
0100
0000
0010
0001
0000
1000
0010
0000
1000
0001
0000
0010
0000
,
0100
0000
1000
0001
0000
1000
0010
0000
0100
0001
0000
1000
0001
0000
0010
0000
,
0100
1000
0100
0000
0010
0001
0010
0000
0001
1000
0001
1000
0001
0000
0000
0000
,
1000
0000
0010
0000
0001
0000
1000
0000
0100
0000
0010
0000
1000
0001
1000
0000
,
0001
0000
0010
0000
0100
0000
0001
0000
1000
0000
0010
0001
0010
0000
0001
0000
,
1000
0000
0001
0000
0100
0000
0010
1000
0010
0000
0100
0000
0001
1000
0001
0000
,
0010
0000
0100
1000
0001
0000
0100
0000
0010
1000
0010
1000
0010
0000
1000
0000
,
0001
0000
0100
0000
1000
0000
0001
0000
0010
0000
0100
0000
0001
1000
0001
0000
,
0100
0000
0010
0000
0001
0000
1000
0000
0100
0000
0010
0000
1000
0001
1000
0000
,
0001
0000
0100
0000
0010
1000
0001
0000
1000
0000
0100
0010
0001
0000
1000
0000
,
0001
0100
0001
0100
0001
0000
1000
0100
1000
0001
0100
0010
1000
0000
0000
0000
,
0001
0010
0100
0000
1000
0000
0001
0000
1000
0010
0100
0000
0010
1000
0001
0000
,
1000
0100
0000
0010
0001
0000
1000
0010
0000
0100
0001
0000
0010
0100
1000
0000
,
0001
0100
0000
0010
0100
0000
0001
0010
0001
0010
0100
0000
1000
0001
1000
0000
,
0010
0100
0000
0010
1000
0000
0010
0100
0000
0001
1000
0100
1000
0000
0001
0000
,
0100
0001
0100
0000
0010
0000
1000
0001
0010
0001
0010
0000
0100
1000
0001
0000
,
0100
0001
0000
1000
0001
0000
0100
0001
1000
0001
0010
0000
0100
1000
0100
0000
,
1000
0001
0100
0001
1000
0000
0001
1000
0010
1000
0001
0000
1000
0001
0010
0000
,
0001
0100
0000
0010
1000
0000
0100
0010
0000
0001
1000
0010
1000
0000
0001
0000
,
0021
0000
0230
0000
,
2000
0000
3300
2000
,
3002
0003
0200
0320
,
0230
0000
0300
0002
,
2000
0000
0000
0000
,
0000
0000
3003
2000
,
3200
0000
0320
0000
,
0032
0000
2000
3003
,
0001
0010
0000
0100
1000
0000
0001
0100
0000
0010
1000
0000
0001
0000
0001
0000
,
1000
0010
0000
0100
0001
0000
1000
0100
0000
0010
0001
0000
1000
0000
1000
0000
,
0001
0100
0000
0010
1000
0000
0001
0010
0000
0100
1000
0000
0001
0000
0001
0000
,
1000
0100
0000
0010
0001
0000
1000
0010
0000
0100
0001
0000
2002
0000
3003
0000
,
0001
0010
0000
0100
0010
0000
0001
0010
0000
0100
0010
0000
0001
0000
1000
0000
,
0001
0100
0000
0010
0100
0000
0001
0100
0000
0010
0100
0000
0001
0000
1000
0000
,
0001
0010
0001
0010
0001
0000
1000
0100
1000
0100
1000
0000
0001
0100
0010
1000
,
0002
0000
0000
0000
,
0003
0000
0000
0000
;

//--------------- dance-single - Giant-killer Fred-104 ----------------
#NOTEDATA:;
#STEPSTYPE:dance-single;
#DESCRIPTION:Giant-killer Fred-104;
#DIFFICULTY:Challenge;
#METER:18;
#CREDIT:Giant-killer Fred-104;
#NOTES:
0000
0000
0000
0000
,
0000
0000
0000
0000
,
0000
0000
0000
0000
,
0000
0000
0000
0000
,
0000
0000
0000
0000
,
0000
0000
0000
0000
,
0000
0000
0000
0000
,
0000
0000
0000
0000
,
0000
0000
0000
0000
,
0000
0000
0000
0000
,
1100
1000
0001
0100
0110
0010
1000
0001
,
0011
0010
0100
1000
0001
0100
0110
0000
,
1001
0000
1000
0000
0001
0000
0010
0100
1100
0000
1000
0000
0001
0000
0100
0010
,
1010
0000
1000
0000
0001
0000
0010
0100
0110
0000
0001
0000
0011
0000
0000
0000
,
0001
0000
1000
0010
0100
0000
0001
1000
0100
0000
0010
0100
1000
0000
0001
1000
,
0010
0000
1000
0001
0010
1000
0010
0001
1000
0100
1000
0001
0100
0000
0010
1000
,
0002
0000
0013
0100
2000
0000
3010
0100
2000
0000
3001
0010
0200
0000
0301
0010
,
0200
0000
2000
3300
,
0001
0000
0100
0000
0001
1000
0100
0010
0100
0000
1000
0000
0010
0000
1000
0000
,
0001
0000
0100
0000
0010
1000
0010
0100
0001
0000
1000
0100
0010
0000
0001
0000
,
1000
0000
0100
0000
1000
0001
1000
0010
0100
0010
1000
0000
0001
0000
0010
0100
,
0010
0000
0001
0000
0100
0001
1000
0001
0010
0100
1000
0010
1000
0001
0010
0100
,
1000
0000
0001
0000
0100
0001
1000
0001
0010
0100
0010
0001
0100
0000
0010
0000
,
1000
0000
0000
0000
0000
0000
0000
0000
0001
0000
0000
0000
0000
0000
0000
0000
0010
0000
0000
0000
0100
0000
0000
0000
1000
0000
0000
0000
0001
0000
0000
0000
1000
0000
0000
0000
0000
0000
0000
0000
0001
0000
0000
0000
0020
0030
0000
0000
0000
0000
0000
0000
0020
0030
0000
0000
1000
0000
0000
0000
0000
0000
0000
0000
,
0001
0000
1000
0000
0100
0010
0001
1000
0100
0010
0001
1000
0010
0000
1000
0000
,
0001
0000
0000
0000
0000
0000
0010
0000
0000
0000
0000
0000
0100
0000
0000
0000
0100
0000
0000
0000
0100
0000
0000
0000
1000
0000
0000
0000
0000
0000
0001
0000
0000
0000
0000
0000
1000
0000
0000
0001
0000
0000
0100
0000
0000
0001
0000
0000
,
1000
0100
0010
0000
0100
1000
0001
0100
0010
0000
0001
0000
1000
0000
0100
0000
,
0001
1000
0100
0000
0010
0001
1000
0010
1000
0000
0100
0010
1000
0010
0100
1000
,
0001
0000
1000
0000
0001
0010
0100
1000
0001
0000
0100
0000
0010
0000
0100
0000
,
1000
0000
0100
0000
0001
1000
0100
1000
0001
0000
0100
0001
1000
0100
0010
0000
,
0011
0000
1001
0000
1000
0010
0100
0010
0001
0010
0100
0010
1000
0000
0001
1000
,
0001
0000
0010
0000
0100
1000
0010
0100
0001
0000
0010
0100
0001
0100
0010
0000
,
0001
0000
1000
0000
0010
1000
0001
0010
0100
0000
0001
0000
0100
0000
1000
0001
,
0010
0100
0010
0001
1000
0010
1000
0001
0010
0100
0010
0001
1000
0000
0000
0000
,
0001
0010
0001
0100
0010
1000
0100
1000
0010
0100
0001
0010
0001
0000
0001
0000
,
1000
0100
1000
0010
0100
0001
0010
0001
0100
0010
1000
0100
1000
0000
1000
0000
,
0001
0010
0100
0001
1000
0010
0100
1000
0010
0100
0001
1000
0001
0000
0001
0000
,
1000
0100
0010
1000
0001
0100
0010
0001
0100
0010
1000
0001
1000
0000
1000
0000
,
0001
0010
0100
0001
0100
0010
0001
0100
0010
0001
0010
0100
0001
1000
0001
0000
,
1000
0100
0010
1000
0010
0100
1000
0010
0100
1000
0100
0010
1000
0001
1000
0000
,
0001
0100
0010
0100
1000
0100
0001
1000
0100
0001
0100
0010
0001
1000
0010
0100
,
0002
0000
0000
0003
,
1000
0000
0001
0010
0000
1000
0010
0000
0100
0001
0000
0100
1000
0100
1000
0000
,
0001
0000
0100
1000
0000
0100
0010
0000
0001
0010
0000
1000
0001
1000
0001
0000
,
1000
0000
0001
0010
0000
0100
0001
0000
0100
0010
0000
1000
0010
0001
1000
0000
,
0010
0000
0000
0000
0000
0000
0100
0000
0000
0001
0000
0000
0000
0000
0000
0010
0000
0000
1000
0000
0000
0000
0000
0000
0010
0000
0000
0000
0000
0000
0100
0000
1000
0000
0100
0000
1000
0000
0000
0000
0000
0000
0001
0000
0000
0000
0000
0000
,
1001
0000
1000
0010
0000
1000
0001
0000
0010
0100
0001
0100
0010
0000
0001
0000
,
1000
0000
0001
0100
0000
0001
0010
0000
0100
0010
1000
0010
0001
0000
1000
0000
,
1010
0000
0000
0101
0000
0000
1100
0000
0001
0100
0010
1000
0001
0000
0010
0000
,
0100
0000
0000
0010
0000
0000
0001
0000
0000
1000
0000
0000
0010
0000
0000
1000
0000
0000
0001
0000
0000
0010
0000
0000
0100
0000
1000
0000
0100
0000
1000
0000
0000
0000
0000
0000
0001
0000
0000
0000
0000
0000
0001
0000
0000
0000
0000
0000
,
1000
0000
0001
0010
0100
0000
0010
1000
0001
0000
0100
1000
0001
0100
0010
0000
,
1000
0000
0100
0010
0001
0000
0100
0010
0001
0000
1000
0100
0010
1000
0001
0000
,
0010
0000
1000
0001
0100
0000
0010
0001
1000
0000
0010
0100
0001
1000
0100
0010
,
0001
0000
0000
0000
0000
0000
1000
0000
0000
0000
0000
0000
0010
0000
0000
0001
0000
0000
0010
0000
0000
0100
0000
0000
0010
0000
0000
0000
0000
0000
1000
0000
0001
0000
0010
0000
0001
0000
0000
0000
0000
0000
0010
0000
0000
0000
0000
0000
,
0210
0000
1300
0001
0100
0000
1000
0001
0010
0000
0100
0001
0010
0100
1000
0000
,
0102
0000
0103
0010
0001
0000
1000
0100
0001
0000
1000
0100
0001
0100
1000
0000
,
0001
0100
1000
0100
0010
0100
0001
1000
0100
0010
0100
0001
0100
1000
0001
0100
,
0010
1000
0100
0010
0001
0000
0100
0010
1000
0100
0010
0001
1001
0000
0000
0000
,
1000
0000
0001
0100
1000
0000
0100
0001
1000
0000
0100
0010
1000
0010
0001
1000
,
0010
0001
0010
0100
0010
0000
1000
0001
0010
1000
0010
0100
0010
0000
0001
0000
,
1000
0010
0100
0010
0001
0000
1000
0100
0010
0100
0001
0000
1000
0010
1000
0001
,
0010
0100
0001
0100
0010
0000
0001
0100
0010
0001
0010
0000
0100
0001
1000
0000
,
0100
0010
0001
1000
0010
1000
0001
1000
0100
0001
0100
0010
0001
1000
0010
1000
,
0001
0010
0100
0010
1000
0000
0001
0100
0010
0100
1000
0001
0100
0000
0001
0000
,
1000
0100
0010
1000
0001
0000
0100
0010
0001
1000
0010
0000
0100
0001
1000
0001
,
1000
0100
0001
1000
0010
0001
1000
0010
0001
1000
0100
0001
1000
0000
0100
0000
,
0120
0000
0032
0000
,
2000
0000
3003
0002
,
0203
0300
2000
3020
,
0032
0000
0003
2000
,
3020
0000
0000
0000
,
0000
0000
0030
0002
,
0203
0000
2300
0000
,
0002
0000
3000
0003
,
1000
0100
1000
0010
0100
0001
0010
0001
0100
0010
1000
0100
1000
0000
1000
0000
,
0001
0010
0001
0100
0010
1000
0100
1000
0010
0100
0001
0010
0001
0000
0001
0000
,
1000
0010
0100
1000
0001
0010
0100
0001
0010
0100
1000
0001
1000
0000
1000
0000
,
0001
0100
0010
0001
1000
0100
0010
1000
0100
0010
0001
1000
0001
0000
0001
0000
,
1000
0010
0100
1000
0100
0010
1000
0100
0010
1000
0010
0100
1000
0001
1000
0000
,
0001
0010
0100
0001
0100
0010
0001
0100
0010
0001
0010
0100
0001
1000
0001
0000
,
1000
0100
0001
1000
0010
0001
0100
0010
0001
1000
0100
0010
1000
0001
0010
0100
,
2000
0000
0000
0000
,
3000
0000
0000
0000
;

//--------------- dance-double - Fred-104 ----------------
#NOTEDATA:;
#STEPSTYPE:dance-double;
#DESCRIPTION:Fred-104;
#DIFFICULTY:Easy;
#METER:7;
#CREDIT:Fred-104;
#NOTES:
00000000
00000000
00000000
00000000
,
00000000
00000000
00000000
00000000
,
00000000
00000000
00000000
00000000
,
00000000
00000000
00000000
00000000
,
00000000
00000000
00000000
00000000
,
00000000
00000000
00000000
00000000
,
00000000
00000000
00000000
00000000
,
00000000
00000000
00000000
00000000
,
00000000
00000000
00000000
00000000
,
00000000
00000000
00000000
00000000
,
10010000
00000000
01100000
00000000
,
10010000
00000000
10000000
01000000
,
00010000
00000000
00011000
00000000
,
00000110
00000000
00001001
00000001
,
00001000
00000001
00000001
00000100
,
00000100
00001000
00001000
00010000
,
00010000
00001000
00100000
00001000
,
00020000
00000000
00002000
00033000
,
00001000
00010000
00001000
01000000
,
00010000
10000000
00010000
00000000
,
10000000
10000000
01000000
00100000
,
00001000
00010000
00001000
00000000
,
00010000
00010000
00000100
00000010
,
00000001
00001000
00000001
00000000
,
00000100
00000100
00000010
00000100
,
00001000
00010000
00001000
00001000
,
00010000
00001000
01000000
00001000
,
01000000
00010000
00100000
00000000
,
01000000
10000000
00010000
01000000
,
00001000
00010000
00001000
00000000
,
00000100
00000001
00001000
00000100
,
00000010
00000001
00001000
00000000
,
00000010
00000100
00001000
00010000
,
00100000
10000000
00010000
00000000
,
10000000
00000000
00000000
01000000
00000000
00000000
00010000
00000000
,
00001000
00000000
00000000
00000100
00000000
00000000
00000001
00000000
,
00000001
00000000
00000000
00000010
00000000
00000000
00001000
00000000
,
00010000
00000000
00000000
00100000
00000000
00000000
10000000
00000000
,
10000000
01000000
00100000
00100000
,
00001000
00010000
00000100
00000100
,
00000010
00000001
00000100
00001000
,
00022000
00000000
00000000
00033000
,
00010000
00000000
00000000
00001000
00000000
00000000
00010000
00000000
,
00000100
00000000
00000000
00001000
00000000
00000000
00000001
00000000
,
00000100
00000000
00000000
00000010
00000000
00000000
00000100
00000000
,
00001000
00000000
00000000
00010000
00000000
00000000
00001000
00000000
,
00010000
00001000
00001000
01000000
,
00010000
10000000
10000000
01000000
,
00100000
01000000
01000000
10000000
,
00100000
00010000
00001000
00010000
,
00002000
00000000
00013000
00000000
,
00200000
00000000
00310000
00000000
,
00001000
00010000
00000100
00000010
,
00000001
00001000
00000010
00010000
,
00002000
00000000
00013000
00000000
,
02000000
00000000
03010000
00000000
,
00001000
00010000
00001000
00100000
,
00001000
00010000
00000100
00000010
,
00001001
00000000
00000110
00000000
,
00001001
00000001
00000100
00000010
,
00001000
00000100
00010000
00001000
,
00010000
00000000
00000000
00001000
00000000
00000000
00010000
00000000
,
00011000
00000000
01100000
00000000
,
10010000
00010000
10000000
01000000
,
00100000
00001000
00010000
00000100
,
00000010
00000000
00000000
00000001
00000000
00000000
00001000
00000000
,
00000020
00000000
00000230
00000000
,
00002300
00000000
00000000
00023000
,
00032000
00000000
02003000
03020000
,
20000000
00000000
30030000
20000000
,
02000000
00000000
00000000
00000000
,
33000000
00000000
00000000
00200000
,
00302000
00000000
00023000
00000000
,
00030020
00000000
00000200
00000330
,
00000001
00000000
00000000
00000100
00000000
00000000
00001000
00000000
,
00010000
00000000
00000000
01000000
00000000
00000000
10000000
00000000
,
10000000
00000000
00000000
00100000
00000000
00000000
00010000
00000000
,
00001000
00000000
00000000
00000010
00000000
00000000
00000001
00000000
,
00000001
00000100
00000010
00000010
,
00010000
00001000
01000000
01000000
,
00100000
10000000
01000000
00010000
,
00022000
00000000
00000000
00033000
;

//--------------- dance-double - Fred-104 ----------------
#NOTEDATA:;
#STEPSTYPE:dance-double;
#DESCRIPTION:Fred-104;
#DIFFICULTY:Medium;
#METER:11;
#CREDIT:Fred-104;
#NOTES:
00000000
00000000
00000000
00000000
,
00000000
00000000
00000000
00000000
,
00000000
00000000
00000000
00000000
,
00000000
00000000
00000000
00000000
,
00000000
00000000
00000000
00000000
,
00000000
00000000
00000000
00000000
,
00000000
00000000
00000000
00000000
,
00000000
00000000
00000000
00000000
,
00000000
00000000
00000000
00000000
,
00000000
00000000
00000000
00000000
,
00010000
00001000
00010000
00000000
00101000
00000000
00011000
00000000
,
00010000
00000100
00000010
00000000
00000011
00000000
00001001
00000000
,
00000001
00000100
00001000
00000000
00011000
00000000
00110000
00000000
,
00011000
00000000
00001000
00010000
01000000
10000000
00010000
00000000
,
10000000
00100000
10000000
00000000
01000000
00100000
00001000
00000000
,
00010000
00000010
00000100
00000000
00000001
00001000
00000100
00000000
,
00000010
00000001
00001000
00000010
00000100
00001000
00010000
00001000
,
00020000
00000000
00002000
00033000
,
00010000
00000000
00001000
00000000
00000100
00000001
00001000
00000000
,
00000100
00000000
00000010
00000000
00000001
00001000
00000001
00000100
,
00000010
00000000
00000100
00000000
00001000
00010000
00001000
00000000
,
01000000
00010000
00100000
00000000
01000000
10000000
00010000
00000000
,
01000000
00000000
00100000
00000000
00010000
00001000
00010000
00000000
,
00000100
00000000
00010000
00000000
00001000
00000000
00010000
00000000
00000100
00000000
00000000
00000010
00000000
00000000
00000001
00000000
,
00001000
00000000
00000010
00000000
00010000
00001000
00010000
00000000
,
00100000
01000000
00010000
00000000
01100000
00000000
10010000
00000000
,
10000000
01000000
10000000
00000000
00100000
00010000
00001000
00000000
,
00010000
00000100
00001000
00000010
00000100
00000001
00001000
00000000
,
00000100
00000010
00000001
00000000
00001000
00000010
00000100
00000000
,
00001000
00010000
00001000
00010000
01000000
00100000
00010000
00000000
,
01000000
00001000
00010000
00001000
00100000
00010000
10000000
00000000
,
00100000
01000000
00100000
00010000
00001000
00010000
00000100
00000000
,
00001000
00000001
00000100
00000001
00000010
00000100
00010000
00000000
,
00001000
00010000
00100000
10000000
01000000
00000000
10010000
00000000
,
10000000
00000000
00000000
01000000
00000000
00000000
00010000
00000000
00000000
00001000
00000000
00000000
00010000
00000000
00010000
00000000
,
00001000
00000000
00000000
00010000
00000000
00000000
00100000
00000000
00000000
10000000
00000000
00000000
00010000
00000000
00010000
00000000
,
10000000
00000000
00000000
01000000
00000000
00000000
00010000
00000000
00000000
00001000
00000000
00000000
00000010
00000000
00000001
00000000
,
00001000
00000000
00000000
00000001
00000000
00000000
00000100
00000000
00000000
00001000
00000000
00000000
00011000
00000000
00000000
00000000
,
00010000
00000000
00000000
00001000
00000000
00000000
00000010
00000000
00000000
00001000
00000000
00000000
00010000
00000000
00010000
00000000
,
00001000
00000000
00000000
00010000
00000000
00000000
00100000
00000000
00000000
00010000
00000000
00000000
00001000
00000000
00001000
00000000
,
00010000
00000000
00000000
00000010
00000000
00000000
00001000
00000000
00000000
00000100
00000000
00000000
00010000
00000000
00001000
00000000
,
00022000
00000000
00000000
00033000
,
00010000
00000000
00000000
00001000
00000000
00000000
00010000
00000000
00000000
00000100
00000000
00000000
00000010
00000000
00000001
00000000
,
00001000
00000000
00000000
00000001
00000000
00000000
00000100
00000000
00000000
00000010
00000000
00000000
00000100
00000000
00001000
00000000
,
00010000
00000000
00000000
00001000
00000000
00000000
01000000
00000000
00000000
00010000
00000000
00000000
00100000
00000000
00001000
00000000
,
00010000
00000000
00000000
00100000
00000000
00000000
10000000
00000000
00000000
01000000
00000000
00000000
00100000
00000000
00001000
00000000
,
00010000
00000000
00000000
00000100
00000000
00000000
00000010
00000000
00000000
00000001
00000000
00000000
00001000
00000000
00000001
00000000
,
00000100
00000000
00000000
00000010
00000000
00000000
00000100
00000000
00000000
00001000
00000000
00000000
00010000
00000000
00001000
00000000
,
01000000
00000000
00000000
00010000
00000000
00000000
00100000
00000000
00000000
00001000
00000000
00000000
01000000
00000000
00001000
00000000
,
00100000
00010000
10000000
00100000
00010000
00001000
00011000
00000000
,
00020000
00001000
00000010
00031000
,
00020000
00001000
00100000
00031000
,
00020000
00000010
00001000
00030010
,
00002000
00000100
00000001
00003100
,
00001000
00000100
00000010
00000000
00000001
00001000
00000010
00000000
,
00000100
00000000
00001000
00010000
00000000
00001000
01000000
00000000
,
00020000
00100000
20030000
01000000
,
30010000
10000000
01000000
00010000
00001000
00000000
00000110
00000000
,
00001001
00000000
00000001
00000010
00000100
00000000
00001000
00000001
,
00000100
00000000
00000000
00001000
00000000
00000000
00010000
00000000
00000000
00001000
00000000
00000000
00010000
00000000
00000100
00000000
,
00000010
00000011
00001010
00000101
,
00000001
00000000
00000000
00000010
00000000
00000000
00001000
00000000
00000000
00010000
00000000
00000000
00001000
00000000
00010000
00000000
,
00011000
01000000
00011000
00000100
,
00011000
00000000
00000000
00010000
00000000
00000000
00000100
00000000
00000000
00010000
00000000
00000000
00001000
00000000
00010000
00000000
,
00200000
10000000
00010000
01300000
,
00010000
00000000
00000000
10000000
00000000
00000000
01000000
00000000
00000000
00010000
00000000
00000000
00001000
00000000
00010000
00000000
,
00002000
00000000
00023000
00000000
,
00002000
00000000
00033000
00002000
,
00023000
00000000
00230000
20300000
,
32000000
00000000
00000000
03020000
,
00002000
00000000
00000000
00000000
,
00000000
00000000
00033000
00020000
,
00032000
00000000
00003200
00000000
,
00000302
00000000
00002000
00003003
,
00000001
00000000
00000000
00000100
00000000
00000000
00001000
00000000
00000000
00010000
00000000
00000000
00001000
00000000
00001000
00000000
,
00010000
00000000
00000000
00001000
00000000
00000000
00000010
00000000
00000000
00000001
00000000
00000000
00001000
00000000
00001000
00000000
,
00000001
00000000
00000000
00000100
00000000
00000000
00001000
00000000
00000000
00010000
00000000
00000000
00100000
00000000
10000000
00000000
,
00010000
00000000
00000000
10000000
00000000
00000000
01000000
00000000
00000000
00010000
00000000
00000000
00011000
00000000
00000000
00000000
,
00001000
00000000
00000000
00010000
00000000
00000000
00100000
00000000
00000000
00010000
00000000
00000000
00001000
00000000
00001000
00000000
,
00010000
00000000
00000000
00001000
00000000
00000000
00000010
00000000
00000000
00001000
00000000
00000000
00010000
00000000
00010000
00000000
,
00001000
00000000
00000000
00100000
00000000
00000000
00010000
00000000
00000000
01000000
00000000
00000000
00001000
00000000
00010000
00000000
,
00022000
00000000
00000000
00000000
,
00033000
00000000
00000000
00000000
;

//--------------- dance-double - Fred-104 ----------------
#NOTEDATA:;
#STEPSTYPE:dance-double;
#DESCRIPTION:Fred-104;
#DIFFICULTY:Hard;
#METER:15;
#CREDIT:Fred-104;
#NOTES:
00000000
00000000
00000000
00000000
,
00000000
00000000
00000000
00000000
,
00000000
00000000
00000000
00000000
,
00000000
00000000
00000000
00000000
,
00000000
00000000
00000000
00000000
,
00000000
00000000
00000000
00000000
,
00000000
00000000
00000000
00000000
,
00000000
00000000
00000000
00000000
,
00000000
00000000
00000000
00000000
,
00000000
00000000
00000000
00000000
,
00011000
00001000
01000000
00000000
01100000
00100000
10000000
00000000
,
10010000
10000000
01000000
00100000
00001000
00010000
00011000
00000000
,
00010010
00000010
00001000
00000000
00001001
00001000
00000100
00000000
,
00000011
00000001
00000100
00001000
00010000
00001000
00011000
00000000
,
00001000
00010000
01000000
00100000
10000000
00100000
00010000
10000000
,
00100000
00001000
00000010
00010000
00000100
00000001
00001000
00000010
,
00000100
00001000
00000001
00000100
00001000
00010000
01000000
00100000
,
00002000
00000000
00000000
00000000
00013000
00001000
00011000
00000000
,
00010000
00000000
00001000
00000000
00010000
00000100
00001000
00000000
00000100
00000000
00000010
00000000
00000100
00000000
00001000
00000000
,
00000001
00000000
00000100
00000000
00001000
00010000
00001000
00000000
00100000
00000000
00001000
00010000
00001000
00000000
00000100
00000000
,
00000001
00000000
00001000
00000000
00000010
00010000
00000010
00000000
00010000
00001000
00100000
00000000
01000000
00000000
10000000
00000000
,
00010000
00000000
01000000
00000000
00100000
10000000
00100000
00000000
10000000
00010000
10000000
00010000
00100000
00000000
01000000
00000000
,
00010000
00000000
00001000
00000000
00010000
00000100
00010000
00000000
00000100
00001000
00000001
00000000
00000100
00000000
00000010
00000000
,
00000100
00000000
00001000
00000000
00010000
00001000
00010000
00000000
00001000
00000000
01000000
00010000
00000000
01000000
00010000
00000000
,
10000000
00000000
01000000
00000000
00100000
01000000
00100000
00000000
00001000
00010000
00001000
00010000
00001000
00000000
00100000
00000000
,
00010000
00000000
00000000
01000000
00000000
00000000
00001000
00000000
00010000
00000000
00000100
00000000
00000010
00000000
00000000
00000000
00000000
00000000
00001001
00000000
00000000
00000000
00000000
00000000
,
00000001
00001000
00000010
00000001
00000010
00000100
00001000
00010000
,
00001000
00000000
00100000
00000000
01000000
00000000
10000000
00000000
00100000
00000000
00010000
00001000
00010000
00000000
00000100
00000000
,
00010000
00001000
00000100
00000010
00000001
00000010
00001000
00000001
,
00000010
00000000
00001000
00000000
00010000
00001000
00010000
00000000
00100000
00000000
10000000
00000000
10010000
00000000
00000000
00000000
,
00010000
10000000
01000000
00100000
01000000
00010000
00001000
00010000
,
00000100
00000000
00000010
00000000
00000001
00000000
00001000
00000000
00000010
00000100
00000010
00000100
00001000
00000000
00010000
00000000
,
00001000
00010000
00000100
00000010
00000001
00001000
00000010
00010000
,
00001000
00010000
00001000
00010000
00001000
00000000
00010000
00000100
00001000
00000001
00000100
00000000
00000110
00000000
00000000
00000000
,
00001001
00000000
00000000
00000001
00000000
00000000
00000100
00000000
00000000
00001000
00000000
00000000
00010000
00000000
00100000
00000000
,
10100000
00000000
00000000
10000000
00000000
00000000
01000000
00000000
00000000
00100000
00000000
00000000
00001000
00000000
00010000
00000000
,
00011000
00000000
00000000
00001000
00000000
00000000
00000100
00000000
00000000
00000001
00000000
00000000
00000010
00000000
00001000
00000000
,
00011000
00000000
00000000
00010000
00000000
00000000
01000000
00000000
00000000
10000000
00000000
00000000
20020000
00000000
30030000
00000000
,
10000000
01000000
00000000
01000000
00100000
00000000
00100000
00010000
00000000
00010000
10000000
00000000
00100000
00000000
00010000
00000000
,
00001000
00010000
00000000
00010000
00000010
00000000
00000010
00001000
00000000
00001000
00000100
00000000
00000010
00000000
00000001
00000000
,
00000100
00001000
00000000
00001000
00010000
00000000
00100000
10000000
00000000
10000000
00010000
00000000
00100000
01000000
00100000
01000000
,
20000000
00000000
00000000
30000000
,
00010000
00000000
00000000
10000000
00000000
00000000
01000000
00000000
00000000
00100000
00000000
00100000
00001000
00000000
00010000
00000000
,
00001000
00000000
00000000
00010000
00000000
00000000
00000100
00000000
00000000
00000010
00000000
00000010
00000001
00000000
00001000
00000000
,
00000010
00000000
00000000
00000100
00000000
00000000
00001000
00000000
00000000
00010000
00000000
00010000
00001000
00000000
01000000
00000000
,
00010000
00000000
00000000
00100000
00000000
00000000
10000000
00000000
00000000
00100000
00000000
00100000
00001000
00000000
00010000
00000000
,
00000100
00000000
00000000
00000010
00000000
00000000
00000001
00000000
00001000
00000010
00000000
00000100
00001000
00000000
00010000
00000000
,
00001000
00000000
00000000
01000000
00000000
00000000
00001000
00000000
00100000
00010000
00000000
00100000
01000000
00000000
10000000
00000000
,
00010000
00000000
00000000
01000000
00000000
00000000
10000000
00000000
00010000
00100000
00000000
01000000
00010000
00000000
10000000
00000000
,
01000000
00000000
00100000
00000000
00001000
00000000
00000100
00000000
00000001
00001000
00000001
00001000
00000001
00000000
00000000
00000000
,
00000100
00000010
00000100
00001000
00000100
00000010
00010000
00001000
,
00010000
00000100
00000010
00001000
00000010
00000001
00001000
00000010
,
00001000
00000000
00100000
00000000
01000000
00000000
00001000
00000000
00010000
00001000
00010000
00000000
00100000
00000000
01000000
00010000
,
01000000
00000000
00010000
00000000
10000000
01000000
10000000
00000000
00100000
00000000
00010000
00001000
00010000
00000000
00001000
00000000
,
00100000
01000000
00010000
10000000
00100000
00010000
00100000
00001000
,
00010000
00000010
00000100
00001000
00000001
00000010
00001000
00000001
,
00000010
00000000
00000100
00000000
00010000
00001000
00010000
00000000
00000010
00000000
00010000
00001000
00010000
00000000
00001000
00000000
,
01000000
00010000
01000000
00010000
01000000
00000000
00001000
00100000
00010000
10000000
00100000
00000000
01100000
00000000
00000000
00000000
,
00010000
01000000
00010000
00000000
10000000
00000000
01000000
00000000
00100000
00001000
00010000
00000000
00001000
00000100
00000010
00000000
,
00001000
00000001
00000000
00001000
00000100
00000000
00001000
00000001
00000000
00001000
00000010
00000000
00000100
00000001
00000100
00000000
,
00000001
00001000
00000000
00000001
00000010
00000000
00000100
00001000
00000000
00000100
00010000
00000000
00001000
00100000
00001000
00000000
,
00100000
00010000
00000000
10000000
00100000
00000000
01000000
00010000
01000000
00001000
00010000
00000000
00001000
00000000
00010000
00000000
,
00001000
00000000
00010000
00000000
00000100
00000000
00000010
00000001
00000010
00000001
00001000
00000000
00000010
00001000
00000001
00000000
,
00000010
00000100
00000000
00001000
00000100
00000000
00010000
00001000
00000000
01000000
00001000
00000000
00010000
00000010
00001000
00000000
,
00000100
00000010
00000000
00000001
00001000
00000000
00000010
00001000
00000000
00000001
00000010
00000000
00000100
00010000
00001000
00000000
,
00010000
00001000
00010000
00001000
00010000
00000000
00000010
00001000
00000010
00001000
00000010
00000000
00000100
00000000
00000001
00000000
,
00002001
00000000
00003002
00000000
,
00000200
00000000
00000303
00000002
,
00000023
00000000
00002030
00023000
,
00002000
00000000
00033000
02000000
,
00200000
00000000
00000000
00000000
,
00000000
00000000
03300000
20000000
,
30200000
00000000
00320000
00000000
,
02030000
00000000
20000000
33000000
,
10010000
00000000
00000000
10000000
00000000
00000000
01000000
00000000
00000000
00010000
00000000
00000000
00001000
00000000
00000010
00000000
,
00000011
00000000
00000000
00000001
00000000
00000000
00000100
00000000
00000000
00000010
00000000
00000000
00010000
00000000
00001000
00000000
,
00011000
00000000
00000000
00010000
00000000
00000000
01000000
00000000
00000000
10000000
00000000
00000000
00100000
00000000
00010000
00000000
,
00011000
00000000
00000000
00001000
00000000
00000000
00000100
00000000
00000000
00000001
00000000
00000000
00002002
00000000
00003003
00000000
,
00000001
00000100
00000000
00000100
00000010
00000000
00000010
00001000
00000000
00001000
00000001
00000000
00000010
00000000
00001000
00000000
,
00010000
00001000
00000000
00001000
00100000
00000000
00100000
00010000
00000000
00010000
01000000
00000000
00100000
00000000
10000000
00000000
,
01000000
00010000
00000000
00010000
00001000
00000000
00000010
00000001
00000000
00000001
00001000
00000000
00000010
00000100
00000010
00000100
,
00000002
00000000
00000000
00000000
,
00000003
00000000
00000000
00000000
;

//--------------- dance-double - Giant-killer Fred-104 ----------------
#NOTEDATA:;
#STEPSTYPE:dance-double;
#DESCRIPTION:Giant-killer Fred-104;
#DIFFICULTY:Challenge;
#METER:18;
#CREDIT:Giant-killer Fred-104;
#NOTES:
00000000
00000000
00000000
00000000
,
00000000
00000000
00000000
00000000
,
00000000
00000000
00000000
00000000
,
00000000
00000000
00000000
00000000
,
00000000
00000000
00000000
00000000
,
00000000
00000000
00000000
00000000
,
00000000
00000000
00000000
00000000
,
00000000
00000000
00000000
00000000
,
00000000
00000000
00000000
00000000
,
00000000
00000000
00000000
00000000
,
00010000
00001000
00010000
00000000
00001000
00000000
00000100
00000001
00001000
00000000
00000001
00000000
00000010
00000000
00000100
00000001
,
00000100
00000000
00001000
00000000
00000001
00000000
00000100
00000010
00000100
00000000
00001000
00000000
00010000
00000000
00001000
00000000
,
00100000
00010000
00100000
00000000
01000000
00000000
10000000
00100000
00010000
00000000
00001000
00000000
01000000
00000000
00001000
00010000
,
00001000
00000000
00000100
00000000
00000010
00000000
00001000
00000001
00000010
00000000
00000100
00000000
00010000
00000000
00001000
00000000
,
00010000
00000000
00001000
00100000
00010000
00000000
00100000
01000000
10000000
00000000
00010000
10000000
00100000
00000000
00010000
00100000
,
10000000
00000000
01000000
00010000
00001000
00010000
00001000
00000100
00000001
00000000
00001000
00000001
00000010
00000000
00000100
00010000
,
00002000
00000000
00013000
00100000
02000000
00000000
13000000
01000000
00200000
00000000
10300000
01000000
00200000
00000000
00301000
00000000
,
00022000
00000000
00003000
00030000
,
00001000
00000000
00010000
00000000
00000100
00001000
00000010
00001000
00000100
00000000
00000010
00000000
00000001
00000000
00001000
00000000
,
00000010
00000000
00000100
00000000
00001000
00010000
00001000
01000000
00010000
00000000
00100000
01000000
00100000
00000000
00001000
00000000
,
00010000
00000000
01000000
00000000
00100000
00010000
10000000
00100000
01000000
00010000
10000000
00000000
01000000
00000000
00100000
00001000
,
00010000
00000000
00000010
00000000
00001000
00000100
00000010
00000100
00001000
00000010
00000100
00001000
00010000
00001000
00100000
01000000
,
00010000
00000000
00001000
00000000
00010000
00000100
00001000
00000010
00001000
00000001
00000010
00000100
00000001
00000000
00000100
00000000
,
00010000
00000000
00000000
00000000
00000000
00000000
00000000
00000000
00001000
00000000
00000000
00000000
00000000
00000000
00000000
00000000
00000100
00000000
00000000
00000000
00000010
00000000
00000000
00000000
00000001
00000000
00000000
00000000
00000010
00000000
00000000
00000000
00001000
00000000
00000000
00000000
00000000
00000000
00000000
00000000
00000001
00000000
00000000
00000000
00000020
00000030
00000000
00000000
00000000
00000000
00000000
00000000
00000020
00000030
00000000
00000000
00001000
00000000
00000000
00000000
00000000
00000000
00000000
00000000
,
00000001
00000000
00001000
00000000
00000010
00000100
00001000
00010000
00001000
00010000
00100000
01000000
00100000
00000000
10000000
00000000
,
01000000
00000000
00000000
00000000
00000000
00000000
00010000
00000000
00000000
00000000
00000000
00000000
00001000
00000000
00000000
00000000
00001000
00000000
00000000
00000000
00001000
00000000
00000000
00000000
00010000
00000000
00000000
00000000
00000000
00000000
00001000
00000000
00000000
00000000
00000000
00000000
00010000
00000000
00000000
00001000
00000000
00000000
00010000
00000000
00000000
00001000
00000000
00000000
,
00010000
00000100
00001000
00000000
00000100
00000010
00000001
00001000
00000010
00000000
00000100
00000000
00001000
00000000
01000000
00000000
,
00100000
00000000
10000000
00000000
00010000
00100000
01000000
00100000
00010000
00000000
01000000
00100000
00010000
00100000
01000000
00001000
,
00010000
00000000
00001000
00000000
00000010
00000100
00000001
00000100
00001000
00000000
00000001
00000000
00000100
00000000
00001000
00000000
,
00010000
00000000
00001000
00000000
00010000
00001000
00100000
00010000
10000000
00000000
00100000
01000000
10000000
01000000
00010000
00000000
,
00110000
00000000
01100000
00000000
10000000
01000000
00100000
00010000
01000000
00100000
00010000
00001000
00010000
00000000
00000010
00001000
,
00000100
00000000
00000010
00000000
00001000
00000010
00000100
00001000
00000010
00000000
00000100
00001000
00000100
00000010
00001000
00000000
,
00000001
00000000
00001000
00000000
00000010
00001000
00000010
00010000
00001000
00000000
00010000
00000000
01000000
00000000
10000000
00100000
,
01000000
10000000
01000000
00100000
00010000
00001000
00010000
00000100
00000010
00000001
00001000
00000010
00010000
00000000
00000000
00000000
,
00001000
00010000
00000000
00100000
10000000
00000000
01000000
00010000
00000000
00001000
00000010
00000000
00000001
00001000
00000001
00000000
,
00001000
00000001
00000000
00000010
00001000
00000000
00010000
01000000
00000000
10000000
00100000
00000000
00010000
00001000
00010000
00000000
,
00001000
00010000
00000000
00100000
10000000
00000000
01000000
00010000
00000000
00001000
00010000
00000000
00001000
00010000
00001000
00000000
,
00010000
00001000
00000000
00000100
00000001
00000000
00000010
00001000
00000000
00010000
00001000
00000000
00010000
00001000
00010000
00000000
,
00001000
00100000
00010000
01000000
00100000
10000000
00100000
01000000
00010000
00100000
00001000
00010000
00000010
00010000
00001000
00000000
,
00010000
00000010
00001000
00000100
00000010
00000001
00000010
00000100
00001000
00000010
00010000
00001000
00100000
00001000
00010000
00000000
,
00001000
00010000
00100000
01000000
00010000
00100000
01000000
10000000
00100000
00010000
00001000
00000100
00000001
00001000
00000100
00000010
,
00000002
00000000
00000000
00000003
,
00001000
00000000
00000001
00000010
00000000
00000100
00001000
00000000
00010000
00100000
00000000
01000000
10000000
00010000
10000000
00000000
,
00010000
00000000
10000000
00100000
00000000
01000000
00010000
00000000
00001000
00000010
00000000
00000100
00000001
00001000
00000001
00000000
,
00001000
00000000
00000001
00000100
00000000
00000010
00001000
00000000
00010000
01000000
00000000
00100000
10000000
00010000
10000000
00000000
,
00010000
00000000
00000000
00000000
00000000
00000000
10000000
00000000
00000000
01000000
00000000
00000000
00000000
00000000
00000000
00100000
00000000
00000000
00010000
00000000
00000000
00000000
00000000
00000000
00001000
00000000
00000000
00000000
00000000
00000000
00000100
00000000
00000010
00000000
00000100
00000000
00000010
00000000
00000000
00000000
00000000
00000000
00000001
00000000
00000000
00000000
00000000
00000000
,
00001001
00000000
00001000
00000100
00000000
00000001
00000100
00000000
00000010
00001000
00000010
00000001
00001000
00000000
00000010
00000000
,
00000100
00000000
00001000
00010000
00000000
00001000
01000000
00000000
00010000
00100000
01000000
00100000
10000000
00000000
00100000
00000000
,
00110000
00000000
00000000
11000000
00000000
00000000
01010000
00000000
10000000
01000000
00100000
00001000
00010000
00000000
00001000
00000000
,
00010000
00000000
00000000
00000010
00000000
00000000
00001000
00000000
00000000
00000100
00000000
00000000
00010000
00000000
00000000
00001000
00000000
00000000
01000000
00000000
00000000
00010000
00000000
00000000
00100000
00000000
01000000
00000000
00100000
00000000
01000000
00000000
00000000
00000000
00000000
00000000
00010000
00000000
00000000
00000000
00000000
00000000
00001000
00000000
00000000
00000000
00000000
00000000
,
00010000
00000100
00000010
00000000
00000001
00000000
00001000
00000010
00000100
00000000
00001000
00000100
00000010
00001000
00000001
00000000
,
00000010
00000100
00001000
00000000
00000010
00000000
00000100
00001000
00010000
00000000
00001000
00010000
01000000
00010000
00001000
00000000
,
00100000
00010000
10000000
00000000
00100000
00000000
01000000
10000000
01000000
00000000
00010000
10000000
01000000
00100000
00001000
00010000
,
00001000
00000000
00000000
00000000
00000000
00000000
00010000
00000000
00000000
00000000
00000000
00000000
00000100
00000000
00000000
00000010
00000000
00000000
00000100
00000000
00000000
00000001
00000000
00000000
00000100
00000000
00000000
00000000
00000000
00000000
00001000
00000000
00000001
00000000
00001000
00000000
00000010
00000000
00000000
00000000
00000000
00000000
00000100
00000000
00000000
00000000
00000000
00000000
,
00000102
00000000
00001003
00000001
00000010
00000000
00001000
00000010
00000100
00000000
00010000
00001000
01000000
00010000
00100000
00000000
,
02100000
00000000
13000000
00100000
00010000
00000000
10000000
01000000
00100000
00000000
10000000
01000000
00010000
00001000
00010000
00000000
,
00001000
00010000
00000100
00001000
00000010
00001000
00000100
00000010
00000001
00001000
00000010
00000100
00001000
00010000
00001000
00010000
,
00001000
00010000
00100000
00010000
00001000
00000000
00010000
00001000
00000010
00001000
00010000
00000000
00011000
00000000
00000000
00000000
,
00001000
00000000
00010000
00100000
01000000
00000000
10000000
01000000
00100000
00000000
10000000
01000000
00100000
00010000
10000000
00100000
,
01000000
10000000
01000000
00100000
00010000
00000000
00001000
00010000
00000100
00000010
00000100
00001000
00000001
00000000
00000100
00000000
,
00000001
00000010
00000100
00000010
00001000
00000000
00010000
01000000
00100000
01000000
10000000
00000000
00010000
10000000
00010000
10000000
,
00010000
01000000
00100000
01000000
00010000
00000000
00100000
01000000
00010000
01000000
00100000
00000000
00001000
00010000
00001000
00000000
,
00010000
00000000
00000100
00000010
00001000
00000000
00010000
00001000
01000000
00010000
00100000
00000000
01000000
00100000
00010000
00000000
,
10000000
00100000
01000000
00100000
00010000
00000000
00001000
00000100
00000010
00000100
00000001
00000000
00001000
00000000
00000100
00000000
,
00001000
00000001
00000100
00001000
00010000
00000000
00001000
00010000
01000000
00100000
00010000
00000000
10000000
00100000
10000000
00000000
,
00010000
10000000
01000000
00010000
00001000
00000010
00000001
00001000
00000001
00000100
00001000
00010000
00001000
00000000
00010000
00000000
,
00012000
00000000
02003000
00000000
,
00020000
00000000
03030000
20000000
,
30020000
00030000
00002000
00003002
,
00000023
00000000
00000030
00002000
,
00023000
00000000
00000000
00000000
,
00000000
00000000
00030000
02000000
,
23000000
00000000
30200000
00320000
,
00002000
00000000
00030000
00003000
,
00010000
00001000
00000000
00000010
00000001
00000000
00000100
00001000
00000000
00010000
00100000
00000000
10000000
00010000
10000000
00000000
,
00010000
10000000
00000000
00100000
00010000
00000000
00001000
00000100
00000000
00000001
00000010
00000000
00001000
00010000
00001000
00000000
,
00010000
00001000
00000000
00000010
00000001
00000000
00000100
00001000
00000000
00010000
00001000
00000000
00010000
00001000
00010000
00000000
,
00001000
00010000
00000000
01000000
10000000
00000000
00100000
00010000
00000000
00001000
00010000
00000000
00001000
00010000
00001000
00000000
,
00010000
00000010
00001000
00000100
00000010
00000001
00000010
00000100
00001000
00000010
00010000
00001000
00100000
00001000
00010000
00000000
,
00001000
00100000
00010000
01000000
00100000
10000000
00100000
01000000
00010000
00100000
00001000
00010000
00000010
00010000
00001000
00000000
,
00010000
00001000
00000100
00000010
00000001
00000010
00000100
00000001
00001000
00000100
00000010
00001000
00010000
01000000
00100000
00010000
,
20000000
00000000
00000000
00000000
,
30000000
00000000
00000000
00000000
;
