#VERSION:0.83;
#TITLE:YELLOW SPLASH!!;
#ARTIST:P*Light;
#BANNER:YELLOW SPLASH!!.png;
#BACKGROUND:YELLOW SPLASH!!-bg.png;
#CDTITLE:./CDTitles/RB groovin'!!.png;
#MUSIC:YELLOW SPLASH!!.ogg;
#SAMPLESTART:12.973;
#SAMPLELENGTH:15;
#BPMS:0=185;
#BGSTAGE:16;

//--------------- dance-single - Fred-104 ----------------
#NOTEDATA:;
#STEPSTYPE:dance-single;
#DESCRIPTION:Fred-104;
#DIFFICULTY:Beginner;
#METER:4;
#CREDIT:Fred-104;
#NOTES:
0000
0000
0000
0000
,
0000
0000
0000
0000
,
0000
0000
0000
0000
,
0000
0000
0000
0000
,
0000
0000
0000
0000
,
0000
0000
0000
0000
,
1000
0000
0000
0000
,
0001
0000
1000
1000
,
1001
0000
0000
0000
,
0001
0001
0001
0000
,
1000
0000
0001
0000
,
1000
0000
1000
0000
,
0100
0000
0100
0000
,
0010
0000
0010
0000
,
0001
0000
1000
0000
,
0001
0000
0100
0000
,
0010
0000
0010
0000
,
1001
0000
0000
0000
,
0001
0000
1000
0000
,
0001
0000
0001
0000
,
1000
0000
0100
0000
,
0010
0000
0001
0000
,
0001
0000
0001
0000
,
1000
0000
1000
0000
,
0001
0001
0001
0000
,
1001
0000
0000
0000
,
2000
0000
3000
0000
,
0002
0000
0003
0000
,
0200
0000
0300
0000
,
0020
0000
0030
0000
,
1000
0000
0001
0000
,
0010
0000
0100
0000
,
1000
1000
1000
0000
,
1001
0000
0000
0000
,
0001
0000
0000
0001
,
0000
0000
0010
0000
,
0100
0000
0100
0000
,
1000
0000
0001
0000
,
1000
0000
0000
1000
,
0000
0000
1000
0000
,
0010
0000
0010
0000
,
0110
0000
0000
0000
,
0001
0000
0010
0000
,
1000
0000
0100
0000
,
0010
0000
0100
0000
,
0001
0000
1000
0000
,
0001
0000
1000
0000
,
0100
0000
0010
0000
,
0001
0001
0001
0000
,
1001
0000
0000
0000
,
1000
0000
0100
0000
,
0010
0000
0000
0000
,
0001
0000
0010
0000
,
0100
0000
0000
0000
,
1000
0000
0001
0000
,
0100
0000
0000
0000
,
0001
0000
1000
0000
,
1001
0000
0000
0000
,
1001
0000
0000
0000
,
0110
0000
0000
0000
,
1001
0000
1001
0000
,
0001
0000
1000
0000
,
1001
0000
0000
0000
,
0000
0000
0000
0000
,
0002
0000
0000
0003
,
1000
1000
1000
1000
,
1000
0000
0000
0000
,
0000
0000
0000
0000
,
0001
0000
1000
0000
,
0010
0000
1000
0000
,
0001
0000
0001
0000
,
0010
0000
0100
0000
,
1000
0000
0001
0000
,
1001
0000
0000
0000
,
1000
0000
1000
0000
,
0010
0000
0100
0000
,
0010
0000
1000
0000
,
1000
0000
0001
0000
,
1001
0000
0000
0000
,
0110
0000
0000
0000
,
0001
0000
1000
0000
,
0001
0001
0001
0001
,
2002
0000
0000
0000
,
0000
0000
3003
0000
;

//--------------- dance-single - Fred-104 ----------------
#NOTEDATA:;
#STEPSTYPE:dance-single;
#DESCRIPTION:Fred-104;
#DIFFICULTY:Easy;
#METER:7;
#CREDIT:Fred-104;
#NOTES:
0000
0000
0000
0000
,
0000
0000
0000
0000
,
0000
0000
0000
0000
,
0000
0000
0000
0000
,
0000
0000
0000
0000
,
0000
0000
0000
0000
,
1001
0000
0000
0000
,
0110
0000
1000
0001
,
1000
0100
0100
0010
,
0001
1000
2002
3003
,
0001
0000
0100
0000
0001
0000
0000
0001
,
0000
0010
0100
1000
,
0001
0000
0100
0000
,
1000
0000
0010
0000
,
0001
0000
1000
0000
0001
0000
0000
0001
,
0000
0001
0100
0010
,
1000
0000
0001
0000
,
1000
0001
1001
0000
,
1000
0000
0010
0000
1000
0000
0000
0100
,
0000
0010
0001
1000
,
0001
0000
0010
0000
,
1000
0000
0100
0001
,
1000
0000
0001
0000
1000
0000
0000
1000
,
0000
0001
1000
1001
,
0001
0100
0001
0100
,
0010
1000
1001
0000
,
1000
0100
0020
0030
,
0001
0010
0200
0300
,
1000
0001
0200
0300
,
0010
1000
0002
0003
,
0010
0100
1000
0000
,
0010
0100
0001
0000
,
1000
0100
0010
0001
,
2002
0000
0000
3003
,
1000
0000
0000
0200
0000
0000
0000
0000
,
0310
0000
0000
0200
0000
0000
0000
0000
,
1300
0000
0001
0000
0100
0000
0000
0001
,
0000
1000
0000
0001
0000
1000
0000
0001
,
0010
0000
0000
0200
0000
0000
0300
0000
,
1000
0000
0000
0002
0000
0000
0003
0000
,
0100
0010
0100
0001
,
2002
0000
0000
3003
,
1000
0000
0000
0020
0000
0000
0030
0000
,
0100
0000
0000
0020
0000
0000
0030
0000
,
1000
0001
0010
0100
,
0000
1000
0000
0001
0000
1000
0000
0010
,
0010
0000
0000
0200
0000
0000
0300
0000
,
0001
0000
0000
2000
0000
0000
3001
0000
,
1000
1000
0001
0001
,
2002
0000
0000
3003
,
1000
1000
0010
1000
,
0001
0010
0100
0000
,
0100
0100
0010
0001
,
1000
0010
1000
0000
,
0001
0010
0001
0010
,
1000
0010
0100
0000
,
0010
0001
1000
0001
,
2002
0000
0000
3003
,
1001
0000
0000
0000
,
0110
0000
0000
0000
,
1001
0000
0110
0000
,
0001
0001
1000
1000
,
2002
0000
0000
0000
,
3003
0000
0000
0000
,
0001
1000
1000
0001
,
0100
0010
0110
0000
,
1001
0000
0000
0000
,
0000
0000
0000
1001
,
0001
0010
0200
0300
,
1000
0010
0200
0300
,
0001
0000
1000
0000
0100
0000
0000
0100
,
0000
0010
0001
1000
,
0010
1000
0002
0003
,
0010
0010
0110
0000
,
1000
0000
0001
0000
1000
0000
0000
0010
,
0000
0100
0020
0030
,
0100
0001
0020
0030
,
0100
1000
0020
0030
,
0100
0000
0100
0000
0001
0000
0000
1001
,
0000
1000
2002
3003
,
0001
0001
1000
1000
,
0001
0010
0100
1000
,
2002
0000
0000
0000
,
0000
0000
3003
0000
;

//--------------- dance-single - Fred-104 ----------------
#NOTEDATA:;
#STEPSTYPE:dance-single;
#DESCRIPTION:Fred-104;
#DIFFICULTY:Medium;
#METER:10;
#CREDIT:Fred-104;
#NOTES:
0000
0000
0000
0000
,
0000
0000
0000
0000
,
0000
0000
0000
0000
,
0000
0000
0000
0000
,
0000
0000
0000
0000
,
0000
0000
0000
0000
,
1001
0000
0000
0000
,
0110
0000
0001
1000
,
0100
0010
0001
1000
,
0001
1000
0001
1000
0001
0000
1001
0000
,
1000
0000
0100
0000
1000
0000
0000
1000
,
0000
0100
1000
0000
,
0001
0100
0001
0100
2000
0000
3000
0000
,
1000
0100
1000
0100
0002
0000
0003
0000
,
1000
0000
0100
0000
0010
0000
0000
0001
,
0000
1000
0010
0000
,
1000
0010
1000
0010
0002
0000
0003
0000
,
0001
0010
0001
0010
1000
0000
1001
0000
,
1000
0000
0001
0000
1000
0000
0000
0010
,
0000
1000
0100
1000
,
0001
0100
0010
0100
2000
0000
3000
0000
,
1000
0100
0010
0100
0002
0000
0003
0000
,
0001
0000
0100
0000
0010
0000
0000
0110
,
0000
0100
1001
0000
,
1000
0001
0100
0010
1000
0000
0001
0000
,
1000
0001
2002
3003
,
0001
0010
2000
3000
,
1000
0010
0002
0003
,
1000
0010
0002
0003
,
0001
0010
2000
3000
,
0001
0000
0100
0000
0010
1000
0010
0000
,
1000
0000
0100
0000
0010
0001
0010
0000
,
0001
1000
0010
0000
0100
0001
1000
0000
,
2002
0000
0000
3003
,
1000
0000
0100
1000
0000
0100
1000
0000
,
0001
0000
0100
0001
0000
1000
0001
0000
,
0010
0100
1000
0001
,
0100
1000
0100
0001
,
0010
0000
0100
0010
0000
0100
1000
0000
,
0001
0000
1000
0010
0000
1000
0001
0000
,
1000
0100
0010
0001
,
1000
0001
0100
0110
,
0010
0000
1000
0001
0000
0100
0001
0000
,
1000
0000
0100
0010
0000
0001
1000
0000
,
0001
0100
1000
0100
,
0001
1000
0100
0010
,
0001
0000
1000
0010
0000
1000
0001
0000
,
0010
0000
0100
0010
0000
0001
0100
0000
,
0010
1000
0010
0000
0100
0001
0100
0000
,
2002
0000
0000
3003
,
1000
0100
1000
0000
0001
0100
0000
0100
,
0001
1000
0001
0000
0010
0100
1000
0000
,
0001
1000
0010
0000
0100
0001
0000
0001
,
1000
0100
1000
0000
0001
0100
0010
0000
,
0100
0001
1000
0000
0100
0010
0000
0010
,
0001
1000
0010
0000
1000
0001
0010
0000
,
0100
1000
0001
0000
0100
0010
0100
0000
,
2002
0000
0000
3003
,
1001
1000
0100
0010
,
0011
0001
1000
0001
,
1100
0001
0101
1000
,
0001
1000
0100
0000
0010
0001
1000
0000
,
0002
0000
0000
0000
,
2000
0000
0000
3003
,
1000
0100
0010
0001
,
1000
0001
2002
3003
,
0110
0000
0000
0000
,
0000
0000
0000
0110
,
0001
1000
0010
1000
,
0001
0000
0010
0000
0100
1000
0100
0000
,
1000
0000
0001
0000
1000
0000
0000
0010
,
0000
1000
0001
0010
,
0100
0010
0001
1000
,
0001
1000
1001
0000
,
1000
0000
0100
0000
1000
0000
0000
0010
,
0000
0100
0010
1000
,
0001
0010
0100
1000
,
0010
1000
0001
0010
,
0100
0000
0010
0000
0110
0000
0000
0001
,
0000
1000
1001
0000
,
0001
1000
0100
1000
,
0001
0100
0010
1000
,
2002
0000
0000
0000
,
0000
0000
3003
0000
;

//--------------- dance-single - Fred-104 ----------------
#NOTEDATA:;
#STEPSTYPE:dance-single;
#DESCRIPTION:Fred-104;
#DIFFICULTY:Hard;
#METER:14;
#CREDIT:Fred-104;
#NOTES:
0000
0000
0000
0000
,
0000
0000
0000
0000
,
0000
0000
0000
0000
,
0000
0000
0000
0000
,
0000
0000
0000
0000
,
0000
0000
0000
0000
,
1001
0000
0000
0000
,
0110
0000
1010
0101
,
0001
0010
0100
1000
0001
0100
0010
0000
,
0100
0100
0100
0100
0110
0000
1001
0000
,
0001
1000
0100
0000
0010
0001
1000
0010
,
0000
0001
0010
0100
0010
1000
0001
0010
,
0100
0000
0100
1000
0100
0000
0010
0000
0001
0000
1000
0000
0010
0000
0100
0000
,
0001
0000
1000
0100
1000
0000
0001
0000
0100
0000
0010
0000
1000
0000
0001
0000
,
0010
0100
1000
0000
0001
1000
0010
0100
,
0000
1000
0100
0010
1000
0100
0010
0001
,
1000
0000
1000
0010
1000
0000
0001
0000
0010
0000
0100
0000
1000
0000
0001
0000
,
0100
0100
0010
0010
0100
0000
0110
0000
,
1010
0000
0101
0000
1000
0100
0001
0100
,
0000
0010
0100
0010
0001
1000
0010
1000
,
0001
0000
0001
0100
0001
0000
1000
0000
0100
0000
0010
0000
0001
0000
1000
0000
,
0010
0000
0010
0100
0010
0000
1000
0000
0001
0000
0010
0000
0100
0000
1000
0000
,
1001
0000
0110
0000
1010
1010
0000
0101
,
0000
1100
0100
0010
0001
0001
0011
0000
,
0001
1000
0010
0100
0001
1000
0100
0010
,
0001
0100
0110
1001
,
1000
0000
0100
0000
0010
0000
0001
0000
1000
0010
1000
0010
1000
0000
0001
1000
,
0001
0000
0100
0000
0010
0000
1000
0000
0001
0010
0001
0010
0001
0000
1000
0100
,
1000
0010
0100
0001
1000
0100
1000
0001
,
0100
1000
0100
0001
1001
0000
1001
0000
,
0001
0010
0100
1000
0001
0100
0010
1000
,
0100
0010
0001
1000
0010
0100
0001
1000
,
0100
0010
0100
0010
0001
1000
0010
0000
,
0220
0000
0000
0330
,
0001
0100
1000
0100
0010
1000
0001
1000
,
0100
0010
1000
0010
0001
1000
0010
0100
,
0001
1000
0100
0001
0100
0010
1000
0010
,
0001
0010
0100
1000
0001
0100
0010
1000
,
0001
0010
0100
0001
1000
0010
0100
1000
,
0001
0100
1000
0100
0010
0100
0001
1000
,
0100
0000
0001
0000
0100
0000
0010
0000
0001
0000
1000
0000
0010
1000
0010
0000
,
1000
0000
0001
0000
0010
0000
0100
0010
0100
0000
1000
0000
1100
0000
0000
0000
,
0001
0000
1000
0000
0010
0000
0100
0001
0100
0000
0010
0000
1000
0000
0001
0010
,
0001
0010
0100
1000
0001
0100
0010
1000
,
0001
0010
1000
0010
0100
0010
1000
0010
,
0001
0000
1000
0000
0010
0000
0100
0000
0001
1000
0001
1000
0001
0000
1000
0000
,
0100
0010
0001
1000
0010
0100
0001
1000
,
0001
0010
0100
1000
0001
0100
0010
1000
,
0100
0010
0001
1000
0010
0010
0100
0100
,
0220
0000
0000
0330
,
0001
0010
0100
0000
1000
0001
0000
0100
,
0001
0000
1000
0000
0100
0000
0000
0000
0010
0000
0100
0000
1000
0001
1000
0001
,
1000
0001
0100
0000
0010
1000
0000
0010
,
0100
0000
0001
0000
1000
0000
0000
0000
0100
0000
0010
0000
0001
1000
0001
1000
,
0001
0100
0010
0000
1000
0001
0000
0010
,
0100
0000
1000
0000
0001
0000
0000
0000
0100
0000
0001
0000
1000
0100
1000
0100
,
0010
0000
0001
0000
1000
0000
0000
0000
0001
0000
0100
0000
0001
1000
0001
1000
,
0002
0000
0000
0003
,
1001
1000
0100
0010
,
0011
0001
1000
0001
,
1100
0001
0101
1000
,
0001
0000
1000
0000
0001
0000
1000
0000
0001
1000
0001
1000
0001
1000
0001
1000
,
0002
0000
0000
0000
,
2000
0000
0000
3003
,
1000
0100
0010
0001
1000
0010
0100
0001
,
1000
0000
1000
0000
0001
0000
0001
0000
1000
0000
0001
1000
0001
0000
0000
0000
,
0110
0000
1000
0000
0001
0000
1000
1010
,
0000
0101
0001
1000
1100
0000
0011
0000
,
0001
0000
0001
1000
0001
0000
0100
0000
0010
0000
1000
0000
0001
0000
0010
0000
,
0100
0000
0100
1000
0100
0000
0010
0000
0001
0000
1000
0000
0010
0000
0100
0000
,
0101
0000
1001
0000
1000
0100
0001
0100
,
0000
0010
1000
0010
0100
1000
0001
0100
,
0010
0000
0010
1000
0010
0000
0100
0000
0001
0000
1000
0000
0100
0000
0010
0000
,
0001
0000
1000
0100
1000
0000
1000
0100
1000
0000
0001
0000
1001
0000
0000
0000
,
0110
0000
1001
0000
0001
0010
1000
0010
,
0000
0100
0001
0100
0010
0001
1000
0010
,
1000
0000
1000
0001
1000
0000
0010
0000
0100
0000
0001
0000
1000
0000
0100
0000
,
0010
0000
0010
0001
0010
0000
0001
0000
1000
0000
0010
0000
0100
0000
0001
0000
,
1001
0000
0110
0000
0101
0101
0000
1010
,
0000
0011
0010
0100
1000
1000
1100
0000
,
0001
0100
0010
1000
0100
0010
0001
1000
,
0001
0100
1000
0001
0010
1000
0001
0000
,
2002
0000
0000
0000
,
0000
0000
3003
0000
;

//--------------- dance-single - Fred-104 ----------------
#NOTEDATA:;
#STEPSTYPE:dance-single;
#DESCRIPTION:Fred-104;
#DIFFICULTY:Challenge;
#METER:17;
#CREDIT:Fred-104;
#NOTES:
0000
0000
0000
0000
,
0000
0000
0000
0000
,
0000
0000
0000
0000
,
0000
0000
0000
0000
,
0000
0000
0000
0000
,
0000
0000
0000
0000
,
0011
0000
0000
0000
0001
0000
0000
0000
1000
0000
0000
0010
0000
0000
0100
0000
,
0101
0001
1000
0100
0110
0010
0011
0000
,
0001
0000
1000
0000
0001
0100
0001
0100
0010
1000
0001
1000
0100
0000
0010
0000
,
0100
1000
0001
1000
0010
1000
0001
1000
0100
0000
0100
0000
0110
0000
0000
0000
,
0011
0000
0000
0000
1010
0000
0000
0000
0101
0000
0001
1000
0200
0000
0010
0000
,
0000
0310
0001
1000
0010
0100
0010
1000
,
0100
0000
0100
0010
0100
0000
0001
0000
0100
0000
1000
0001
1000
0000
1000
0000
,
0010
0000
0010
0100
0010
0000
0001
0010
0100
0000
0001
0000
1000
0000
0100
0000
,
0110
0000
0000
0000
0011
0000
0000
0000
1001
0000
0001
1000
0010
0000
0100
0000
,
0110
0100
0001
1000
0100
0010
0001
0100
,
0010
0000
0010
1000
0001
0000
0010
0100
1000
0000
0010
1000
0001
0010
0100
1000
,
0001
0000
1000
0100
0010
0000
0001
0100
0010
0000
0010
0000
0110
0000
0000
0000
,
1010
0000
0000
0000
0101
0000
0000
0000
1001
0000
0001
1000
0020
0000
0100
0000
,
0000
0000
1030
0001
0010
0000
0100
0000
1000
0000
0100
1000
0010
0000
1000
0000
,
0001
0000
0100
0010
0100
0000
1000
0000
0100
0000
0001
1000
0001
0000
0001
0000
,
1000
0000
0100
0001
0100
0000
0010
0100
1000
0000
0001
0000
0100
0000
0010
0000
,
1010
0000
0000
0000
0101
0000
1000
0100
0010
0000
0011
0000
0000
0000
1100
0000
,
0000
0000
0101
0000
0001
0000
1000
0001
0010
0000
0100
0000
1100
0000
0000
0000
,
1000
0100
1000
0000
0001
0010
0001
0000
1000
0010
0100
0001
1000
0010
0100
0001
,
1000
0000
0010
1000
0100
0000
0010
0001
0100
0000
0100
0000
0110
0000
0000
0000
,
0001
0000
0010
0100
1000
0000
0001
1000
0020
0230
0320
0230
0320
0000
2030
3002
,
1003
0000
0100
0000
1000
0000
0001
0100
0020
2030
3020
2030
3020
0000
2030
3002
,
1003
0000
0001
0000
0100
0000
0010
0100
0001
1000
0100
0000
0010
0000
0001
0000
,
1000
0000
0010
1000
0001
0000
0010
0100
2000
3000
2000
3000
0001
1000
0001
1000
,
0001
0000
0010
0000
0100
0000
1000
0001
0100
0001
1000
0000
0100
0000
0010
0001
,
1000
0000
0001
0000
0100
0000
0010
1000
0010
0100
0001
0000
1000
0000
0001
0000
,
1000
0010
1000
0000
0001
0100
0001
0000
1000
0100
0010
0001
0010
0100
1000
0001
,
2000
0000
0000
3000
,
0001
0000
0010
0000
0100
0000
1000
0001
0100
0000
0010
0000
1000
0000
0001
0010
,
0200
2300
3002
2003
3010
0010
0100
0100
,
0001
0010
0100
0001
0100
0010
1000
0010
,
0100
1000
0001
0100
1000
0100
0001
0001
,
1000
0100
0010
1000
0010
0001
1000
0002
,
0203
2300
3200
0302
0013
0010
0100
0100
,
1000
0000
1000
0000
0001
0000
0001
0000
0100
0000
0100
0000
0010
1000
0001
0010
,
0100
0000
1000
0000
0001
0000
0100
0010
1000
0001
0010
0000
0100
0000
1000
0001
,
1000
0000
0001
0000
0100
0000
0010
1000
0001
0000
0010
0100
0010
0000
0001
0000
,
1000
0000
0010
1000
0001
0000
0010
0100
1000
0000
0001
1000
0100
1000
0001
0000
,
0020
0230
2300
3020
0230
2300
3200
0302
,
1003
0000
0100
0010
0001
0000
1000
0100
0010
0000
0001
1000
0010
0100
0001
0000
,
1000
0000
0001
0100
0010
0000
1000
0001
0010
0000
0100
0000
1000
0001
0100
0000
,
0010
0000
1000
0001
0010
0000
0100
1000
0001
0000
0100
0001
1000
0001
0010
0000
,
0100
1000
0001
0000
0100
0001
1000
0000
0001
1000
0001
0010
0100
1000
0001
0100
,
0020
0000
0000
0030
,
1000
0000
0001
0000
1000
0000
0010
0100
0010
0000
1000
0000
0100
0010
0001
0000
,
1000
0000
0010
0000
0100
0000
0001
1000
0100
1000
0001
0000
1000
0010
0100
0001
,
1000
0000
0001
0000
0010
0000
0100
1000
0100
0000
0010
0000
0001
1000
0010
0000
,
1000
0000
0001
0000
0010
0000
0100
1000
0001
1000
0010
0000
0100
0001
1000
0100
,
0010
0000
0001
0000
1000
0000
0001
0100
0001
0100
0001
0000
1000
0001
0010
0000
,
0100
0000
1000
0000
0001
0000
0100
0010
1000
0010
0100
0000
0001
0010
0100
1000
,
0001
0000
0100
0000
0010
0000
1000
0001
1000
0100
0010
0000
0100
1000
0001
0100
,
0020
0000
0000
0030
,
1001
1000
0100
0010
0001
1000
0010
0100
,
0101
0001
1000
0100
0010
0001
1000
0001
,
1000
0010
1000
0010
1000
0010
1000
0010
0100
0001
0100
0001
0100
0001
0100
0001
,
1000
0000
0001
0010
0100
0000
1000
0001
0100
0000
0010
1000
0001
0000
1000
0001
,
0020
0000
0000
0000
,
0130
0010
0100
0010
0100
0010
0100
0010
0100
0010
0100
0010
0100
0010
0100
0010
,
0100
0000
1000
0000
0001
0100
0010
1000
0010
0100
0001
1000
0001
1000
0000
0000
,
0100
0000
0100
0000
0010
0000
0010
0000
0110
0000
0001
1000
0001
0000
0000
0000
,
1001
0000
0001
0000
1000
0000
1100
0101
,
0000
1010
1000
0001
0011
0000
1001
0000
,
0001
0000
0001
0100
0010
0000
0100
0000
1000
0000
0100
0000
0001
0000
1000
0000
,
0100
0000
0100
0010
0100
0000
0001
0100
1000
0000
0001
0000
0100
0000
0010
0000
,
0200
0000
0001
1300
0200
0000
1000
0301
0100
0000
0010
0000
1000
0000
0001
0000
,
1001
0000
1000
0100
0010
0000
0001
0000
1000
0000
0001
0000
0100
0000
0010
0000
,
1000
0001
1000
0001
0010
0100
0010
0100
1000
0001
0100
0010
1000
0001
0100
0010
,
1000
0000
0001
1000
0001
0000
0100
0001
1000
0000
0001
1000
0100
0000
0000
0000
,
0020
0000
0001
1030
0020
0000
1000
0031
0010
0000
0100
0000
1000
0000
0001
0000
,
0100
0000
0010
1000
0001
0010
0100
0000
1000
0000
0010
0000
0001
0000
0010
0000
,
1000
0000
1000
0100
0010
0000
0100
0000
0001
0000
0100
0000
0010
0000
0001
0000
,
1000
0000
0010
0100
0010
0000
0001
0010
0100
0000
0010
0000
1000
0000
0001
0000
,
0011
0000
0000
0000
1100
0000
1000
0001
0100
0000
0110
0000
0000
0000
1010
0000
,
0000
0000
0101
0000
0001
0000
1000
0100
0010
0000
0001
0000
1001
0000
0000
0000
,
0001
0100
0001
0100
0010
1000
0010
1000
0001
0010
0100
1000
0100
0010
0001
1000
,
0010
0000
1000
0100
0010
0000
0001
0100
0010
0000
1000
0001
1000
0000
0000
0000
,
2002
0000
0000
0000
,
0000
0000
3003
0000
;

//--------------- dance-double - Fred-104 ----------------
#NOTEDATA:;
#STEPSTYPE:dance-double;
#DESCRIPTION:Fred-104;
#DIFFICULTY:Easy;
#METER:7;
#CREDIT:Fred-104;
#NOTES:
00000000
00000000
00000000
00000000
,
00000000
00000000
00000000
00000000
,
00000000
00000000
00000000
00000000
,
00000000
00000000
00000000
00000000
,
00000000
00000000
00000000
00000000
,
00000000
00000000
00000000
00000000
,
00011000
00000000
00000000
00000000
,
00011000
00000000
00010000
00001000
,
00010000
00001000
00000100
00000010
,
00000100
00000001
00002002
00003003
,
00000001
00000000
00001000
00000000
00000010
00000000
00000000
00000010
,
00000000
00010000
00001000
00100000
,
00001000
00000000
00010000
00000000
,
01000000
00000000
00100000
00000000
,
00001000
00000000
00010000
00000000
00001000
00000000
00000000
00001000
,
00000000
00010000
00100000
01000000
,
00001000
00000000
00010000
00000000
,
00000100
00000010
00000110
00000000
,
00000001
00000000
00001000
00000000
00000001
00000000
00000000
00000001
,
00000000
00000100
00001000
00010000
,
00001000
00000000
00010000
00000000
,
01000000
00000000
00100000
00001000
,
00010000
00000000
00001000
00000000
01000000
00000000
00000000
00001000
,
00000000
00010000
00000100
00001001
,
00000001
00000100
00000001
00000100
,
00001000
00010000
00011000
00000000
,
00001000
00010000
00200000
00300000
,
01000000
00010000
20000000
30000000
,
01000000
00100000
00002000
00003000
,
00010000
00000100
00000020
00000030
,
00000001
00000100
00001000
00000000
,
00010000
00001000
00010000
00000000
,
00000100
00001000
00000001
00000100
,
00002002
00000000
00000000
00003003
,
00000001
00000000
00000000
00000020
00000000
00000000
00000000
00000000
,
00000130
00000000
00000000
00020000
00000000
00000000
00000000
00000000
,
00031000
00000000
01000000
00000000
00001000
00000000
00000000
00100000
,
00000000
00010000
00000000
00100000
00000000
01000000
00000000
00100000
,
01000000
00000000
00000000
20000000
00000000
00000000
30000000
00000000
,
00010000
00000000
00000000
20000000
00000000
00000000
30000000
00000000
,
01000000
00100000
00001000
00010000
,
00022000
00000000
00000000
00033000
,
00010000
00000000
00000000
00002000
00000000
00000000
00003000
00000000
,
00000010
00000000
00000000
00002000
00000000
00000000
00003000
00000000
,
00010000
00001000
00000100
00000001
,
00000000
00000010
00000000
00000100
00000000
00001000
00000000
00000100
,
00000100
00000000
00000000
00020000
00000000
00000000
00030000
00000000
,
00001000
00000000
00000000
00020000
00000000
00000000
00031000
00000000
,
00100000
00010000
01000000
00001000
,
00022000
00000000
00000000
00033000
,
00001000
00001000
00010000
00100000
,
01000000
00010000
10000000
00000000
,
01000000
01000000
00100000
00010000
,
00100000
00001000
00010000
00000000
,
00010000
00010000
00001000
00000100
,
00000001
00001000
00000010
00000000
,
00010000
00001000
00010000
00001000
,
00022000
00000000
00000000
00033000
,
00011000
00000000
00000000
00000000
,
01100000
00000000
00000000
00000000
,
10010000
00000000
01100000
00000000
,
10000000
01000000
00010000
00001000
,
00022000
00000000
00000000
00000000
,
00033000
00000000
00000000
00000000
,
00010000
00010000
00001000
00001000
,
00000100
00000001
00001001
00000000
,
00000110
00000000
00000000
00000000
,
00000000
00000000
00000000
00001001
,
00000001
00000100
00002000
00003000
,
00010000
00001000
02000000
03000000
,
00010000
00000000
00100000
00000000
01000000
00000000
00000000
01000000
,
00000000
00100000
00010000
10000000
,
00100000
00010000
00002000
00003000
,
00010000
00010000
00011000
00000000
,
00010000
00000000
00000100
00000000
00010000
00000000
00000000
00001000
,
00000000
00010000
00000020
00000030
,
00001000
00000100
00000020
00000030
,
00000001
00001000
00000020
00000030
,
00010000
00000000
00001000
00000000
00010000
00000000
00000000
00010100
,
00000000
00000100
00002002
00003003
,
00000001
00000010
00000100
00010000
,
00001000
00100000
01000000
10000000
,
20020000
00000000
00000000
00000000
,
00000000
00000000
30030000
00000000
;

//--------------- dance-double - Fred-104 ----------------
#NOTEDATA:;
#STEPSTYPE:dance-double;
#DESCRIPTION:Fred-104;
#DIFFICULTY:Medium;
#METER:10;
#CREDIT:Fred-104;
#NOTES:
00000000
00000000
00000000
00000000
,
00000000
00000000
00000000
00000000
,
00000000
00000000
00000000
00000000
,
00000000
00000000
00000000
00000000
,
00000000
00000000
00000000
00000000
,
00000000
00000000
00000000
00000000
,
10010000
00000000
00000000
00000000
,
01100000
00000000
00010000
10000000
,
00100000
00010000
00001000
00010000
,
01000000
00010000
00001000
00010000
00001000
00000000
00011000
00000000
,
00010000
00000000
00001000
00000000
00000100
00000000
00000001
00001000
,
00000000
00000100
00000010
00000001
00001000
00000000
00000010
00000000
,
00000100
00000001
00001000
00000000
00000100
00000000
00010000
00000000
,
01000000
00100000
00010000
00000000
10000000
00000000
00100000
00000000
,
10000000
00000000
00010000
00000000
01000000
00000000
10000000
01000000
,
00000000
00010000
00100000
00000000
01000000
00010000
00001000
00000000
,
00010000
00001000
00010000
00000000
00000100
00000000
00000010
00000000
,
00000001
00001000
00000010
00000000
00010000
00000000
00011000
00000000
,
00001000
00000000
00010000
00000000
00100000
00000000
01000000
00010000
,
00000000
10000000
01000000
00000000
10000000
00000000
00010000
00000000
,
10000000
00100000
00010000
00000000
00001000
00000000
00010000
00000000
,
00100000
10000000
01000000
00000000
00010000
00000000
00001000
00000000
,
00010000
00000000
00000100
00000000
00001000
00000001
00000000
00001001
,
00000000
00000001
00000100
00000000
00001000
00010000
00011000
00000000
,
00001000
00000000
00010000
00000000
00100000
01000000
00010000
00000000
,
10000000
01000000
00100000
00000000
00022000
00000000
00033000
00000000
,
00010000
00001000
00000020
00001030
,
00010000
00001000
00000200
00002300
,
00013000
01000000
00020000
00032000
,
00013000
00100000
00020000
00032000
,
00013000
00000000
00001000
00000000
00000100
00000001
00001000
00000000
,
00000100
00000000
00000010
00000000
00000001
00001000
00000010
00000000
,
00010000
00001000
00100000
00000000
00010000
10000000
00010000
00000000
,
20020000
00000000
00000000
30030000
,
10000000
00000000
01000000
00010000
00000000
01000000
10000000
00000000
,
00010000
00000000
01000000
10000000
00000000
01000000
00001000
00000000
,
00010000
00001000
00000100
00000001
,
00001000
00000100
00000001
00000100
,
00010000
00000000
00001000
00010000
00000000
00100000
10000000
00000000
,
00010000
00000000
00100000
10000000
00000000
00100000
00010000
00000000
,
10000000
00100000
00010000
00001000
,
00010000
00000010
00010000
00000000
00001000
00010000
00011000
00000000
,
00010000
00000000
00001000
00000100
00000000
00000010
00001000
00000000
,
00000100
00000000
00000010
00000001
00000000
00001000
00000010
00000000
,
00000100
00001000
00010000
00001000
,
01000000
00000000
00010000
00000000
00100000
00001000
00100000
00000000
,
00010000
00000000
01000000
00000000
00100000
10000000
00010000
00000000
,
10000000
00000000
01000000
00000000
00100000
00001000
00010000
00000000
,
00000100
00001000
00000010
00000000
00000100
00000001
00000010
00000000
,
00002002
00000000
00000000
00003003
,
00000001
00000100
00000001
00000000
00000100
00001000
00010000
00000000
,
00100000
01000000
00010000
00000000
00100000
01000000
10000000
00000000
,
00100000
10000000
00100000
00000000
00010000
00001000
00010000
00000000
,
00000010
00001000
00000100
00000000
00000010
00000001
00001000
00000000
,
00000010
00010000
00001000
00000000
00100000
00010000
10000000
00000000
,
00100000
01000000
00010000
00000000
10000000
01000000
00010000
00000000
,
00001000
00010000
00001000
00000000
00000100
00000001
00000010
00000000
,
00002002
00000000
00000000
00003003
,
00001001
00000001
00000100
00001000
,
00011000
00010000
00100000
10000000
,
11000000
00010000
01010000
10000000
,
00010000
10000000
01000000
00100000
00001000
00010000
00000100
00000010
,
00000002
00000000
00000000
00000000
,
00002000
00000000
00000000
00003003
,
00000001
00000100
00001000
00010000
,
00001000
00010000
00001000
01000000
00100000
00000000
10000000
00000000
,
10010000
00000000
00000000
00000000
,
00000000
00000000
00000000
00011000
,
00010000
00001000
00010000
00000000
00000100
00000000
00001000
00000000
,
00000100
00000010
00000001
00000000
00000100
00000010
00001000
00000000
,
00000001
00000000
00000100
00000000
00001000
00000000
00010000
00001000
,
00000000
00100000
00001000
00000000
00010000
00100000
01000000
00000000
,
00010000
00100000
01000000
00000000
10000000
00000000
00100000
00000000
,
00010000
00001000
00010000
00001000
00010000
00000000
00011000
00000000
,
00010000
00000000
00000100
00000000
00001000
00000000
00000001
00000100
,
00000000
00000010
00000100
00000000
00000001
00000000
00000010
00000000
,
00000100
00001000
00000100
00000000
00010000
00000000
00001000
00000000
,
00100000
01000000
10000000
00000000
00100000
01000000
00010000
00000000
,
10000000
00000000
01000000
00000000
01100000
00000000
00000000
00001000
,
00000000
00010000
00011000
00000000
,
00010000
00001000
00010000
00000000
00001000
00000100
00001000
00000000
,
00000100
00000001
00000010
00000110
,
00002002
00000000
00000000
00000000
,
00000000
00000000
00003003
00000000
;

//--------------- dance-double - Fred-104 ----------------
#NOTEDATA:;
#STEPSTYPE:dance-double;
#DESCRIPTION:Fred-104;
#DIFFICULTY:Hard;
#METER:14;
#CREDIT:Fred-104;
#NOTES:
00000000
00000000
00000000
00000000
,
00000000
00000000
00000000
00000000
,
00000000
00000000
00000000
00000000
,
00000000
00000000
00000000
00000000
,
00000000
00000000
00000000
00000000
,
00000000
00000000
00000000
00000000
,
00001001
00000000
00000000
00000000
,
00000110
00000000
00011000
00101000
,
00001000
00010000
00100000
01000000
00010000
00100000
01000000
00010000
,
00001000
00001000
00001000
00001000
00011000
00000000
01100000
00000000
,
00010000
01000000
00100000
00000000
10000000
01000000
00100000
00001000
,
00000000
00010000
00001000
00000100
00000010
00001000
00000100
00000000
,
00000010
00000001
00000100
00001000
00010000
00100000
01000000
01000000
,
00010000
00100000
01000000
10000000
00100000
00010000
00001000
00000000
,
00010000
00000010
00000100
00000000
00001000
00010000
00100000
01000000
,
00000000
00010000
00100000
01000000
00010000
00001000
00000010
00000100
,
00001000
00000001
00000100
00001000
00010000
00100000
01000000
00001000
,
00010000
00010000
00001000
00001000
00010000
00001000
00011000
00000000
,
00010000
00001000
00000100
00000000
00000010
00001000
00000100
00000010
,
00000000
00000001
00000100
00000010
00000100
00001000
00010000
00001000
,
01000000
00000000
00010000
10000000
00010000
00000000
00100000
00000000
01000000
00000000
10000000
00000000
01000000
00000000
00100000
00000000
,
00001000
00000000
00010000
00000010
00010000
00000000
00000010
00000000
00001000
00000000
00000100
00000000
00000010
00000000
00000001
00000000
,
00000011
00000000
00001010
00000000
00000101
00001100
00000000
00010100
,
00000000
00011000
00001000
00010000
00100000
10000000
11000000
00000000
,
00010000
01000000
10000000
01000000
00010000
10000000
01000000
00010000
,
00001000
00000000
00001000
00000000
00010000
00000000
00010000
00000000
00001000
00000000
00010000
00001000
00010000
00000000
00000000
00000000
,
00001000
00000000
01000000
00000000
00010000
00000000
00100000
00000000
01000000
00100000
01000000
00100000
00010000
00000000
00100000
00000000
,
00001000
00000000
00010000
00000000
00001000
00000000
00000100
00000000
00000010
00000100
00000010
00000100
00000010
00000000
00010000
00000000
,
00001000
00010000
01000000
00100000
01000000
00010000
00001000
00000010
,
00000100
00000010
00001000
00010000
00011000
00000000
00011000
00000000
,
00001000
01000000
00010000
01000000
00010000
00100000
01000000
10000000
,
00100000
00010000
00001000
01000000
00100000
00010000
00001000
00000100
,
00000010
00001000
00000100
00000010
00000001
00000100
00001000
00010000
,
00022000
00000000
00000000
00033000
,
00001000
00010000
00100000
01000000
00000000
10000000
01000000
00010000
,
10000000
01000000
00010000
00001000
00000100
00000001
00001000
00000000
,
00000001
00000010
00000100
00000010
00001000
00000010
00000100
00001000
,
00000000
00000001
00000100
00001000
00010000
00100000
01000000
00010000
,
10000000
01000000
00100000
00001000
00000000
00010000
00001000
00000100
,
00000010
00000001
00000010
00001000
00000000
00000001
00000010
00000100
,
00010000
00001000
00000100
00001000
00010000
00001000
01000000
00010000
,
00100000
00000000
01000000
00000000
10000000
00000000
00100000
01000000
00100000
00000000
10000000
00000000
00010000
00100000
00010000
00100000
,
00010000
10000000
00100000
00010000
00001000
01000000
00010000
00000100
,
00000010
00001000
00000100
00000010
00000001
00001000
00000010
00000100
,
00001000
00010000
00100000
01000000
00100000
10000000
00010000
00100000
,
01000000
00100000
00001000
00010000
00000010
00001000
00000001
00001000
,
00000010
00000100
00000010
00001000
00000001
00000010
00010000
00001000
,
01000000
10000000
00010000
01000000
00001000
00010000
01000000
10000000
,
00010000
00000000
01000000
00000000
00010000
00000000
00100000
00000000
01000000
00000000
00010000
00000000
00001000
00010000
00001000
00010000
,
00002000
00000000
00000000
00003000
,
00010000
00001000
00010000
00000000
00000100
00000100
00000000
00000010
,
00000001
00000000
00001000
00000000
00000010
00000000
00000100
00000000
00001000
00000000
00010000
00000000
00001000
01000000
00001000
01000000
,
00001000
00010000
00001000
00000000
00100000
00100000
00000000
00010000
,
10000000
00000000
00100000
00000000
01000000
00000000
00100000
00000000
10000000
00000000
01000000
00000000
00100000
00010000
00100000
00010000
,
00100000
00001000
00010000
00000000
00000010
00000010
00000000
00000100
,
00001000
00000000
00010000
00000000
01000000
00000000
00100000
00000000
00010000
00000000
00100000
00000000
00001000
00010000
00001000
00010000
,
00001000
00000000
00010000
00000000
00100000
00000000
01000000
00000000
00010000
00000000
10000000
00000000
01000000
00100000
01000000
00100000
,
02000000
00000000
00000000
03000000
,
10010000
10000000
01000000
00010000
,
00011000
00001000
00000100
00000001
,
00000011
00001000
00000101
00001000
,
00000001
00000000
00000100
00000000
00001000
00000000
00010000
00000000
00001000
00010000
00001000
00010000
00001000
00010000
00001000
00010000
,
00002000
00000000
00000000
00000000
,
00020000
00000000
00000000
00033000
,
00001000
00001000
00010000
00010000
00100000
00100000
10000000
10000000
,
01000000
00000000
01000000
00000000
00100000
00000000
00100000
00000000
00001000
00000000
00010000
00001000
00010000
00000000
00000000
00000000
,
00011000
00000000
00000100
00000000
00000001
00000000
00000010
00000110
,
00000000
00010000
00001000
00100000
00101000
00000000
10010000
00000000
,
00010000
00000000
01000000
00100000
01000000
00000000
00010000
00000000
10000000
00000000
01000000
00000000
00100000
00000000
00001000
00000000
,
00010000
00000000
00001000
00010000
00001000
00000000
00010000
00000000
00100000
00000000
01000000
00000000
00010000
00000000
10000000
00000000
,
11000000
00000000
01010000
00000000
10000000
00100000
00010000
00001000
,
00000000
00010000
00001000
00000010
00000100
00000010
00000001
00001000
,
00000010
00000000
00000100
00000001
00000100
00000000
00000001
00000000
00000010
00000000
00000100
00000000
00010000
00000000
00001000
00000000
,
00010000
00000000
00001000
00100000
00001000
00000000
00001000
00100000
00001000
00000000
00000000
00000000
00011000
00000000
00000000
00000000
,
01001000
00000000
00010100
00000000
00010000
00000100
00001000
00000010
,
00000000
00000100
00001000
00010000
00100000
01000000
00010000
10000000
,
01000000
00000000
00100000
00010000
00100000
00000000
00001000
00000000
00010000
00000000
00000010
00000000
00001000
00000000
00000010
00000000
,
00000100
00000000
00000001
00000010
00000001
00000000
00000010
00000000
00000100
00000000
00010000
00000000
00001000
00000000
00000000
00000000
,
00011000
00000000
01001000
00000000
01000000
01010000
00000000
10010000
,
00000000
10000000
01000000
00100000
00001000
00010000
00011000
00000000
,
00010000
00001000
00000100
00000001
00001000
00000100
00000010
00001000
,
00010000
01000000
00100000
00010000
01000000
00010000
00100000
00000000
,
00022000
00000000
00000000
00000000
,
00000000
00000000
00033000
00000000
;

//--------------- dance-double - Fred-104 ----------------
#NOTEDATA:;
#STEPSTYPE:dance-double;
#DESCRIPTION:Fred-104;
#DIFFICULTY:Challenge;
#METER:17;
#CREDIT:Fred-104;
#NOTES:
00000000
00000000
00000000
00000000
,
00000000
00000000
00000000
00000000
,
00000000
00000000
00000000
00000000
,
00000000
00000000
00000000
00000000
,
00000000
00000000
00000000
00000000
,
00000000
00000000
00000000
00000000
,
00011000
00000000
00000000
00000000
00001000
00000000
00000000
00000000
00010000
00000000
00000000
00100000
00000000
00000000
10000000
00000000
,
11000000
01000000
00100000
00001000
00011000
00000000
00010010
00000000
,
00010000
00000000
00001000
00000000
00000100
00000000
00000001
00000000
00001000
00000100
00001000
00000100
00000010
00000000
00000001
00000000
,
00001000
00000001
00001000
00000010
00010000
00001000
00100000
00001000
00010000
00000000
00010000
00000000
00011000
00000000
00000000
00000000
,
00101000
00000000
00000000
00000000
00010010
00000000
00000000
00000000
00011000
00000000
00001000
00010000
00200000
00000000
10000000
00000000
,
00000000
10300000
00010000
10000000
01000000
00100000
00001000
00010000
,
00001000
00000000
00001000
00000100
00001000
00000000
00000100
00000000
00000001
00000000
00001000
00000000
00000100
00000000
00000010
00000000
,
00000001
00000000
00001000
00000010
00001000
00000000
00000100
00000010
00000100
00000000
00010000
00000000
01000000
00000000
00100000
00000000
,
00110000
00000000
00000000
00000000
10100000
00000000
00000000
00000000
01010000
00000000
10000000
01000000
00200000
00000000
00001000
00000000
,
00000000
00301000
00010000
00001000
00000010
00000001
00000010
00000100
,
00001000
00000000
00000001
00000100
00000010
00000000
00000100
00001000
00010000
00000000
00001000
01000000
00001000
00000000
00010000
00000000
,
00001000
00000000
00100000
00001000
00010000
00000000
00001000
00100000
00010000
00000000
00000000
00000000
10010000
00000000
00000000
00000000
,
10100000
00000000
00000000
00000000
01010000
00000000
00000000
00000000
11000000
00000000
10000000
00010000
00200000
00000000
00001000
00000000
,
00000000
00000000
00301000
00000000
00010000
00000000
00100000
00000000
01000000
00000000
00010000
00100000
01000000
00000000
10000000
00000000
,
00010000
00000000
01000000
00100000
00010000
00000000
00001000
00000000
00000100
00000000
00000010
00001000
00000001
00000000
00000010
00000000
,
00000100
00000000
00001000
00000100
00010000
00000000
00001000
01000000
00010000
00000000
01000000
00000000
00001000
00000000
00010000
00000000
,
00011000
00000000
00000000
00000000
00010010
00000000
00010000
00001000
00010000
00000000
00011000
00000000
00000000
00000000
00101000
00000000
,
00000000
00000000
00010100
00000000
00010000
00000000
00001000
01000000
00001000
00000000
00010000
00000000
00011000
00000000
00000000
00000000
,
00001000
00000000
00010000
00000000
00100000
00000000
10000000
00000000
01000000
00100000
01000000
00100000
00001000
00010000
00000010
00001000
,
00000100
00000000
00010000
00001000
01000000
00000000
00010000
00100000
00001000
00000000
00010000
00000000
00011000
00000000
00000000
00000000
,
00000010
00000000
00001000
00000001
00000010
00000000
00000100
00010000
00002000
00023000
00032000
00023000
00032000
00000000
00023000
00230000
,
10300000
00000000
00100000
00000000
01000000
00000000
00010000
10000000
02000000
03200000
02300000
03200000
02300000
00000000
03200000
00302000
,
00013000
00000000
00001000
00000000
00000010
00000000
00000100
00001000
00000100
00010000
00001000
00000000
01000000
00000000
00001000
00000000
,
00000100
00000000
00000010
00001000
00000001
00000000
00000010
00000100
00002000
00003000
00002000
00003000
00000001
00001000
00000001
00001000
,
00000001
00000000
00000100
00000000
00001000
00000000
00010000
00001000
00010000
00001000
00010000
00000000
00100000
00000000
01000000
00000000
,
00010000
00000000
10000000
00000000
01000000
00000000
10000000
00010000
10000000
00010000
10000000
00000000
00100000
00000000
00010000
00000000
,
00001000
00000000
00000100
00000000
00000010
00000000
00001000
00000000
00000100
00010000
00001000
00100000
00010000
01000000
00001000
00010000
,
00002000
00000000
00000000
00003000
,
00010000
00001000
00000100
00001000
00010000
00001000
01000000
00020000
,
00032000
00023000
02030000
03002000
00013000
00001000
00000100
00000010
,
00001000
00000100
00000010
00000100
00001000
00010000
00100000
00010000
,
00001000
00010000
01000000
00001000
00010000
01000000
00100000
00010000
,
01000000
00100000
00010000
00001000
00000010
00000100
00010000
00002000
,
00003200
00000320
00002030
00003200
00001300
00010000
00001000
00000010
,
00001000
00000000
00010000
00000000
01000000
00000000
00001000
00000000
01000000
00000000
00010000
00000000
00100000
00010000
00100000
01000000
,
00100000
00000000
00001000
00000000
00010000
00000000
00001000
00000100
00000010
00000100
00000010
00000000
00001000
00000000
00000100
00000010
,
00001000
00000000
00010000
00000000
00001000
00000000
00010000
00001000
00010000
00000000
00000100
00000000
00010000
00000000
00001000
01000000
,
00010000
00000000
00100000
01000000
00100000
00000000
00010000
01000000
00100000
00000000
01000000
00010000
01000000
00000000
00001000
00000000
,
00100000
01000000
00010000
00001000
01000000
00100000
00010000
00001000
,
00010000
00000000
00001000
00000010
00000100
00000000
00001000
00000010
00000100
00000000
00000010
00001000
00000100
00001000
00000010
00000000
,
00010000
00000000
00001000
00010000
00000010
00000000
00000100
00000000
00000001
00000000
00000100
00000000
00001000
01000000
00010000
00000000
,
01000000
00000000
00010000
00100000
10000000
00000000
00100000
00010000
01000000
00000000
00010000
01000000
00001000
00000000
00100000
00000000
,
00001000
00000000
00000010
00000000
00000100
00000000
00001000
00000000
00010000
00100000
01000000
00100000
00010000
01000000
00100000
10000000
,
00020000
00000000
00000000
00030000
,
10000000
00000000
01000000
00000000
00010000
00000000
00001000
00010000
00001000
00000000
00000100
00000000
00000001
00001000
00000100
00000000
,
00000010
00000000
00000001
00000000
00001000
00000000
00000010
00000100
00000010
00000100
00001000
00000000
00010000
00001000
01000000
00001000
,
00010000
00000000
00001000
00000000
00010000
00000000
01000000
00100000
00010000
00000000
00100000
00000000
01000000
10000000
00010000
00000000
,
10000000
00000000
00100000
00000000
00010000
00000000
00001000
00010000
00001000
01000000
00001000
00000000
00010000
00000100
00001000
00000100
,
00000010
00000000
00000001
00000000
00001000
00000000
00000010
00001000
00000010
00001000
00000100
00000000
00010000
00001000
01000000
00000000
,
00010000
00000000
00100000
00000000
01000000
00000000
10000000
00010000
01000000
00010000
10000000
00000000
01000000
00100000
00010000
00100000
,
00001000
00000000
00010000
00000000
00001000
00000000
00000100
00000001
00000100
00000001
00001000
00000000
00000001
00000010
00000100
00010000
,
00002000
00000000
00000000
00003000
,
00011000
00010000
00001000
00000100
00000010
00000001
00000010
00001000
,
00001001
00000001
00000010
00001000
00010000
01000000
00100000
00010000
,
10000000
00010000
01000000
00000000
00001000
00010000
00001000
00000000
00010000
00000100
00010000
00000100
00001000
00000001
00000100
00000001
,
00001000
00000000
00000001
00000100
00000010
00000000
00001000
00000010
00010000
00000000
00001000
01000000
00010000
00000000
00100000
01000000
,
20000000
00000000
00000000
00000000
,
30010000
10000000
00010000
10000000
00010000
10000000
00010000
10000000
00010000
10000000
00010000
10000000
00010000
10000000
00010000
10000000
,
00010000
00000000
10000000
00000000
01000000
00100000
00000000
00100000
00001000
00010000
00000000
00010000
00000100
00001000
00000001
00000000
,
00000100
00000000
00000100
00000000
00000010
00000000
00000010
00000000
00000110
00000000
00000001
00001000
00000001
00000000
00000000
00000000
,
00000110
00000000
00000001
00000000
00000100
00000000
00001000
00011000
,
00000000
00110000
00100000
10000000
10010000
00000000
01100000
00000000
,
10000000
00000000
01000000
00100000
01000000
00000000
00100000
00000000
00001000
00000000
00010000
00000000
00100000
00000000
00010000
00000000
,
00001000
00000000
00010000
00000100
00001000
00000000
00000100
00000010
00000001
00000000
00000100
00000000
00001000
00000000
00010000
00000000
,
00011000
00000000
00000000
00000000
01001000
00000000
00000000
00000000
00001000
00000000
00010000
00000100
00002000
00000000
00000010
00000000
,
00000000
00003010
00000100
00000001
00000010
00000100
00010000
00001000
,
01000000
00010000
01000000
00000000
00100000
10000000
00100000
00000000
01000000
00010000
10000000
01000000
00100000
00010000
00100000
00001000
,
00010000
00000000
00010000
00000000
00001000
00000000
00001000
00000000
00011000
00000000
00010000
00001000
00010000
00000000
00000000
00000000
,
00002000
00000000
00010000
00003100
00002000
00000000
00000100
00013000
00001000
00000000
00010000
00000000
00200000
00000000
01000000
00000000
,
00000000
00000000
01300000
00000000
00010000
10000000
01000000
00000000
00100000
00000000
00001000
00000000
00010000
00000000
00001000
00000000
,
00000100
00000000
00000010
00001000
00000100
00000000
00001000
00000000
00010000
00000000
00100000
00000000
01000000
00000000
10000000
00000000
,
00010000
00000000
01000000
00100000
00010000
00000000
00001000
00000100
00000010
00000000
00001000
00000000
00000100
00000000
00000010
00000000
,
00000011
00000000
00000000
00000000
00001010
00000000
00001000
00000001
00000010
00000000
00000110
00000000
00000000
00000000
00011000
00000000
,
00000000
00000000
01100000
00000000
01000000
00000000
00010000
10000000
01000000
00000000
00100000
00000000
00110000
00000000
00000000
00000000
,
00001000
00010000
00001000
00000000
00010000
00000010
00010000
00000000
00000010
00001000
00000001
00000100
00000010
00001000
00000100
00000010
,
00000001
00000000
00000100
00001000
00010000
00000000
00100000
10000000
00010000
00000000
00100000
00000000
01000000
00000000
00000000
00000000
,
20020000
00000000
00000000
00000000
,
00000000
00000000
30030000
00000000
;
